  0
SECTION
  2
HEADER
  9
$ACADVER
  1
AC1012
  9
$DWGCODEPAGE
  3
ansi_1252
  9
$INSBASE
 10
0.0
 20
0.0
 30
0.0
  9
$EXTMIN
 10
25.4
 20
15.875
 30
0.0
  9
$EXTMAX
 10
813.97907
 20
519.368925
 30
0.0
  9
$LIMMIN
 10
0.0
 20
0.0
  9
$LIMMAX
 10
812.0
 20
533.0
  9
$ORTHOMODE
 70
     1
  9
$REGENMODE
 70
     1
  9
$FILLMODE
 70
     1
  9
$QTEXTMODE
 70
     0
  9
$MIRRTEXT
 70
     1
  9
$DRAGMODE
 70
     2
  9
$LTSCALE
 40
10.0
  9
$OSMODE
 70
     1
  9
$ATTMODE
 70
     1
  9
$TEXTSIZE
 40
3.0
  9
$TRACEWID
 40
0.05
  9
$TEXTSTYLE
  7
STANDARD
  9
$CLAYER
  8
DIM
  9
$CELTYPE
  6
BYLAYER
  9
$CECOLOR
 62
   256
  9
$CELTSCALE
 40
1.0
  9
$DELOBJ
 70
     1
  9
$DISPSILH
 70
     0
  9
$DIMSCALE
 40
25.4
  9
$DIMASZ
 40
0.18
  9
$DIMEXO
 40
0.0625
  9
$DIMDLI
 40
0.38
  9
$DIMRND
 40
0.0
  9
$DIMDLE
 40
0.0
  9
$DIMEXE
 40
0.18
  9
$DIMTP
 40
0.03
  9
$DIMTM
 40
0.03
  9
$DIMTXT
 40
0.18
  9
$DIMCEN
 40
0.09
  9
$DIMTSZ
 40
0.0
  9
$DIMTOL
 70
     1
  9
$DIMLIM
 70
     0
  9
$DIMTIH
 70
     1
  9
$DIMTOH
 70
     1
  9
$DIMSE1
 70
     0
  9
$DIMSE2
 70
     1
  9
$DIMTAD
 70
     0
  9
$DIMZIN
 70
     0
  9
$DIMBLK
  1

  9
$DIMASO
 70
     1
  9
$DIMSHO
 70
     1
  9
$DIMPOST
  1
mm
  9
$DIMAPOST
  1
"
  9
$DIMALT
 70
     1
  9
$DIMALTD
 70
     3
  9
$DIMALTF
 40
0.03937
  9
$DIMLFAC
 40
1.0
  9
$DIMTOFL
 70
     0
  9
$DIMTVP
 40
0.0
  9
$DIMTIX
 70
     0
  9
$DIMSOXD
 70
     0
  9
$DIMSAH
 70
     0
  9
$DIMBLK1
  1

  9
$DIMBLK2
  1

  9
$DIMSTYLE
  2
STANDARD
  9
$DIMCLRD
 70
     0
  9
$DIMCLRE
 70
     0
  9
$DIMCLRT
 70
     0
  9
$DIMTFAC
 40
1.0
  9
$DIMGAP
 40
0.09
  9
$DIMJUST
 70
     0
  9
$DIMSD1
 70
     0
  9
$DIMSD2
 70
     0
  9
$DIMTOLJ
 70
     1
  9
$DIMTZIN
 70
     0
  9
$DIMALTZ
 70
     0
  9
$DIMALTTZ
 70
     0
  9
$DIMFIT
 70
     0
  9
$DIMUPT
 70
     0
  9
$DIMUNIT
 70
     2
  9
$DIMDEC
 70
     2
  9
$DIMTDEC
 70
     2
  9
$DIMALTU
 70
     2
  9
$DIMALTTD
 70
     3
  9
$DIMTXSTY
  7
STANDARD
  9
$DIMAUNIT
 70
     0
  9
$LUNITS
 70
     2
  9
$LUPREC
 70
     4
  9
$SKETCHINC
 40
0.1
  9
$FILLETRAD
 40
0.0
  9
$AUNITS
 70
     0
  9
$AUPREC
 70
     0
  9
$MENU
  1
C:\CIM\ACAD
  9
$ELEVATION
 40
0.0
  9
$PELEVATION
 40
0.0
  9
$THICKNESS
 40
0.0
  9
$LIMCHECK
 70
     0
  9
$BLIPMODE
 70
     1
  9
$CHAMFERA
 40
0.0
  9
$CHAMFERB
 40
0.0
  9
$CHAMFERC
 40
0.0
  9
$CHAMFERD
 40
0.0
  9
$SKPOLY
 70
     0
  9
$TDCREATE
 40
2450030.500736111
  9
$TDUPDATE
 40
2450526.490689756
  9
$TDINDWG
 40
0.1207127894
  9
$TDUSRTIMER
 40
0.1207127894
  9
$USRTIMER
 70
     1
  9
$ANGBASE
 50
0.0
  9
$ANGDIR
 70
     0
  9
$PDMODE
 70
     0
  9
$PDSIZE
 40
0.0
  9
$PLINEWID
 40
0.0
  9
$COORDS
 70
     1
  9
$SPLFRAME
 70
     0
  9
$SPLINETYPE
 70
     6
  9
$SPLINESEGS
 70
     8
  9
$ATTDIA
 70
     0
  9
$ATTREQ
 70
     1
  9
$HANDLING
 70
     1
  9
$HANDSEED
  5
FA7
  9
$SURFTAB1
 70
     6
  9
$SURFTAB2
 70
     6
  9
$SURFTYPE
 70
     6
  9
$SURFU
 70
     6
  9
$SURFV
 70
     6
  9
$UCSNAME
  2

  9
$UCSORG
 10
0.0
 20
0.0
 30
0.0
  9
$UCSXDIR
 10
1.0
 20
0.0
 30
0.0
  9
$UCSYDIR
 10
0.0
 20
1.0
 30
0.0
  9
$PUCSNAME
  2

  9
$PUCSORG
 10
0.0
 20
0.0
 30
0.0
  9
$PUCSXDIR
 10
1.0
 20
0.0
 30
0.0
  9
$PUCSYDIR
 10
0.0
 20
1.0
 30
0.0
  9
$USERI1
 70
     0
  9
$USERI2
 70
     0
  9
$USERI3
 70
     0
  9
$USERI4
 70
     0
  9
$USERI5
 70
     0
  9
$USERR1
 40
0.0
  9
$USERR2
 40
0.0
  9
$USERR3
 40
0.0
  9
$USERR4
 40
0.0
  9
$USERR5
 40
0.0
  9
$WORLDVIEW
 70
     1
  9
$SHADEDGE
 70
     3
  9
$SHADEDIF
 70
    70
  9
$TILEMODE
 70
     1
  9
$MAXACTVP
 70
    16
  9
$PINSBASE
 10
0.0
 20
0.0
 30
0.0
  9
$PLIMCHECK
 70
     0
  9
$PEXTMIN
 10
1.000000E+20
 20
1.000000E+20
 30
1.000000E+20
  9
$PEXTMAX
 10
-1.000000E+20
 20
-1.000000E+20
 30
-1.000000E+20
  9
$PLIMMIN
 10
0.0
 20
0.0
  9
$PLIMMAX
 10
12.0
 20
9.0
  9
$UNITMODE
 70
     0
  9
$VISRETAIN
 70
     0
  9
$PLINEGEN
 70
     0
  9
$PSLTSCALE
 70
     1
  9
$TREEDEPTH
 70
  3020
  9
$PICKSTYLE
 70
     1
  9
$CMLSTYLE
  2
STANDARD
  9
$CMLJUST
 70
     0
  9
$CMLSCALE
 40
1.0
  9
$SAVEIMAGES
 70
     0
  0
ENDSEC
  0
SECTION
  2
CLASSES
  0
ENDSEC
  0
SECTION
  2
TABLES
  0
TABLE
  2
VPORT
  5
8
100
AcDbSymbolTable
 70
     2
  0
VPORT
  5
FA6
100
AcDbSymbolTableRecord
100
AcDbViewportTableRecord
  2
*ACTIVE
 70
     0
 10
0.0
 20
0.0
 11
1.0
 21
1.0
 12
428.722359
 22
267.621963
 13
0.0
 23
0.0
 14
1.0
 24
1.0
 15
10.0
 25
10.0
 16
0.0
 26
0.0
 36
1.0
 17
0.0
 27
0.0
 37
0.0
 40
503.493925
 41
1.602094
 42
50.0
 43
0.0
 44
0.0
 50
0.0
 51
0.0
 71
     0
 72
   100
 73
     1
 74
     0
 75
     0
 76
     1
 77
     0
 78
     0
  0
ENDTAB
  0
TABLE
  2
LTYPE
  5
5
100
AcDbSymbolTable
 70
     3
  0
LTYPE
  5
14
100
AcDbSymbolTableRecord
100
AcDbLinetypeTableRecord
  2
BYBLOCK
 70
     0
  3

 72
    65
 73
     0
 40
0.0
  0
LTYPE
  5
15
100
AcDbSymbolTableRecord
100
AcDbLinetypeTableRecord
  2
BYLAYER
 70
     0
  3

 72
    65
 73
     0
 40
0.0
  0
LTYPE
  5
16
100
AcDbSymbolTableRecord
100
AcDbLinetypeTableRecord
  2
CONTINUOUS
 70
    64
  3
Solid line
 72
    65
 73
     0
 40
0.0
  0
LTYPE
  5
24
100
AcDbSymbolTableRecord
100
AcDbLinetypeTableRecord
  2
CENTER
 70
    64
  3
____ _ ____ _ ____ _ ____ _ ____ _ ____ _ ____ 
 72
    65
 73
     4
 40
2.0
 49
1.25
 74
     0
 49
-0.25
 74
     0
 49
0.25
 74
     0
 49
-0.25
 74
     0
  0
LTYPE
  5
26
100
AcDbSymbolTableRecord
100
AcDbLinetypeTableRecord
  2
HIDDEN
 70
    64
  3
__ __ __ __ __ __ __ __ __ __ __ __ __ __ __ __
 72
    65
 73
     2
 40
0.375
 49
0.25
 74
     0
 49
-0.125
 74
     0
  0
ENDTAB
  0
TABLE
  2
LAYER
  5
2
100
AcDbSymbolTable
 70
     9
  0
LAYER
  5
F
100
AcDbSymbolTableRecord
100
AcDbLayerTableRecord
  2
0
 70
     0
 62
     7
  6
CONTINUOUS
  0
LAYER
  5
23
100
AcDbSymbolTableRecord
100
AcDbLayerTableRecord
  2
CENTER
 70
    64
 62
     1
  6
CENTER
  0
LAYER
  5
29
100
AcDbSymbolTableRecord
100
AcDbLayerTableRecord
  2
DIM
 70
    64
 62
     3
  6
CONTINUOUS
  0
LAYER
  5
2A
100
AcDbSymbolTableRecord
100
AcDbLayerTableRecord
  2
TEXT
 70
    64
 62
     7
  6
CONTINUOUS
  0
LAYER
  5
48
100
AcDbSymbolTableRecord
100
AcDbLayerTableRecord
  2
BEAMS-A
 70
    64
 62
     7
  6
CONTINUOUS
  0
LAYER
  5
6F
100
AcDbSymbolTableRecord
100
AcDbLayerTableRecord
  2
BORDER
 70
    64
 62
     6
  6
CONTINUOUS
  0
LAYER
  5
FC
100
AcDbSymbolTableRecord
100
AcDbLayerTableRecord
  2
DEFPOINTS
 70
    64
 62
     7
  6
CONTINUOUS
  0
LAYER
  5
99A
100
AcDbSymbolTableRecord
100
AcDbLayerTableRecord
  2
KEVLAR
 70
    64
 62
     7
  6
CONTINUOUS
  0
LAYER
  5
E4F
100
AcDbSymbolTableRecord
100
AcDbLayerTableRecord
  2
C-FIBER
 70
    64
 62
     5
  6
CONTINUOUS
  0
ENDTAB
  0
TABLE
  2
STYLE
  5
3
100
AcDbSymbolTable
 70
     3
  0
STYLE
  5
10
100
AcDbSymbolTableRecord
100
AcDbTextStyleTableRecord
  2
STANDARD
 70
    64
 40
0.0
 41
1.0
 50
0.0
 71
     0
 42
3.0
  3
txt
  4

  0
STYLE
  5
28
100
AcDbSymbolTableRecord
100
AcDbTextStyleTableRecord
  2
CIM_TB
 70
    64
 40
0.0
 41
1.0
 50
0.0
 71
     0
 42
0.2
  3
romans
  4

  0
STYLE
  5
70
100
AcDbSymbolTableRecord
100
AcDbTextStyleTableRecord
  2
ADESK2
 70
    64
 40
0.0
 41
1.0
 50
0.0
 71
     0
 42
0.065
  3
romans
  4

  0
ENDTAB
  0
TABLE
  2
VIEW
  5
6
100
AcDbSymbolTable
 70
     0
  0
ENDTAB
  0
TABLE
  2
UCS
  5
7
100
AcDbSymbolTable
 70
     1
  0
UCS
  5
2D
100
AcDbSymbolTableRecord
100
AcDbUCSTableRecord
  2
CIM_TB_HOLD
 70
     0
 10
0.0
 20
0.0
 30
0.0
 11
1.0
 21
0.0
 31
0.0
 12
0.0
 22
1.0
 32
0.0
  0
ENDTAB
  0
TABLE
  2
APPID
  5
9
100
AcDbSymbolTable
 70
     2
  0
APPID
  5
11
100
AcDbSymbolTableRecord
100
AcDbRegAppTableRecord
  2
ACAD
 70
     0
  0
APPID
  5
22
100
AcDbSymbolTableRecord
100
AcDbRegAppTableRecord
  2
TB_S_MPD
 70
     0
  0
ENDTAB
  0
TABLE
  2
DIMSTYLE
  5
A
100
AcDbSymbolTable
 70
     5
  0
DIMSTYLE
105
1D
100
AcDbSymbolTableRecord
100
AcDbDimStyleTableRecord
  2
STANDARD
 70
     0
  3

  4

  5

  6

  7

 40
1.0
 41
0.18
 42
0.0625
 43
0.38
 44
0.18
 45
0.0
 46
0.0
 47
0.0
 48
0.0
140
0.18
141
0.09
142
0.0
143
25.4
144
1.0
145
0.0
146
1.0
147
0.09
 71
     0
 72
     0
 73
     1
 74
     1
 75
     0
 76
     0
 77
     0
 78
     0
170
     0
171
     2
172
     0
173
     0
174
     0
175
     0
176
     0
177
     0
178
     0
270
     2
271
     3
272
     4
273
     2
274
     2
340
10
275
     0
280
     0
281
     0
282
     0
283
     1
284
     0
285
     0
286
     0
287
     0
288
     0
  0
DIMSTYLE
105
2B
100
AcDbSymbolTableRecord
100
AcDbDimStyleTableRecord
  2
STANDARD$4
 70
     0
  3

  4

  5

  6

  7

 40
1.0
 41
0.18
 42
0.0625
 43
0.38
 44
0.18
 45
0.0
 46
0.0
 47
0.0
 48
0.0
140
0.18
141
0.09
142
0.0
143
25.4
144
1.0
145
0.0
146
1.0
147
0.09
 71
     0
 72
     0
 73
     1
 74
     1
 75
     0
 76
     0
 77
     0
 78
     0
170
     0
171
     2
172
     0
173
     0
174
     0
175
     0
176
     0
177
     0
178
     0
270
     2
271
     4
272
     4
273
     2
274
     2
340
10
275
     0
280
     0
281
     0
282
     0
283
     1
284
     0
285
     0
286
     0
287
     3
288
     0
  0
DIMSTYLE
105
2C
100
AcDbSymbolTableRecord
100
AcDbDimStyleTableRecord
  2
STANDARD$3
 70
     0
  3

  4

  5

  6

  7

 40
1.0
 41
0.18
 42
0.0625
 43
0.38
 44
0.18
 45
0.0
 46
0.0
 47
0.0
 48
0.0
140
0.18
141
0.09
142
0.0
143
25.4
144
1.0
145
0.0
146
1.0
147
0.09
 71
     0
 72
     0
 73
     1
 74
     1
 75
     0
 76
     0
 77
     0
 78
     0
170
     0
171
     2
172
     0
173
     0
174
     0
175
     0
176
     0
177
     0
178
     0
270
     2
271
     4
272
     4
273
     2
274
     2
340
10
275
     0
280
     0
281
     0
282
     0
283
     1
284
     0
285
     0
286
     0
287
     3
288
     0
  0
DIMSTYLE
105
326
100
AcDbSymbolTableRecord
100
AcDbDimStyleTableRecord
  2
STANDARD$2
 70
     0
  3

  4
"
  5

  6

  7

 40
25.4
 41
0.18
 42
0.0625
 43
0.38
 44
0.18
 45
0.0
 46
0.0
 47
0.0
 48
0.0
140
0.18
141
0.09
142
0.0
143
0.03937
144
1.0
145
0.0
146
1.0
147
0.09
 71
     0
 72
     0
 73
     1
 74
     1
 75
     0
 76
     0
 77
     0
 78
     0
170
     1
171
     3
172
     0
173
     0
174
     0
175
     0
176
     0
177
     0
178
     0
270
     2
271
     2
272
     4
273
     2
274
     2
340
10
275
     0
280
     0
281
     0
282
     0
283
     1
284
     0
285
     0
286
     0
287
     0
288
     0
  0
DIMSTYLE
105
953
100
AcDbSymbolTableRecord
100
AcDbDimStyleTableRecord
  2
SU1
 70
     0
  3

  4

  5

  6

  7

 40
1.0
 41
0.18
 42
0.0625
 43
0.38
 44
0.18
 45
0.0
 46
0.0
 47
0.001
 48
0.0
140
0.18
141
0.09
142
0.0
143
25.4
144
1.0
145
0.0
146
1.0
147
0.09
 71
     0
 72
     0
 73
     1
 74
     1
 75
     0
 76
     0
 77
     0
 78
     0
170
     0
171
     2
172
     0
173
     0
174
     0
175
     0
176
     0
177
     0
178
     0
270
     2
271
     3
272
     3
273
     2
274
     2
340
10
275
     0
280
     0
281
     0
282
     0
283
     1
284
     0
285
     0
286
     0
287
     0
288
     0
  0
ENDTAB
  0
TABLE
  2
BLOCK_RECORD
  5
1
100
AcDbSymbolTable
 70
    27
  0
BLOCK_RECORD
  5
1A
100
AcDbSymbolTableRecord
100
AcDbBlockTableRecord
  2
*MODEL_SPACE
  0
BLOCK_RECORD
  5
17
100
AcDbSymbolTableRecord
100
AcDbBlockTableRecord
  2
*PAPER_SPACE
  0
BLOCK_RECORD
  5
77C
100
AcDbSymbolTableRecord
100
AcDbBlockTableRecord
  2
*D0
  0
BLOCK_RECORD
  5
99B
100
AcDbSymbolTableRecord
100
AcDbBlockTableRecord
  2
D-BORDER
  0
BLOCK_RECORD
  5
C56
100
AcDbSymbolTableRecord
100
AcDbBlockTableRecord
  2
*D2
  0
BLOCK_RECORD
  5
C63
100
AcDbSymbolTableRecord
100
AcDbBlockTableRecord
  2
*D3
  0
BLOCK_RECORD
  5
C70
100
AcDbSymbolTableRecord
100
AcDbBlockTableRecord
  2
*D4
  0
BLOCK_RECORD
  5
C7D
100
AcDbSymbolTableRecord
100
AcDbBlockTableRecord
  2
*D5
  0
BLOCK_RECORD
  5
C8A
100
AcDbSymbolTableRecord
100
AcDbBlockTableRecord
  2
*D6
  0
BLOCK_RECORD
  5
C97
100
AcDbSymbolTableRecord
100
AcDbBlockTableRecord
  2
*D7
  0
BLOCK_RECORD
  5
CA4
100
AcDbSymbolTableRecord
100
AcDbBlockTableRecord
  2
*D8
  0
BLOCK_RECORD
  5
CBC
100
AcDbSymbolTableRecord
100
AcDbBlockTableRecord
  2
*D9
  0
BLOCK_RECORD
  5
CCA
100
AcDbSymbolTableRecord
100
AcDbBlockTableRecord
  2
*D10
  0
BLOCK_RECORD
  5
CD7
100
AcDbSymbolTableRecord
100
AcDbBlockTableRecord
  2
*D11
  0
BLOCK_RECORD
  5
CE4
100
AcDbSymbolTableRecord
100
AcDbBlockTableRecord
  2
*D12
  0
BLOCK_RECORD
  5
CF1
100
AcDbSymbolTableRecord
100
AcDbBlockTableRecord
  2
*D13
  0
BLOCK_RECORD
  5
CFE
100
AcDbSymbolTableRecord
100
AcDbBlockTableRecord
  2
*D14
  0
BLOCK_RECORD
  5
DBB
100
AcDbSymbolTableRecord
100
AcDbBlockTableRecord
  2
*D15
  0
BLOCK_RECORD
  5
DC8
100
AcDbSymbolTableRecord
100
AcDbBlockTableRecord
  2
*D16
  0
BLOCK_RECORD
  5
DD6
100
AcDbSymbolTableRecord
100
AcDbBlockTableRecord
  2
*D17
  0
BLOCK_RECORD
  5
DF2
100
AcDbSymbolTableRecord
100
AcDbBlockTableRecord
  2
*D18
  0
BLOCK_RECORD
  5
E00
100
AcDbSymbolTableRecord
100
AcDbBlockTableRecord
  2
*D19
  0
BLOCK_RECORD
  5
E8E
100
AcDbSymbolTableRecord
100
AcDbBlockTableRecord
  2
*D20
  0
BLOCK_RECORD
  5
E9B
100
AcDbSymbolTableRecord
100
AcDbBlockTableRecord
  2
*D21
  0
BLOCK_RECORD
  5
EA8
100
AcDbSymbolTableRecord
100
AcDbBlockTableRecord
  2
*D22
  0
BLOCK_RECORD
  5
EB5
100
AcDbSymbolTableRecord
100
AcDbBlockTableRecord
  2
*D23
  0
BLOCK_RECORD
  5
F01
100
AcDbSymbolTableRecord
100
AcDbBlockTableRecord
  2
*D24
  0
BLOCK_RECORD
  5
F6D
100
AcDbSymbolTableRecord
100
AcDbBlockTableRecord
  2
*D25
  0
BLOCK_RECORD
  5
F91
100
AcDbSymbolTableRecord
100
AcDbBlockTableRecord
  2
*D26
  0
ENDTAB
  0
ENDSEC
  0
SECTION
  2
BLOCKS
  0
BLOCK
  5
1B
100
AcDbEntity
  8
0
100
AcDbBlockBegin
  2
*MODEL_SPACE
 70
     0
 10
0.0
 20
0.0
 30
0.0
  3
*MODEL_SPACE
  1

  0
ENDBLK
  5
1C
100
AcDbEntity
  8
0
100
AcDbBlockEnd
  0
BLOCK
  5
18
100
AcDbEntity
 67
     1
  8
0
100
AcDbBlockBegin
  2
*PAPER_SPACE
 70
     0
 10
0.0
 20
0.0
 30
0.0
  3
*PAPER_SPACE
  1

  0
ENDBLK
  5
19
100
AcDbEntity
 67
     1
  8
0
100
AcDbBlockEnd
  0
BLOCK
  5
B2B
100
AcDbEntity
  8
0
100
AcDbBlockBegin
  2
*D0
 70
    65
 10
0.0
 20
0.0
 30
0.0
  3
*D0
  1

  0
LINE
  5
B2C
100
AcDbEntity
  8
0
  6
BYBLOCK
 62
     0
100
AcDbLine
 10
244.413531
 20
289.615861
 30
0.0
 11
187.863564
 21
370.25479
 31
0.0
  0
LINE
  5
B2D
100
AcDbEntity
  8
0
  6
BYBLOCK
 62
     0
100
AcDbLine
 10
187.863564
 20
370.25479
 30
0.0
 11
183.291564
 21
370.25479
 31
0.0
  0
SOLID
  5
B2E
100
AcDbEntity
  8
0
  6
BYBLOCK
 62
     0
100
AcDbTrace
 10
245.037412
 20
290.053372
 30
0.0
 11
243.78965
 21
289.178349
 31
0.0
 12
247.0386
 22
285.872574
 32
0.0
 13
247.0386
 23
285.872574
 33
0.0
  0
MTEXT
  5
B2F
100
AcDbEntity
  8
0
  6
BYBLOCK
 62
     0
100
AcDbMText
 10
152.049564
 20
370.25479
 30
0.0
 40
4.572
 41
0.0
 71
     5
 72
     1
  1
\A1;R2.00mm[R0.079"]
  0
LINE
  5
B30
100
AcDbEntity
  8
0
  6
BYBLOCK
 62
     0
100
AcDbLine
 10
245.900924
 20
284.23509
 30
0.0
 11
250.472924
 21
284.23509
 31
0.0
  0
LINE
  5
B31
100
AcDbEntity
  8
0
  6
BYBLOCK
 62
     0
100
AcDbLine
 10
248.186924
 20
281.94909
 30
0.0
 11
248.186924
 21
286.52109
 31
0.0
  0
POINT
  5
B32
100
AcDbEntity
  8
DEFPOINTS
  6
BYBLOCK
 62
     0
100
AcDbPoint
 10
247.0386
 20
285.872574
 30
0.0
  0
POINT
  5
B33
100
AcDbEntity
  8
DEFPOINTS
  6
BYBLOCK
 62
     0
100
AcDbPoint
 10
248.186924
 20
284.23509
 30
0.0
  0
ENDBLK
  5
B34
100
AcDbEntity
  8
0
100
AcDbBlockEnd
  0
BLOCK
  5
9DE
100
AcDbEntity
  8
TEXT
100
AcDbBlockBegin
  2
D-BORDER
 70
     0
 10
0.0
 20
0.0
 30
0.0
  3
D-BORDER
  1

  0
LINE
  5
99C
100
AcDbEntity
  8
TEXT
100
AcDbLine
 10
1.0
 20
19.947595
 30
0.0
 11
3.5625
 21
19.947595
 31
0.0
  0
LINE
  5
99D
100
AcDbEntity
  8
TEXT
100
AcDbLine
 10
3.5625
 20
19.947595
 30
0.0
 11
3.5625
 21
20.447595
 31
0.0
  0
CIRCLE
  5
99E
100
AcDbEntity
  8
TEXT
100
AcDbCircle
 10
1.677871
 20
20.184056
 30
0.0
 40
0.1875
  0
CIRCLE
  5
99F
100
AcDbEntity
  8
TEXT
100
AcDbCircle
 10
1.677871
 20
20.184056
 30
0.0
 40
0.09375
  0
LINE
  5
9A0
100
AcDbEntity
  8
TEXT
  6
CENTER
100
AcDbLine
 10
1.443951
 20
20.184056
 30
0.0
 11
2.896621
 21
20.184056
 31
0.0
  0
LINE
  5
9A1
100
AcDbEntity
  8
TEXT
  6
CENTER
100
AcDbLine
 10
1.677871
 20
19.955375
 30
0.0
 11
1.677871
 21
20.423251
 31
0.0
  0
LINE
  5
9A2
100
AcDbEntity
  8
TEXT
100
AcDbLine
 10
2.146621
 20
20.277806
 30
0.0
 11
2.631263
 21
20.371556
 31
0.0
  0
LINE
  5
9A3
100
AcDbEntity
  8
TEXT
100
AcDbLine
 10
2.146621
 20
20.090306
 30
0.0
 11
2.631263
 21
19.996556
 31
0.0
  0
LINE
  5
9A4
100
AcDbEntity
  8
TEXT
100
AcDbLine
 10
2.146621
 20
20.090306
 30
0.0
 11
2.146621
 21
20.277806
 31
0.0
  0
LINE
  5
9A5
100
AcDbEntity
  8
TEXT
100
AcDbLine
 10
2.631263
 20
20.371556
 30
0.0
 11
2.631263
 21
19.996556
 31
0.0
  0
TEXT
  5
9A6
100
AcDbEntity
  8
TEXT
100
AcDbText
 10
1.1875
 20
19.762423
 30
0.0
 40
0.1
  1
THIRD ANGLE PROJECTION
100
AcDbText
  0
LINE
  5
9A7
100
AcDbEntity
  8
TEXT
100
AcDbLine
 10
3.5625
 20
19.947595
 30
0.0
 11
3.5625
 21
19.697595
 31
0.0
  0
LINE
  5
9A8
100
AcDbEntity
  8
TEXT
100
AcDbLine
 10
3.5625
 20
19.697595
 30
0.0
 11
1.0
 21
19.697595
 31
0.0
  0
TEXT
  5
9A9
100
AcDbEntity
  8
TEXT
100
AcDbText
 10
31.135292
 20
0.744377
 30
0.0
 40
0.065
  1
OF
  7
ADESK2
100
AcDbText
  0
TEXT
  5
9AA
100
AcDbEntity
  8
TEXT
100
AcDbText
 10
27.375724
 20
1.474951
 30
0.0
 40
0.065
  1
DATE
  7
ADESK2
100
AcDbText
  0
LINE
  5
9AB
100
AcDbEntity
  8
TEXT
100
AcDbLine
 10
27.252305
 20
1.591501
 30
0.0
 11
27.252305
 21
0.625
 31
0.0
  0
TEXT
  5
9AC
100
AcDbEntity
  8
TEXT
100
AcDbText
 10
25.832321
 20
0.856501
 30
0.0
 40
0.065
  1
DESIGN
  7
ADESK2
100
AcDbText
  0
TEXT
  5
9AD
100
AcDbEntity
  8
TEXT
100
AcDbText
 10
25.832321
 20
1.171501
 30
0.0
 40
0.065
  1
CHECKED
  7
ADESK2
100
AcDbText
  0
LINE
  5
9AE
100
AcDbEntity
  8
TEXT
100
AcDbLine
 10
25.752321
 20
1.591501
 30
0.0
 11
27.752321
 21
1.591501
 31
0.0
  0
TEXT
  5
9AF
100
AcDbEntity
  8
TEXT
100
AcDbText
 10
31.234702
 20
19.965196
 30
0.0
 40
0.065
  1
APPROVED
  7
ADESK2
100
AcDbText
  0
TEXT
  5
9B0
100
AcDbEntity
  8
TEXT
100
AcDbText
 10
30.441002
 20
19.965196
 30
0.0
 40
0.065
  1
DATE
  7
ADESK2
100
AcDbText
  0
TEXT
  5
9B1
100
AcDbEntity
  8
TEXT
100
AcDbText
 10
28.375302
 20
19.965196
 30
0.0
 40
0.065
  1
DESCRIPTION
  7
ADESK2
100
AcDbText
  0
TEXT
  5
9B2
100
AcDbEntity
  8
TEXT
100
AcDbText
 10
27.073402
 20
19.965196
 30
0.0
 40
0.065
  1
REV
  7
ADESK2
100
AcDbText
  0
TEXT
  5
9B3
100
AcDbEntity
  8
TEXT
100
AcDbText
 10
29.203502
 20
20.207396
 30
0.0
 40
0.065
  1
REVISIONS
  7
ADESK2
100
AcDbText
  0
LINE
  5
9B4
100
AcDbEntity
  8
TEXT
100
AcDbLine
 10
30.993302
 20
19.874896
 30
0.0
 11
30.993302
 21
20.124896
 31
0.0
  0
LINE
  5
9B5
100
AcDbEntity
  8
TEXT
100
AcDbLine
 10
30.113302
 20
19.874896
 30
0.0
 11
30.113302
 21
20.124896
 31
0.0
  0
LINE
  5
9B6
100
AcDbEntity
  8
TEXT
100
AcDbLine
 10
27.373302
 20
19.874896
 30
0.0
 11
27.373302
 21
20.124896
 31
0.0
  0
LINE
  5
9B7
100
AcDbEntity
  8
TEXT
100
AcDbLine
 10
26.983049
 20
20.434959
 30
0.0
 11
26.983049
 21
19.874896
 31
0.0
  0
LINE
  5
9B8
100
AcDbEntity
  8
TEXT
100
AcDbLine
 10
26.983049
 20
19.874896
 30
0.0
 11
32.037356
 21
19.874896
 31
0.0
  0
LINE
  5
9B9
100
AcDbEntity
  8
TEXT
100
AcDbLine
 10
26.983049
 20
20.124896
 30
0.0
 11
32.037356
 21
20.124896
 31
0.0
  0
TEXT
  5
9BA
100
AcDbEntity
  8
TEXT
100
AcDbText
 10
31.702821
 20
1.167401
 30
0.0
 40
0.065
  1
REV
  7
ADESK2
100
AcDbText
  0
TEXT
  5
9BB
100
AcDbEntity
  8
TEXT
100
AcDbText
 10
29.323321
 20
1.167401
 30
0.0
 40
0.065
  1
DWG NO.
  7
ADESK2
100
AcDbText
  0
TEXT
  5
9BC
100
AcDbEntity
  8
TEXT
100
AcDbText
 10
27.840221
 20
1.167401
 30
0.0
 40
0.065
  1
SIZE
  7
ADESK2
100
AcDbText
  0
TEXT
  5
9BD
100
AcDbEntity
  8
TEXT
100
AcDbText
 10
30.305121
 20
0.744001
 30
0.0
 40
0.065
  1
SHEET
  7
ADESK2
100
AcDbText
  0
TEXT
  5
9BE
100
AcDbEntity
  8
TEXT
100
AcDbText
 10
27.804621
 20
0.744001
 30
0.0
 40
0.065
  1
SCALE
  7
ADESK2
100
AcDbText
  0
LINE
  5
9BF
100
AcDbEntity
  8
TEXT
100
AcDbLine
 10
31.622321
 20
0.901501
 30
0.0
 11
31.622321
 21
1.281501
 31
0.0
  0
LINE
  5
9C0
100
AcDbEntity
  8
TEXT
100
AcDbLine
 10
29.252321
 20
0.901501
 30
0.0
 11
29.252321
 21
1.281501
 31
0.0
  0
LINE
  5
9C1
100
AcDbEntity
  8
TEXT
100
AcDbLine
 10
28.132321
 20
0.901501
 30
0.0
 11
28.132321
 21
1.281501
 31
0.0
  0
LINE
  5
9C2
100
AcDbEntity
  8
TEXT
100
AcDbLine
 10
30.252321
 20
0.625
 30
0.0
 11
30.252321
 21
0.901501
 31
0.0
  0
LINE
  5
9C3
100
AcDbEntity
  8
TEXT
100
AcDbLine
 10
28.752321
 20
0.625
 30
0.0
 11
28.752321
 21
0.901501
 31
0.0
  0
LINE
  5
9C4
100
AcDbEntity
  8
BORDER
100
AcDbLine
 10
27.752321
 20
0.625
 30
0.0
 11
27.752321
 21
2.401501
 31
0.0
  0
LINE
  5
9C5
100
AcDbEntity
  8
BORDER
100
AcDbLine
 10
27.752321
 20
1.901501
 30
0.0
 11
32.024118
 21
1.901501
 31
0.0
  0
LINE
  5
9C6
100
AcDbEntity
  8
TEXT
100
AcDbLine
 10
27.752321
 20
0.901501
 30
0.0
 11
32.024118
 21
0.901501
 31
0.0
  0
LINE
  5
9C7
100
AcDbEntity
  8
TEXT
100
AcDbLine
 10
25.752321
 20
1.281501
 30
0.0
 11
32.024118
 21
1.281501
 31
0.0
  0
LINE
  5
9C8
100
AcDbEntity
  8
TEXT
100
AcDbLine
 10
25.752321
 20
0.966501
 30
0.0
 11
27.752321
 21
0.966501
 31
0.0
  0
LINE
  5
9C9
100
AcDbEntity
  8
BORDER
100
AcDbLine
 10
25.752321
 20
2.401501
 30
0.0
 11
32.024118
 21
2.401501
 31
0.0
  0
LINE
  5
9CA
100
AcDbEntity
  8
BORDER
100
AcDbLine
 10
25.752321
 20
0.625
 30
0.0
 11
25.752321
 21
2.824147
 31
0.0
  0
TEXT
  5
9CB
100
AcDbEntity
  8
TEXT
100
AcDbText
 10
25.820631
 20
1.479964
 30
0.0
 40
0.065
  1
DRAWN
  7
ADESK2
100
AcDbText
  0
TEXT
  5
9CC
100
AcDbEntity
  8
BORDER
100
AcDbText
 10
25.930285
 20
2.549228
 30
0.0
 40
0.15
  1
UNIVERSITY OF CALIFORNIA @ SANTA BARBARA
100
AcDbText
  0
LINE
  5
9CD
100
AcDbEntity
  8
BORDER
100
AcDbLine
 10
25.75128
 20
2.824147
 30
0.0
 11
32.024118
 21
2.824147
 31
0.0
  0
LINE
  5
9CE
100
AcDbEntity
  8
BORDER
100
AcDbLine
 10
32.04642
 20
0.625
 30
0.0
 11
32.04642
 21
20.447595
 31
0.0
  0
LINE
  5
9CF
100
AcDbEntity
  8
BORDER
100
AcDbLine
 10
1.0
 20
20.447595
 30
0.0
 11
1.0
 21
0.625
 31
0.0
  0
LINE
  5
9D0
100
AcDbEntity
  8
BORDER
100
AcDbLine
 10
1.0
 20
0.625
 30
0.0
 11
32.04642
 21
0.625
 31
0.0
  0
TEXT
  5
9D1
100
AcDbEntity
  8
TEXT
100
AcDbText
 10
28.203393
 20
1.165354
 30
0.0
 40
0.075
  1
DIRECTORY
100
AcDbText
  0
LINE
  5
9D2
100
AcDbEntity
  8
BORDER
100
AcDbLine
 10
1.0
 20
20.447595
 30
0.0
 11
32.04642
 21
20.447595
 31
0.0
  0
TEXT
  5
9D3
100
AcDbEntity
  8
BORDER
100
AcDbText
 10
28.439864
 20
2.075566
 30
0.0
 40
0.15
  1
HIGH ENERGY PHYSICS
100
AcDbText
  0
TEXT
  5
9D4
100
AcDbEntity
  8
BORDER
100
AcDbText
 10
27.876167
 20
0.934778
 30
0.0
 40
0.2
  1
D
100
AcDbText
  0
TEXT
  5
9D5
100
AcDbEntity
  8
TEXT
100
AcDbText
 10
25.981606
 20
2.285089
 30
0.0
 40
0.065
  1
UNLESS OTHERWISE SPECIFIED:
  7
ADESK2
 72
     1
 11
26.752321
 21
2.285089
 31
0.0
100
AcDbText
  0
TEXT
  5
9D6
100
AcDbEntity
  8
TEXT
100
AcDbText
 10
26.055892
 20
2.179851
 30
0.0
 40
0.065
  1
DIMENSIONS ARE IN INCHES
  7
ADESK2
 72
     1
 11
26.752321
 21
2.179851
 31
0.0
100
AcDbText
  0
TEXT
  5
9D7
100
AcDbEntity
  8
TEXT
100
AcDbText
 10
26.45363
 20
2.074613
 30
0.0
 40
0.065
  1
TOLERANCES
  7
ADESK2
 72
     1
 11
26.752321
 21
2.074613
 31
0.0
100
AcDbText
  0
TEXT
  5
9D8
100
AcDbEntity
  8
TEXT
100
AcDbText
 10
26.067279
 20
1.966743
 30
0.0
 40
0.065
  1
DECIMALS
  7
ADESK2
100
AcDbText
  0
TEXT
  5
9D9
100
AcDbEntity
  8
TEXT
100
AcDbText
 10
26.067279
 20
1.861505
 30
0.0
 40
0.065
  1
.XX  %%P .05
  7
ADESK2
100
AcDbText
  0
TEXT
  5
9DA
100
AcDbEntity
  8
TEXT
100
AcDbText
 10
26.067279
 20
1.756267
 30
0.0
 40
0.065
  1
.XXX %%P .005
  7
ADESK2
100
AcDbText
  0
TEXT
  5
9DB
100
AcDbEntity
  8
TEXT
100
AcDbText
 10
26.137916
 20
1.653744
 30
0.0
 40
0.065
  1
DO NOT SCALE DRAWING
  7
ADESK2
 72
     1
 11
26.752321
 21
1.653744
 31
0.0
100
AcDbText
  0
TEXT
  5
9DC
100
AcDbEntity
  8
TEXT
100
AcDbText
 10
26.931176
 20
1.966743
 30
0.0
 40
0.065
  1
ANGULAR
  7
ADESK2
100
AcDbText
  0
TEXT
  5
9DD
100
AcDbEntity
  8
TEXT
100
AcDbText
 10
26.931176
 20
1.861505
 30
0.0
 40
0.065
  1
  %%P 0.5%%D
  7
ADESK2
100
AcDbText
  0
ENDBLK
  5
9DF
100
AcDbEntity
  8
TEXT
100
AcDbBlockEnd
  0
BLOCK
  5
F62
100
AcDbEntity
  8
0
100
AcDbBlockBegin
  2
*D2
 70
    65
 10
0.0
 20
0.0
 30
0.0
  3
*D2
  1

  0
LINE
  5
F63
100
AcDbEntity
  8
0
  6
BYBLOCK
 62
     0
100
AcDbLine
 10
390.066264
 20
289.072007
 30
0.0
 11
390.066264
 21
402.794685
 31
0.0
  0
LINE
  5
F64
100
AcDbEntity
  8
0
  6
BYBLOCK
 62
     0
100
AcDbLine
 10
385.494264
 20
398.222685
 30
0.0
 11
380.922264
 21
398.222685
 31
0.0
  0
LINE
  5
F65
100
AcDbEntity
  8
0
  6
BYBLOCK
 62
     0
100
AcDbLine
 10
450.522894
 20
398.222685
 30
0.0
 11
455.094894
 21
398.222685
 31
0.0
  0
SOLID
  5
F66
100
AcDbEntity
  8
0
  6
BYBLOCK
 62
     0
100
AcDbTrace
 10
385.494264
 20
398.984685
 30
0.0
 11
385.494264
 21
397.460685
 31
0.0
 12
390.066264
 22
398.222685
 32
0.0
 13
390.066264
 23
398.222685
 33
0.0
  0
SOLID
  5
F67
100
AcDbEntity
  8
0
  6
BYBLOCK
 62
     0
100
AcDbTrace
 10
450.522894
 20
398.984685
 30
0.0
 11
450.522894
 21
397.460685
 31
0.0
 12
445.950894
 22
398.222685
 32
0.0
 13
445.950894
 23
398.222685
 33
0.0
  0
MTEXT
  5
F68
100
AcDbEntity
  8
0
  6
BYBLOCK
 62
     0
100
AcDbMText
 10
484.812894
 20
398.222685
 30
0.0
 40
4.572
 41
0.0
 71
     5
 72
     1
  1
\A1;55.88mm[2.200"]
  0
POINT
  5
F69
100
AcDbEntity
  8
DEFPOINTS
  6
BYBLOCK
 62
     0
100
AcDbPoint
 10
390.066264
 20
287.484507
 30
0.0
  0
POINT
  5
F6A
100
AcDbEntity
  8
DEFPOINTS
  6
BYBLOCK
 62
     0
100
AcDbPoint
 10
445.950894
 20
488.251354
 30
0.0
  0
POINT
  5
F6B
100
AcDbEntity
  8
DEFPOINTS
  6
BYBLOCK
 62
     0
100
AcDbPoint
 10
445.950894
 20
398.222685
 30
0.0
  0
ENDBLK
  5
F6C
100
AcDbEntity
  8
0
100
AcDbBlockEnd
  0
BLOCK
  5
F57
100
AcDbEntity
  8
0
100
AcDbBlockBegin
  2
*D3
 70
    65
 10
0.0
 20
0.0
 30
0.0
  3
*D3
  1

  0
LINE
  5
F58
100
AcDbEntity
  8
0
  6
BYBLOCK
 62
     0
100
AcDbLine
 10
326.41874
 20
289.072007
 30
0.0
 11
326.41874
 21
414.243271
 31
0.0
  0
LINE
  5
F59
100
AcDbEntity
  8
0
  6
BYBLOCK
 62
     0
100
AcDbLine
 10
330.99074
 20
409.671271
 30
0.0
 11
355.323817
 21
409.671271
 31
0.0
  0
LINE
  5
F5A
100
AcDbEntity
  8
0
  6
BYBLOCK
 62
     0
100
AcDbLine
 10
441.378894
 20
409.671271
 30
0.0
 11
417.045817
 21
409.671271
 31
0.0
  0
SOLID
  5
F5B
100
AcDbEntity
  8
0
  6
BYBLOCK
 62
     0
100
AcDbTrace
 10
330.99074
 20
410.433271
 30
0.0
 11
330.99074
 21
408.909271
 31
0.0
 12
326.41874
 22
409.671271
 32
0.0
 13
326.41874
 23
409.671271
 33
0.0
  0
SOLID
  5
F5C
100
AcDbEntity
  8
0
  6
BYBLOCK
 62
     0
100
AcDbTrace
 10
441.378894
 20
410.433271
 30
0.0
 11
441.378894
 21
408.909271
 31
0.0
 12
445.950894
 22
409.671271
 32
0.0
 13
445.950894
 23
409.671271
 33
0.0
  0
MTEXT
  5
F5D
100
AcDbEntity
  8
0
  6
BYBLOCK
 62
     0
100
AcDbMText
 10
386.184817
 20
409.671271
 30
0.0
 40
4.572
 41
0.0
 71
     5
 72
     1
  1
\A1;119.53mm[4.706"]
  0
POINT
  5
F5E
100
AcDbEntity
  8
DEFPOINTS
  6
BYBLOCK
 62
     0
100
AcDbPoint
 10
326.41874
 20
287.484507
 30
0.0
  0
POINT
  5
F5F
100
AcDbEntity
  8
DEFPOINTS
  6
BYBLOCK
 62
     0
100
AcDbPoint
 10
445.950894
 20
488.251354
 30
0.0
  0
POINT
  5
F60
100
AcDbEntity
  8
DEFPOINTS
  6
BYBLOCK
 62
     0
100
AcDbPoint
 10
445.950894
 20
409.671271
 30
0.0
  0
ENDBLK
  5
F61
100
AcDbEntity
  8
0
100
AcDbBlockEnd
  0
BLOCK
  5
F4C
100
AcDbEntity
  8
0
100
AcDbBlockBegin
  2
*D4
 70
    65
 10
0.0
 20
0.0
 30
0.0
  3
*D4
  1

  0
LINE
  5
F4D
100
AcDbEntity
  8
0
  6
BYBLOCK
 62
     0
100
AcDbLine
 10
322.41874
 20
289.072007
 30
0.0
 11
322.41874
 21
426.179874
 31
0.0
  0
LINE
  5
F4E
100
AcDbEntity
  8
0
  6
BYBLOCK
 62
     0
100
AcDbLine
 10
326.99074
 20
421.607874
 30
0.0
 11
352.180817
 21
421.607874
 31
0.0
  0
LINE
  5
F4F
100
AcDbEntity
  8
0
  6
BYBLOCK
 62
     0
100
AcDbLine
 10
441.378894
 20
421.607874
 30
0.0
 11
416.188817
 21
421.607874
 31
0.0
  0
SOLID
  5
F50
100
AcDbEntity
  8
0
  6
BYBLOCK
 62
     0
100
AcDbTrace
 10
326.99074
 20
422.369874
 30
0.0
 11
326.99074
 21
420.845874
 31
0.0
 12
322.41874
 22
421.607874
 32
0.0
 13
322.41874
 23
421.607874
 33
0.0
  0
SOLID
  5
F51
100
AcDbEntity
  8
0
  6
BYBLOCK
 62
     0
100
AcDbTrace
 10
441.378894
 20
422.369874
 30
0.0
 11
441.378894
 21
420.845874
 31
0.0
 12
445.950894
 22
421.607874
 32
0.0
 13
445.950894
 23
421.607874
 33
0.0
  0
MTEXT
  5
F52
100
AcDbEntity
  8
0
  6
BYBLOCK
 62
     0
100
AcDbMText
 10
384.184817
 20
421.607874
 30
0.0
 40
4.572
 41
0.0
 71
     5
 72
     1
  1
\A1;123.53mm[4.863"]
  0
POINT
  5
F53
100
AcDbEntity
  8
DEFPOINTS
  6
BYBLOCK
 62
     0
100
AcDbPoint
 10
322.41874
 20
287.484507
 30
0.0
  0
POINT
  5
F54
100
AcDbEntity
  8
DEFPOINTS
  6
BYBLOCK
 62
     0
100
AcDbPoint
 10
445.950894
 20
488.251354
 30
0.0
  0
POINT
  5
F55
100
AcDbEntity
  8
DEFPOINTS
  6
BYBLOCK
 62
     0
100
AcDbPoint
 10
445.950894
 20
421.607874
 30
0.0
  0
ENDBLK
  5
F56
100
AcDbEntity
  8
0
100
AcDbBlockEnd
  0
BLOCK
  5
F41
100
AcDbEntity
  8
0
100
AcDbBlockBegin
  2
*D5
 70
    65
 10
0.0
 20
0.0
 30
0.0
  3
*D5
  1

  0
LINE
  5
F42
100
AcDbEntity
  8
0
  6
BYBLOCK
 62
     0
100
AcDbLine
 10
258.73374
 20
289.072007
 30
0.0
 11
258.73374
 21
441.627243
 31
0.0
  0
LINE
  5
F43
100
AcDbEntity
  8
0
  6
BYBLOCK
 62
     0
100
AcDbLine
 10
263.30574
 20
437.055243
 30
0.0
 11
321.100317
 21
437.055243
 31
0.0
  0
LINE
  5
F44
100
AcDbEntity
  8
0
  6
BYBLOCK
 62
     0
100
AcDbLine
 10
441.378894
 20
437.055243
 30
0.0
 11
383.584317
 21
437.055243
 31
0.0
  0
SOLID
  5
F45
100
AcDbEntity
  8
0
  6
BYBLOCK
 62
     0
100
AcDbTrace
 10
263.30574
 20
437.817243
 30
0.0
 11
263.30574
 21
436.293243
 31
0.0
 12
258.73374
 22
437.055243
 32
0.0
 13
258.73374
 23
437.055243
 33
0.0
  0
SOLID
  5
F46
100
AcDbEntity
  8
0
  6
BYBLOCK
 62
     0
100
AcDbTrace
 10
441.378894
 20
437.817243
 30
0.0
 11
441.378894
 21
436.293243
 31
0.0
 12
445.950894
 22
437.055243
 32
0.0
 13
445.950894
 23
437.055243
 33
0.0
  0
MTEXT
  5
F47
100
AcDbEntity
  8
0
  6
BYBLOCK
 62
     0
100
AcDbMText
 10
352.342317
 20
437.055243
 30
0.0
 40
4.572
 41
0.0
 71
     5
 72
     1
  1
\A1;187.22mm[7.371"]
  0
POINT
  5
F48
100
AcDbEntity
  8
DEFPOINTS
  6
BYBLOCK
 62
     0
100
AcDbPoint
 10
258.73374
 20
287.484507
 30
0.0
  0
POINT
  5
F49
100
AcDbEntity
  8
DEFPOINTS
  6
BYBLOCK
 62
     0
100
AcDbPoint
 10
445.950894
 20
488.251354
 30
0.0
  0
POINT
  5
F4A
100
AcDbEntity
  8
DEFPOINTS
  6
BYBLOCK
 62
     0
100
AcDbPoint
 10
445.950894
 20
437.055243
 30
0.0
  0
ENDBLK
  5
F4B
100
AcDbEntity
  8
0
100
AcDbBlockEnd
  0
BLOCK
  5
F36
100
AcDbEntity
  8
0
100
AcDbBlockBegin
  2
*D6
 70
    65
 10
0.0
 20
0.0
 30
0.0
  3
*D6
  1

  0
LINE
  5
F37
100
AcDbEntity
  8
0
  6
BYBLOCK
 62
     0
100
AcDbLine
 10
254.73374
 20
289.072007
 30
0.0
 11
254.73374
 21
455.319228
 31
0.0
  0
LINE
  5
F38
100
AcDbEntity
  8
0
  6
BYBLOCK
 62
     0
100
AcDbLine
 10
259.30574
 20
450.747228
 30
0.0
 11
319.100317
 21
450.747228
 31
0.0
  0
LINE
  5
F39
100
AcDbEntity
  8
0
  6
BYBLOCK
 62
     0
100
AcDbLine
 10
441.378894
 20
450.747228
 30
0.0
 11
381.584317
 21
450.747228
 31
0.0
  0
SOLID
  5
F3A
100
AcDbEntity
  8
0
  6
BYBLOCK
 62
     0
100
AcDbTrace
 10
259.30574
 20
451.509228
 30
0.0
 11
259.30574
 21
449.985228
 31
0.0
 12
254.73374
 22
450.747228
 32
0.0
 13
254.73374
 23
450.747228
 33
0.0
  0
SOLID
  5
F3B
100
AcDbEntity
  8
0
  6
BYBLOCK
 62
     0
100
AcDbTrace
 10
441.378894
 20
451.509228
 30
0.0
 11
441.378894
 21
449.985228
 31
0.0
 12
445.950894
 22
450.747228
 32
0.0
 13
445.950894
 23
450.747228
 33
0.0
  0
MTEXT
  5
F3C
100
AcDbEntity
  8
0
  6
BYBLOCK
 62
     0
100
AcDbMText
 10
350.342317
 20
450.747228
 30
0.0
 40
4.572
 41
0.0
 71
     5
 72
     1
  1
\A1;191.22mm[7.528"]
  0
POINT
  5
F3D
100
AcDbEntity
  8
DEFPOINTS
  6
BYBLOCK
 62
     0
100
AcDbPoint
 10
254.73374
 20
287.484507
 30
0.0
  0
POINT
  5
F3E
100
AcDbEntity
  8
DEFPOINTS
  6
BYBLOCK
 62
     0
100
AcDbPoint
 10
445.950894
 20
488.251354
 30
0.0
  0
POINT
  5
F3F
100
AcDbEntity
  8
DEFPOINTS
  6
BYBLOCK
 62
     0
100
AcDbPoint
 10
445.950894
 20
450.747228
 30
0.0
  0
ENDBLK
  5
F40
100
AcDbEntity
  8
0
100
AcDbBlockEnd
  0
BLOCK
  5
F2B
100
AcDbEntity
  8
0
100
AcDbBlockBegin
  2
*D7
 70
    65
 10
0.0
 20
0.0
 30
0.0
  3
*D7
  1

  0
LINE
  5
F2C
100
AcDbEntity
  8
0
  6
BYBLOCK
 62
     0
100
AcDbLine
 10
203.933764
 20
295.822543
 30
0.0
 11
203.933764
 21
481.832468
 31
0.0
  0
LINE
  5
F2D
100
AcDbEntity
  8
0
  6
BYBLOCK
 62
     0
100
AcDbLine
 10
208.505764
 20
477.260468
 30
0.0
 11
292.557329
 21
477.260468
 31
0.0
  0
LINE
  5
F2E
100
AcDbEntity
  8
0
  6
BYBLOCK
 62
     0
100
AcDbLine
 10
441.378894
 20
477.260468
 30
0.0
 11
357.327329
 21
477.260468
 31
0.0
  0
SOLID
  5
F2F
100
AcDbEntity
  8
0
  6
BYBLOCK
 62
     0
100
AcDbTrace
 10
208.505764
 20
478.022468
 30
0.0
 11
208.505764
 21
476.498468
 31
0.0
 12
203.933764
 22
477.260468
 32
0.0
 13
203.933764
 23
477.260468
 33
0.0
  0
SOLID
  5
F30
100
AcDbEntity
  8
0
  6
BYBLOCK
 62
     0
100
AcDbTrace
 10
441.378894
 20
478.022468
 30
0.0
 11
441.378894
 21
476.498468
 31
0.0
 12
445.950894
 22
477.260468
 32
0.0
 13
445.950894
 23
477.260468
 33
0.0
  0
MTEXT
  5
F31
100
AcDbEntity
  8
0
  6
BYBLOCK
 62
     0
100
AcDbMText
 10
324.942329
 20
477.260468
 30
0.0
 40
4.572
 41
0.0
 71
     5
 72
     1
  1
\A1;242.02mm[9.528"]
  0
POINT
  5
F32
100
AcDbEntity
  8
DEFPOINTS
  6
BYBLOCK
 62
     0
100
AcDbPoint
 10
203.933764
 20
294.235043
 30
0.0
  0
POINT
  5
F33
100
AcDbEntity
  8
DEFPOINTS
  6
BYBLOCK
 62
     0
100
AcDbPoint
 10
445.950894
 20
488.251354
 30
0.0
  0
POINT
  5
F34
100
AcDbEntity
  8
DEFPOINTS
  6
BYBLOCK
 62
     0
100
AcDbPoint
 10
445.950894
 20
477.260468
 30
0.0
  0
ENDBLK
  5
F35
100
AcDbEntity
  8
0
100
AcDbBlockEnd
  0
BLOCK
  5
F86
100
AcDbEntity
  8
0
100
AcDbBlockBegin
  2
*D8
 70
    65
 10
0.0
 20
0.0
 30
0.0
  3
*D8
  1

  0
LINE
  5
F87
100
AcDbEntity
  8
0
  6
BYBLOCK
 62
     0
100
AcDbLine
 10
262.785589
 20
294.235043
 30
0.0
 11
56.523096
 21
294.235043
 31
0.0
  0
LINE
  5
F88
100
AcDbEntity
  8
0
  6
BYBLOCK
 62
     0
100
AcDbLine
 10
61.095096
 20
289.663043
 30
0.0
 11
61.095096
 21
285.598711
 31
0.0
  0
LINE
  5
F89
100
AcDbEntity
  8
0
  6
BYBLOCK
 62
     0
100
AcDbLine
 10
61.095096
 20
272.390378
 30
0.0
 11
61.095096
 21
276.454711
 31
0.0
  0
SOLID
  5
F8A
100
AcDbEntity
  8
0
  6
BYBLOCK
 62
     0
100
AcDbTrace
 10
60.333096
 20
289.663043
 30
0.0
 11
61.857096
 21
289.663043
 31
0.0
 12
61.095096
 22
294.235043
 32
0.0
 13
61.095096
 23
294.235043
 33
0.0
  0
SOLID
  5
F8B
100
AcDbEntity
  8
0
  6
BYBLOCK
 62
     0
100
AcDbTrace
 10
60.333096
 20
272.390378
 30
0.0
 11
61.857096
 21
272.390378
 31
0.0
 12
61.095096
 22
267.818378
 32
0.0
 13
61.095096
 23
267.818378
 33
0.0
  0
MTEXT
  5
F8C
100
AcDbEntity
  8
0
  6
BYBLOCK
 62
     0
100
AcDbMText
 10
61.095096
 20
281.026711
 30
0.0
 40
4.572
 41
0.0
 71
     5
 72
     1
  1
\A1;26.42mm[1.040"]
  0
POINT
  5
F8D
100
AcDbEntity
  8
DEFPOINTS
  6
BYBLOCK
 62
     0
100
AcDbPoint
 10
264.373089
 20
294.235043
 30
0.0
  0
POINT
  5
F8E
100
AcDbEntity
  8
DEFPOINTS
  6
BYBLOCK
 62
     0
100
AcDbPoint
 10
34.124784
 20
267.818378
 30
0.0
  0
POINT
  5
F8F
100
AcDbEntity
  8
DEFPOINTS
  6
BYBLOCK
 62
     0
100
AcDbPoint
 10
61.095096
 20
267.818378
 30
0.0
  0
ENDBLK
  5
F90
100
AcDbEntity
  8
0
100
AcDbBlockEnd
  0
BLOCK
  5
F7A
100
AcDbEntity
  8
0
100
AcDbBlockBegin
  2
*D9
 70
    65
 10
0.0
 20
0.0
 30
0.0
  3
*D9
  1

  0
LINE
  5
F7B
100
AcDbEntity
  8
0
  6
BYBLOCK
 62
     0
100
AcDbLine
 10
262.785589
 20
284.235043
 30
0.0
 11
250.468844
 21
284.235043
 31
0.0
  0
LINE
  5
F7C
100
AcDbEntity
  8
0
  6
BYBLOCK
 62
     0
100
AcDbLine
 10
255.040844
 20
288.807043
 30
0.0
 11
255.040844
 21
293.379043
 31
0.0
  0
LINE
  5
F7D
100
AcDbEntity
  8
0
  6
BYBLOCK
 62
     0
100
AcDbLine
 10
255.040844
 20
263.246378
 30
0.0
 11
255.040844
 21
258.674378
 31
0.0
  0
LINE
  5
F7E
100
AcDbEntity
  8
0
  6
BYBLOCK
 62
     0
100
AcDbLine
 10
255.040844
 20
258.674378
 30
0.0
 11
250.468844
 21
258.674378
 31
0.0
  0
SOLID
  5
F7F
100
AcDbEntity
  8
0
  6
BYBLOCK
 62
     0
100
AcDbTrace
 10
254.278844
 20
288.807043
 30
0.0
 11
255.802844
 21
288.807043
 31
0.0
 12
255.040844
 22
284.235043
 32
0.0
 13
255.040844
 23
284.235043
 33
0.0
  0
SOLID
  5
F80
100
AcDbEntity
  8
0
  6
BYBLOCK
 62
     0
100
AcDbTrace
 10
254.278844
 20
263.246378
 30
0.0
 11
255.802844
 21
263.246378
 31
0.0
 12
255.040844
 22
267.818378
 32
0.0
 13
255.040844
 23
267.818378
 33
0.0
  0
MTEXT
  5
F81
100
AcDbEntity
  8
0
  6
BYBLOCK
 62
     0
100
AcDbMText
 10
190.118444
 20
258.674378
 30
0.0
 40
4.572
 41
0.0
 71
     5
 72
     1
  1
\A1;16.42mm\S+0.05mm^  0.00mm;{\o\l\H10.972800;[}0.646"\S+0.002"^  0.000";{\o\l\H10.972800;]}
  0
POINT
  5
F82
100
AcDbEntity
  8
DEFPOINTS
  6
BYBLOCK
 62
     0
100
AcDbPoint
 10
264.373089
 20
284.235043
 30
0.0
  0
POINT
  5
F83
100
AcDbEntity
  8
DEFPOINTS
  6
BYBLOCK
 62
     0
100
AcDbPoint
 10
34.124784
 20
267.818378
 30
0.0
  0
POINT
  5
F84
100
AcDbEntity
  8
DEFPOINTS
  6
BYBLOCK
 62
     0
100
AcDbPoint
 10
255.040844
 20
267.818378
 30
0.0
  0
ENDBLK
  5
F85
100
AcDbEntity
  8
0
100
AcDbBlockEnd
  0
BLOCK
  5
D84
100
AcDbEntity
  8
0
100
AcDbBlockBegin
  2
*D10
 70
    65
 10
0.0
 20
0.0
 30
0.0
  3
*D10
  1

  0
LINE
  5
D85
100
AcDbEntity
  8
0
  6
BYBLOCK
 62
     0
100
AcDbLine
 10
388.431856
 20
295.685297
 30
0.0
 11
429.836365
 21
388.681346
 31
0.0
  0
LINE
  5
D86
100
AcDbEntity
  8
0
  6
BYBLOCK
 62
     0
100
AcDbLine
 10
423.800035
 20
386.364216
 30
0.0
 11
419.623305
 21
388.223816
 31
0.0
  0
LINE
  5
D87
100
AcDbEntity
  8
0
  6
BYBLOCK
 62
     0
100
AcDbLine
 10
485.047721
 20
359.09499
 30
0.0
 11
489.22445
 21
357.23539
 31
0.0
  0
SOLID
  5
D88
100
AcDbEntity
  8
0
  6
BYBLOCK
 62
     0
100
AcDbTrace
 10
424.109969
 20
387.060338
 30
0.0
 11
423.490102
 21
385.668095
 31
0.0
 12
427.976765
 22
384.504616
 32
0.0
 13
427.976765
 23
384.504616
 33
0.0
  0
SOLID
  5
D89
100
AcDbEntity
  8
0
  6
BYBLOCK
 62
     0
100
AcDbTrace
 10
485.357654
 20
359.791112
 30
0.0
 11
484.737787
 21
358.398868
 31
0.0
 12
480.870991
 22
360.95459
 32
0.0
 13
480.870991
 23
360.95459
 33
0.0
  0
MTEXT
  5
D8A
100
AcDbEntity
  8
0
  6
BYBLOCK
 62
     0
100
AcDbMText
 10
516.373194
 20
345.14799
 30
0.0
 40
4.572
 41
0.0
 71
     5
 72
     1
  1
\A1;57.90mm[2.280"]
 11
0.913545
 21
-0.406737
 31
0.0
  0
POINT
  5
D8B
100
AcDbEntity
  8
DEFPOINTS
  6
BYBLOCK
 62
     0
100
AcDbPoint
 10
387.786162
 20
294.235043
 30
0.0
 50
24.0
  0
POINT
  5
D8C
100
AcDbEntity
  8
DEFPOINTS
  6
BYBLOCK
 62
     0
100
AcDbPoint
 10
490.183579
 20
381.871005
 30
0.0
 50
24.0
  0
POINT
  5
D8D
100
AcDbEntity
  8
DEFPOINTS
  6
BYBLOCK
 62
     0
100
AcDbPoint
 10
480.870991
 20
360.95459
 30
0.0
 50
24.0
  0
ENDBLK
  5
D8E
100
AcDbEntity
  8
0
100
AcDbBlockEnd
  0
BLOCK
  5
D8F
100
AcDbEntity
  8
0
100
AcDbBlockBegin
  2
*D11
 70
    65
 10
0.0
 20
0.0
 30
0.0
  3
*D11
  1

  0
LINE
  5
D90
100
AcDbEntity
  8
0
  6
BYBLOCK
 62
     0
100
AcDbLine
 10
386.731298
 20
287.685344
 30
0.0
 11
426.736185
 21
377.537793
 31
0.0
  0
LINE
  5
D91
100
AcDbEntity
  8
0
  6
BYBLOCK
 62
     0
100
AcDbLine
 10
420.699856
 20
375.220663
 30
0.0
 11
416.523126
 21
377.080263
 31
0.0
  0
LINE
  5
D92
100
AcDbEntity
  8
0
  6
BYBLOCK
 62
     0
100
AcDbLine
 10
480.394206
 20
348.643026
 30
0.0
 11
484.570936
 21
346.783426
 31
0.0
  0
SOLID
  5
D93
100
AcDbEntity
  8
0
  6
BYBLOCK
 62
     0
100
AcDbTrace
 10
421.009789
 20
375.916784
 30
0.0
 11
420.389922
 21
374.524541
 31
0.0
 12
424.876585
 22
373.361063
 32
0.0
 13
424.876585
 23
373.361063
 33
0.0
  0
SOLID
  5
D94
100
AcDbEntity
  8
0
  6
BYBLOCK
 62
     0
100
AcDbTrace
 10
480.70414
 20
349.339147
 30
0.0
 11
480.084273
 21
347.946904
 31
0.0
 12
476.217476
 22
350.502625
 32
0.0
 13
476.217476
 23
350.502625
 33
0.0
  0
MTEXT
  5
D95
100
AcDbEntity
  8
0
  6
BYBLOCK
 62
     0
100
AcDbMText
 10
511.371619
 20
334.850993
 30
0.0
 40
4.572
 41
0.0
 71
     5
 72
     1
  1
\A1;56.20mm[2.213"]
 11
0.913545
 21
-0.406737
 31
0.0
  0
POINT
  5
D96
100
AcDbEntity
  8
DEFPOINTS
  6
BYBLOCK
 62
     0
100
AcDbPoint
 10
386.085603
 20
286.23509
 30
0.0
 50
24.0
  0
POINT
  5
D97
100
AcDbEntity
  8
DEFPOINTS
  6
BYBLOCK
 62
     0
100
AcDbPoint
 10
490.183579
 20
381.871005
 30
0.0
 50
24.0
  0
POINT
  5
D98
100
AcDbEntity
  8
DEFPOINTS
  6
BYBLOCK
 62
     0
100
AcDbPoint
 10
476.217476
 20
350.502625
 30
0.0
 50
24.0
  0
ENDBLK
  5
D99
100
AcDbEntity
  8
0
100
AcDbBlockEnd
  0
BLOCK
  5
D9A
100
AcDbEntity
  8
0
100
AcDbBlockBegin
  2
*D12
 70
    65
 10
0.0
 20
0.0
 30
0.0
  3
*D12
  1

  0
LINE
  5
D9B
100
AcDbEntity
  8
0
  6
BYBLOCK
 62
     0
100
AcDbLine
 10
389.578342
 20
287.770351
 30
0.0
 11
424.309733
 21
365.778332
 31
0.0
  0
LINE
  5
D9C
100
AcDbEntity
  8
0
  6
BYBLOCK
 62
     0
100
AcDbLine
 10
418.273403
 20
363.461202
 30
0.0
 11
414.096674
 21
365.320802
 31
0.0
  0
LINE
  5
D9D
100
AcDbEntity
  8
0
  6
BYBLOCK
 62
     0
100
AcDbLine
 10
475.623296
 20
337.927385
 30
0.0
 11
479.800026
 21
336.067785
 31
0.0
  0
SOLID
  5
D9E
100
AcDbEntity
  8
0
  6
BYBLOCK
 62
     0
100
AcDbTrace
 10
418.583337
 20
364.157324
 30
0.0
 11
417.96347
 21
362.765081
 31
0.0
 12
422.450133
 22
361.601603
 32
0.0
 13
422.450133
 23
361.601603
 33
0.0
  0
SOLID
  5
D9F
100
AcDbEntity
  8
0
  6
BYBLOCK
 62
     0
100
AcDbTrace
 10
475.933229
 20
338.623507
 30
0.0
 11
475.313362
 21
337.231264
 31
0.0
 12
471.446566
 22
339.786985
 32
0.0
 13
471.446566
 23
339.786985
 33
0.0
  0
MTEXT
  5
DA0
100
AcDbEntity
  8
0
  6
BYBLOCK
 62
     0
100
AcDbMText
 10
506.252648
 20
324.290319
 30
0.0
 40
4.572
 41
0.0
 71
     5
 72
     1
  1
\A1;53.63mm[2.112"]
 11
0.913545
 21
-0.406737
 31
0.0
  0
POINT
  5
DA1
100
AcDbEntity
  8
DEFPOINTS
  6
BYBLOCK
 62
     0
100
AcDbPoint
 10
388.932648
 20
286.320098
 30
0.0
 50
24.0
  0
POINT
  5
DA2
100
AcDbEntity
  8
DEFPOINTS
  6
BYBLOCK
 62
     0
100
AcDbPoint
 10
490.183579
 20
381.871005
 30
0.0
 50
24.0
  0
POINT
  5
DA3
100
AcDbEntity
  8
DEFPOINTS
  6
BYBLOCK
 62
     0
100
AcDbPoint
 10
471.446566
 20
339.786985
 30
0.0
 50
24.0
  0
ENDBLK
  5
DA4
100
AcDbEntity
  8
0
100
AcDbBlockEnd
  0
BLOCK
  5
DA5
100
AcDbEntity
  8
0
100
AcDbBlockBegin
  2
*D13
 70
    65
 10
0.0
 20
0.0
 30
0.0
  3
*D13
  1

  0
LINE
  5
DA6
100
AcDbEntity
  8
0
  6
BYBLOCK
 62
     0
100
AcDbLine
 10
443.927811
 20
264.857888
 30
0.0
 11
472.653667
 21
329.377217
 31
0.0
  0
LINE
  5
DA7
100
AcDbEntity
  8
0
  6
BYBLOCK
 62
     0
100
AcDbLine
 10
461.74195
 20
329.230749
 30
0.0
 11
457.56522
 21
331.090349
 31
0.0
  0
LINE
  5
DA8
100
AcDbEntity
  8
0
  6
BYBLOCK
 62
     0
100
AcDbLine
 10
474.970797
 20
323.340887
 30
0.0
 11
479.147527
 21
321.481287
 31
0.0
  0
SOLID
  5
DA9
100
AcDbEntity
  8
0
  6
BYBLOCK
 62
     0
100
AcDbTrace
 10
462.051883
 20
329.926871
 30
0.0
 11
461.432016
 21
328.534628
 31
0.0
 12
465.91868
 22
327.371149
 32
0.0
 13
465.91868
 23
327.371149
 33
0.0
  0
SOLID
  5
DAA
100
AcDbEntity
  8
0
  6
BYBLOCK
 62
     0
100
AcDbTrace
 10
475.28073
 20
324.037009
 30
0.0
 11
474.660863
 21
322.644765
 31
0.0
 12
470.794067
 22
325.200487
 32
0.0
 13
470.794067
 23
325.200487
 33
0.0
  0
MTEXT
  5
DAB
100
AcDbEntity
  8
0
  6
BYBLOCK
 62
     0
100
AcDbMText
 10
503.511784
 20
310.633621
 30
0.0
 40
4.572
 41
0.0
 71
     5
 72
     1
  1
\A1;5.34mm[0.210"]
 11
0.913545
 21
-0.406737
 31
0.0
  0
POINT
  5
DAC
100
AcDbEntity
  8
DEFPOINTS
  6
BYBLOCK
 62
     0
100
AcDbPoint
 10
490.183579
 20
381.871005
 30
0.0
 50
24.0
  0
POINT
  5
DAD
100
AcDbEntity
  8
DEFPOINTS
  6
BYBLOCK
 62
     0
100
AcDbPoint
 10
443.282116
 20
263.407634
 30
0.0
 50
24.0
  0
POINT
  5
DAE
100
AcDbEntity
  8
DEFPOINTS
  6
BYBLOCK
 62
     0
100
AcDbPoint
 10
470.794067
 20
325.200487
 30
0.0
 50
24.0
  0
ENDBLK
  5
DAF
100
AcDbEntity
  8
0
100
AcDbBlockEnd
  0
BLOCK
  5
DB0
100
AcDbEntity
  8
0
100
AcDbBlockBegin
  2
*D14
 70
    65
 10
0.0
 20
0.0
 30
0.0
  3
*D14
  1

  0
LINE
  5
DB1
100
AcDbEntity
  8
0
  6
BYBLOCK
 62
     0
100
AcDbLine
 10
452.476989
 20
259.508113
 30
0.0
 11
477.222457
 21
315.087346
 31
0.0
  0
LINE
  5
DB2
100
AcDbEntity
  8
0
  6
BYBLOCK
 62
     0
100
AcDbLine
 10
457.188064
 20
319.002555
 30
0.0
 11
453.011335
 21
320.862155
 31
0.0
  0
LINE
  5
DB3
100
AcDbEntity
  8
0
  6
BYBLOCK
 62
     0
100
AcDbLine
 10
479.539587
 20
309.051016
 30
0.0
 11
483.716317
 21
307.191416
 31
0.0
  0
SOLID
  5
DB4
100
AcDbEntity
  8
0
  6
BYBLOCK
 62
     0
100
AcDbTrace
 10
457.497998
 20
319.698677
 30
0.0
 11
456.878131
 21
318.306433
 31
0.0
 12
461.364794
 22
317.142955
 32
0.0
 13
461.364794
 23
317.142955
 33
0.0
  0
SOLID
  5
DB5
100
AcDbEntity
  8
0
  6
BYBLOCK
 62
     0
100
AcDbTrace
 10
479.849521
 20
309.747138
 30
0.0
 11
479.229654
 21
308.354894
 31
0.0
 12
475.362857
 22
310.910616
 32
0.0
 13
475.362857
 23
310.910616
 33
0.0
  0
MTEXT
  5
DB6
100
AcDbEntity
  8
0
  6
BYBLOCK
 62
     0
100
AcDbMText
 10
510.168939
 20
295.41395
 30
0.0
 40
4.572
 41
0.0
 71
     5
 72
     1
  1
\A1;15.32mm[0.603"]
 11
0.913545
 21
-0.406737
 31
0.0
  0
POINT
  5
DB7
100
AcDbEntity
  8
DEFPOINTS
  6
BYBLOCK
 62
     0
100
AcDbPoint
 10
490.183579
 20
381.871005
 30
0.0
 50
24.0
  0
POINT
  5
DB8
100
AcDbEntity
  8
DEFPOINTS
  6
BYBLOCK
 62
     0
100
AcDbPoint
 10
451.831294
 20
258.057859
 30
0.0
 50
24.0
  0
POINT
  5
DB9
100
AcDbEntity
  8
DEFPOINTS
  6
BYBLOCK
 62
     0
100
AcDbPoint
 10
475.362857
 20
310.910616
 30
0.0
 50
24.0
  0
ENDBLK
  5
DBA
100
AcDbEntity
  8
0
100
AcDbBlockEnd
  0
BLOCK
  5
DBC
100
AcDbEntity
  8
0
100
AcDbBlockBegin
  2
*D15
 70
    65
 10
0.0
 20
0.0
 30
0.0
  3
*D15
  1

  0
LINE
  5
DBD
100
AcDbEntity
  8
0
  6
BYBLOCK
 62
     0
100
AcDbLine
 10
461.934619
 20
262.959758
 30
0.0
 11
479.297761
 21
301.958013
 31
0.0
  0
LINE
  5
DBE
100
AcDbEntity
  8
0
  6
BYBLOCK
 62
     0
100
AcDbLine
 10
452.652894
 20
308.816395
 30
0.0
 11
448.476164
 21
310.675995
 31
0.0
  0
LINE
  5
DBF
100
AcDbEntity
  8
0
  6
BYBLOCK
 62
     0
100
AcDbLine
 10
481.614891
 20
295.921683
 30
0.0
 11
485.79162
 21
294.062084
 31
0.0
  0
SOLID
  5
DC0
100
AcDbEntity
  8
0
  6
BYBLOCK
 62
     0
100
AcDbTrace
 10
452.962827
 20
309.512517
 30
0.0
 11
452.34296
 21
308.120274
 31
0.0
 12
456.829624
 22
306.956795
 32
0.0
 13
456.829624
 23
306.956795
 33
0.0
  0
SOLID
  5
DC1
100
AcDbEntity
  8
0
  6
BYBLOCK
 62
     0
100
AcDbTrace
 10
481.924824
 20
296.617805
 30
0.0
 11
481.304957
 21
295.225562
 31
0.0
 12
477.438161
 22
297.781283
 32
0.0
 13
477.438161
 23
297.781283
 33
0.0
  0
MTEXT
  5
DC2
100
AcDbEntity
  8
0
  6
BYBLOCK
 62
     0
100
AcDbMText
 10
513.288425
 20
281.819717
 30
0.0
 40
4.572
 41
0.0
 71
     5
 72
     1
  1
\A1;22.56mm[0.888"]
 11
0.913545
 21
-0.406737
 31
0.0
  0
POINT
  5
DC3
100
AcDbEntity
  8
DEFPOINTS
  6
BYBLOCK
 62
     0
100
AcDbPoint
 10
490.183579
 20
381.871005
 30
0.0
 50
24.0
  0
POINT
  5
DC4
100
AcDbEntity
  8
DEFPOINTS
  6
BYBLOCK
 62
     0
100
AcDbPoint
 10
461.288924
 20
261.509505
 30
0.0
 50
24.0
  0
POINT
  5
DC5
100
AcDbEntity
  8
DEFPOINTS
  6
BYBLOCK
 62
     0
100
AcDbPoint
 10
477.438161
 20
297.781283
 30
0.0
 50
24.0
  0
ENDBLK
  5
DC6
100
AcDbEntity
  8
0
100
AcDbBlockEnd
  0
BLOCK
  5
DC9
100
AcDbEntity
  8
0
100
AcDbBlockBegin
  2
*D16
 70
    65
 10
0.0
 20
0.0
 30
0.0
  3
*D16
  1

  0
LINE
  5
DCA
100
AcDbEntity
  8
0
  6
BYBLOCK
 62
     0
100
AcDbLine
 10
462.739178
 20
260.86381
 30
0.0
 11
477.034298
 21
254.499213
 31
0.0
  0
LINE
  5
DCB
100
AcDbEntity
  8
0
  6
BYBLOCK
 62
     0
100
AcDbLine
 10
469.721659
 20
249.315444
 30
0.0
 11
467.862059
 21
245.138714
 31
0.0
  0
LINE
  5
DCC
100
AcDbEntity
  8
0
  6
BYBLOCK
 62
     0
100
AcDbLine
 10
474.717169
 20
260.535543
 30
0.0
 11
476.576768
 21
264.712272
 31
0.0
  0
LINE
  5
DCD
100
AcDbEntity
  8
0
  6
BYBLOCK
 62
     0
100
AcDbLine
 10
476.576768
 20
264.712272
 30
0.0
 11
480.753498
 21
262.852672
 31
0.0
  0
SOLID
  5
DCE
100
AcDbEntity
  8
0
  6
BYBLOCK
 62
     0
100
AcDbTrace
 10
469.025537
 20
249.625377
 30
0.0
 11
470.41778
 21
249.005511
 31
0.0
 12
471.581259
 22
253.492174
 32
0.0
 13
471.581259
 23
253.492174
 33
0.0
  0
SOLID
  5
DCF
100
AcDbEntity
  8
0
  6
BYBLOCK
 62
     0
100
AcDbTrace
 10
474.021047
 20
260.845476
 30
0.0
 11
475.41329
 21
260.225609
 31
0.0
 12
472.857569
 22
256.358813
 32
0.0
 13
472.857569
 23
256.358813
 33
0.0
  0
MTEXT
  5
DD0
100
AcDbEntity
  8
0
  6
BYBLOCK
 62
     0
100
AcDbMText
 10
504.769695
 20
252.159973
 30
0.0
 40
4.572
 41
0.0
 71
     5
 72
     1
  1
\A1;3.14mm[0.124"]
 11
0.913545
 21
-0.406737
 31
0.0
  0
POINT
  5
DD1
100
AcDbEntity
  8
DEFPOINTS
  6
BYBLOCK
 62
     0
100
AcDbPoint
 10
285.432481
 20
336.37095
 30
0.0
 50
24.0
  0
POINT
  5
DD2
100
AcDbEntity
  8
DEFPOINTS
  6
BYBLOCK
 62
     0
100
AcDbPoint
 10
461.288924
 20
261.509505
 30
0.0
 50
24.0
  0
POINT
  5
DD3
100
AcDbEntity
  8
DEFPOINTS
  6
BYBLOCK
 62
     0
100
AcDbPoint
 10
472.857569
 20
256.358813
 30
0.0
 50
24.0
  0
ENDBLK
  5
DD4
100
AcDbEntity
  8
0
100
AcDbBlockEnd
  0
BLOCK
  5
DD7
100
AcDbEntity
  8
0
100
AcDbBlockBegin
  2
*D17
 70
    65
 10
0.0
 20
0.0
 30
0.0
  3
*D17
  1

  0
LINE
  5
DD8
100
AcDbEntity
  8
0
  6
BYBLOCK
 62
     0
100
AcDbLine
 10
453.281548
 20
257.412165
 30
0.0
 11
530.565629
 21
223.003075
 31
0.0
  0
LINE
  5
DD9
100
AcDbEntity
  8
0
  6
BYBLOCK
 62
     0
100
AcDbLine
 10
524.529299
 20
220.685945
 30
0.0
 11
522.669699
 21
216.509215
 31
0.0
  0
LINE
  5
DDA
100
AcDbEntity
  8
0
  6
BYBLOCK
 62
     0
100
AcDbLine
 10
529.819346
 20
232.567584
 30
0.0
 11
531.678946
 21
236.744314
 31
0.0
  0
LINE
  5
DDB
100
AcDbEntity
  8
0
  6
BYBLOCK
 62
     0
100
AcDbLine
 10
531.678946
 20
236.744314
 30
0.0
 11
535.855676
 21
234.884714
 31
0.0
  0
SOLID
  5
DDC
100
AcDbEntity
  8
0
  6
BYBLOCK
 62
     0
100
AcDbTrace
 10
523.833178
 20
220.995878
 30
0.0
 11
525.225421
 21
220.376012
 31
0.0
 12
526.388899
 22
224.862675
 32
0.0
 13
526.388899
 23
224.862675
 33
0.0
  0
SOLID
  5
DDD
100
AcDbEntity
  8
0
  6
BYBLOCK
 62
     0
100
AcDbTrace
 10
529.123224
 20
232.877517
 30
0.0
 11
530.515467
 21
232.257651
 31
0.0
 12
527.959746
 22
228.390854
 32
0.0
 13
527.959746
 23
228.390854
 33
0.0
  0
MTEXT
  5
DDE
100
AcDbEntity
  8
0
  6
BYBLOCK
 62
     0
100
AcDbMText
 10
560.567994
 20
223.882081
 30
0.0
 40
4.572
 41
0.0
 71
     5
 72
     1
  1
\A1;3.86mm[0.152"]
 11
0.913545
 21
-0.406737
 31
0.0
  0
POINT
  5
DDF
100
AcDbEntity
  8
DEFPOINTS
  6
BYBLOCK
 62
     0
100
AcDbPoint
 10
451.831294
 20
258.057859
 30
0.0
 50
24.0
  0
POINT
  5
DE0
100
AcDbEntity
  8
DEFPOINTS
  6
BYBLOCK
 62
     0
100
AcDbPoint
 10
285.432481
 20
336.37095
 30
0.0
 50
24.0
  0
POINT
  5
DE1
100
AcDbEntity
  8
DEFPOINTS
  6
BYBLOCK
 62
     0
100
AcDbPoint
 10
527.959746
 20
228.390854
 30
0.0
 50
24.0
  0
ENDBLK
  5
DE2
100
AcDbEntity
  8
0
100
AcDbBlockEnd
  0
BLOCK
  5
E0E
100
AcDbEntity
  8
0
100
AcDbBlockBegin
  2
*D18
 70
    65
 10
0.0
 20
0.0
 30
0.0
  3
*D18
  1

  0
LINE
  5
E0F
100
AcDbEntity
  8
0
  6
BYBLOCK
 62
     0
100
AcDbLine
 10
516.178916
 20
259.546679
 30
0.0
 11
666.727417
 21
192.518168
 31
0.0
  0
LINE
  5
E10
100
AcDbEntity
  8
0
  6
BYBLOCK
 62
     0
100
AcDbLine
 10
660.691087
 20
190.201038
 30
0.0
 11
658.831487
 21
186.024308
 31
0.0
  0
LINE
  5
E11
100
AcDbEntity
  8
0
  6
BYBLOCK
 62
     0
100
AcDbLine
 10
667.201343
 20
204.823313
 30
0.0
 11
669.060943
 21
209.000043
 31
0.0
  0
LINE
  5
E12
100
AcDbEntity
  8
0
  6
BYBLOCK
 62
     0
100
AcDbLine
 10
669.060943
 20
209.000043
 30
0.0
 11
673.237673
 21
207.140443
 31
0.0
  0
SOLID
  5
E13
100
AcDbEntity
  8
0
  6
BYBLOCK
 62
     0
100
AcDbTrace
 10
659.994965
 20
190.510971
 30
0.0
 11
661.387209
 21
189.891105
 31
0.0
 12
662.550687
 22
194.377768
 32
0.0
 13
662.550687
 23
194.377768
 33
0.0
  0
SOLID
  5
E14
100
AcDbEntity
  8
0
  6
BYBLOCK
 62
     0
100
AcDbTrace
 10
666.505222
 20
205.133247
 30
0.0
 11
667.897465
 21
204.51338
 31
0.0
 12
665.341743
 22
200.646583
 32
0.0
 13
665.341743
 23
200.646583
 33
0.0
  0
MTEXT
  5
E15
100
AcDbEntity
  8
0
  6
BYBLOCK
 62
     0
100
AcDbMText
 10
726.630203
 20
183.368557
 30
0.0
 40
4.572
 41
0.0
 71
     5
 72
     1
  1
\A1;6.86mm\S 0.00mm^ -0.05mm;{\o\l\H10.972800;[}0.270"\S 0.000"^ -0.002";{\o\l\H10.972800;]}
 11
0.913545
 21
-0.406737
 31
0.0
  0
POINT
  5
E16
100
AcDbEntity
  8
DEFPOINTS
  6
BYBLOCK
 62
     0
100
AcDbPoint
 10
514.728663
 20
260.192373
 30
0.0
 50
24.0
  0
POINT
  5
E17
100
AcDbEntity
  8
DEFPOINTS
  6
BYBLOCK
 62
     0
100
AcDbPoint
 10
787.713821
 20
146.163024
 30
0.0
 50
24.0
  0
POINT
  5
E18
100
AcDbEntity
  8
DEFPOINTS
  6
BYBLOCK
 62
     0
100
AcDbPoint
 10
665.341743
 20
200.646583
 30
0.0
 50
24.0
  0
ENDBLK
  5
E19
100
AcDbEntity
  8
0
100
AcDbBlockEnd
  0
BLOCK
  5
F1F
100
AcDbEntity
  8
0
100
AcDbBlockBegin
  2
*D19
 70
    65
 10
0.0
 20
0.0
 30
0.0
  3
*D19
  1

  0
ARC
  5
F20
100
AcDbEntity
  8
0
  6
BYBLOCK
 62
     0
100
AcDbCircle
 10
445.950894
 20
267.818378
 30
0.0
 40
101.571845
100
AcDbArc
 50
248.579243
 51
250.85591
  0
ARC
  5
F21
100
AcDbEntity
  8
0
  6
BYBLOCK
 62
     0
100
AcDbCircle
 10
445.950894
 20
267.818378
 30
0.0
 40
101.571845
100
AcDbArc
 50
264.958434
 51
267.420757
  0
SOLID
  5
F22
100
AcDbEntity
  8
0
  6
BYBLOCK
 62
     0
100
AcDbTrace
 10
408.561239
 20
172.559833
 30
0.0
 11
409.149614
 21
173.965674
 31
0.0
 12
404.637902
 22
175.02788
 32
0.0
 13
404.637902
 23
175.02788
 33
0.0
  0
SOLID
  5
F23
100
AcDbEntity
  8
0
  6
BYBLOCK
 62
     0
100
AcDbTrace
 10
441.397202
 20
167.111238
 30
0.0
 11
441.362902
 21
165.587624
 31
0.0
 12
445.950894
 22
166.246533
 32
0.0
 13
445.950894
 23
166.246533
 33
0.0
  0
MTEXT
  5
F24
100
AcDbEntity
  8
0
  6
BYBLOCK
 62
     0
100
AcDbMText
 10
424.83292
 20
168.466121
 30
0.0
 40
4.572
 41
0.0
 71
     5
 72
     1
  1
\A1;24.00°
  0
POINT
  5
F25
100
AcDbEntity
  8
DEFPOINTS
  6
BYBLOCK
 62
     0
100
AcDbPoint
 10
417.953899
 20
170.181254
 30
0.0
  0
POINT
  5
F26
100
AcDbEntity
  8
DEFPOINTS
  6
BYBLOCK
 62
     0
100
AcDbPoint
 10
400.506898
 20
165.749492
 30
0.0
  0
POINT
  5
F27
100
AcDbEntity
  8
DEFPOINTS
  6
BYBLOCK
 62
     0
100
AcDbPoint
 10
445.950894
 20
140.201977
 30
0.0
  0
POINT
  5
F28
100
AcDbEntity
  8
DEFPOINTS
  6
BYBLOCK
 62
     0
100
AcDbPoint
 10
445.950894
 20
488.251354
 30
0.0
  0
POINT
  5
F29
100
AcDbEntity
  8
DEFPOINTS
  6
BYBLOCK
 62
     0
100
AcDbPoint
 10
496.730395
 20
381.871005
 30
0.0
  0
ENDBLK
  5
F2A
100
AcDbEntity
  8
0
100
AcDbBlockEnd
  0
BLOCK
  5
EC2
100
AcDbEntity
  8
0
100
AcDbBlockBegin
  2
*D20
 70
    65
 10
0.0
 20
0.0
 30
0.0
  3
*D20
  1

  0
LINE
  5
EC3
100
AcDbEntity
  8
0
  6
BYBLOCK
 62
     0
100
AcDbLine
 10
689.089119
 20
413.083211
 30
0.0
 11
689.089119
 21
450.475715
 31
0.0
  0
LINE
  5
EC4
100
AcDbEntity
  8
0
  6
BYBLOCK
 62
     0
100
AcDbLine
 10
687.565119
 20
413.083211
 30
0.0
 11
687.565119
 21
450.475715
 31
0.0
  0
LINE
  5
EC5
100
AcDbEntity
  8
0
  6
BYBLOCK
 62
     0
100
AcDbLine
 10
693.661119
 20
445.903715
 30
0.0
 11
698.233119
 21
445.903715
 31
0.0
  0
LINE
  5
EC6
100
AcDbEntity
  8
0
  6
BYBLOCK
 62
     0
100
AcDbLine
 10
682.993119
 20
445.903715
 30
0.0
 11
678.421119
 21
445.903715
 31
0.0
  0
SOLID
  5
EC7
100
AcDbEntity
  8
0
  6
BYBLOCK
 62
     0
100
AcDbTrace
 10
693.661119
 20
446.665715
 30
0.0
 11
693.661119
 21
445.141715
 31
0.0
 12
689.089119
 22
445.903715
 32
0.0
 13
689.089119
 23
445.903715
 33
0.0
  0
SOLID
  5
EC8
100
AcDbEntity
  8
0
  6
BYBLOCK
 62
     0
100
AcDbTrace
 10
682.993119
 20
446.665715
 30
0.0
 11
682.993119
 21
445.141715
 31
0.0
 12
687.565119
 22
445.903715
 32
0.0
 13
687.565119
 23
445.903715
 33
0.0
  0
MTEXT
  5
EC9
100
AcDbEntity
  8
0
  6
BYBLOCK
 62
     0
100
AcDbMText
 10
626.986119
 20
445.903715
 30
0.0
 40
4.572
 41
0.0
 71
     5
 72
     1
  1
\A1;0.15mm±0.03mm[0.006"±0.001"]
  0
POINT
  5
ECA
100
AcDbEntity
  8
DEFPOINTS
  6
BYBLOCK
 62
     0
100
AcDbPoint
 10
689.089119
 20
411.495711
 30
0.0
  0
POINT
  5
ECB
100
AcDbEntity
  8
DEFPOINTS
  6
BYBLOCK
 62
     0
100
AcDbPoint
 10
687.565119
 20
411.495711
 30
0.0
  0
POINT
  5
ECC
100
AcDbEntity
  8
DEFPOINTS
  6
BYBLOCK
 62
     0
100
AcDbPoint
 10
687.565119
 20
445.903715
 30
0.0
  0
ENDBLK
  5
ECD
100
AcDbEntity
  8
0
100
AcDbBlockEnd
  0
BLOCK
  5
ECE
100
AcDbEntity
  8
0
100
AcDbBlockBegin
  2
*D21
 70
    65
 10
0.0
 20
0.0
 30
0.0
  3
*D21
  1

  0
LINE
  5
ECF
100
AcDbEntity
  8
0
  6
BYBLOCK
 62
     0
100
AcDbLine
 10
691.121119
 20
413.083211
 30
0.0
 11
691.121119
 21
437.774241
 31
0.0
  0
LINE
  5
ED0
100
AcDbEntity
  8
0
  6
BYBLOCK
 62
     0
100
AcDbLine
 10
692.645119
 20
413.083211
 30
0.0
 11
692.645119
 21
437.774241
 31
0.0
  0
LINE
  5
ED1
100
AcDbEntity
  8
0
  6
BYBLOCK
 62
     0
100
AcDbLine
 10
686.549119
 20
433.202241
 30
0.0
 11
681.977119
 21
433.202241
 31
0.0
  0
LINE
  5
ED2
100
AcDbEntity
  8
0
  6
BYBLOCK
 62
     0
100
AcDbLine
 10
697.217119
 20
433.202241
 30
0.0
 11
701.789119
 21
433.202241
 31
0.0
  0
SOLID
  5
ED3
100
AcDbEntity
  8
0
  6
BYBLOCK
 62
     0
100
AcDbTrace
 10
686.549119
 20
433.964241
 30
0.0
 11
686.549119
 21
432.440241
 31
0.0
 12
691.121119
 22
433.202241
 32
0.0
 13
691.121119
 23
433.202241
 33
0.0
  0
SOLID
  5
ED4
100
AcDbEntity
  8
0
  6
BYBLOCK
 62
     0
100
AcDbTrace
 10
697.217119
 20
433.964241
 30
0.0
 11
697.217119
 21
432.440241
 31
0.0
 12
692.645119
 22
433.202241
 32
0.0
 13
692.645119
 23
433.202241
 33
0.0
  0
MTEXT
  5
ED5
100
AcDbEntity
  8
0
  6
BYBLOCK
 62
     0
100
AcDbMText
 10
753.224119
 20
433.202241
 30
0.0
 40
4.572
 41
0.0
 71
     5
 72
     1
  1
\A1;0.15mm±0.03mm[0.006"±0.001"]
  0
POINT
  5
ED6
100
AcDbEntity
  8
DEFPOINTS
  6
BYBLOCK
 62
     0
100
AcDbPoint
 10
691.121119
 20
411.495711
 30
0.0
  0
POINT
  5
ED7
100
AcDbEntity
  8
DEFPOINTS
  6
BYBLOCK
 62
     0
100
AcDbPoint
 10
692.645119
 20
411.495711
 30
0.0
  0
POINT
  5
ED8
100
AcDbEntity
  8
DEFPOINTS
  6
BYBLOCK
 62
     0
100
AcDbPoint
 10
692.645119
 20
433.202241
 30
0.0
  0
ENDBLK
  5
ED9
100
AcDbEntity
  8
0
100
AcDbBlockEnd
  0
BLOCK
  5
EDA
100
AcDbEntity
  8
0
100
AcDbBlockBegin
  2
*D22
 70
    65
 10
0.0
 20
0.0
 30
0.0
  3
*D22
  1

  0
LINE
  5
EDB
100
AcDbEntity
  8
0
  6
BYBLOCK
 62
     0
100
AcDbLine
 10
687.565119
 20
413.083211
 30
0.0
 11
687.565119
 21
425.457661
 31
0.0
  0
LINE
  5
EDC
100
AcDbEntity
  8
0
  6
BYBLOCK
 62
     0
100
AcDbLine
 10
692.645119
 20
413.083211
 30
0.0
 11
692.645119
 21
425.457661
 31
0.0
  0
LINE
  5
EDD
100
AcDbEntity
  8
0
  6
BYBLOCK
 62
     0
100
AcDbLine
 10
682.993119
 20
420.885661
 30
0.0
 11
678.421119
 21
420.885661
 31
0.0
  0
LINE
  5
EDE
100
AcDbEntity
  8
0
  6
BYBLOCK
 62
     0
100
AcDbLine
 10
697.217119
 20
420.885661
 30
0.0
 11
701.789119
 21
420.885661
 31
0.0
  0
SOLID
  5
EDF
100
AcDbEntity
  8
0
  6
BYBLOCK
 62
     0
100
AcDbTrace
 10
682.993119
 20
421.647661
 30
0.0
 11
682.993119
 21
420.123661
 31
0.0
 12
687.565119
 22
420.885661
 32
0.0
 13
687.565119
 23
420.885661
 33
0.0
  0
SOLID
  5
EE0
100
AcDbEntity
  8
0
  6
BYBLOCK
 62
     0
100
AcDbTrace
 10
697.217119
 20
421.647661
 30
0.0
 11
697.217119
 21
420.123661
 31
0.0
 12
692.645119
 22
420.885661
 32
0.0
 13
692.645119
 23
420.885661
 33
0.0
  0
MTEXT
  5
EE1
100
AcDbEntity
  8
0
  6
BYBLOCK
 62
     0
100
AcDbMText
 10
753.224119
 20
420.885661
 30
0.0
 40
4.572
 41
0.0
 71
     5
 72
     1
  1
\A1;0.51mm±0.03mm[0.020"±0.001"]
  0
POINT
  5
EE2
100
AcDbEntity
  8
DEFPOINTS
  6
BYBLOCK
 62
     0
100
AcDbPoint
 10
687.565119
 20
411.495711
 30
0.0
  0
POINT
  5
EE3
100
AcDbEntity
  8
DEFPOINTS
  6
BYBLOCK
 62
     0
100
AcDbPoint
 10
692.645119
 20
411.495711
 30
0.0
  0
POINT
  5
EE4
100
AcDbEntity
  8
DEFPOINTS
  6
BYBLOCK
 62
     0
100
AcDbPoint
 10
692.645119
 20
420.885661
 30
0.0
  0
ENDBLK
  5
EE5
100
AcDbEntity
  8
0
100
AcDbBlockEnd
  0
BLOCK
  5
EE6
100
AcDbEntity
  8
0
100
AcDbBlockBegin
  2
*D23
 70
    65
 10
0.0
 20
0.0
 30
0.0
  3
*D23
  1

  0
LINE
  5
EE7
100
AcDbEntity
  8
0
  6
BYBLOCK
 62
     0
100
AcDbLine
 10
685.977619
 20
341.495711
 30
0.0
 11
652.600046
 21
341.495711
 31
0.0
  0
LINE
  5
EE8
100
AcDbEntity
  8
0
  6
BYBLOCK
 62
     0
100
AcDbLine
 10
687.501619
 20
311.495711
 30
0.0
 11
652.600046
 21
311.495711
 31
0.0
  0
LINE
  5
EE9
100
AcDbEntity
  8
0
  6
BYBLOCK
 62
     0
100
AcDbLine
 10
657.172046
 20
336.923711
 30
0.0
 11
657.172046
 21
331.067711
 31
0.0
  0
LINE
  5
EEA
100
AcDbEntity
  8
0
  6
BYBLOCK
 62
     0
100
AcDbLine
 10
657.172046
 20
316.067711
 30
0.0
 11
657.172046
 21
321.923711
 31
0.0
  0
SOLID
  5
EEB
100
AcDbEntity
  8
0
  6
BYBLOCK
 62
     0
100
AcDbTrace
 10
656.410046
 20
336.923711
 30
0.0
 11
657.934046
 21
336.923711
 31
0.0
 12
657.172046
 22
341.495711
 32
0.0
 13
657.172046
 23
341.495711
 33
0.0
  0
SOLID
  5
EEC
100
AcDbEntity
  8
0
  6
BYBLOCK
 62
     0
100
AcDbTrace
 10
656.410046
 20
316.067711
 30
0.0
 11
657.934046
 21
316.067711
 31
0.0
 12
657.172046
 22
311.495711
 32
0.0
 13
657.172046
 23
311.495711
 33
0.0
  0
MTEXT
  5
EED
100
AcDbEntity
  8
0
  6
BYBLOCK
 62
     0
100
AcDbMText
 10
657.172046
 20
326.495711
 30
0.0
 40
4.572
 41
0.0
 71
     5
 72
     1
  1
\A1;3.00mm[0.118"]
  0
POINT
  5
EEE
100
AcDbEntity
  8
DEFPOINTS
  6
BYBLOCK
 62
     0
100
AcDbPoint
 10
687.565119
 20
341.495711
 30
0.0
  0
POINT
  5
EEF
100
AcDbEntity
  8
DEFPOINTS
  6
BYBLOCK
 62
     0
100
AcDbPoint
 10
689.089119
 20
311.495711
 30
0.0
  0
POINT
  5
EF0
100
AcDbEntity
  8
DEFPOINTS
  6
BYBLOCK
 62
     0
100
AcDbPoint
 10
657.172046
 20
311.495711
 30
0.0
  0
ENDBLK
  5
EF1
100
AcDbEntity
  8
0
100
AcDbBlockEnd
  0
BLOCK
  5
F02
100
AcDbEntity
  8
0
100
AcDbBlockBegin
  2
*D24
 70
    65
 10
0.0
 20
0.0
 30
0.0
  3
*D24
  1

  0
LINE
  5
F03
100
AcDbEntity
  8
0
  6
BYBLOCK
 62
     0
100
AcDbLine
 10
441.670893
 20
263.959656
 30
0.0
 11
415.182028
 21
240.078078
 31
0.0
  0
LINE
  5
F04
100
AcDbEntity
  8
0
  6
BYBLOCK
 62
     0
100
AcDbLine
 10
415.182028
 20
240.078078
 30
0.0
 11
410.610028
 21
240.078078
 31
0.0
  0
SOLID
  5
F05
100
AcDbEntity
  8
0
  6
BYBLOCK
 62
     0
100
AcDbTrace
 10
441.160651
 20
264.525604
 30
0.0
 11
442.181135
 21
263.393708
 31
0.0
 12
445.066581
 22
267.021108
 32
0.0
 13
445.066581
 23
267.021108
 33
0.0
  0
MTEXT
  5
F06
100
AcDbEntity
  8
0
  6
BYBLOCK
 62
     0
100
AcDbMText
 10
353.079028
 20
240.078078
 30
0.0
 40
4.572
 41
0.0
 71
     5
 72
     1
  1
\A1;\U+22052.38mm±0.03mm[\U+22050.094"±0.001"]
  0
LINE
  5
F07
100
AcDbEntity
  8
0
  6
BYBLOCK
 62
     0
100
AcDbLine
 10
443.664894
 20
267.818378
 30
0.0
 11
448.236894
 21
267.818378
 31
0.0
  0
LINE
  5
F08
100
AcDbEntity
  8
0
  6
BYBLOCK
 62
     0
100
AcDbLine
 10
445.950894
 20
265.532378
 30
0.0
 11
445.950894
 21
270.104378
 31
0.0
  0
POINT
  5
F09
100
AcDbEntity
  8
DEFPOINTS
  6
BYBLOCK
 62
     0
100
AcDbPoint
 10
445.066581
 20
267.021108
 30
0.0
  0
POINT
  5
F0A
100
AcDbEntity
  8
DEFPOINTS
  6
BYBLOCK
 62
     0
100
AcDbPoint
 10
446.835206
 20
268.615648
 30
0.0
  0
ENDBLK
  5
F0B
100
AcDbEntity
  8
0
100
AcDbBlockEnd
  0
BLOCK
  5
F6E
100
AcDbEntity
  8
0
100
AcDbBlockBegin
  2
*D25
 70
    65
 10
0.0
 20
0.0
 30
0.0
  3
*D25
  1

  0
LINE
  5
F6F
100
AcDbEntity
  8
0
  6
BYBLOCK
 62
     0
100
AcDbLine
 10
213.933764
 20
294.519018
 30
0.0
 11
213.933764
 21
468.01659
 31
0.0
  0
LINE
  5
F70
100
AcDbEntity
  8
0
  6
BYBLOCK
 62
     0
100
AcDbLine
 10
218.505764
 20
463.44459
 30
0.0
 11
272.792329
 21
463.44459
 31
0.0
  0
LINE
  5
F71
100
AcDbEntity
  8
0
  6
BYBLOCK
 62
     0
100
AcDbLine
 10
441.378894
 20
463.44459
 30
0.0
 11
387.092329
 21
463.44459
 31
0.0
  0
SOLID
  5
F72
100
AcDbEntity
  8
0
  6
BYBLOCK
 62
     0
100
AcDbTrace
 10
218.505764
 20
464.20659
 30
0.0
 11
218.505764
 21
462.68259
 31
0.0
 12
213.933764
 22
463.44459
 32
0.0
 13
213.933764
 23
463.44459
 33
0.0
  0
SOLID
  5
F73
100
AcDbEntity
  8
0
  6
BYBLOCK
 62
     0
100
AcDbTrace
 10
441.378894
 20
464.20659
 30
0.0
 11
441.378894
 21
462.68259
 31
0.0
 12
445.950894
 22
463.44459
 32
0.0
 13
445.950894
 23
463.44459
 33
0.0
  0
MTEXT
  5
F74
100
AcDbEntity
  8
0
  6
BYBLOCK
 62
     0
100
AcDbMText
 10
329.942329
 20
463.44459
 30
0.0
 40
4.572
 41
0.0
 71
     5
 72
     1
  1
\A1;232.02mm±0.03mm[9.135"±0.001"]
  0
POINT
  5
F75
100
AcDbEntity
  8
DEFPOINTS
  6
BYBLOCK
 62
     0
100
AcDbPoint
 10
213.933764
 20
292.931518
 30
0.0
  0
POINT
  5
F76
100
AcDbEntity
  8
DEFPOINTS
  6
BYBLOCK
 62
     0
100
AcDbPoint
 10
445.950894
 20
488.251354
 30
0.0
  0
POINT
  5
F77
100
AcDbEntity
  8
DEFPOINTS
  6
BYBLOCK
 62
     0
100
AcDbPoint
 10
445.950894
 20
463.44459
 30
0.0
  0
ENDBLK
  5
F78
100
AcDbEntity
  8
0
100
AcDbBlockEnd
  0
BLOCK
  5
F92
100
AcDbEntity
  8
0
100
AcDbBlockBegin
  2
*D26
 70
    65
 10
0.0
 20
0.0
 30
0.0
  3
*D26
  1

  0
LINE
  5
F93
100
AcDbEntity
  8
0
  6
BYBLOCK
 62
     0
100
AcDbLine
 10
270.790434
 20
290.735043
 30
0.0
 11
143.308723
 21
290.735043
 31
0.0
  0
LINE
  5
F94
100
AcDbEntity
  8
0
  6
BYBLOCK
 62
     0
100
AcDbLine
 10
147.880723
 20
286.163043
 30
0.0
 11
147.880723
 21
283.848711
 31
0.0
  0
LINE
  5
F95
100
AcDbEntity
  8
0
  6
BYBLOCK
 62
     0
100
AcDbLine
 10
147.880723
 20
272.390378
 30
0.0
 11
147.880723
 21
274.704711
 31
0.0
  0
SOLID
  5
F96
100
AcDbEntity
  8
0
  6
BYBLOCK
 62
     0
100
AcDbTrace
 10
147.118723
 20
286.163043
 30
0.0
 11
148.642723
 21
286.163043
 31
0.0
 12
147.880723
 22
290.735043
 32
0.0
 13
147.880723
 23
290.735043
 33
0.0
  0
SOLID
  5
F97
100
AcDbEntity
  8
0
  6
BYBLOCK
 62
     0
100
AcDbTrace
 10
147.118723
 20
272.390378
 30
0.0
 11
148.642723
 21
272.390378
 31
0.0
 12
147.880723
 22
267.818378
 32
0.0
 13
147.880723
 23
267.818378
 33
0.0
  0
MTEXT
  5
F98
100
AcDbEntity
  8
0
  6
BYBLOCK
 62
     0
100
AcDbMText
 10
147.880723
 20
279.276711
 30
0.0
 40
4.572
 41
0.0
 71
     5
 72
     1
  1
\A1;22.92mm±0.03mm[0.902"±0.001"]
  0
POINT
  5
F99
100
AcDbEntity
  8
DEFPOINTS
  6
BYBLOCK
 62
     0
100
AcDbPoint
 10
272.377934
 20
290.735043
 30
0.0
  0
POINT
  5
F9A
100
AcDbEntity
  8
DEFPOINTS
  6
BYBLOCK
 62
     0
100
AcDbPoint
 10
34.124784
 20
267.818378
 30
0.0
  0
POINT
  5
F9B
100
AcDbEntity
  8
DEFPOINTS
  6
BYBLOCK
 62
     0
100
AcDbPoint
 10
147.880723
 20
267.818378
 30
0.0
  0
ENDBLK
  5
F9C
100
AcDbEntity
  8
0
100
AcDbBlockEnd
  0
ENDSEC
  0
SECTION
  2
ENTITIES
  0
LINE
  5
D4
100
AcDbEntity
  8
CENTER
100
AcDbLine
 10
317.627279
 20
284.23509
 30
0.0
 11
322.729854
 21
284.23509
 31
0.0
  0
LINE
  5
D5
100
AcDbEntity
  8
CENTER
100
AcDbLine
 10
315.173065
 20
282.833921
 30
0.0
 11
315.173065
 21
287.484507
 31
0.0
  0
LINE
  5
D6
100
AcDbEntity
  8
CENTER
100
AcDbLine
 10
316.718852
 20
284.23509
 30
0.0
 11
311.616277
 21
284.23509
 31
0.0
  0
LINE
  5
D7
100
AcDbEntity
  8
CENTER
100
AcDbLine
 10
319.173065
 20
282.833921
 30
0.0
 11
319.173065
 21
287.484507
 31
0.0
  0
LINE
  5
DC
100
AcDbEntity
  8
CENTER
100
AcDbLine
 10
452.051375
 20
284.23509
 30
0.0
 11
446.9488
 21
284.23509
 31
0.0
  0
LINE
  5
DD
100
AcDbEntity
  8
CENTER
100
AcDbLine
 10
450.505589
 20
282.833921
 30
0.0
 11
450.505589
 21
287.484507
 31
0.0
  0
LINE
  5
470
100
AcDbEntity
  8
CENTER
100
AcDbLine
 10
384.403852
 20
284.23509
 30
0.0
 11
379.301277
 21
284.23509
 31
0.0
  0
LINE
  5
471
100
AcDbEntity
  8
CENTER
100
AcDbLine
 10
382.858065
 20
282.833921
 30
0.0
 11
382.858065
 21
287.484507
 31
0.0
  0
LINE
  5
472
100
AcDbEntity
  8
CENTER
100
AcDbLine
 10
386.858065
 20
282.833921
 30
0.0
 11
386.858065
 21
287.484507
 31
0.0
  0
LINE
  5
473
100
AcDbEntity
  8
CENTER
100
AcDbLine
 10
385.312279
 20
284.23509
 30
0.0
 11
390.414854
 21
284.23509
 31
0.0
  0
LINE
  5
49F
100
AcDbEntity
  8
CENTER
100
AcDbLine
 10
455.918789
 20
286.320098
 30
0.0
 11
453.972795
 21
281.949324
 31
0.0
  0
LINE
  5
4A1
100
AcDbEntity
  8
CENTER
100
AcDbLine
 10
457.597038
 20
282.031028
 30
0.0
 11
453.253982
 21
283.964681
 31
0.0
  0
LINE
  5
4A2
100
AcDbEntity
  8
CENTER
100
AcDbLine
 10
508.245812
 20
258.865146
 30
0.0
 11
510.268258
 21
263.407634
 31
0.0
  0
LINE
  5
4A3
100
AcDbEntity
  8
CENTER
100
AcDbLine
 10
510.298023
 20
259.661674
 30
0.0
 11
505.725548
 21
261.697471
 31
0.0
  0
TEXT
  5
67A
100
AcDbEntity
  8
TEXT
100
AcDbText
 10
715.864705
 20
38.79038
 30
0.0
 40
3.0
  1
LAYER 5A FORWARD SUPPORT RIB
100
AcDbText
  0
TEXT
  5
67B
100
AcDbEntity
  8
TEXT
100
AcDbText
 10
717.955627
 20
24.58672
 30
0.0
 40
3.0
  1
B-FAC
100
AcDbText
  0
TEXT
  5
67C
100
AcDbEntity
  8
TEXT
100
AcDbText
 10
765.943909
 20
25.319088
 30
0.0
 40
3.0
  1
L5-RIB01
100
AcDbText
  0
TEXT
  5
67D
100
AcDbEntity
  8
TEXT
100
AcDbText
 10
668.13573
 20
34.107503
 30
0.0
 40
3.0
  1
S. KYRE
100
AcDbText
  0
TEXT
  5
67E
100
AcDbEntity
  8
TEXT
100
AcDbText
 10
693.22884
 20
33.924411
 30
0.0
 40
1.5
  1
11-10-95
100
AcDbText
  0
TEXT
  5
6BD
100
AcDbEntity
  8
TEXT
100
AcDbText
 10
718.149568
 20
17.36354
 30
0.0
 40
3.0
  1
1=1
100
AcDbText
  0
LINE
  5
6F1
100
AcDbEntity
  8
BEAMS-A
100
AcDbLine
 10
456.429821
 20
282.550706
 30
0.0
 11
506.647459
 21
260.192373
 31
0.0
  0
LINE
  5
6F4
100
AcDbEntity
  8
BEAMS-A
100
AcDbLine
 10
454.772303
 20
294.235043
 30
0.0
 11
528.275066
 21
261.509505
 31
0.0
  0
ARC
  5
6F7
100
AcDbEntity
  8
BEAMS-A
100
AcDbCircle
 10
450.505589
 20
284.23509
 30
0.0
 40
2.0
100
AcDbArc
 50
90.0
 51
180.00135
  0
LINE
  5
6F8
100
AcDbEntity
  8
BEAMS-A
100
AcDbLine
 10
450.505589
 20
286.23509
 30
0.0
 11
453.071745
 21
286.23509
 31
0.0
  0
ARC
  5
6FF
100
AcDbEntity
  8
BEAMS-A
100
AcDbCircle
 10
315.173065
 20
284.23509
 30
0.0
 40
2.0
100
AcDbArc
 50
90.0
 51
180.00135
  0
ARC
  5
700
100
AcDbEntity
  8
BEAMS-A
100
AcDbCircle
 10
319.173065
 20
284.23509
 30
0.0
 40
2.0
100
AcDbArc
 50
359.99865
 51
90.0
  0
LINE
  5
701
100
AcDbEntity
  8
BEAMS-A
100
AcDbLine
 10
315.173065
 20
286.23509
 30
0.0
 11
319.173065
 21
286.23509
 31
0.0
  0
ARC
  5
702
100
AcDbEntity
  8
BEAMS-A
100
AcDbCircle
 10
382.858065
 20
284.23509
 30
0.0
 40
2.0
100
AcDbArc
 50
90.0
 51
180.00135
  0
ARC
  5
703
100
AcDbEntity
  8
BEAMS-A
100
AcDbCircle
 10
386.858065
 20
284.23509
 30
0.0
 40
2.0
100
AcDbArc
 50
359.99865
 51
90.0
  0
LINE
  5
704
100
AcDbEntity
  8
BEAMS-A
100
AcDbLine
 10
382.858065
 20
286.23509
 30
0.0
 11
386.858065
 21
286.23509
 31
0.0
  0
LINE
  5
705
100
AcDbEntity
  8
BEAMS-A
100
AcDbLine
 10
388.858065
 20
284.235043
 30
0.0
 11
448.505589
 21
284.235043
 31
0.0
  0
LINE
  5
706
100
AcDbEntity
  8
BEAMS-A
100
AcDbLine
 10
321.173065
 20
284.235043
 30
0.0
 11
380.858065
 21
284.235043
 31
0.0
  0
LINE
  5
709
100
AcDbEntity
  8
BEAMS-A
100
AcDbLine
 10
506.647459
 20
260.192373
 30
0.0
 11
507.054195
 21
261.105919
 31
0.0
  0
LINE
  5
70A
100
AcDbEntity
  8
BEAMS-A
100
AcDbLine
 10
509.69476
 20
262.119536
 30
0.0
 11
518.817435
 21
258.057859
 31
0.0
  0
ARC
  5
70B
100
AcDbEntity
  8
BEAMS-A
100
AcDbCircle
 10
508.881286
 20
260.292445
 30
0.0
 40
2.0
100
AcDbArc
 50
66.0
 51
156.0
  0
LINE
  5
70C
100
AcDbEntity
  8
BEAMS-A
100
AcDbLine
 10
518.817435
 20
258.057859
 30
0.0
 11
528.275066
 21
261.509505
 31
0.0
  0
ARC
  5
713
100
AcDbEntity
  8
BEAMS-A
100
AcDbCircle
 10
454.60273
 20
283.36418
 30
0.0
 40
2.0
100
AcDbArc
 50
336.0
 51
66.0
  0
LINE
  5
714
100
AcDbEntity
  8
BEAMS-A
100
AcDbLine
 10
455.416203
 20
285.19127
 30
0.0
 11
453.071745
 21
286.23509
 31
0.0
  0
LINE
  5
715
100
AcDbEntity
  8
BEAMS-A
100
AcDbLine
 10
452.646689
 20
284.235043
 30
0.0
 11
452.646737
 21
284.235043
 31
0.0
  0
LINE
  5
716
100
AcDbEntity
  8
BEAMS-A
100
AcDbLine
 10
264.373089
 20
294.235043
 30
0.0
 11
264.373089
 21
284.235043
 31
0.0
  0
LINE
  5
718
100
AcDbEntity
  8
BEAMS-A
100
AcDbLine
 10
264.373089
 20
284.235043
 30
0.0
 11
313.173065
 21
284.235043
 31
0.0
  0
LINE
  5
719
100
AcDbEntity
  8
BEAMS-A
100
AcDbLine
 10
264.373089
 20
294.235043
 30
0.0
 11
454.772303
 21
294.235043
 31
0.0
  0
DIMENSION
  5
787
100
AcDbEntity
  8
DIM
100
AcDbDimension
  2
*D0
 10
315.173065
 20
284.23509
 30
0.0
 11
219.035705
 21
370.25479
 31
0.0
 12
66.986141
 22
0.0
 32
0.0
 70
   164
  3
STANDARD$4
100
AcDbRadialDimension
 15
314.024741
 25
285.872574
 35
0.0
 40
0.0
1001
ACAD
1000
DSTYLE
1002
{
1070
   288
1070
     1
1070
    40
1040
25.4
1070
     3
1000
mm
1070
   271
1070
     2
1070
     4
1000
"
1070
   143
1040
0.03937
1070
   171
1070
     3
1070
   170
1070
     1
1002
}
  0
TEXT
  5
788
100
AcDbEntity
  8
DIM
100
AcDbText
 10
189.948622
 20
361.345829
 30
0.0
 40
4.572
  1
7X
100
AcDbText
  0
LINE
  5
947
100
AcDbEntity
  8
TEXT
100
AcDbLine
 10
685.369457
 20
504.822347
 30
0.0
 11
685.369457
 21
476.975811
 31
0.0
  0
LINE
  5
948
100
AcDbEntity
  8
TEXT
100
AcDbLine
 10
695.281868
 20
504.822347
 30
0.0
 11
695.281868
 21
476.975811
 31
0.0
  0
LINE
  5
949
100
AcDbEntity
  8
TEXT
100
AcDbLine
 10
764.877868
 20
504.822347
 30
0.0
 11
764.877868
 21
476.975811
 31
0.0
  0
LINE
  5
94A
100
AcDbEntity
  8
TEXT
100
AcDbLine
 10
787.229868
 20
504.822347
 30
0.0
 11
787.229868
 21
476.975811
 31
0.0
  0
TEXT
  5
94C
100
AcDbEntity
  8
TEXT
100
AcDbText
 10
688.048837
 20
499.694942
 30
0.0
 40
2.0
  1
01
100
AcDbText
  0
TEXT
  5
94D
100
AcDbEntity
  8
TEXT
100
AcDbText
 10
697.048837
 20
499.694942
 30
0.0
 40
2.0
  1
ADD ALIGNMENT HOLE 
100
AcDbText
  0
TEXT
  5
94E
100
AcDbEntity
  8
TEXT
100
AcDbText
 10
768.048837
 20
499.694942
 30
0.0
 40
2.0
  1
03-27-96
100
AcDbText
  0
INSERT
  5
9E0
100
AcDbEntity
  8
TEXT
100
AcDbBlockReference
  2
D-BORDER
 10
0.0
 20
0.0
 30
0.0
 41
25.4
 42
25.4
 43
25.4
  0
LINE
  5
9E1
100
AcDbEntity
  8
CENTER
100
AcDbLine
 10
506.390219
 20
140.201977
 30
0.0
 11
506.390219
 21
488.251354
 31
0.0
  0
LINE
  5
9E2
100
AcDbEntity
  8
CENTER
100
AcDbLine
 10
532.942404
 20
267.818378
 30
0.0
 11
34.124784
 21
267.818378
 31
0.0
  0
LINE
  5
9E3
100
AcDbEntity
  8
CENTER
100
AcDbLine
 10
779.632617
 20
146.163024
 30
0.0
 11
352.418622
 21
336.37095
 31
0.0
  0
LINE
  5
9E4
100
AcDbEntity
  8
CENTER
100
AcDbLine
 10
460.946223
 20
165.749492
 30
0.0
 11
557.16972
 21
381.871005
 31
0.0
  0
CIRCLE
  5
C55
100
AcDbEntity
  8
BEAMS-A
100
AcDbCircle
 10
506.390219
 20
267.818378
 30
0.0
 40
1.19065
  0
DIMENSION
  5
C62
100
AcDbEntity
  8
DIM
100
AcDbDimension
  2
*D2
 10
506.390219
 20
398.222685
 30
0.0
 11
545.252219
 21
398.222685
 31
0.0
 12
60.439325
 22
0.0
 32
0.0
 70
    32
  3
STANDARD
100
AcDbAlignedDimension
 13
450.505589
 23
287.484507
 33
0.0
 14
506.390219
 24
488.251354
 34
0.0
100
AcDbRotatedDimension
1001
ACAD
1000
DSTYLE
1002
{
1070
    47
1040
0.03
1070
    48
1040
0.03
1070
   272
1070
     2
1070
    76
1070
     1
1070
    40
1040
25.4
1070
     3
1000
mm
1070
   271
1070
     2
1070
     4
1000
"
1070
   274
1070
     3
1070
   143
1040
0.03937
1070
   171
1070
     3
1070
   170
1070
     1
1002
}
  0
DIMENSION
  5
C6F
100
AcDbEntity
  8
DIM
100
AcDbDimension
  2
*D3
 10
506.390219
 20
409.671271
 30
0.0
 11
446.624142
 21
409.671271
 31
0.0
 12
60.439325
 22
0.0
 32
0.0
 70
    32
  3
STANDARD
100
AcDbAlignedDimension
 13
386.858065
 23
287.484507
 33
0.0
 14
506.390219
 24
488.251354
 34
0.0
100
AcDbRotatedDimension
1001
ACAD
1000
DSTYLE
1002
{
1070
    47
1040
0.03
1070
    48
1040
0.03
1070
   272
1070
     2
1070
    76
1070
     1
1070
    40
1040
25.4
1070
     3
1000
mm
1070
   271
1070
     2
1070
     4
1000
"
1070
   274
1070
     3
1070
   143
1040
0.03937
1070
   171
1070
     3
1070
   170
1070
     1
1002
}
  0
DIMENSION
  5
C7C
100
AcDbEntity
  8
DIM
100
AcDbDimension
  2
*D4
 10
506.390219
 20
421.607874
 30
0.0
 11
444.624142
 21
421.607874
 31
0.0
 12
60.439325
 22
0.0
 32
0.0
 70
    32
  3
STANDARD
100
AcDbAlignedDimension
 13
382.858065
 23
287.484507
 33
0.0
 14
506.390219
 24
488.251354
 34
0.0
100
AcDbRotatedDimension
1001
ACAD
1000
DSTYLE
1002
{
1070
    47
1040
0.03
1070
    48
1040
0.03
1070
   272
1070
     2
1070
    76
1070
     1
1070
    40
1040
25.4
1070
     3
1000
mm
1070
   271
1070
     2
1070
     4
1000
"
1070
   274
1070
     3
1070
   143
1040
0.03937
1070
   171
1070
     3
1070
   170
1070
     1
1002
}
  0
DIMENSION
  5
C89
100
AcDbEntity
  8
DIM
100
AcDbDimension
  2
*D5
 10
506.390219
 20
437.055243
 30
0.0
 11
412.781642
 21
437.055243
 31
0.0
 12
60.439325
 22
0.0
 32
0.0
 70
    32
  3
STANDARD
100
AcDbAlignedDimension
 13
319.173065
 23
287.484507
 33
0.0
 14
506.390219
 24
488.251354
 34
0.0
100
AcDbRotatedDimension
1001
ACAD
1000
DSTYLE
1002
{
1070
    47
1040
0.03
1070
    48
1040
0.03
1070
   272
1070
     2
1070
    76
1070
     1
1070
    40
1040
25.4
1070
     3
1000
mm
1070
   271
1070
     2
1070
     4
1000
"
1070
   274
1070
     3
1070
   143
1040
0.03937
1070
   171
1070
     3
1070
   170
1070
     1
1002
}
  0
DIMENSION
  5
C96
100
AcDbEntity
  8
DIM
100
AcDbDimension
  2
*D6
 10
506.390219
 20
450.747228
 30
0.0
 11
410.781642
 21
450.747228
 31
0.0
 12
60.439325
 22
0.0
 32
0.0
 70
    32
  3
STANDARD
100
AcDbAlignedDimension
 13
315.173065
 23
287.484507
 33
0.0
 14
506.390219
 24
488.251354
 34
0.0
100
AcDbRotatedDimension
1001
ACAD
1000
DSTYLE
1002
{
1070
    47
1040
0.03
1070
    48
1040
0.03
1070
   272
1070
     2
1070
    76
1070
     1
1070
    40
1040
25.4
1070
     3
1000
mm
1070
   271
1070
     2
1070
     4
1000
"
1070
   274
1070
     3
1070
   143
1040
0.03937
1070
   171
1070
     3
1070
   170
1070
     1
1002
}
  0
DIMENSION
  5
CA3
100
AcDbEntity
  8
DIM
100
AcDbDimension
  2
*D7
 10
506.390219
 20
477.260468
 30
0.0
 11
385.381654
 21
477.260468
 31
0.0
 12
60.439325
 22
0.0
 32
0.0
 70
    32
  3
STANDARD
100
AcDbAlignedDimension
 13
264.373089
 23
294.235043
 33
0.0
 14
506.390219
 24
488.251354
 34
0.0
100
AcDbRotatedDimension
1001
ACAD
1000
DSTYLE
1002
{
1070
    47
1040
0.03
1070
    48
1040
0.03
1070
   272
1070
     2
1070
    76
1070
     1
1070
    40
1040
25.4
1070
     3
1000
mm
1070
   271
1070
     2
1070
     4
1000
"
1070
   274
1070
     3
1070
   143
1040
0.03937
1070
   171
1070
     3
1070
   170
1070
     1
1002
}
  0
DIMENSION
  5
CB0
100
AcDbEntity
  8
DIM
100
AcDbDimension
  2
*D8
 10
61.095096
 20
267.818378
 30
0.0
 11
61.095096
 21
281.026711
 31
0.0
 70
    32
  3
STANDARD
100
AcDbAlignedDimension
 13
264.373089
 23
294.235043
 33
0.0
 14
34.124784
 24
267.818378
 34
0.0
 50
90.0
100
AcDbRotatedDimension
1001
ACAD
1000
DSTYLE
1002
{
1070
    47
1040
0.03
1070
    48
1040
0.03
1070
   272
1070
     2
1070
    76
1070
     1
1070
    40
1040
25.4
1070
     3
1000
mm
1070
   271
1070
     2
1070
     4
1000
"
1070
   274
1070
     3
1070
   143
1040
0.03937
1070
   171
1070
     3
1070
   170
1070
     1
1002
}
  0
DIMENSION
  5
CC9
100
AcDbEntity
  8
DIM
100
AcDbDimension
  2
*D9
 10
255.040844
 20
267.818378
 30
0.0
 11
190.118444
 21
258.674378
 31
0.0
 70
    32
  3
STANDARD
100
AcDbAlignedDimension
 13
264.373089
 23
284.235043
 33
0.0
 14
34.124784
 24
267.818378
 34
0.0
 50
90.0
100
AcDbRotatedDimension
1001
ACAD
1000
DSTYLE
1002
{
1070
    47
1040
0.05
1070
    71
1070
     1
1070
   272
1070
     2
1070
    76
1070
     1
1070
    40
1040
25.4
1070
     3
1000
mm
1070
   271
1070
     2
1070
     4
1000
"
1070
   274
1070
     3
1070
   143
1040
0.03937
1070
   171
1070
     3
1070
   170
1070
     1
1002
}
  0
DIMENSION
  5
CD6
100
AcDbEntity
  8
DIM
100
AcDbDimension
  2
*D10
 10
547.857132
 20
360.95459
 30
0.0
 11
583.359336
 21
345.14799
 31
0.0
 12
66.986141
 22
0.0
 32
0.0
 70
   160
 51
24.0
  3
STANDARD
100
AcDbAlignedDimension
 13
454.772303
 23
294.235043
 33
0.0
 14
557.16972
 24
381.871005
 34
0.0
 50
336.0
100
AcDbRotatedDimension
1001
ACAD
1000
DSTYLE
1002
{
1070
    47
1040
0.05
1070
   272
1070
     2
1070
    76
1070
     1
1070
    40
1040
25.4
1070
     3
1000
mm
1070
   271
1070
     2
1070
     4
1000
"
1070
   274
1070
     3
1070
   143
1040
0.03937
1070
   171
1070
     3
1070
   170
1070
     1
1002
}
  0
DIMENSION
  5
CE3
100
AcDbEntity
  8
DIM
100
AcDbDimension
  2
*D11
 10
543.203618
 20
350.502625
 30
0.0
 11
578.357761
 21
334.850993
 31
0.0
 12
66.986141
 22
0.0
 32
0.0
 70
    32
 51
24.0
  3
STANDARD
100
AcDbAlignedDimension
 13
453.071745
 23
286.23509
 33
0.0
 14
557.16972
 24
381.871005
 34
0.0
 50
336.0
100
AcDbRotatedDimension
1001
ACAD
1000
DSTYLE
1002
{
1070
    47
1040
0.05
1070
   272
1070
     2
1070
    76
1070
     1
1070
    40
1040
25.4
1070
     3
1000
mm
1070
   271
1070
     2
1070
     4
1000
"
1070
   274
1070
     3
1070
   143
1040
0.03937
1070
   171
1070
     3
1070
   170
1070
     1
1002
}
  0
DIMENSION
  5
CF0
100
AcDbEntity
  8
DIM
100
AcDbDimension
  2
*D12
 10
538.432707
 20
339.786985
 30
0.0
 11
573.238789
 21
324.290319
 31
0.0
 12
66.986141
 22
0.0
 32
0.0
 70
    32
 51
24.0
  3
STANDARD
100
AcDbAlignedDimension
 13
455.918789
 23
286.320098
 33
0.0
 14
557.16972
 24
381.871005
 34
0.0
 50
336.0
100
AcDbRotatedDimension
1001
ACAD
1000
DSTYLE
1002
{
1070
    47
1040
0.05
1070
   272
1070
     2
1070
    76
1070
     1
1070
    40
1040
25.4
1070
     3
1000
mm
1070
   271
1070
     2
1070
     4
1000
"
1070
   274
1070
     3
1070
   143
1040
0.03937
1070
   171
1070
     3
1070
   170
1070
     1
1002
}
  0
DIMENSION
  5
CFD
100
AcDbEntity
  8
DIM
100
AcDbDimension
  2
*D13
 10
537.780208
 20
325.200487
 30
0.0
 11
570.497925
 21
310.633621
 31
0.0
 12
66.986141
 22
0.0
 32
0.0
 70
    32
 51
24.0
  3
STANDARD
100
AcDbAlignedDimension
 13
557.16972
 23
381.871005
 33
0.0
 14
510.268258
 24
263.407634
 34
0.0
 50
336.0
100
AcDbRotatedDimension
1001
ACAD
1000
DSTYLE
1002
{
1070
    47
1040
0.05
1070
   272
1070
     2
1070
    75
1070
     1
1070
    40
1040
25.4
1070
     3
1000
mm
1070
   271
1070
     2
1070
     4
1000
"
1070
   274
1070
     3
1070
   143
1040
0.03937
1070
   171
1070
     3
1070
   170
1070
     1
1002
}
  0
DIMENSION
  5
D0A
100
AcDbEntity
  8
DIM
100
AcDbDimension
  2
*D14
 10
542.348999
 20
310.910616
 30
0.0
 11
577.155081
 21
295.41395
 31
0.0
 12
66.986141
 22
0.0
 32
0.0
 70
    32
 51
24.0
  3
STANDARD
100
AcDbAlignedDimension
 13
557.16972
 23
381.871005
 33
0.0
 14
518.817435
 24
258.057859
 34
0.0
 50
336.0
100
AcDbRotatedDimension
1001
ACAD
1000
DSTYLE
1002
{
1070
    47
1040
0.05
1070
   272
1070
     2
1070
    75
1070
     1
1070
    40
1040
25.4
1070
     3
1000
mm
1070
   271
1070
     2
1070
     4
1000
"
1070
   274
1070
     3
1070
   143
1040
0.03937
1070
   171
1070
     3
1070
   170
1070
     1
1002
}
  0
DIMENSION
  5
DC7
100
AcDbEntity
  8
DIM
100
AcDbDimension
  2
*D15
 10
544.424302
 20
297.781283
 30
0.0
 11
580.274566
 21
281.819717
 31
0.0
 12
66.986141
 22
0.0
 32
0.0
 70
    32
 51
24.0
  3
STANDARD
100
AcDbAlignedDimension
 13
557.16972
 23
381.871005
 33
0.0
 14
528.275066
 24
261.509505
 34
0.0
 50
336.0
100
AcDbRotatedDimension
1001
ACAD
1000
DSTYLE
1002
{
1070
    47
1040
0.05
1070
   272
1070
     2
1070
    75
1070
     1
1070
    40
1040
25.4
1070
     3
1000
mm
1070
   271
1070
     2
1070
     4
1000
"
1070
   274
1070
     3
1070
   143
1040
0.03937
1070
   171
1070
     3
1070
   170
1070
     1
1002
}
  0
DIMENSION
  5
DD5
100
AcDbEntity
  8
DIM
100
AcDbDimension
  2
*D16
 10
539.84371
 20
256.358813
 30
0.0
 11
571.755836
 21
252.159973
 31
0.0
 12
66.986141
 22
0.0
 32
0.0
 70
    32
 51
24.0
  3
STANDARD
100
AcDbAlignedDimension
 13
352.418622
 23
336.37095
 33
0.0
 14
528.275066
 24
261.509505
 34
0.0
 50
66.0
100
AcDbRotatedDimension
1001
ACAD
1000
DSTYLE
1002
{
1070
    47
1040
0.05
1070
   272
1070
     2
1070
    75
1070
     1
1070
    40
1040
25.4
1070
     3
1000
mm
1070
   271
1070
     2
1070
     4
1000
"
1070
   274
1070
     3
1070
   143
1040
0.03937
1070
   171
1070
     3
1070
   170
1070
     1
1002
}
  0
DIMENSION
  5
DE3
100
AcDbEntity
  8
DIM
100
AcDbDimension
  2
*D17
 10
594.945887
 20
228.390854
 30
0.0
 11
627.554135
 21
223.882081
 31
0.0
 12
66.986141
 22
0.0
 32
0.0
 70
    32
 51
24.0
  3
STANDARD
100
AcDbAlignedDimension
 13
518.817435
 23
258.057859
 33
0.0
 14
352.418622
 24
336.37095
 34
0.0
 50
66.0
100
AcDbRotatedDimension
1001
ACAD
1000
DSTYLE
1002
{
1070
    47
1040
0.05
1070
   272
1070
     2
1070
    76
1070
     1
1070
    40
1040
25.4
1070
     3
1000
mm
1070
   271
1070
     2
1070
     4
1000
"
1070
   274
1070
     3
1070
   143
1040
0.03937
1070
   171
1070
     3
1070
   170
1070
     1
1002
}
  0
DIMENSION
  5
DFF
100
AcDbEntity
  8
DIM
100
AcDbDimension
  2
*D18
 10
657.26054
 20
200.646583
 30
0.0
 11
718.548999
 21
183.368557
 31
0.0
 12
-8.081204
 22
0.0
 32
0.0
 70
    32
 51
24.0
  3
STANDARD
100
AcDbAlignedDimension
 13
506.647459
 23
260.192373
 33
0.0
 14
779.632617
 24
146.163024
 34
0.0
 50
66.0
100
AcDbRotatedDimension
1001
ACAD
1000
DSTYLE
1002
{
1070
    71
1070
     1
1070
    48
1040
0.05
1070
   272
1070
     2
1070
    76
1070
     1
1070
    40
1040
25.4
1070
     3
1000
mm
1070
   271
1070
     2
1070
     4
1000
"
1070
   274
1070
     3
1070
   143
1040
0.03937
1070
   171
1070
     3
1070
   170
1070
     1
1002
}
  0
DIMENSION
  5
E0D
100
AcDbEntity
  8
DIM
100
AcDbDimension
  2
*D19
 10
557.16972
 20
381.871005
 30
0.0
 11
485.272245
 21
168.466121
 31
0.0
 12
60.439325
 22
0.0
 32
0.0
 70
    34
  3
STANDARD$2
100
AcDb2LineAngularDimension
 13
506.390219
 23
140.201977
 33
0.0
 14
506.390219
 24
488.251354
 34
0.0
 15
460.946223
 25
165.749492
 35
0.0
 16
494.351954
 26
166.962441
 36
0.0
1001
ACAD
1000
DSTYLE
1002
{
1070
    48
1040
0.05
1070
   272
1070
     2
1070
    76
1070
     1
1070
    40
1040
25.4
1070
   271
1070
     2
1070
     4
1000
"
1070
   274
1070
     3
1070
   143
1040
0.03937
1070
   171
1070
     3
1070
   170
1070
     1
1002
}
  0
MTEXT
  5
E1A
100
AcDbEntity
  8
TEXT
100
AcDbMText
 10
43.50835
 20
195.882305
 30
0.0
 40
4.0
 41
248.9075
 71
     1
 72
     1
  3
{MATERIAL: }\P{0.51mm [0.020"] thick Kevlar-Carbon-fiber-Epoxy-composite}\P\P{LAMINATE SCHEDULE:}\P\P{Core:}\P{cloth:  2 layers Kevlar 29 (0.004" thick ea.)}\P{ 1.7 oz/sq. yd. plain weave}\P{epoxy: heat resistant laminating epoxy}\P{ Ciba-Geigy RP400
  3
5R/RP1500H}\P{cure: 24 hrs at room temp. @ 20psi}\P{ 2 hrs postcure at 66°C}\P\P{Skins:}\P{cloth: 1 layer Carbon fiber (0.006" thick)}\P{ xx oz/sq. yd. plain weave}\P{epoxy: heat resistant laminating epoxy}\P{ Ciba-Geigy RP4005R/RP1500H}\P{cure: 24 h
  1
rs at room temp. @ 20psi}\P{ 2 hrs postcure at 66°C}\P\P{LASER CUTTING:}\P{use fixture L5-RIB11}\P
  0
TEXT
  5
E71
100
AcDbEntity
  8
TEXT
100
AcDbText
 10
633.550823
 20
277.770397
 30
0.0
 40
8.0
  1
SCALE: 10=1
100
AcDbText
  0
DIMENSION
  5
E72
100
AcDbEntity
  8
DIM
100
AcDbDimension
  2
*D20
 10
687.565119
 20
445.903715
 30
0.0
 11
626.986119
 21
445.903715
 31
0.0
 70
    32
  3
STANDARD
100
AcDbAlignedDimension
 13
689.089119
 23
411.495711
 33
0.0
 14
687.565119
 24
411.495711
 34
0.0
100
AcDbRotatedDimension
1001
ACAD
1000
DSTYLE
1002
{
1070
    47
1040
0.03
1070
    71
1070
     1
1070
    48
1040
0.03
1070
   272
1070
     2
1070
    40
1040
25.4
1070
     3
1000
mm
1070
   144
1040
0.1
1070
   271
1070
     2
1070
     4
1000
"
1070
   274
1070
     3
1070
   143
1040
0.03937
1070
   171
1070
     3
1070
   170
1070
     1
1002
}
  0
DIMENSION
  5
E73
100
AcDbEntity
  8
DIM
100
AcDbDimension
  2
*D21
 10
692.645119
 20
433.202241
 30
0.0
 11
753.224119
 21
433.202241
 31
0.0
 70
    32
  3
STANDARD
100
AcDbAlignedDimension
 13
691.121119
 23
411.495711
 33
0.0
 14
692.645119
 24
411.495711
 34
0.0
100
AcDbRotatedDimension
1001
ACAD
1000
DSTYLE
1002
{
1070
    47
1040
0.03
1070
    71
1070
     1
1070
    48
1040
0.03
1070
   272
1070
     2
1070
    40
1040
25.4
1070
     3
1000
mm
1070
   144
1040
0.1
1070
   271
1070
     2
1070
     4
1000
"
1070
   274
1070
     3
1070
   143
1040
0.03937
1070
   171
1070
     3
1070
   170
1070
     1
1002
}
  0
DIMENSION
  5
E74
100
AcDbEntity
  8
DIM
100
AcDbDimension
  2
*D22
 10
692.645119
 20
420.885661
 30
0.0
 11
753.224119
 21
420.885661
 31
0.0
 70
    32
  3
STANDARD
100
AcDbAlignedDimension
 13
687.565119
 23
411.495711
 33
0.0
 14
692.645119
 24
411.495711
 34
0.0
100
AcDbRotatedDimension
1001
ACAD
1000
DSTYLE
1002
{
1070
    47
1040
0.03
1070
    71
1070
     1
1070
    48
1040
0.03
1070
   272
1070
     2
1070
    40
1040
25.4
1070
     3
1000
mm
1070
   144
1040
0.1
1070
   271
1070
     2
1070
     4
1000
"
1070
   274
1070
     3
1070
   143
1040
0.03937
1070
   171
1070
     3
1070
   170
1070
     1
1002
}
  0
LEADER
  5
E75
100
AcDbEntity
  8
KEVLAR
100
AcDbLeader
  3
STANDARD
 73
     0
 74
     0
 75
     1
 40
4.572
 41
27.432
 76
     3
 10
689.822093
 20
321.53772
 30
0.0
 10
709.425327
 20
351.620119
 30
0.0
 10
713.997327
 20
351.620119
 30
0.0
 77
   256
1001
ACAD
1000
DSTYLE
1002
{
1070
   288
1070
     1
1070
    47
1040
0.03
1070
    71
1070
     1
1070
    48
1040
0.03
1070
   272
1070
     2
1070
    76
1070
     1
1070
    40
1040
25.4
1070
     3
1000
mm
1070
   271
1070
     2
1070
     4
1000
"
1070
   274
1070
     3
1070
   143
1040
0.03937
1070
   171
1070
     3
1070
   170
1070
     1
1002
}
  0
LEADER
  5
E76
100
AcDbEntity
  8
C-FIBER
100
AcDbLeader
  3
STANDARD
 76
     2
 10
688.239254
 20
367.126767
 30
0.0
 10
714.569149
 20
391.05816
 30
0.0
 77
   256
1001
ACAD
1000
DSTYLE
1002
{
1070
   288
1070
     1
1070
    47
1040
0.03
1070
    71
1070
     1
1070
    48
1040
0.03
1070
   272
1070
     2
1070
    76
1070
     1
1070
    40
1040
25.4
1070
     3
1000
mm
1070
   271
1070
     2
1070
     4
1000
"
1070
   274
1070
     3
1070
   143
1040
0.03937
1070
   171
1070
     3
1070
   170
1070
     1
1002
}
  0
LEADER
  5
E77
100
AcDbEntity
  8
C-FIBER
100
AcDbLeader
  3
STANDARD
 73
     0
 74
     0
 75
     1
 40
4.572
 41
51.816
 76
     3
 10
692.302716
 20
358.763572
 30
0.0
 10
714.569149
 20
391.05816
 30
0.0
 10
719.141149
 20
391.05816
 30
0.0
 77
   256
1001
ACAD
1000
DSTYLE
1002
{
1070
   288
1070
     1
1070
    47
1040
0.03
1070
    71
1070
     1
1070
    48
1040
0.03
1070
   272
1070
     2
1070
    76
1070
     1
1070
    40
1040
25.4
1070
     3
1000
mm
1070
   271
1070
     2
1070
     4
1000
"
1070
   274
1070
     3
1070
   143
1040
0.03937
1070
   171
1070
     3
1070
   170
1070
     1
1002
}
  0
POLYLINE
  5
E78
100
AcDbEntity
  8
C-FIBER
100
AcDb2dPolyline
 66
     1
 10
0.0
 20
0.0
 30
0.0
 70
     1
  0
VERTEX
  5
E79
100
AcDbEntity
  8
C-FIBER
100
AcDbVertex
100
AcDb2dVertex
 10
689.089119
 20
411.495711
 30
0.0
  0
VERTEX
  5
E7A
100
AcDbEntity
  8
C-FIBER
100
AcDbVertex
100
AcDb2dVertex
 10
689.089119
 20
341.495711
 30
0.0
  0
VERTEX
  5
E7B
100
AcDbEntity
  8
C-FIBER
100
AcDbVertex
100
AcDb2dVertex
 10
687.565119
 20
341.495711
 30
0.0
  0
VERTEX
  5
E7C
100
AcDbEntity
  8
C-FIBER
100
AcDbVertex
100
AcDb2dVertex
 10
687.565119
 20
411.495711
 30
0.0
  0
SEQEND
  5
E7D
100
AcDbEntity
  8
C-FIBER
  0
POLYLINE
  5
E7E
100
AcDbEntity
  8
C-FIBER
100
AcDb2dPolyline
 66
     1
 10
0.0
 20
0.0
 30
0.0
 70
     1
  0
VERTEX
  5
E7F
100
AcDbEntity
  8
C-FIBER
100
AcDbVertex
100
AcDb2dVertex
 10
691.121119
 20
411.495711
 30
0.0
  0
VERTEX
  5
E80
100
AcDbEntity
  8
C-FIBER
100
AcDbVertex
100
AcDb2dVertex
 10
691.121119
 20
341.495711
 30
0.0
  0
VERTEX
  5
E81
100
AcDbEntity
  8
C-FIBER
100
AcDbVertex
100
AcDb2dVertex
 10
692.645119
 20
341.495711
 30
0.0
  0
VERTEX
  5
E82
100
AcDbEntity
  8
C-FIBER
100
AcDbVertex
100
AcDb2dVertex
 10
692.645119
 20
411.495711
 30
0.0
  0
SEQEND
  5
E83
100
AcDbEntity
  8
C-FIBER
  0
POLYLINE
  5
E84
100
AcDbEntity
  8
TEXT
100
AcDb2dPolyline
 66
     1
 10
0.0
 20
0.0
 30
0.0
 70
     1
  0
VERTEX
  5
E85
100
AcDbEntity
  8
TEXT
100
AcDbVertex
100
AcDb2dVertex
 10
689.089119
 20
311.495711
 30
0.0
  0
VERTEX
  5
E86
100
AcDbEntity
  8
TEXT
100
AcDbVertex
100
AcDb2dVertex
 10
689.089119
 20
411.495711
 30
0.0
  0
VERTEX
  5
E87
100
AcDbEntity
  8
TEXT
100
AcDbVertex
100
AcDb2dVertex
 10
691.121119
 20
411.495711
 30
0.0
  0
VERTEX
  5
E88
100
AcDbEntity
  8
TEXT
100
AcDbVertex
100
AcDb2dVertex
 10
691.121119
 20
311.495711
 30
0.0
  0
SEQEND
  5
E89
100
AcDbEntity
  8
TEXT
  0
TEXT
  5
E8A
100
AcDbEntity
  8
TEXT
100
AcDbText
 10
633.550823
 20
291.10373
 30
0.0
 40
8.0
  1
ENDVIEW
100
AcDbText
  0
DIMENSION
  5
E8B
100
AcDbEntity
  8
DIM
100
AcDbDimension
  2
*D23
 10
657.172046
 20
311.495711
 30
0.0
 11
657.172046
 21
326.495711
 31
0.0
 70
    32
  3
STANDARD
100
AcDbAlignedDimension
 13
687.565119
 23
341.495711
 33
0.0
 14
689.089119
 24
311.495711
 34
0.0
 50
90.0
100
AcDbRotatedDimension
1001
ACAD
1000
DSTYLE
1002
{
1070
    47
1040
0.03
1070
    48
1040
0.03
1070
   272
1070
     2
1070
    40
1040
25.4
1070
     3
1000
mm
1070
   144
1040
0.1
1070
   271
1070
     2
1070
     4
1000
"
1070
   274
1070
     3
1070
   143
1040
0.03937
1070
   171
1070
     3
1070
   170
1070
     1
1002
}
  0
MTEXT
  5
E8C
100
AcDbEntity
  8
C-FIBER
100
AcDbMText
 10
721.427149
 20
391.05816
 30
0.0
 40
4.572
 41
0.0
 71
     4
 72
     1
  1
{CARBON FIBER}
  0
MTEXT
  5
E8D
100
AcDbEntity
  8
KEVLAR
100
AcDbMText
 10
716.283327
 20
351.620119
 30
0.0
 40
4.572
 41
0.0
 71
     4
 72
     1
  1
{KEVLAR}
  0
TEXT
  5
EFB
100
AcDbEntity
  8
TEXT
100
AcDbText
 10
697.27366
 20
494.592353
 30
0.0
 40
2.0
  1
CHANGE LOCATION OF LOCATING HOLES
100
AcDbText
  0
TEXT
  5
EFC
100
AcDbEntity
  8
TEXT
100
AcDbText
 10
697.27366
 20
491.29012
 30
0.0
 40
2.0
  1
CHANGE MATERIAL TO CARBON-FIBER -
100
AcDbText
  0
TEXT
  5
EFD
100
AcDbEntity
  8
TEXT
100
AcDbText
 10
697.27366
 20
488.241905
 30
0.0
 40
2.0
  1
KEVLAR COMPOSITE
100
AcDbText
  0
TEXT
  5
EFE
100
AcDbEntity
  8
TEXT
100
AcDbText
 10
688.27366
 20
494.592353
 30
0.0
 40
2.0
  1
02
100
AcDbText
  0
TEXT
  5
EFF
100
AcDbEntity
  8
TEXT
100
AcDbText
 10
769.159217
 20
494.592353
 30
0.0
 40
2.0
  1
02-06-97
100
AcDbText
  0
TEXT
  5
F00
100
AcDbEntity
  8
TEXT
100
AcDbText
 10
804.981896
 20
24.333643
 30
0.0
 40
3.0
  1
03
100
AcDbText
  0
DIMENSION
  5
F0C
100
AcDbEntity
  8
DIM
100
AcDbDimension
  2
*D24
 10
507.274531
 20
268.615648
 30
0.0
 11
413.518353
 21
240.078078
 31
0.0
 12
60.439325
 22
0.0
 32
0.0
 70
   163
  3
STANDARD$3
100
AcDbDiametricDimension
 15
505.505907
 25
267.021108
 35
0.0
 40
0.0
1001
ACAD
1000
DSTYLE
1002
{
1070
   288
1070
     1
1070
    47
1040
0.03
1070
    71
1070
     1
1070
    48
1040
0.03
1070
   272
1070
     2
1070
    40
1040
25.4
1070
     3
1000
mm
1070
   271
1070
     2
1070
     4
1000
"
1070
   274
1070
     3
1070
   143
1040
0.03937
1070
   171
1070
     3
1070
   170
1070
     1
1002
}
  0
LINE
  5
F11
100
AcDbEntity
  8
BEAMS-A
100
AcDbLine
 10
264.373089
 20
287.235043
 30
0.0
 11
453.284407
 21
287.235043
 31
0.0
  0
LINE
  5
F12
100
AcDbEntity
  8
BEAMS-A
100
AcDbLine
 10
453.284407
 20
287.235043
 30
0.0
 11
518.817435
 21
258.057859
 31
0.0
  0
CIRCLE
  5
F1C
100
AcDbEntity
  8
KEVLAR
100
AcDbCircle
 10
274.373089
 20
290.735043
 30
0.0
 40
1.1905
  0
LINE
  5
F1D
100
AcDbEntity
  8
CENTER
100
AcDbLine
 10
276.354669
 20
290.735043
 30
0.0
 11
272.377934
 21
290.735043
 31
0.0
  0
LINE
  5
F1E
100
AcDbEntity
  8
CENTER
100
AcDbLine
 10
274.373089
 20
288.729605
 30
0.0
 11
274.373089
 21
292.931518
 31
0.0
  0
DIMENSION
  5
F79
100
AcDbEntity
  8
DIM
100
AcDbDimension
  2
*D25
 10
506.390219
 20
463.44459
 30
0.0
 11
390.381654
 21
463.44459
 31
0.0
 12
60.439325
 22
0.0
 32
0.0
 70
    32
  3
STANDARD
100
AcDbAlignedDimension
 13
274.373089
 23
292.931518
 33
0.0
 14
506.390219
 24
488.251354
 34
0.0
100
AcDbRotatedDimension
1001
ACAD
1000
DSTYLE
1002
{
1070
    47
1040
0.03
1070
    71
1070
     1
1070
    48
1040
0.03
1070
   272
1070
     2
1070
    76
1070
     1
1070
    40
1040
25.4
1070
     3
1000
mm
1070
   271
1070
     2
1070
     4
1000
"
1070
   274
1070
     3
1070
   143
1040
0.03937
1070
   171
1070
     3
1070
   170
1070
     1
1002
}
  0
DIMENSION
  5
F9D
100
AcDbEntity
  8
DIM
100
AcDbDimension
  2
*D26
 10
147.880723
 20
267.818378
 30
0.0
 11
147.880723
 21
279.276711
 31
0.0
 70
    32
  3
STANDARD
100
AcDbAlignedDimension
 13
272.377934
 23
290.735043
 33
0.0
 14
34.124784
 24
267.818378
 34
0.0
 50
90.0
100
AcDbRotatedDimension
1001
ACAD
1000
DSTYLE
1002
{
1070
    47
1040
0.03
1070
    71
1070
     1
1070
    48
1040
0.03
1070
   272
1070
     2
1070
    76
1070
     1
1070
    40
1040
25.4
1070
     3
1000
mm
1070
   271
1070
     2
1070
     4
1000
"
1070
   274
1070
     3
1070
   143
1040
0.03937
1070
   171
1070
     3
1070
   170
1070
     1
1002
}
  0
TEXT
  5
F9E
100
AcDbEntity
  8
TEXT
100
AcDbText
 10
688.27366
 20
484.10679
 30
0.0
 40
2.0
  1
03
100
AcDbText
  0
TEXT
  5
F9F
100
AcDbEntity
  8
TEXT
100
AcDbText
 10
697.27366
 20
484.10679
 30
0.0
 40
2.0
  1
ADD SECOND LOCATING HOLE
100
AcDbText
  0
TEXT
  5
FA0
100
AcDbEntity
  8
TEXT
100
AcDbText
 10
769.159217
 20
484.10679
 30
0.0
 40
2.0
  1
03-18-97
100
AcDbText
  0
ENDSEC
  0
SECTION
  2
OBJECTS
  0
DICTIONARY
  5
C
100
AcDbDictionary
  3
ACAD_GROUP
350
D
  3
ACAD_MLINESTYLE
350
E
  0
DICTIONARY
  5
D
102
{ACAD_REACTORS
330
C
102
}
100
AcDbDictionary
  0
DICTIONARY
  5
E
102
{ACAD_REACTORS
330
C
102
}
100
AcDbDictionary
  3
STANDARD
350
13
  0
MLINESTYLE
  5
13
102
{ACAD_REACTORS
330
E
102
}
100
AcDbMlineStyle
  2
STANDARD
 70
     0
  3

 62
     0
 51
90.0
 52
90.0
 71
     2
 49
0.5
 62
   256
  6
BYLAYER
 49
-0.5
 62
   256
  6
BYLAYER
  0
ENDSEC
  0
EOF
