  0
SECTION
  2
HEADER
  9
$ACADVER
  1
AC1012
  9
$DWGCODEPAGE
  3
ansi_1252
  9
$INSBASE
 10
0.0
 20
0.0
 30
0.0
  9
$EXTMIN
 10
25.4
 20
15.875
 30
0.0
  9
$EXTMAX
 10
813.97907
 20
519.368925
 30
0.0
  9
$LIMMIN
 10
0.0
 20
0.0
  9
$LIMMAX
 10
812.0
 20
533.0
  9
$ORTHOMODE
 70
     1
  9
$REGENMODE
 70
     1
  9
$FILLMODE
 70
     1
  9
$QTEXTMODE
 70
     0
  9
$MIRRTEXT
 70
     1
  9
$DRAGMODE
 70
     2
  9
$LTSCALE
 40
10.0
  9
$OSMODE
 70
     1
  9
$ATTMODE
 70
     1
  9
$TEXTSIZE
 40
3.0
  9
$TRACEWID
 40
0.05
  9
$TEXTSTYLE
  7
STANDARD
  9
$CLAYER
  8
DIM
  9
$CELTYPE
  6
BYLAYER
  9
$CECOLOR
 62
   256
  9
$CELTSCALE
 40
1.0
  9
$DELOBJ
 70
     1
  9
$DISPSILH
 70
     0
  9
$DIMSCALE
 40
25.4
  9
$DIMASZ
 40
0.18
  9
$DIMEXO
 40
0.0625
  9
$DIMDLI
 40
0.38
  9
$DIMRND
 40
0.0
  9
$DIMDLE
 40
0.0
  9
$DIMEXE
 40
0.18
  9
$DIMTP
 40
0.03
  9
$DIMTM
 40
0.03
  9
$DIMTXT
 40
0.18
  9
$DIMCEN
 40
0.09
  9
$DIMTSZ
 40
0.0
  9
$DIMTOL
 70
     1
  9
$DIMLIM
 70
     0
  9
$DIMTIH
 70
     1
  9
$DIMTOH
 70
     1
  9
$DIMSE1
 70
     0
  9
$DIMSE2
 70
     1
  9
$DIMTAD
 70
     0
  9
$DIMZIN
 70
     0
  9
$DIMBLK
  1

  9
$DIMASO
 70
     1
  9
$DIMSHO
 70
     1
  9
$DIMPOST
  1
mm
  9
$DIMAPOST
  1
"
  9
$DIMALT
 70
     1
  9
$DIMALTD
 70
     3
  9
$DIMALTF
 40
0.03937
  9
$DIMLFAC
 40
1.0
  9
$DIMTOFL
 70
     0
  9
$DIMTVP
 40
0.0
  9
$DIMTIX
 70
     0
  9
$DIMSOXD
 70
     0
  9
$DIMSAH
 70
     0
  9
$DIMBLK1
  1

  9
$DIMBLK2
  1

  9
$DIMSTYLE
  2
STANDARD
  9
$DIMCLRD
 70
     0
  9
$DIMCLRE
 70
     0
  9
$DIMCLRT
 70
     0
  9
$DIMTFAC
 40
1.0
  9
$DIMGAP
 40
0.09
  9
$DIMJUST
 70
     0
  9
$DIMSD1
 70
     0
  9
$DIMSD2
 70
     0
  9
$DIMTOLJ
 70
     1
  9
$DIMTZIN
 70
     0
  9
$DIMALTZ
 70
     0
  9
$DIMALTTZ
 70
     0
  9
$DIMFIT
 70
     0
  9
$DIMUPT
 70
     0
  9
$DIMUNIT
 70
     2
  9
$DIMDEC
 70
     2
  9
$DIMTDEC
 70
     2
  9
$DIMALTU
 70
     2
  9
$DIMALTTD
 70
     3
  9
$DIMTXSTY
  7
STANDARD
  9
$DIMAUNIT
 70
     0
  9
$LUNITS
 70
     2
  9
$LUPREC
 70
     4
  9
$SKETCHINC
 40
0.1
  9
$FILLETRAD
 40
0.0
  9
$AUNITS
 70
     0
  9
$AUPREC
 70
     0
  9
$MENU
  1
C:\CIM\ACAD
  9
$ELEVATION
 40
0.0
  9
$PELEVATION
 40
0.0
  9
$THICKNESS
 40
0.0
  9
$LIMCHECK
 70
     0
  9
$BLIPMODE
 70
     1
  9
$CHAMFERA
 40
0.0
  9
$CHAMFERB
 40
0.0
  9
$CHAMFERC
 40
0.0
  9
$CHAMFERD
 40
0.0
  9
$SKPOLY
 70
     0
  9
$TDCREATE
 40
2450030.500736111
  9
$TDUPDATE
 40
2450526.652643819
  9
$TDINDWG
 40
0.1131414699
  9
$TDUSRTIMER
 40
0.1131414699
  9
$USRTIMER
 70
     1
  9
$ANGBASE
 50
0.0
  9
$ANGDIR
 70
     0
  9
$PDMODE
 70
     0
  9
$PDSIZE
 40
0.0
  9
$PLINEWID
 40
0.0
  9
$COORDS
 70
     1
  9
$SPLFRAME
 70
     0
  9
$SPLINETYPE
 70
     6
  9
$SPLINESEGS
 70
     8
  9
$ATTDIA
 70
     0
  9
$ATTREQ
 70
     1
  9
$HANDLING
 70
     1
  9
$HANDSEED
  5
12FC
  9
$SURFTAB1
 70
     6
  9
$SURFTAB2
 70
     6
  9
$SURFTYPE
 70
     6
  9
$SURFU
 70
     6
  9
$SURFV
 70
     6
  9
$UCSNAME
  2

  9
$UCSORG
 10
0.0
 20
0.0
 30
0.0
  9
$UCSXDIR
 10
1.0
 20
0.0
 30
0.0
  9
$UCSYDIR
 10
0.0
 20
1.0
 30
0.0
  9
$PUCSNAME
  2

  9
$PUCSORG
 10
0.0
 20
0.0
 30
0.0
  9
$PUCSXDIR
 10
1.0
 20
0.0
 30
0.0
  9
$PUCSYDIR
 10
0.0
 20
1.0
 30
0.0
  9
$USERI1
 70
     0
  9
$USERI2
 70
     0
  9
$USERI3
 70
     0
  9
$USERI4
 70
     0
  9
$USERI5
 70
     0
  9
$USERR1
 40
0.0
  9
$USERR2
 40
0.0
  9
$USERR3
 40
0.0
  9
$USERR4
 40
0.0
  9
$USERR5
 40
0.0
  9
$WORLDVIEW
 70
     1
  9
$SHADEDGE
 70
     3
  9
$SHADEDIF
 70
    70
  9
$TILEMODE
 70
     1
  9
$MAXACTVP
 70
    16
  9
$PINSBASE
 10
0.0
 20
0.0
 30
0.0
  9
$PLIMCHECK
 70
     0
  9
$PEXTMIN
 10
1.000000E+20
 20
1.000000E+20
 30
1.000000E+20
  9
$PEXTMAX
 10
-1.000000E+20
 20
-1.000000E+20
 30
-1.000000E+20
  9
$PLIMMIN
 10
0.0
 20
0.0
  9
$PLIMMAX
 10
12.0
 20
9.0
  9
$UNITMODE
 70
     0
  9
$VISRETAIN
 70
     0
  9
$PLINEGEN
 70
     0
  9
$PSLTSCALE
 70
     1
  9
$TREEDEPTH
 70
  3020
  9
$PICKSTYLE
 70
     1
  9
$CMLSTYLE
  2
STANDARD
  9
$CMLJUST
 70
     0
  9
$CMLSCALE
 40
1.0
  9
$SAVEIMAGES
 70
     0
  0
ENDSEC
  0
SECTION
  2
CLASSES
  0
CLASS
  1
ACMESCOPE
  2
AcMeScope
  3
ACME_MODULE_NAME
 90
        0
280
     0
281
     0
  0
CLASS
  1
ACMECOMMANDHISTORY
  2
AcMeCommandHistory
  3
ACME_MODULE_NAME
 90
        0
280
     0
281
     0
  0
CLASS
  1
AcRfInsAdjusterMgr
  2
AcRfInsAdjusterMgr
  3
ACME_MODULE_NAME
 90
        0
280
     0
281
     0
  0
CLASS
  1
ACGREFMASTER
  2
AcGrefMaster
  3
"AcadRfServer"
 90
        0
280
     0
281
     0
  0
CLASS
  1
AmiMaster
  2
AmiMaster
  3
"AmiServices"
 90
        0
280
     0
281
     0
  0
CLASS
  1
ACASGREFMASTER
  2
AcAsGrefMaster
  3
"AutoSurfResolver"
 90
        0
280
     0
281
     0
  0
CLASS
  1
ADAPPL
  2
AcAdAppl
  3
"DesignerServices"
 90
        0
280
     0
281
     0
  0
CLASS
  1
DEPMGR
  2
AcAdDepMgr
  3
"DesignerServices"
 90
        0
280
     0
281
     0
  0
CLASS
  1
PARAMMGR
  2
AcAdParamMgr
  3
"DesignerServices"
 90
        0
280
     0
281
     0
  0
CLASS
  1
PARAMSCOPE
  2
AcAdParamScope
  3
"DesignerServices"
 90
        0
280
     0
281
     0
  0
CLASS
  1
"IM_SYSVAR_MAN"
  2
AcImSysVarManager
  3
"ADAM"
 90
        0
280
     0
281
     0
  0
CLASS
  1
SYSTEM_VAR_INT
  2
AcImIntSysVar
  3
"ADAM"
 90
        0
280
     0
281
     0
  0
CLASS
  1
SYSTEM_VAR_REAL
  2
AcImRealSysVar
  3
"ADAM"
 90
        0
280
     0
281
     0
  0
CLASS
  1
SYSTEM_VAR_STR
  2
AcImStrSysVar
  3
"ADAM"
 90
        0
280
     0
281
     0
  0
CLASS
  1
NAMEDAPPL
  2
AcAdNamedAppl
  3
"DesignerServices"
 90
        0
280
     0
281
     0
  0
CLASS
  1
ADPART
  2
AcAdPart
  3
"DesignerServices"
 90
        0
280
     0
281
     1
  0
CLASS
  1
ADBASE
  2
AcAdBase
  3
"DesignerServices"
 90
        0
280
     0
281
     0
  0
CLASS
  1
BODYID
  2
AcAdBodyId
  3
"DesignerServices"
 90
        0
280
     0
281
     0
  0
CLASS
  1
WORKPLANEDISPLAYMGR
  2
AcAdDisplayMgr
  3
"DesignerServices"
 90
        0
280
     0
281
     0
  0
CLASS
  1
ADHNTMPLT
  2
AdHoleNoteTemplateMgr
  3
"DesignerServices"
 90
        0
280
     0
281
     0
  0
CLASS
  1
AM_HNTEMPLATE_MGR_NAME
  2
AdHoleNoteTemplateMgrName
  3
"DesignerServices"
 90
        0
280
     0
281
     0
  0
CLASS
  1
AcAdGrefModule
  2
AcAdGrefModule
  3
AD_GREF_SERVICES_NSTR
 90
        0
280
     0
281
     0
  0
CLASS
  1
AM_DRAWING_MGR
  2
AcDmDwgMgr
  3
"Designer_Drawing_Mgmt"
 90
        0
280
     0
281
     0
  0
CLASS
  1
AM_DWG_DOCUMENT
  2
AcDmDwgDocument
  3
"Designer_Drawing_Mgmt"
 90
        0
280
     0
281
     0
  0
CLASS
  1
AM_DWG_SHEET
  2
AcDmSheet
  3
"Designer_Drawing_Mgmt"
 90
        0
280
     0
281
     0
  0
CLASS
  1
AM_VIEWDIMPARMAP
  2
AcDmViewDimParMap
  3
"Designer_Drawing_Mgmt"
 90
        0
280
     0
281
     0
  0
CLASS
  1
AM_DWGMGR_NAME
  2
AcDmDwgMgrName
  3
"Designer_Drawing_Mgmt"
 90
        0
280
     0
281
     0
  0
CLASS
  1
ACAMPROJECT
  2
AcAmProject
  3
"DesignerAssemblies"
 90
        0
280
     0
281
     0
  0
CLASS
  1
ACAMGRCOMPDEF
  2
AcAmGrCompDef
  3
"DesignerAssemblies"
 90
        0
280
     0
281
     0
  0
CLASS
  1
ACAMCOMPDEF
  2
AcAmCompDef
  3
"DesignerAssemblies"
 90
        0
280
     0
281
     0
  0
CLASS
  1
ACAMCOMPDEFMGR
  2
AcAmCompDefMgr
  3
"DesignerAssemblies"
 90
        0
280
     0
281
     0
  0
CLASS
  1
AMCONTEXTMGR
  2
AcAmContextMgr
  3
"DesignerAssemblies"
 90
        0
280
     0
281
     0
  0
CLASS
  1
AcAmContextModeler
  2
AcAmContextModeler
  3
"DesignerAssemblies"
 90
        0
280
     0
281
     0
  0
CLASS
  1
ACAMDRAWINGMAN
  2
AcAmDrawingMan
  3
"DesignerAssemblies"
 90
        0
280
     0
281
     0
  0
CLASS
  1
ASSYSVARS
  2
AcAsSysVars
  3
"AutoSurf"
 90
        0
280
     0
281
     0
  0
CLASS
  1
ASSTATICVARS
  2
AcAsStaticVars
  3
"AutoSurf"
 90
        0
280
     0
281
     0
  0
CLASS
  1
ASAPP
  2
AcAsAppObject
  3
"AutoSurf"
 90
        0
280
     0
281
     0
  0
CLASS
  1
AGDICTIONARY
  2
AgDictionary
  3
"AccelView"
 90
        1
280
     0
281
     0
  0
CLASS
  1
ACRFATTGENMGR
  2
AcRfAttGeneralMgr
  3
"AcadRfServer"
 90
        0
280
     0
281
     0
  0
ENDSEC
  0
SECTION
  2
TABLES
  0
TABLE
  2
VPORT
  5
8
100
AcDbSymbolTable
 70
     4
  0
VPORT
  5
12FB
100
AcDbSymbolTableRecord
100
AcDbViewportTableRecord
  2
*ACTIVE
 70
     0
 10
0.0
 20
0.0
 11
1.0
 21
1.0
 12
428.722359
 22
267.621963
 13
0.0
 23
0.0
 14
1.0
 24
1.0
 15
10.0
 25
10.0
 16
0.0
 26
0.0
 36
1.0
 17
0.0
 27
0.0
 37
0.0
 40
503.493925
 41
1.602094
 42
50.0
 43
0.0
 44
0.0
 50
0.0
 51
0.0
 71
     0
 72
   100
 73
     1
 74
     0
 75
     0
 76
     1
 77
     0
 78
     0
  0
ENDTAB
  0
TABLE
  2
LTYPE
  5
5
100
AcDbSymbolTable
 70
     6
  0
LTYPE
  5
14
100
AcDbSymbolTableRecord
100
AcDbLinetypeTableRecord
  2
BYBLOCK
 70
     0
  3

 72
    65
 73
     0
 40
0.0
  0
LTYPE
  5
15
100
AcDbSymbolTableRecord
100
AcDbLinetypeTableRecord
  2
BYLAYER
 70
     0
  3

 72
    65
 73
     0
 40
0.0
  0
LTYPE
  5
16
100
AcDbSymbolTableRecord
100
AcDbLinetypeTableRecord
  2
CONTINUOUS
 70
    64
  3
Solid line
 72
    65
 73
     0
 40
0.0
  0
LTYPE
  5
24
100
AcDbSymbolTableRecord
100
AcDbLinetypeTableRecord
  2
CENTER
 70
    64
  3
____ _ ____ _ ____ _ ____ _ ____ _ ____ _ ____ 
 72
    65
 73
     4
 40
2.0
 49
1.25
 74
     0
 49
-0.25
 74
     0
 49
0.25
 74
     0
 49
-0.25
 74
     0
  0
LTYPE
  5
26
100
AcDbSymbolTableRecord
100
AcDbLinetypeTableRecord
  2
HIDDEN
 70
    64
  3
__ __ __ __ __ __ __ __ __ __ __ __ __ __ __ __
 72
    65
 73
     2
 40
0.375
 49
0.25
 74
     0
 49
-0.125
 74
     0
  0
LTYPE
  5
D16
100
AcDbSymbolTableRecord
100
AcDbLinetypeTableRecord
  2
PHANTOM2
 70
     0
  3
___ _ _ ___ _ _ ___ _ _ ___ _ _ ___ _ _ ___ _ _
 72
    65
 73
     6
 40
1.25
 49
0.625
 74
     0
 49
-0.125
 74
     0
 49
0.125
 74
     0
 49
-0.125
 74
     0
 49
0.125
 74
     0
 49
-0.125
 74
     0
  0
LTYPE
  5
D40
100
AcDbSymbolTableRecord
100
AcDbLinetypeTableRecord
  2
ASULTYPE
 70
     0
  3
Solid line
 72
    65
 73
     2
 40
3.0
 49
2.5
 74
     0
 49
0.5
 74
     0
  0
LTYPE
  5
D41
100
AcDbSymbolTableRecord
100
AcDbLinetypeTableRecord
  2
ASVLTYPE
 70
     0
  3
__ __ __ __ __ __ __ __ __ __ __ __ __ __ __ __ __ __ __ __ __
 72
    65
 73
     2
 40
0.75
 49
0.5
 74
     0
 49
-0.25
 74
     0
  0
ENDTAB
  0
TABLE
  2
LAYER
  5
2
100
AcDbSymbolTable
 70
     9
  0
LAYER
  5
F
100
AcDbSymbolTableRecord
100
AcDbLayerTableRecord
  2
0
 70
     0
 62
     7
  6
CONTINUOUS
  0
LAYER
  5
23
100
AcDbSymbolTableRecord
100
AcDbLayerTableRecord
  2
CENTER
 70
    64
 62
     1
  6
CENTER
  0
LAYER
  5
29
100
AcDbSymbolTableRecord
100
AcDbLayerTableRecord
  2
DIM
 70
    64
 62
     3
  6
CONTINUOUS
  0
LAYER
  5
2A
100
AcDbSymbolTableRecord
100
AcDbLayerTableRecord
  2
TEXT
 70
    64
 62
     7
  6
CONTINUOUS
  0
LAYER
  5
6F
100
AcDbSymbolTableRecord
100
AcDbLayerTableRecord
  2
BORDER
 70
    64
 62
     6
  6
CONTINUOUS
  0
LAYER
  5
FC
100
AcDbSymbolTableRecord
100
AcDbLayerTableRecord
  2
DEFPOINTS
 70
    64
 62
     7
  6
CONTINUOUS
  0
LAYER
  5
441
100
AcDbSymbolTableRecord
100
AcDbLayerTableRecord
  2
BEAMS-B
 70
    64
 62
     7
  6
CONTINUOUS
  0
LAYER
  5
AA5
100
AcDbSymbolTableRecord
100
AcDbLayerTableRecord
  2
KEVLAR
 70
    64
 62
     7
  6
CONTINUOUS
  0
LAYER
  5
1003
100
AcDbSymbolTableRecord
100
AcDbLayerTableRecord
  2
C-FIBER
 70
    64
 62
     5
  6
CONTINUOUS
  0
ENDTAB
  0
TABLE
  2
STYLE
  5
3
100
AcDbSymbolTable
 70
     3
  0
STYLE
  5
10
100
AcDbSymbolTableRecord
100
AcDbTextStyleTableRecord
  2
STANDARD
 70
    64
 40
0.0
 41
1.0
 50
0.0
 71
     0
 42
3.0
  3
txt
  4

  0
STYLE
  5
28
100
AcDbSymbolTableRecord
100
AcDbTextStyleTableRecord
  2
CIM_TB
 70
    64
 40
0.0
 41
1.0
 50
0.0
 71
     0
 42
0.2
  3
romans
  4

  0
STYLE
  5
70
100
AcDbSymbolTableRecord
100
AcDbTextStyleTableRecord
  2
ADESK2
 70
    64
 40
0.0
 41
1.0
 50
0.0
 71
     0
 42
0.065
  3
romans
  4

  0
ENDTAB
  0
TABLE
  2
VIEW
  5
6
100
AcDbSymbolTable
 70
     0
  0
ENDTAB
  0
TABLE
  2
UCS
  5
7
100
AcDbSymbolTable
 70
     1
  0
UCS
  5
2D
100
AcDbSymbolTableRecord
100
AcDbUCSTableRecord
  2
CIM_TB_HOLD
 70
     0
 10
0.0
 20
0.0
 30
0.0
 11
1.0
 21
0.0
 31
0.0
 12
0.0
 22
1.0
 32
0.0
  0
ENDTAB
  0
TABLE
  2
APPID
  5
9
100
AcDbSymbolTable
 70
     6
  0
APPID
  5
11
100
AcDbSymbolTableRecord
100
AcDbRegAppTableRecord
  2
ACAD
 70
     0
  0
APPID
  5
22
100
AcDbSymbolTableRecord
100
AcDbRegAppTableRecord
  2
TB_S_MPD
 70
     0
  0
APPID
  5
D23
100
AcDbSymbolTableRecord
100
AcDbRegAppTableRecord
  2
AD_DRAW
 70
     0
  0
APPID
  5
D3B
100
AcDbSymbolTableRecord
100
AcDbRegAppTableRecord
  2
DESIGNERASSEMBLIES
 70
     0
  0
APPID
  5
D3C
100
AcDbSymbolTableRecord
100
AcDbRegAppTableRecord
  2
MCAD_NO_VIS
 70
     0
  0
APPID
  5
D42
100
AcDbSymbolTableRecord
100
AcDbRegAppTableRecord
  2
ASURF_PCURVE_APPNAME
 70
     0
  0
ENDTAB
  0
TABLE
  2
DIMSTYLE
  5
A
100
AcDbSymbolTable
 70
     5
  0
DIMSTYLE
105
1D
100
AcDbSymbolTableRecord
100
AcDbDimStyleTableRecord
  2
STANDARD
 70
     0
  3

  4

  5

  6

  7

 40
1.0
 41
0.18
 42
0.0625
 43
0.38
 44
0.18
 45
0.0
 46
0.0
 47
0.0
 48
0.0
140
0.18
141
0.09
142
0.0
143
25.4
144
1.0
145
0.0
146
1.0
147
0.09
 71
     0
 72
     0
 73
     1
 74
     1
 75
     0
 76
     0
 77
     0
 78
     0
170
     0
171
     2
172
     0
173
     0
174
     0
175
     0
176
     0
177
     0
178
     0
270
     2
271
     3
272
     4
273
     2
274
     2
340
10
275
     0
280
     0
281
     0
282
     0
283
     1
284
     0
285
     0
286
     0
287
     0
288
     0
  0
DIMSTYLE
105
2B
100
AcDbSymbolTableRecord
100
AcDbDimStyleTableRecord
  2
STANDARD$4
 70
     0
  3

  4

  5

  6

  7

 40
1.0
 41
0.18
 42
0.0625
 43
0.38
 44
0.18
 45
0.0
 46
0.0
 47
0.0
 48
0.0
140
0.18
141
0.09
142
0.0
143
25.4
144
1.0
145
0.0
146
1.0
147
0.09
 71
     0
 72
     0
 73
     1
 74
     1
 75
     0
 76
     0
 77
     0
 78
     0
170
     0
171
     2
172
     0
173
     0
174
     0
175
     0
176
     0
177
     0
178
     0
270
     2
271
     4
272
     4
273
     2
274
     2
340
10
275
     0
280
     0
281
     0
282
     0
283
     1
284
     0
285
     0
286
     0
287
     3
288
     0
  0
DIMSTYLE
105
2C
100
AcDbSymbolTableRecord
100
AcDbDimStyleTableRecord
  2
STANDARD$3
 70
     0
  3

  4

  5

  6

  7

 40
1.0
 41
0.18
 42
0.0625
 43
0.38
 44
0.18
 45
0.0
 46
0.0
 47
0.0
 48
0.0
140
0.18
141
0.09
142
0.0
143
25.4
144
1.0
145
0.0
146
1.0
147
0.09
 71
     0
 72
     0
 73
     1
 74
     1
 75
     0
 76
     0
 77
     0
 78
     0
170
     0
171
     2
172
     0
173
     0
174
     0
175
     0
176
     0
177
     0
178
     0
270
     2
271
     4
272
     4
273
     2
274
     2
340
10
275
     0
280
     0
281
     0
282
     0
283
     1
284
     0
285
     0
286
     0
287
     3
288
     0
  0
DIMSTYLE
105
326
100
AcDbSymbolTableRecord
100
AcDbDimStyleTableRecord
  2
STANDARD$2
 70
     0
  3

  4
"
  5

  6

  7

 40
25.4
 41
0.18
 42
0.0625
 43
0.38
 44
0.18
 45
0.0
 46
0.0
 47
0.0
 48
0.0
140
0.18
141
0.09
142
0.0
143
0.03937
144
1.0
145
0.0
146
1.0
147
0.09
 71
     0
 72
     0
 73
     1
 74
     1
 75
     0
 76
     0
 77
     0
 78
     0
170
     1
171
     3
172
     0
173
     0
174
     0
175
     0
176
     0
177
     0
178
     0
270
     2
271
     2
272
     4
273
     2
274
     2
340
10
275
     0
280
     0
281
     0
282
     0
283
     1
284
     0
285
     0
286
     0
287
     0
288
     0
  0
DIMSTYLE
105
843
100
AcDbSymbolTableRecord
100
AcDbDimStyleTableRecord
  2
SU1
 70
     0
  3

  4

  5

  6

  7

 40
1.0
 41
0.18
 42
0.0625
 43
0.38
 44
0.18
 45
0.0
 46
0.0
 47
0.001
 48
0.0
140
0.18
141
0.09
142
0.0
143
25.4
144
1.0
145
0.0
146
1.0
147
0.09
 71
     0
 72
     0
 73
     1
 74
     1
 75
     0
 76
     0
 77
     0
 78
     0
170
     0
171
     2
172
     0
173
     0
174
     0
175
     0
176
     0
177
     0
178
     0
270
     2
271
     3
272
     3
273
     2
274
     2
340
10
275
     0
280
     0
281
     0
282
     0
283
     1
284
     0
285
     0
286
     0
287
     0
288
     0
  0
ENDTAB
  0
TABLE
  2
BLOCK_RECORD
  5
1
100
AcDbSymbolTable
 70
    28
  0
BLOCK_RECORD
  5
1A
100
AcDbSymbolTableRecord
100
AcDbBlockTableRecord
  2
*MODEL_SPACE
  0
BLOCK_RECORD
  5
17
100
AcDbSymbolTableRecord
100
AcDbBlockTableRecord
  2
*PAPER_SPACE
  0
BLOCK_RECORD
  5
81E
100
AcDbSymbolTableRecord
100
AcDbBlockTableRecord
  2
*D0
  0
BLOCK_RECORD
  5
AA6
100
AcDbSymbolTableRecord
100
AcDbBlockTableRecord
  2
D-BORDER
  0
BLOCK_RECORD
  5
D2F
100
AcDbSymbolTableRecord
100
AcDbBlockTableRecord
  2
*U2
  0
BLOCK_RECORD
  5
F9B
100
AcDbSymbolTableRecord
100
AcDbBlockTableRecord
  2
*D3
  0
BLOCK_RECORD
  5
1076
100
AcDbSymbolTableRecord
100
AcDbBlockTableRecord
  2
*D4
  0
BLOCK_RECORD
  5
1083
100
AcDbSymbolTableRecord
100
AcDbBlockTableRecord
  2
*D5
  0
BLOCK_RECORD
  5
1090
100
AcDbSymbolTableRecord
100
AcDbBlockTableRecord
  2
*D6
  0
BLOCK_RECORD
  5
109D
100
AcDbSymbolTableRecord
100
AcDbBlockTableRecord
  2
*D7
  0
BLOCK_RECORD
  5
1135
100
AcDbSymbolTableRecord
100
AcDbBlockTableRecord
  2
*D8
  0
BLOCK_RECORD
  5
1142
100
AcDbSymbolTableRecord
100
AcDbBlockTableRecord
  2
*D9
  0
BLOCK_RECORD
  5
114F
100
AcDbSymbolTableRecord
100
AcDbBlockTableRecord
  2
*D10
  0
BLOCK_RECORD
  5
115C
100
AcDbSymbolTableRecord
100
AcDbBlockTableRecord
  2
*D11
  0
BLOCK_RECORD
  5
1169
100
AcDbSymbolTableRecord
100
AcDbBlockTableRecord
  2
*D12
  0
BLOCK_RECORD
  5
1176
100
AcDbSymbolTableRecord
100
AcDbBlockTableRecord
  2
*D13
  0
BLOCK_RECORD
  5
1183
100
AcDbSymbolTableRecord
100
AcDbBlockTableRecord
  2
*D14
  0
BLOCK_RECORD
  5
1190
100
AcDbSymbolTableRecord
100
AcDbBlockTableRecord
  2
*D15
  0
BLOCK_RECORD
  5
11B5
100
AcDbSymbolTableRecord
100
AcDbBlockTableRecord
  2
*D16
  0
BLOCK_RECORD
  5
11C2
100
AcDbSymbolTableRecord
100
AcDbBlockTableRecord
  2
*D17
  0
BLOCK_RECORD
  5
11CF
100
AcDbSymbolTableRecord
100
AcDbBlockTableRecord
  2
*D18
  0
BLOCK_RECORD
  5
11DC
100
AcDbSymbolTableRecord
100
AcDbBlockTableRecord
  2
*D19
  0
BLOCK_RECORD
  5
11E9
100
AcDbSymbolTableRecord
100
AcDbBlockTableRecord
  2
*D20
  0
BLOCK_RECORD
  5
11F6
100
AcDbSymbolTableRecord
100
AcDbBlockTableRecord
  2
*D21
  0
BLOCK_RECORD
  5
1203
100
AcDbSymbolTableRecord
100
AcDbBlockTableRecord
  2
*D22
  0
BLOCK_RECORD
  5
1211
100
AcDbSymbolTableRecord
100
AcDbBlockTableRecord
  2
*D23
  0
BLOCK_RECORD
  5
122D
100
AcDbSymbolTableRecord
100
AcDbBlockTableRecord
  2
*D24
  0
BLOCK_RECORD
  5
1253
100
AcDbSymbolTableRecord
100
AcDbBlockTableRecord
  2
*D25
  0
BLOCK_RECORD
  5
1280
100
AcDbSymbolTableRecord
100
AcDbBlockTableRecord
  2
*D26
  0
BLOCK_RECORD
  5
12D3
100
AcDbSymbolTableRecord
100
AcDbBlockTableRecord
  2
*D27
  0
ENDTAB
  0
ENDSEC
  0
SECTION
  2
BLOCKS
  0
BLOCK
  5
1B
100
AcDbEntity
  8
0
100
AcDbBlockBegin
  2
*MODEL_SPACE
 70
     0
 10
0.0
 20
0.0
 30
0.0
  3
*MODEL_SPACE
  1

  0
ENDBLK
  5
1C
100
AcDbEntity
  8
0
100
AcDbBlockEnd
  0
BLOCK
  5
18
100
AcDbEntity
 67
     1
  8
0
100
AcDbBlockBegin
  2
*PAPER_SPACE
 70
     0
 10
0.0
 20
0.0
 30
0.0
  3
*PAPER_SPACE
  1

  0
ENDBLK
  5
19
100
AcDbEntity
 67
     1
  8
0
100
AcDbBlockEnd
  0
BLOCK
  5
81F
100
AcDbEntity
  8
0
100
AcDbBlockBegin
  2
*D0
 70
    65
 10
0.0
 20
0.0
 30
0.0
  3
*D0
  1

  0
LINE
  5
820
100
AcDbEntity
  8
0
  6
BYBLOCK
 62
     0
100
AcDbLine
 10
328.690885
 20
227.140009
 30
0.0
 11
385.833598
 21
286.011666
 31
0.0
  0
LINE
  5
821
100
AcDbEntity
  8
0
  6
BYBLOCK
 62
     0
100
AcDbLine
 10
385.833598
 20
286.011666
 30
0.0
 11
390.405598
 21
286.011666
 31
0.0
  0
SOLID
  5
822
100
AcDbEntity
  8
0
  6
BYBLOCK
 62
     0
100
AcDbTrace
 10
328.144101
 20
227.670736
 30
0.0
 11
329.23767
 21
226.609283
 31
0.0
 12
325.506526
 22
223.859302
 32
0.0
 13
325.506526
 23
223.859302
 33
0.0
  0
MTEXT
  5
823
100
AcDbEntity
  8
0
  6
BYBLOCK
 62
     0
100
AcDbMText
 10
421.647598
 20
286.011666
 30
0.0
 40
4.572
 41
0.0
 71
     5
 72
     1
  1
\A1;R2.00mm[0.079"]
  0
LINE
  5
824
100
AcDbEntity
  8
0
  6
BYBLOCK
 62
     0
100
AcDbLine
 10
321.827543
 20
222.424172
 30
0.0
 11
326.399543
 21
222.424172
 31
0.0
  0
LINE
  5
825
100
AcDbEntity
  8
0
  6
BYBLOCK
 62
     0
100
AcDbLine
 10
324.113543
 20
220.138172
 30
0.0
 11
324.113543
 21
224.710172
 31
0.0
  0
POINT
  5
826
100
AcDbEntity
  8
DEFPOINTS
  6
BYBLOCK
 62
     0
100
AcDbPoint
 10
325.506526
 20
223.859302
 30
0.0
  0
POINT
  5
827
100
AcDbEntity
  8
DEFPOINTS
  6
BYBLOCK
 62
     0
100
AcDbPoint
 10
324.113543
 20
222.424172
 30
0.0
  0
ENDBLK
  5
828
100
AcDbEntity
  8
0
100
AcDbBlockEnd
  0
BLOCK
  5
AE9
100
AcDbEntity
  8
TEXT
100
AcDbBlockBegin
  2
D-BORDER
 70
     0
 10
0.0
 20
0.0
 30
0.0
  3
D-BORDER
  1

  0
LINE
  5
AA7
100
AcDbEntity
  8
TEXT
100
AcDbLine
 10
1.0
 20
19.947595
 30
0.0
 11
3.5625
 21
19.947595
 31
0.0
  0
LINE
  5
AA8
100
AcDbEntity
  8
TEXT
100
AcDbLine
 10
3.5625
 20
19.947595
 30
0.0
 11
3.5625
 21
20.447595
 31
0.0
  0
CIRCLE
  5
AA9
100
AcDbEntity
  8
TEXT
100
AcDbCircle
 10
1.677871
 20
20.184056
 30
0.0
 40
0.1875
  0
CIRCLE
  5
AAA
100
AcDbEntity
  8
TEXT
100
AcDbCircle
 10
1.677871
 20
20.184056
 30
0.0
 40
0.09375
  0
LINE
  5
AAB
100
AcDbEntity
  8
TEXT
  6
CENTER
100
AcDbLine
 10
1.443951
 20
20.184056
 30
0.0
 11
2.896621
 21
20.184056
 31
0.0
  0
LINE
  5
AAC
100
AcDbEntity
  8
TEXT
  6
CENTER
100
AcDbLine
 10
1.677871
 20
19.955375
 30
0.0
 11
1.677871
 21
20.423251
 31
0.0
  0
LINE
  5
AAD
100
AcDbEntity
  8
TEXT
100
AcDbLine
 10
2.146621
 20
20.277806
 30
0.0
 11
2.631263
 21
20.371556
 31
0.0
  0
LINE
  5
AAE
100
AcDbEntity
  8
TEXT
100
AcDbLine
 10
2.146621
 20
20.090306
 30
0.0
 11
2.631263
 21
19.996556
 31
0.0
  0
LINE
  5
AAF
100
AcDbEntity
  8
TEXT
100
AcDbLine
 10
2.146621
 20
20.090306
 30
0.0
 11
2.146621
 21
20.277806
 31
0.0
  0
LINE
  5
AB0
100
AcDbEntity
  8
TEXT
100
AcDbLine
 10
2.631263
 20
20.371556
 30
0.0
 11
2.631263
 21
19.996556
 31
0.0
  0
TEXT
  5
AB1
100
AcDbEntity
  8
TEXT
100
AcDbText
 10
1.1875
 20
19.762423
 30
0.0
 40
0.1
  1
THIRD ANGLE PROJECTION
100
AcDbText
  0
LINE
  5
AB2
100
AcDbEntity
  8
TEXT
100
AcDbLine
 10
3.5625
 20
19.947595
 30
0.0
 11
3.5625
 21
19.697595
 31
0.0
  0
LINE
  5
AB3
100
AcDbEntity
  8
TEXT
100
AcDbLine
 10
3.5625
 20
19.697595
 30
0.0
 11
1.0
 21
19.697595
 31
0.0
  0
TEXT
  5
AB4
100
AcDbEntity
  8
TEXT
100
AcDbText
 10
31.135292
 20
0.744377
 30
0.0
 40
0.065
  1
OF
  7
ADESK2
100
AcDbText
  0
TEXT
  5
AB5
100
AcDbEntity
  8
TEXT
100
AcDbText
 10
27.375724
 20
1.474951
 30
0.0
 40
0.065
  1
DATE
  7
ADESK2
100
AcDbText
  0
LINE
  5
AB6
100
AcDbEntity
  8
TEXT
100
AcDbLine
 10
27.252305
 20
1.591501
 30
0.0
 11
27.252305
 21
0.625
 31
0.0
  0
TEXT
  5
AB7
100
AcDbEntity
  8
TEXT
100
AcDbText
 10
25.832321
 20
0.856501
 30
0.0
 40
0.065
  1
DESIGN
  7
ADESK2
100
AcDbText
  0
TEXT
  5
AB8
100
AcDbEntity
  8
TEXT
100
AcDbText
 10
25.832321
 20
1.171501
 30
0.0
 40
0.065
  1
CHECKED
  7
ADESK2
100
AcDbText
  0
LINE
  5
AB9
100
AcDbEntity
  8
TEXT
100
AcDbLine
 10
25.752321
 20
1.591501
 30
0.0
 11
27.752321
 21
1.591501
 31
0.0
  0
TEXT
  5
ABA
100
AcDbEntity
  8
TEXT
100
AcDbText
 10
31.234702
 20
19.965196
 30
0.0
 40
0.065
  1
APPROVED
  7
ADESK2
100
AcDbText
  0
TEXT
  5
ABB
100
AcDbEntity
  8
TEXT
100
AcDbText
 10
30.441002
 20
19.965196
 30
0.0
 40
0.065
  1
DATE
  7
ADESK2
100
AcDbText
  0
TEXT
  5
ABC
100
AcDbEntity
  8
TEXT
100
AcDbText
 10
28.375302
 20
19.965196
 30
0.0
 40
0.065
  1
DESCRIPTION
  7
ADESK2
100
AcDbText
  0
TEXT
  5
ABD
100
AcDbEntity
  8
TEXT
100
AcDbText
 10
27.073402
 20
19.965196
 30
0.0
 40
0.065
  1
REV
  7
ADESK2
100
AcDbText
  0
TEXT
  5
ABE
100
AcDbEntity
  8
TEXT
100
AcDbText
 10
29.203502
 20
20.207396
 30
0.0
 40
0.065
  1
REVISIONS
  7
ADESK2
100
AcDbText
  0
LINE
  5
ABF
100
AcDbEntity
  8
TEXT
100
AcDbLine
 10
30.993302
 20
19.874896
 30
0.0
 11
30.993302
 21
20.124896
 31
0.0
  0
LINE
  5
AC0
100
AcDbEntity
  8
TEXT
100
AcDbLine
 10
30.113302
 20
19.874896
 30
0.0
 11
30.113302
 21
20.124896
 31
0.0
  0
LINE
  5
AC1
100
AcDbEntity
  8
TEXT
100
AcDbLine
 10
27.373302
 20
19.874896
 30
0.0
 11
27.373302
 21
20.124896
 31
0.0
  0
LINE
  5
AC2
100
AcDbEntity
  8
TEXT
100
AcDbLine
 10
26.983049
 20
20.434959
 30
0.0
 11
26.983049
 21
19.874896
 31
0.0
  0
LINE
  5
AC3
100
AcDbEntity
  8
TEXT
100
AcDbLine
 10
26.983049
 20
19.874896
 30
0.0
 11
32.037356
 21
19.874896
 31
0.0
  0
LINE
  5
AC4
100
AcDbEntity
  8
TEXT
100
AcDbLine
 10
26.983049
 20
20.124896
 30
0.0
 11
32.037356
 21
20.124896
 31
0.0
  0
TEXT
  5
AC5
100
AcDbEntity
  8
TEXT
100
AcDbText
 10
31.702821
 20
1.167401
 30
0.0
 40
0.065
  1
REV
  7
ADESK2
100
AcDbText
  0
TEXT
  5
AC6
100
AcDbEntity
  8
TEXT
100
AcDbText
 10
29.323321
 20
1.167401
 30
0.0
 40
0.065
  1
DWG NO.
  7
ADESK2
100
AcDbText
  0
TEXT
  5
AC7
100
AcDbEntity
  8
TEXT
100
AcDbText
 10
27.840221
 20
1.167401
 30
0.0
 40
0.065
  1
SIZE
  7
ADESK2
100
AcDbText
  0
TEXT
  5
AC8
100
AcDbEntity
  8
TEXT
100
AcDbText
 10
30.305121
 20
0.744001
 30
0.0
 40
0.065
  1
SHEET
  7
ADESK2
100
AcDbText
  0
TEXT
  5
AC9
100
AcDbEntity
  8
TEXT
100
AcDbText
 10
27.804621
 20
0.744001
 30
0.0
 40
0.065
  1
SCALE
  7
ADESK2
100
AcDbText
  0
LINE
  5
ACA
100
AcDbEntity
  8
TEXT
100
AcDbLine
 10
31.622321
 20
0.901501
 30
0.0
 11
31.622321
 21
1.281501
 31
0.0
  0
LINE
  5
ACB
100
AcDbEntity
  8
TEXT
100
AcDbLine
 10
29.252321
 20
0.901501
 30
0.0
 11
29.252321
 21
1.281501
 31
0.0
  0
LINE
  5
ACC
100
AcDbEntity
  8
TEXT
100
AcDbLine
 10
28.132321
 20
0.901501
 30
0.0
 11
28.132321
 21
1.281501
 31
0.0
  0
LINE
  5
ACD
100
AcDbEntity
  8
TEXT
100
AcDbLine
 10
30.252321
 20
0.625
 30
0.0
 11
30.252321
 21
0.901501
 31
0.0
  0
LINE
  5
ACE
100
AcDbEntity
  8
TEXT
100
AcDbLine
 10
28.752321
 20
0.625
 30
0.0
 11
28.752321
 21
0.901501
 31
0.0
  0
LINE
  5
ACF
100
AcDbEntity
  8
BORDER
100
AcDbLine
 10
27.752321
 20
0.625
 30
0.0
 11
27.752321
 21
2.401501
 31
0.0
  0
LINE
  5
AD0
100
AcDbEntity
  8
BORDER
100
AcDbLine
 10
27.752321
 20
1.901501
 30
0.0
 11
32.024118
 21
1.901501
 31
0.0
  0
LINE
  5
AD1
100
AcDbEntity
  8
TEXT
100
AcDbLine
 10
27.752321
 20
0.901501
 30
0.0
 11
32.024118
 21
0.901501
 31
0.0
  0
LINE
  5
AD2
100
AcDbEntity
  8
TEXT
100
AcDbLine
 10
25.752321
 20
1.281501
 30
0.0
 11
32.024118
 21
1.281501
 31
0.0
  0
LINE
  5
AD3
100
AcDbEntity
  8
TEXT
100
AcDbLine
 10
25.752321
 20
0.966501
 30
0.0
 11
27.752321
 21
0.966501
 31
0.0
  0
LINE
  5
AD4
100
AcDbEntity
  8
BORDER
100
AcDbLine
 10
25.752321
 20
2.401501
 30
0.0
 11
32.024118
 21
2.401501
 31
0.0
  0
LINE
  5
AD5
100
AcDbEntity
  8
BORDER
100
AcDbLine
 10
25.752321
 20
0.625
 30
0.0
 11
25.752321
 21
2.824147
 31
0.0
  0
TEXT
  5
AD6
100
AcDbEntity
  8
TEXT
100
AcDbText
 10
25.820631
 20
1.479964
 30
0.0
 40
0.065
  1
DRAWN
  7
ADESK2
100
AcDbText
  0
TEXT
  5
AD7
100
AcDbEntity
  8
BORDER
100
AcDbText
 10
25.930285
 20
2.549228
 30
0.0
 40
0.15
  1
UNIVERSITY OF CALIFORNIA @ SANTA BARBARA
100
AcDbText
  0
LINE
  5
AD8
100
AcDbEntity
  8
BORDER
100
AcDbLine
 10
25.75128
 20
2.824147
 30
0.0
 11
32.024118
 21
2.824147
 31
0.0
  0
LINE
  5
AD9
100
AcDbEntity
  8
BORDER
100
AcDbLine
 10
32.04642
 20
0.625
 30
0.0
 11
32.04642
 21
20.447595
 31
0.0
  0
LINE
  5
ADA
100
AcDbEntity
  8
BORDER
100
AcDbLine
 10
1.0
 20
20.447595
 30
0.0
 11
1.0
 21
0.625
 31
0.0
  0
LINE
  5
ADB
100
AcDbEntity
  8
BORDER
100
AcDbLine
 10
1.0
 20
0.625
 30
0.0
 11
32.04642
 21
0.625
 31
0.0
  0
TEXT
  5
ADC
100
AcDbEntity
  8
TEXT
100
AcDbText
 10
28.203393
 20
1.165354
 30
0.0
 40
0.075
  1
DIRECTORY
100
AcDbText
  0
LINE
  5
ADD
100
AcDbEntity
  8
BORDER
100
AcDbLine
 10
1.0
 20
20.447595
 30
0.0
 11
32.04642
 21
20.447595
 31
0.0
  0
TEXT
  5
ADE
100
AcDbEntity
  8
BORDER
100
AcDbText
 10
28.439864
 20
2.075566
 30
0.0
 40
0.15
  1
HIGH ENERGY PHYSICS
100
AcDbText
  0
TEXT
  5
ADF
100
AcDbEntity
  8
BORDER
100
AcDbText
 10
27.876167
 20
0.934778
 30
0.0
 40
0.2
  1
D
100
AcDbText
  0
TEXT
  5
AE0
100
AcDbEntity
  8
TEXT
100
AcDbText
 10
25.981606
 20
2.285089
 30
0.0
 40
0.065
  1
UNLESS OTHERWISE SPECIFIED:
  7
ADESK2
 72
     1
 11
26.752321
 21
2.285089
 31
0.0
100
AcDbText
  0
TEXT
  5
AE1
100
AcDbEntity
  8
TEXT
100
AcDbText
 10
26.055892
 20
2.179851
 30
0.0
 40
0.065
  1
DIMENSIONS ARE IN INCHES
  7
ADESK2
 72
     1
 11
26.752321
 21
2.179851
 31
0.0
100
AcDbText
  0
TEXT
  5
AE2
100
AcDbEntity
  8
TEXT
100
AcDbText
 10
26.45363
 20
2.074613
 30
0.0
 40
0.065
  1
TOLERANCES
  7
ADESK2
 72
     1
 11
26.752321
 21
2.074613
 31
0.0
100
AcDbText
  0
TEXT
  5
AE3
100
AcDbEntity
  8
TEXT
100
AcDbText
 10
26.067279
 20
1.966743
 30
0.0
 40
0.065
  1
DECIMALS
  7
ADESK2
100
AcDbText
  0
TEXT
  5
AE4
100
AcDbEntity
  8
TEXT
100
AcDbText
 10
26.067279
 20
1.861505
 30
0.0
 40
0.065
  1
.XX  %%P .05
  7
ADESK2
100
AcDbText
  0
TEXT
  5
AE5
100
AcDbEntity
  8
TEXT
100
AcDbText
 10
26.067279
 20
1.756267
 30
0.0
 40
0.065
  1
.XXX %%P .005
  7
ADESK2
100
AcDbText
  0
TEXT
  5
AE6
100
AcDbEntity
  8
TEXT
100
AcDbText
 10
26.137916
 20
1.653744
 30
0.0
 40
0.065
  1
DO NOT SCALE DRAWING
  7
ADESK2
 72
     1
 11
26.752321
 21
1.653744
 31
0.0
100
AcDbText
  0
TEXT
  5
AE7
100
AcDbEntity
  8
TEXT
100
AcDbText
 10
26.931176
 20
1.966743
 30
0.0
 40
0.065
  1
ANGULAR
  7
ADESK2
100
AcDbText
  0
TEXT
  5
AE8
100
AcDbEntity
  8
TEXT
100
AcDbText
 10
26.931176
 20
1.861505
 30
0.0
 40
0.065
  1
  %%P 0.5%%D
  7
ADESK2
100
AcDbText
  0
ENDBLK
  5
AEA
100
AcDbEntity
  8
TEXT
100
AcDbBlockEnd
  0
BLOCK
  5
D30
100
AcDbEntity
  8
TEXT
100
AcDbBlockBegin
  2
*U2
 70
     1
 10
0.0
 20
0.0
 30
0.0
  3
*U2
  1

  0
ENDBLK
  5
D31
100
AcDbEntity
  8
TEXT
100
AcDbBlockEnd
  0
BLOCK
  5
12EC
100
AcDbEntity
  8
0
100
AcDbBlockBegin
  2
*D3
 70
    65
 10
0.0
 20
0.0
 30
0.0
  3
*D3
  1

  0
LINE
  5
12ED
100
AcDbEntity
  8
0
  6
BYBLOCK
 62
     0
100
AcDbLine
 10
299.198242
 20
245.879892
 30
0.0
 11
337.932303
 21
218.824067
 31
0.0
  0
LINE
  5
12EE
100
AcDbEntity
  8
0
  6
BYBLOCK
 62
     0
100
AcDbLine
 10
337.932303
 20
218.824067
 30
0.0
 11
342.504303
 21
218.824067
 31
0.0
  0
SOLID
  5
12EF
100
AcDbEntity
  8
0
  6
BYBLOCK
 62
     0
100
AcDbTrace
 10
299.634592
 20
246.504586
 30
0.0
 11
298.761892
 21
245.255198
 31
0.0
 12
295.450078
 22
248.497993
 32
0.0
 13
295.450078
 23
248.497993
 33
0.0
  0
MTEXT
  5
12F0
100
AcDbEntity
  8
0
  6
BYBLOCK
 62
     0
100
AcDbMText
 10
400.035303
 20
218.824067
 30
0.0
 40
4.572
 41
0.0
 71
     5
 72
     1
  1
\A1;{\U+22052.38mm±0.03mm[\U+22050.094"±0.001"]}\P{2X}
  0
LINE
  5
12F1
100
AcDbEntity
  8
0
  6
BYBLOCK
 62
     0
100
AcDbLine
 10
292.187482
 20
249.180148
 30
0.0
 11
296.759482
 21
249.180148
 31
0.0
  0
LINE
  5
12F2
100
AcDbEntity
  8
0
  6
BYBLOCK
 62
     0
100
AcDbLine
 10
294.473482
 20
246.894148
 30
0.0
 11
294.473482
 21
251.466148
 31
0.0
  0
POINT
  5
12F3
100
AcDbEntity
  8
DEFPOINTS
  6
BYBLOCK
 62
     0
100
AcDbPoint
 10
295.450078
 20
248.497993
 30
0.0
  0
POINT
  5
12F4
100
AcDbEntity
  8
DEFPOINTS
  6
BYBLOCK
 62
     0
100
AcDbPoint
 10
293.496885
 20
249.862303
 30
0.0
  0
ENDBLK
  5
12F5
100
AcDbEntity
  8
0
100
AcDbBlockEnd
  0
BLOCK
  5
10AA
100
AcDbEntity
  8
0
100
AcDbBlockBegin
  2
*D4
 70
    65
 10
0.0
 20
0.0
 30
0.0
  3
*D4
  1

  0
LINE
  5
10AB
100
AcDbEntity
  8
0
  6
BYBLOCK
 62
     0
100
AcDbLine
 10
152.258661
 20
421.828857
 30
0.0
 11
152.258661
 21
434.203307
 31
0.0
  0
LINE
  5
10AC
100
AcDbEntity
  8
0
  6
BYBLOCK
 62
     0
100
AcDbLine
 10
157.338661
 20
421.828857
 30
0.0
 11
157.338661
 21
434.203307
 31
0.0
  0
LINE
  5
10AD
100
AcDbEntity
  8
0
  6
BYBLOCK
 62
     0
100
AcDbLine
 10
147.686661
 20
429.631307
 30
0.0
 11
143.114661
 21
429.631307
 31
0.0
  0
LINE
  5
10AE
100
AcDbEntity
  8
0
  6
BYBLOCK
 62
     0
100
AcDbLine
 10
161.910661
 20
429.631307
 30
0.0
 11
166.482661
 21
429.631307
 31
0.0
  0
SOLID
  5
10AF
100
AcDbEntity
  8
0
  6
BYBLOCK
 62
     0
100
AcDbTrace
 10
147.686661
 20
430.393307
 30
0.0
 11
147.686661
 21
428.869307
 31
0.0
 12
152.258661
 22
429.631307
 32
0.0
 13
152.258661
 23
429.631307
 33
0.0
  0
SOLID
  5
10B0
100
AcDbEntity
  8
0
  6
BYBLOCK
 62
     0
100
AcDbTrace
 10
161.910661
 20
430.393307
 30
0.0
 11
161.910661
 21
428.869307
 31
0.0
 12
157.338661
 22
429.631307
 32
0.0
 13
157.338661
 23
429.631307
 33
0.0
  0
MTEXT
  5
10B1
100
AcDbEntity
  8
0
  6
BYBLOCK
 62
     0
100
AcDbMText
 10
217.917661
 20
429.631307
 30
0.0
 40
4.572
 41
0.0
 71
     5
 72
     1
  1
\A1;0.51mm±0.03mm[0.020"±0.001"]
  0
POINT
  5
10B2
100
AcDbEntity
  8
DEFPOINTS
  6
BYBLOCK
 62
     0
100
AcDbPoint
 10
152.258661
 20
420.241357
 30
0.0
  0
POINT
  5
10B3
100
AcDbEntity
  8
DEFPOINTS
  6
BYBLOCK
 62
     0
100
AcDbPoint
 10
157.338661
 20
420.241357
 30
0.0
  0
POINT
  5
10B4
100
AcDbEntity
  8
DEFPOINTS
  6
BYBLOCK
 62
     0
100
AcDbPoint
 10
157.338661
 20
429.631307
 30
0.0
  0
ENDBLK
  5
10B5
100
AcDbEntity
  8
0
100
AcDbBlockEnd
  0
BLOCK
  5
10B6
100
AcDbEntity
  8
0
100
AcDbBlockBegin
  2
*D5
 70
    65
 10
0.0
 20
0.0
 30
0.0
  3
*D5
  1

  0
LINE
  5
10B7
100
AcDbEntity
  8
0
  6
BYBLOCK
 62
     0
100
AcDbLine
 10
155.814661
 20
421.828857
 30
0.0
 11
155.814661
 21
446.519887
 31
0.0
  0
LINE
  5
10B8
100
AcDbEntity
  8
0
  6
BYBLOCK
 62
     0
100
AcDbLine
 10
157.338661
 20
421.828857
 30
0.0
 11
157.338661
 21
446.519887
 31
0.0
  0
LINE
  5
10B9
100
AcDbEntity
  8
0
  6
BYBLOCK
 62
     0
100
AcDbLine
 10
151.242661
 20
441.947887
 30
0.0
 11
146.670661
 21
441.947887
 31
0.0
  0
LINE
  5
10BA
100
AcDbEntity
  8
0
  6
BYBLOCK
 62
     0
100
AcDbLine
 10
161.910661
 20
441.947887
 30
0.0
 11
166.482661
 21
441.947887
 31
0.0
  0
SOLID
  5
10BB
100
AcDbEntity
  8
0
  6
BYBLOCK
 62
     0
100
AcDbTrace
 10
151.242661
 20
442.709887
 30
0.0
 11
151.242661
 21
441.185887
 31
0.0
 12
155.814661
 22
441.947887
 32
0.0
 13
155.814661
 23
441.947887
 33
0.0
  0
SOLID
  5
10BC
100
AcDbEntity
  8
0
  6
BYBLOCK
 62
     0
100
AcDbTrace
 10
161.910661
 20
442.709887
 30
0.0
 11
161.910661
 21
441.185887
 31
0.0
 12
157.338661
 22
441.947887
 32
0.0
 13
157.338661
 23
441.947887
 33
0.0
  0
MTEXT
  5
10BD
100
AcDbEntity
  8
0
  6
BYBLOCK
 62
     0
100
AcDbMText
 10
217.917661
 20
441.947887
 30
0.0
 40
4.572
 41
0.0
 71
     5
 72
     1
  1
\A1;0.15mm±0.03mm[0.006"±0.001"]
  0
POINT
  5
10BE
100
AcDbEntity
  8
DEFPOINTS
  6
BYBLOCK
 62
     0
100
AcDbPoint
 10
155.814661
 20
420.241357
 30
0.0
  0
POINT
  5
10BF
100
AcDbEntity
  8
DEFPOINTS
  6
BYBLOCK
 62
     0
100
AcDbPoint
 10
157.338661
 20
420.241357
 30
0.0
  0
POINT
  5
10C0
100
AcDbEntity
  8
DEFPOINTS
  6
BYBLOCK
 62
     0
100
AcDbPoint
 10
157.338661
 20
441.947887
 30
0.0
  0
ENDBLK
  5
10C1
100
AcDbEntity
  8
0
100
AcDbBlockEnd
  0
BLOCK
  5
10C2
100
AcDbEntity
  8
0
100
AcDbBlockBegin
  2
*D6
 70
    65
 10
0.0
 20
0.0
 30
0.0
  3
*D6
  1

  0
LINE
  5
10C3
100
AcDbEntity
  8
0
  6
BYBLOCK
 62
     0
100
AcDbLine
 10
153.782661
 20
421.828857
 30
0.0
 11
153.782661
 21
459.221361
 31
0.0
  0
LINE
  5
10C4
100
AcDbEntity
  8
0
  6
BYBLOCK
 62
     0
100
AcDbLine
 10
152.258661
 20
421.828857
 30
0.0
 11
152.258661
 21
459.221361
 31
0.0
  0
LINE
  5
10C5
100
AcDbEntity
  8
0
  6
BYBLOCK
 62
     0
100
AcDbLine
 10
158.354661
 20
454.649361
 30
0.0
 11
162.926661
 21
454.649361
 31
0.0
  0
LINE
  5
10C6
100
AcDbEntity
  8
0
  6
BYBLOCK
 62
     0
100
AcDbLine
 10
147.686661
 20
454.649361
 30
0.0
 11
143.114661
 21
454.649361
 31
0.0
  0
SOLID
  5
10C7
100
AcDbEntity
  8
0
  6
BYBLOCK
 62
     0
100
AcDbTrace
 10
158.354661
 20
455.411361
 30
0.0
 11
158.354661
 21
453.887361
 31
0.0
 12
153.782661
 22
454.649361
 32
0.0
 13
153.782661
 23
454.649361
 33
0.0
  0
SOLID
  5
10C8
100
AcDbEntity
  8
0
  6
BYBLOCK
 62
     0
100
AcDbTrace
 10
147.686661
 20
455.411361
 30
0.0
 11
147.686661
 21
453.887361
 31
0.0
 12
152.258661
 22
454.649361
 32
0.0
 13
152.258661
 23
454.649361
 33
0.0
  0
MTEXT
  5
10C9
100
AcDbEntity
  8
0
  6
BYBLOCK
 62
     0
100
AcDbMText
 10
91.679661
 20
454.649361
 30
0.0
 40
4.572
 41
0.0
 71
     5
 72
     1
  1
\A1;0.15mm±0.03mm[0.006"±0.001"]
  0
POINT
  5
10CA
100
AcDbEntity
  8
DEFPOINTS
  6
BYBLOCK
 62
     0
100
AcDbPoint
 10
153.782661
 20
420.241357
 30
0.0
  0
POINT
  5
10CB
100
AcDbEntity
  8
DEFPOINTS
  6
BYBLOCK
 62
     0
100
AcDbPoint
 10
152.258661
 20
420.241357
 30
0.0
  0
POINT
  5
10CC
100
AcDbEntity
  8
DEFPOINTS
  6
BYBLOCK
 62
     0
100
AcDbPoint
 10
152.258661
 20
454.649361
 30
0.0
  0
ENDBLK
  5
10CD
100
AcDbEntity
  8
0
100
AcDbBlockEnd
  0
BLOCK
  5
10CE
100
AcDbEntity
  8
0
100
AcDbBlockBegin
  2
*D7
 70
    65
 10
0.0
 20
0.0
 30
0.0
  3
*D7
  1

  0
LINE
  5
10CF
100
AcDbEntity
  8
0
  6
BYBLOCK
 62
     0
100
AcDbLine
 10
150.671161
 20
350.241357
 30
0.0
 11
117.293588
 21
350.241357
 31
0.0
  0
LINE
  5
10D0
100
AcDbEntity
  8
0
  6
BYBLOCK
 62
     0
100
AcDbLine
 10
152.195161
 20
320.241357
 30
0.0
 11
117.293588
 21
320.241357
 31
0.0
  0
LINE
  5
10D1
100
AcDbEntity
  8
0
  6
BYBLOCK
 62
     0
100
AcDbLine
 10
121.865588
 20
345.669357
 30
0.0
 11
121.865588
 21
339.813357
 31
0.0
  0
LINE
  5
10D2
100
AcDbEntity
  8
0
  6
BYBLOCK
 62
     0
100
AcDbLine
 10
121.865588
 20
324.813357
 30
0.0
 11
121.865588
 21
330.669357
 31
0.0
  0
SOLID
  5
10D3
100
AcDbEntity
  8
0
  6
BYBLOCK
 62
     0
100
AcDbTrace
 10
121.103588
 20
345.669357
 30
0.0
 11
122.627588
 21
345.669357
 31
0.0
 12
121.865588
 22
350.241357
 32
0.0
 13
121.865588
 23
350.241357
 33
0.0
  0
SOLID
  5
10D4
100
AcDbEntity
  8
0
  6
BYBLOCK
 62
     0
100
AcDbTrace
 10
121.103588
 20
324.813357
 30
0.0
 11
122.627588
 21
324.813357
 31
0.0
 12
121.865588
 22
320.241357
 32
0.0
 13
121.865588
 23
320.241357
 33
0.0
  0
MTEXT
  5
10D5
100
AcDbEntity
  8
0
  6
BYBLOCK
 62
     0
100
AcDbMText
 10
121.865588
 20
335.241357
 30
0.0
 40
4.572
 41
0.0
 71
     5
 72
     1
  1
\A1;3.00mm[0.118"]
  0
POINT
  5
10D6
100
AcDbEntity
  8
DEFPOINTS
  6
BYBLOCK
 62
     0
100
AcDbPoint
 10
152.258661
 20
350.241357
 30
0.0
  0
POINT
  5
10D7
100
AcDbEntity
  8
DEFPOINTS
  6
BYBLOCK
 62
     0
100
AcDbPoint
 10
153.782661
 20
320.241357
 30
0.0
  0
POINT
  5
10D8
100
AcDbEntity
  8
DEFPOINTS
  6
BYBLOCK
 62
     0
100
AcDbPoint
 10
121.865588
 20
320.241357
 30
0.0
  0
ENDBLK
  5
10D9
100
AcDbEntity
  8
0
100
AcDbBlockEnd
  0
BLOCK
  5
1136
100
AcDbEntity
  8
0
100
AcDbBlockBegin
  2
*D8
 70
    65
 10
0.0
 20
0.0
 30
0.0
  3
*D8
  1

  0
LINE
  5
1137
100
AcDbEntity
  8
0
  6
BYBLOCK
 62
     0
100
AcDbLine
 10
400.931265
 20
299.715829
 30
0.0
 11
400.931265
 21
403.832883
 31
0.0
  0
LINE
  5
1138
100
AcDbEntity
  8
0
  6
BYBLOCK
 62
     0
100
AcDbLine
 10
405.503265
 20
399.260883
 30
0.0
 11
410.075265
 21
399.260883
 31
0.0
  0
LINE
  5
1139
100
AcDbEntity
  8
0
  6
BYBLOCK
 62
     0
100
AcDbLine
 10
343.725303
 20
399.260883
 30
0.0
 11
339.153303
 21
399.260883
 31
0.0
  0
SOLID
  5
113A
100
AcDbEntity
  8
0
  6
BYBLOCK
 62
     0
100
AcDbTrace
 10
405.503265
 20
400.022883
 30
0.0
 11
405.503265
 21
398.498883
 31
0.0
 12
400.931265
 22
399.260883
 32
0.0
 13
400.931265
 23
399.260883
 33
0.0
  0
SOLID
  5
113B
100
AcDbEntity
  8
0
  6
BYBLOCK
 62
     0
100
AcDbTrace
 10
343.725303
 20
400.022883
 30
0.0
 11
343.725303
 21
398.498883
 31
0.0
 12
348.297303
 22
399.260883
 32
0.0
 13
348.297303
 23
399.260883
 33
0.0
  0
MTEXT
  5
113C
100
AcDbEntity
  8
0
  6
BYBLOCK
 62
     0
100
AcDbMText
 10
309.054303
 20
399.260883
 30
0.0
 40
4.572
 41
0.0
 71
     5
 72
     1
  1
\A1;52.63mm[2.072"]
  0
POINT
  5
113D
100
AcDbEntity
  8
DEFPOINTS
  6
BYBLOCK
 62
     0
100
AcDbPoint
 10
400.931265
 20
298.128329
 30
0.0
  0
POINT
  5
113E
100
AcDbEntity
  8
DEFPOINTS
  6
BYBLOCK
 62
     0
100
AcDbPoint
 10
348.297303
 20
488.530836
 30
0.0
  0
POINT
  5
113F
100
AcDbEntity
  8
DEFPOINTS
  6
BYBLOCK
 62
     0
100
AcDbPoint
 10
348.297303
 20
399.260883
 30
0.0
  0
ENDBLK
  5
1140
100
AcDbEntity
  8
0
100
AcDbBlockEnd
  0
BLOCK
  5
1143
100
AcDbEntity
  8
0
100
AcDbBlockBegin
  2
*D9
 70
    65
 10
0.0
 20
0.0
 30
0.0
  3
*D9
  1

  0
LINE
  5
1144
100
AcDbEntity
  8
0
  6
BYBLOCK
 62
     0
100
AcDbLine
 10
450.948748
 20
299.715829
 30
0.0
 11
450.948748
 21
419.022276
 31
0.0
  0
LINE
  5
1145
100
AcDbEntity
  8
0
  6
BYBLOCK
 62
     0
100
AcDbLine
 10
446.376748
 20
414.450276
 30
0.0
 11
430.103026
 21
414.450276
 31
0.0
  0
LINE
  5
1146
100
AcDbEntity
  8
0
  6
BYBLOCK
 62
     0
100
AcDbLine
 10
352.869303
 20
414.450276
 30
0.0
 11
369.143026
 21
414.450276
 31
0.0
  0
SOLID
  5
1147
100
AcDbEntity
  8
0
  6
BYBLOCK
 62
     0
100
AcDbTrace
 10
446.376748
 20
415.212276
 30
0.0
 11
446.376748
 21
413.688276
 31
0.0
 12
450.948748
 22
414.450276
 32
0.0
 13
450.948748
 23
414.450276
 33
0.0
  0
SOLID
  5
1148
100
AcDbEntity
  8
0
  6
BYBLOCK
 62
     0
100
AcDbTrace
 10
352.869303
 20
415.212276
 30
0.0
 11
352.869303
 21
413.688276
 31
0.0
 12
348.297303
 22
414.450276
 32
0.0
 13
348.297303
 23
414.450276
 33
0.0
  0
MTEXT
  5
1149
100
AcDbEntity
  8
0
  6
BYBLOCK
 62
     0
100
AcDbMText
 10
399.623026
 20
414.450276
 30
0.0
 40
4.572
 41
0.0
 71
     5
 72
     1
  1
\A1;102.65mm[4.041"]
  0
POINT
  5
114A
100
AcDbEntity
  8
DEFPOINTS
  6
BYBLOCK
 62
     0
100
AcDbPoint
 10
450.948748
 20
298.128329
 30
0.0
  0
POINT
  5
114B
100
AcDbEntity
  8
DEFPOINTS
  6
BYBLOCK
 62
     0
100
AcDbPoint
 10
348.297303
 20
488.530836
 30
0.0
  0
POINT
  5
114C
100
AcDbEntity
  8
DEFPOINTS
  6
BYBLOCK
 62
     0
100
AcDbPoint
 10
348.297303
 20
414.450276
 30
0.0
  0
ENDBLK
  5
114D
100
AcDbEntity
  8
0
100
AcDbBlockEnd
  0
BLOCK
  5
1150
100
AcDbEntity
  8
0
100
AcDbBlockBegin
  2
*D10
 70
    65
 10
0.0
 20
0.0
 30
0.0
  3
*D10
  1

  0
LINE
  5
1151
100
AcDbEntity
  8
0
  6
BYBLOCK
 62
     0
100
AcDbLine
 10
454.948748
 20
299.715829
 30
0.0
 11
454.948748
 21
430.136465
 31
0.0
  0
LINE
  5
1152
100
AcDbEntity
  8
0
  6
BYBLOCK
 62
     0
100
AcDbLine
 10
450.376748
 20
425.564465
 30
0.0
 11
432.484026
 21
425.564465
 31
0.0
  0
LINE
  5
1153
100
AcDbEntity
  8
0
  6
BYBLOCK
 62
     0
100
AcDbLine
 10
352.869303
 20
425.564465
 30
0.0
 11
370.762026
 21
425.564465
 31
0.0
  0
SOLID
  5
1154
100
AcDbEntity
  8
0
  6
BYBLOCK
 62
     0
100
AcDbTrace
 10
450.376748
 20
426.326465
 30
0.0
 11
450.376748
 21
424.802465
 31
0.0
 12
454.948748
 22
425.564465
 32
0.0
 13
454.948748
 23
425.564465
 33
0.0
  0
SOLID
  5
1155
100
AcDbEntity
  8
0
  6
BYBLOCK
 62
     0
100
AcDbTrace
 10
352.869303
 20
426.326465
 30
0.0
 11
352.869303
 21
424.802465
 31
0.0
 12
348.297303
 22
425.564465
 32
0.0
 13
348.297303
 23
425.564465
 33
0.0
  0
MTEXT
  5
1156
100
AcDbEntity
  8
0
  6
BYBLOCK
 62
     0
100
AcDbMText
 10
401.623026
 20
425.564465
 30
0.0
 40
4.572
 41
0.0
 71
     5
 72
     1
  1
\A1;106.65mm[4.199"]
  0
POINT
  5
1157
100
AcDbEntity
  8
DEFPOINTS
  6
BYBLOCK
 62
     0
100
AcDbPoint
 10
454.948748
 20
298.128329
 30
0.0
  0
POINT
  5
1158
100
AcDbEntity
  8
DEFPOINTS
  6
BYBLOCK
 62
     0
100
AcDbPoint
 10
348.297303
 20
488.530836
 30
0.0
  0
POINT
  5
1159
100
AcDbEntity
  8
DEFPOINTS
  6
BYBLOCK
 62
     0
100
AcDbPoint
 10
348.297303
 20
425.564465
 30
0.0
  0
ENDBLK
  5
115A
100
AcDbEntity
  8
0
100
AcDbBlockEnd
  0
BLOCK
  5
115D
100
AcDbEntity
  8
0
100
AcDbBlockBegin
  2
*D11
 70
    65
 10
0.0
 20
0.0
 30
0.0
  3
*D11
  1

  0
LINE
  5
115E
100
AcDbEntity
  8
0
  6
BYBLOCK
 62
     0
100
AcDbLine
 10
504.823748
 20
299.715829
 30
0.0
 11
504.823748
 21
441.9916
 31
0.0
  0
LINE
  5
115F
100
AcDbEntity
  8
0
  6
BYBLOCK
 62
     0
100
AcDbLine
 10
500.251748
 20
437.4196
 30
0.0
 11
457.802526
 21
437.4196
 31
0.0
  0
LINE
  5
1160
100
AcDbEntity
  8
0
  6
BYBLOCK
 62
     0
100
AcDbLine
 10
352.869303
 20
437.4196
 30
0.0
 11
395.318526
 21
437.4196
 31
0.0
  0
SOLID
  5
1161
100
AcDbEntity
  8
0
  6
BYBLOCK
 62
     0
100
AcDbTrace
 10
500.251748
 20
438.1816
 30
0.0
 11
500.251748
 21
436.6576
 31
0.0
 12
504.823748
 22
437.4196
 32
0.0
 13
504.823748
 23
437.4196
 33
0.0
  0
SOLID
  5
1162
100
AcDbEntity
  8
0
  6
BYBLOCK
 62
     0
100
AcDbTrace
 10
352.869303
 20
438.1816
 30
0.0
 11
352.869303
 21
436.6576
 31
0.0
 12
348.297303
 22
437.4196
 32
0.0
 13
348.297303
 23
437.4196
 33
0.0
  0
MTEXT
  5
1163
100
AcDbEntity
  8
0
  6
BYBLOCK
 62
     0
100
AcDbMText
 10
426.560526
 20
437.4196
 30
0.0
 40
4.572
 41
0.0
 71
     5
 72
     1
  1
\A1;156.53mm[6.162"]
  0
POINT
  5
1164
100
AcDbEntity
  8
DEFPOINTS
  6
BYBLOCK
 62
     0
100
AcDbPoint
 10
504.823748
 20
298.128329
 30
0.0
  0
POINT
  5
1165
100
AcDbEntity
  8
DEFPOINTS
  6
BYBLOCK
 62
     0
100
AcDbPoint
 10
348.297303
 20
488.530836
 30
0.0
  0
POINT
  5
1166
100
AcDbEntity
  8
DEFPOINTS
  6
BYBLOCK
 62
     0
100
AcDbPoint
 10
348.297303
 20
437.4196
 30
0.0
  0
ENDBLK
  5
1167
100
AcDbEntity
  8
0
100
AcDbBlockEnd
  0
BLOCK
  5
116A
100
AcDbEntity
  8
0
100
AcDbBlockBegin
  2
*D12
 70
    65
 10
0.0
 20
0.0
 30
0.0
  3
*D12
  1

  0
LINE
  5
116B
100
AcDbEntity
  8
0
  6
BYBLOCK
 62
     0
100
AcDbLine
 10
508.823748
 20
299.715829
 30
0.0
 11
508.823748
 21
454.958154
 31
0.0
  0
LINE
  5
116C
100
AcDbEntity
  8
0
  6
BYBLOCK
 62
     0
100
AcDbLine
 10
504.251748
 20
450.386154
 30
0.0
 11
459.802526
 21
450.386154
 31
0.0
  0
LINE
  5
116D
100
AcDbEntity
  8
0
  6
BYBLOCK
 62
     0
100
AcDbLine
 10
352.869303
 20
450.386154
 30
0.0
 11
397.318526
 21
450.386154
 31
0.0
  0
SOLID
  5
116E
100
AcDbEntity
  8
0
  6
BYBLOCK
 62
     0
100
AcDbTrace
 10
504.251748
 20
451.148154
 30
0.0
 11
504.251748
 21
449.624154
 31
0.0
 12
508.823748
 22
450.386154
 32
0.0
 13
508.823748
 23
450.386154
 33
0.0
  0
SOLID
  5
116F
100
AcDbEntity
  8
0
  6
BYBLOCK
 62
     0
100
AcDbTrace
 10
352.869303
 20
451.148154
 30
0.0
 11
352.869303
 21
449.624154
 31
0.0
 12
348.297303
 22
450.386154
 32
0.0
 13
348.297303
 23
450.386154
 33
0.0
  0
MTEXT
  5
1170
100
AcDbEntity
  8
0
  6
BYBLOCK
 62
     0
100
AcDbMText
 10
428.560526
 20
450.386154
 30
0.0
 40
4.572
 41
0.0
 71
     5
 72
     1
  1
\A1;160.53mm[6.320"]
  0
POINT
  5
1171
100
AcDbEntity
  8
DEFPOINTS
  6
BYBLOCK
 62
     0
100
AcDbPoint
 10
508.823748
 20
298.128329
 30
0.0
  0
POINT
  5
1172
100
AcDbEntity
  8
DEFPOINTS
  6
BYBLOCK
 62
     0
100
AcDbPoint
 10
348.297303
 20
488.530836
 30
0.0
  0
POINT
  5
1173
100
AcDbEntity
  8
DEFPOINTS
  6
BYBLOCK
 62
     0
100
AcDbPoint
 10
348.297303
 20
450.386154
 30
0.0
  0
ENDBLK
  5
1174
100
AcDbEntity
  8
0
100
AcDbBlockEnd
  0
BLOCK
  5
1275
100
AcDbEntity
  8
0
100
AcDbBlockBegin
  2
*D13
 70
    65
 10
0.0
 20
0.0
 30
0.0
  3
*D13
  1

  0
LINE
  5
1276
100
AcDbEntity
  8
0
  6
BYBLOCK
 62
     0
100
AcDbLine
 10
559.698772
 20
306.449263
 30
0.0
 11
559.698772
 21
477.613104
 31
0.0
  0
LINE
  5
1277
100
AcDbEntity
  8
0
  6
BYBLOCK
 62
     0
100
AcDbLine
 10
555.126772
 20
473.041104
 30
0.0
 11
484.859038
 21
473.041104
 31
0.0
  0
LINE
  5
1278
100
AcDbEntity
  8
0
  6
BYBLOCK
 62
     0
100
AcDbLine
 10
352.869303
 20
473.041104
 30
0.0
 11
423.137038
 21
473.041104
 31
0.0
  0
SOLID
  5
1279
100
AcDbEntity
  8
0
  6
BYBLOCK
 62
     0
100
AcDbTrace
 10
555.126772
 20
473.803104
 30
0.0
 11
555.126772
 21
472.279104
 31
0.0
 12
559.698772
 22
473.041104
 32
0.0
 13
559.698772
 23
473.041104
 33
0.0
  0
SOLID
  5
127A
100
AcDbEntity
  8
0
  6
BYBLOCK
 62
     0
100
AcDbTrace
 10
352.869303
 20
473.803104
 30
0.0
 11
352.869303
 21
472.279104
 31
0.0
 12
348.297303
 22
473.041104
 32
0.0
 13
348.297303
 23
473.041104
 33
0.0
  0
MTEXT
  5
127B
100
AcDbEntity
  8
0
  6
BYBLOCK
 62
     0
100
AcDbMText
 10
453.998038
 20
473.041104
 30
0.0
 40
4.572
 41
0.0
 71
     5
 72
     1
  1
\A1;211.40mm[8.323"]
  0
POINT
  5
127C
100
AcDbEntity
  8
DEFPOINTS
  6
BYBLOCK
 62
     0
100
AcDbPoint
 10
559.698772
 20
304.861763
 30
0.0
  0
POINT
  5
127D
100
AcDbEntity
  8
DEFPOINTS
  6
BYBLOCK
 62
     0
100
AcDbPoint
 10
348.297303
 20
488.530836
 30
0.0
  0
POINT
  5
127E
100
AcDbEntity
  8
DEFPOINTS
  6
BYBLOCK
 62
     0
100
AcDbPoint
 10
348.297303
 20
473.041104
 30
0.0
  0
ENDBLK
  5
127F
100
AcDbEntity
  8
0
100
AcDbBlockEnd
  0
BLOCK
  5
12BC
100
AcDbEntity
  8
0
100
AcDbBlockBegin
  2
*D14
 70
    65
 10
0.0
 20
0.0
 30
0.0
  3
*D14
  1

  0
LINE
  5
12BD
100
AcDbEntity
  8
0
  6
BYBLOCK
 62
     0
100
AcDbLine
 10
507.290463
 20
277.218959
 30
0.0
 11
784.811969
 21
277.218959
 31
0.0
  0
LINE
  5
12BE
100
AcDbEntity
  8
0
  6
BYBLOCK
 62
     0
100
AcDbLine
 10
780.239969
 20
272.646959
 30
0.0
 11
780.239969
 21
267.771553
 31
0.0
  0
LINE
  5
12BF
100
AcDbEntity
  8
0
  6
BYBLOCK
 62
     0
100
AcDbLine
 10
780.239969
 20
253.752148
 30
0.0
 11
780.239969
 21
258.627553
 31
0.0
  0
SOLID
  5
12C0
100
AcDbEntity
  8
0
  6
BYBLOCK
 62
     0
100
AcDbTrace
 10
779.477969
 20
272.646959
 30
0.0
 11
781.001969
 21
272.646959
 31
0.0
 12
780.239969
 22
277.218959
 32
0.0
 13
780.239969
 23
277.218959
 33
0.0
  0
SOLID
  5
12C1
100
AcDbEntity
  8
0
  6
BYBLOCK
 62
     0
100
AcDbTrace
 10
779.477969
 20
253.752148
 30
0.0
 11
781.001969
 21
253.752148
 31
0.0
 12
780.239969
 22
249.180148
 32
0.0
 13
780.239969
 23
249.180148
 33
0.0
  0
MTEXT
  5
12C2
100
AcDbEntity
  8
0
  6
BYBLOCK
 62
     0
100
AcDbMText
 10
780.239969
 20
263.199553
 30
0.0
 40
4.572
 41
0.0
 71
     5
 72
     1
  1
\A1;28.04mm[1.104"]
  0
POINT
  5
12C3
100
AcDbEntity
  8
DEFPOINTS
  6
BYBLOCK
 62
     0
100
AcDbPoint
 10
505.702963
 20
277.218959
 30
0.0
  0
POINT
  5
12C4
100
AcDbEntity
  8
DEFPOINTS
  6
BYBLOCK
 62
     0
100
AcDbPoint
 10
797.197275
 20
249.180148
 30
0.0
  0
POINT
  5
12C5
100
AcDbEntity
  8
DEFPOINTS
  6
BYBLOCK
 62
     0
100
AcDbPoint
 10
780.239969
 20
249.180148
 30
0.0
  0
ENDBLK
  5
12C6
100
AcDbEntity
  8
0
100
AcDbBlockEnd
  0
BLOCK
  5
12E0
100
AcDbEntity
  8
0
100
AcDbBlockBegin
  2
*D15
 70
    65
 10
0.0
 20
0.0
 30
0.0
  3
*D15
  1

  0
LINE
  5
12E1
100
AcDbEntity
  8
0
  6
BYBLOCK
 62
     0
100
AcDbLine
 10
507.290463
 20
267.218988
 30
0.0
 11
632.711767
 21
267.218988
 31
0.0
  0
LINE
  5
12E2
100
AcDbEntity
  8
0
  6
BYBLOCK
 62
     0
100
AcDbLine
 10
628.139767
 20
271.790988
 30
0.0
 11
628.139767
 21
276.362988
 31
0.0
  0
LINE
  5
12E3
100
AcDbEntity
  8
0
  6
BYBLOCK
 62
     0
100
AcDbLine
 10
628.139767
 20
244.608148
 30
0.0
 11
628.139767
 21
240.036148
 31
0.0
  0
LINE
  5
12E4
100
AcDbEntity
  8
0
  6
BYBLOCK
 62
     0
100
AcDbLine
 10
628.139767
 20
240.036148
 30
0.0
 11
623.567767
 21
240.036148
 31
0.0
  0
SOLID
  5
12E5
100
AcDbEntity
  8
0
  6
BYBLOCK
 62
     0
100
AcDbTrace
 10
627.377767
 20
271.790988
 30
0.0
 11
628.901767
 21
271.790988
 31
0.0
 12
628.139767
 22
267.218988
 32
0.0
 13
628.139767
 23
267.218988
 33
0.0
  0
SOLID
  5
12E6
100
AcDbEntity
  8
0
  6
BYBLOCK
 62
     0
100
AcDbTrace
 10
627.377767
 20
244.608148
 30
0.0
 11
628.901767
 21
244.608148
 31
0.0
 12
628.139767
 22
249.180148
 32
0.0
 13
628.139767
 23
249.180148
 33
0.0
  0
MTEXT
  5
12E7
100
AcDbEntity
  8
0
  6
BYBLOCK
 62
     0
100
AcDbMText
 10
564.741367
 20
240.036148
 30
0.0
 40
4.572
 41
0.0
 71
     5
 72
     1
  1
\A1;18.04mm\S+0.05mm^  0.00mm;{\o\l\H10.972800;[}0.710"\S+0.002"^  0.000";{\o\l\H10.972800;]}
  0
POINT
  5
12E8
100
AcDbEntity
  8
DEFPOINTS
  6
BYBLOCK
 62
     0
100
AcDbPoint
 10
505.702963
 20
267.218988
 30
0.0
  0
POINT
  5
12E9
100
AcDbEntity
  8
DEFPOINTS
  6
BYBLOCK
 62
     0
100
AcDbPoint
 10
797.197275
 20
249.180148
 30
0.0
  0
POINT
  5
12EA
100
AcDbEntity
  8
DEFPOINTS
  6
BYBLOCK
 62
     0
100
AcDbPoint
 10
628.139767
 20
249.180148
 30
0.0
  0
ENDBLK
  5
12EB
100
AcDbEntity
  8
0
100
AcDbBlockEnd
  0
BLOCK
  5
11B6
100
AcDbEntity
  8
0
100
AcDbBlockBegin
  2
*D16
 70
    65
 10
0.0
 20
0.0
 30
0.0
  3
*D16
  1

  0
LINE
  5
11B7
100
AcDbEntity
  8
0
  6
BYBLOCK
 62
     0
100
AcDbLine
 10
395.653982
 20
306.276236
 30
0.0
 11
353.171658
 21
389.652493
 31
0.0
  0
LINE
  5
11B8
100
AcDbEntity
  8
0
  6
BYBLOCK
 62
     0
100
AcDbLine
 10
359.320984
 20
387.654455
 30
0.0
 11
363.394666
 21
389.7301
 31
0.0
  0
LINE
  5
11B9
100
AcDbEntity
  8
0
  6
BYBLOCK
 62
     0
100
AcDbLine
 10
301.663399
 20
358.276448
 30
0.0
 11
297.589717
 21
356.200804
 31
0.0
  0
SOLID
  5
11BA
100
AcDbEntity
  8
0
  6
BYBLOCK
 62
     0
100
AcDbTrace
 10
358.975043
 20
388.333402
 30
0.0
 11
359.666925
 21
386.975508
 31
0.0
 12
355.247302
 22
385.578811
 32
0.0
 13
355.247302
 23
385.578811
 33
0.0
  0
SOLID
  5
11BB
100
AcDbEntity
  8
0
  6
BYBLOCK
 62
     0
100
AcDbTrace
 10
301.317458
 20
358.955395
 30
0.0
 11
302.009339
 21
357.597501
 31
0.0
 12
305.73708
 22
360.352093
 32
0.0
 13
305.73708
 23
360.352093
 33
0.0
  0
MTEXT
  5
11BC
100
AcDbEntity
  8
0
  6
BYBLOCK
 62
     0
100
AcDbMText
 10
271.110785
 20
342.709114
 30
0.0
 40
4.572
 41
0.0
 71
     5
 72
     1
  1
\A1;55.57mm[2.188"]
 11
0.891007
 21
0.45399
 31
0.0
  0
POINT
  5
11BD
100
AcDbEntity
  8
DEFPOINTS
  6
BYBLOCK
 62
     0
100
AcDbPoint
 10
396.374692
 20
304.861763
 30
0.0
 50
333.0
  0
POINT
  5
11BE
100
AcDbEntity
  8
DEFPOINTS
  6
BYBLOCK
 62
     0
100
AcDbPoint
 10
300.59197
 20
370.449941
 30
0.0
 50
333.0
  0
POINT
  5
11BF
100
AcDbEntity
  8
DEFPOINTS
  6
BYBLOCK
 62
     0
100
AcDbPoint
 10
305.73708
 20
360.352093
 30
0.0
 50
333.0
  0
ENDBLK
  5
11C0
100
AcDbEntity
  8
0
100
AcDbBlockEnd
  0
BLOCK
  5
11C3
100
AcDbEntity
  8
0
100
AcDbBlockBegin
  2
*D17
 70
    65
 10
0.0
 20
0.0
 30
0.0
  3
*D17
  1

  0
LINE
  5
11C4
100
AcDbEntity
  8
0
  6
BYBLOCK
 62
     0
100
AcDbLine
 10
397.57483
 20
298.276312
 30
0.0
 11
356.347116
 21
379.190258
 31
0.0
  0
LINE
  5
11C5
100
AcDbEntity
  8
0
  6
BYBLOCK
 62
     0
100
AcDbLine
 10
362.496442
 20
377.192221
 30
0.0
 11
366.570124
 21
379.267865
 31
0.0
  0
LINE
  5
11C6
100
AcDbEntity
  8
0
  6
BYBLOCK
 62
     0
100
AcDbLine
 10
306.549947
 20
348.686057
 30
0.0
 11
302.476265
 21
346.610413
 31
0.0
  0
SOLID
  5
11C7
100
AcDbEntity
  8
0
  6
BYBLOCK
 62
     0
100
AcDbTrace
 10
362.150502
 20
377.871168
 30
0.0
 11
362.842383
 21
376.513274
 31
0.0
 12
358.42276
 22
375.116576
 32
0.0
 13
358.42276
 23
375.116576
 33
0.0
  0
SOLID
  5
11C8
100
AcDbEntity
  8
0
  6
BYBLOCK
 62
     0
100
AcDbTrace
 10
306.204006
 20
349.365004
 30
0.0
 11
306.895888
 21
348.00711
 31
0.0
 12
310.623629
 22
350.761702
 32
0.0
 13
310.623629
 23
350.761702
 33
0.0
  0
MTEXT
  5
11C9
100
AcDbEntity
  8
0
  6
BYBLOCK
 62
     0
100
AcDbMText
 10
276.67628
 20
333.464664
 30
0.0
 40
4.572
 41
0.0
 71
     5
 72
     1
  1
\A1;53.65mm[2.112"]
 11
0.891007
 21
0.45399
 31
0.0
  0
POINT
  5
11CA
100
AcDbEntity
  8
DEFPOINTS
  6
BYBLOCK
 62
     0
100
AcDbPoint
 10
398.29554
 20
296.861839
 30
0.0
 50
333.0
  0
POINT
  5
11CB
100
AcDbEntity
  8
DEFPOINTS
  6
BYBLOCK
 62
     0
100
AcDbPoint
 10
300.59197
 20
370.449941
 30
0.0
 50
333.0
  0
POINT
  5
11CC
100
AcDbEntity
  8
DEFPOINTS
  6
BYBLOCK
 62
     0
100
AcDbPoint
 10
310.623629
 20
350.761702
 30
0.0
 50
333.0
  0
ENDBLK
  5
11CD
100
AcDbEntity
  8
0
100
AcDbBlockEnd
  0
BLOCK
  5
11D0
100
AcDbEntity
  8
0
100
AcDbBlockBegin
  2
*D18
 70
    65
 10
0.0
 20
0.0
 30
0.0
  3
*D18
  1

  0
LINE
  5
11D1
100
AcDbEntity
  8
0
  6
BYBLOCK
 62
     0
100
AcDbLine
 10
394.630334
 20
298.248668
 30
0.0
 11
359.034727
 21
368.10898
 31
0.0
  0
LINE
  5
11D2
100
AcDbEntity
  8
0
  6
BYBLOCK
 62
     0
100
AcDbLine
 10
365.184053
 20
366.110943
 30
0.0
 11
369.257735
 21
368.186587
 31
0.0
  0
LINE
  5
11D3
100
AcDbEntity
  8
0
  6
BYBLOCK
 62
     0
100
AcDbLine
 10
311.586354
 20
338.801551
 30
0.0
 11
307.512673
 21
336.725907
 31
0.0
  0
SOLID
  5
11D4
100
AcDbEntity
  8
0
  6
BYBLOCK
 62
     0
100
AcDbTrace
 10
364.838112
 20
366.78989
 30
0.0
 11
365.529994
 21
365.431996
 31
0.0
 12
361.110371
 22
364.035298
 32
0.0
 13
361.110371
 23
364.035298
 33
0.0
  0
SOLID
  5
11D5
100
AcDbEntity
  8
0
  6
BYBLOCK
 62
     0
100
AcDbTrace
 10
311.240414
 20
339.480498
 30
0.0
 11
311.932295
 21
338.122604
 31
0.0
 12
315.660036
 22
340.877196
 32
0.0
 13
315.660036
 23
340.877196
 33
0.0
  0
MTEXT
  5
11D6
100
AcDbEntity
  8
0
  6
BYBLOCK
 62
     0
100
AcDbMText
 10
282.731108
 20
324.099069
 30
0.0
 40
4.572
 41
0.0
 71
     5
 72
     1
  1
\A1;51.01mm[2.008"]
 11
0.891007
 21
0.45399
 31
0.0
  0
POINT
  5
11D7
100
AcDbEntity
  8
DEFPOINTS
  6
BYBLOCK
 62
     0
100
AcDbPoint
 10
395.351044
 20
296.834195
 30
0.0
 50
333.0
  0
POINT
  5
11D8
100
AcDbEntity
  8
DEFPOINTS
  6
BYBLOCK
 62
     0
100
AcDbPoint
 10
300.59197
 20
370.449941
 30
0.0
 50
333.0
  0
POINT
  5
11D9
100
AcDbEntity
  8
DEFPOINTS
  6
BYBLOCK
 62
     0
100
AcDbPoint
 10
315.660036
 20
340.877196
 30
0.0
 50
333.0
  0
ENDBLK
  5
11DA
100
AcDbEntity
  8
0
100
AcDbBlockEnd
  0
BLOCK
  5
11DD
100
AcDbEntity
  8
0
100
AcDbBlockBegin
  2
*D19
 70
    65
 10
0.0
 20
0.0
 30
0.0
  3
*D19
  1

  0
LINE
  5
11DE
100
AcDbEntity
  8
0
  6
BYBLOCK
 62
     0
100
AcDbLine
 10
341.686861
 20
272.263594
 30
0.0
 11
311.549895
 21
331.41072
 31
0.0
  0
LINE
  5
11DF
100
AcDbEntity
  8
0
  6
BYBLOCK
 62
     0
100
AcDbLine
 10
324.791502
 20
333.02638
 30
0.0
 11
328.865184
 21
335.102025
 31
0.0
  0
LINE
  5
11E0
100
AcDbEntity
  8
0
  6
BYBLOCK
 62
     0
100
AcDbLine
 10
309.551858
 20
325.261393
 30
0.0
 11
305.478176
 21
323.185749
 31
0.0
  0
SOLID
  5
11E1
100
AcDbEntity
  8
0
  6
BYBLOCK
 62
     0
100
AcDbTrace
 10
324.445561
 20
333.705327
 30
0.0
 11
325.137443
 21
332.347433
 31
0.0
 12
320.71782
 22
330.950735
 32
0.0
 13
320.71782
 23
330.950735
 33
0.0
  0
SOLID
  5
11E2
100
AcDbEntity
  8
0
  6
BYBLOCK
 62
     0
100
AcDbTrace
 10
309.205917
 20
325.94034
 30
0.0
 11
309.897799
 21
324.582446
 31
0.0
 12
313.62554
 22
327.337038
 32
0.0
 13
313.62554
 23
327.337038
 33
0.0
  0
MTEXT
  5
11E3
100
AcDbEntity
  8
0
  6
BYBLOCK
 62
     0
100
AcDbMText
 10
281.375559
 20
310.904852
 30
0.0
 40
4.572
 41
0.0
 71
     5
 72
     1
  1
\A1;7.96mm[0.313"]
 11
0.891007
 21
0.45399
 31
0.0
  0
POINT
  5
11E4
100
AcDbEntity
  8
DEFPOINTS
  6
BYBLOCK
 62
     0
100
AcDbPoint
 10
300.59197
 20
370.449941
 30
0.0
 50
333.0
  0
POINT
  5
11E5
100
AcDbEntity
  8
DEFPOINTS
  6
BYBLOCK
 62
     0
100
AcDbPoint
 10
342.407571
 20
270.849121
 30
0.0
 50
333.0
  0
POINT
  5
11E6
100
AcDbEntity
  8
DEFPOINTS
  6
BYBLOCK
 62
     0
100
AcDbPoint
 10
313.62554
 20
327.337038
 30
0.0
 50
333.0
  0
ENDBLK
  5
11E7
100
AcDbEntity
  8
0
100
AcDbBlockEnd
  0
BLOCK
  5
11EA
100
AcDbEntity
  8
0
100
AcDbBlockBegin
  2
*D20
 70
    65
 10
0.0
 20
0.0
 30
0.0
  3
*D20
  1

  0
LINE
  5
11EB
100
AcDbEntity
  8
0
  6
BYBLOCK
 62
     0
100
AcDbLine
 10
334.061119
 20
266.951265
 30
0.0
 11
308.196635
 21
317.713174
 31
0.0
  0
LINE
  5
11EC
100
AcDbEntity
  8
0
  6
BYBLOCK
 62
     0
100
AcDbLine
 10
329.641144
 20
323.508422
 30
0.0
 11
333.714826
 21
325.584066
 31
0.0
  0
LINE
  5
11ED
100
AcDbEntity
  8
0
  6
BYBLOCK
 62
     0
100
AcDbLine
 10
306.198598
 20
311.563848
 30
0.0
 11
302.124916
 21
309.488203
 31
0.0
  0
SOLID
  5
11EE
100
AcDbEntity
  8
0
  6
BYBLOCK
 62
     0
100
AcDbTrace
 10
329.295203
 20
324.187369
 30
0.0
 11
329.987085
 21
322.829475
 31
0.0
 12
325.567462
 22
321.432777
 32
0.0
 13
325.567462
 23
321.432777
 33
0.0
  0
SOLID
  5
11EF
100
AcDbEntity
  8
0
  6
BYBLOCK
 62
     0
100
AcDbTrace
 10
305.852657
 20
312.242795
 30
0.0
 11
306.544538
 21
310.884901
 31
0.0
 12
310.27228
 22
313.639492
 32
0.0
 13
310.27228
 23
313.639492
 33
0.0
  0
MTEXT
  5
11F0
100
AcDbEntity
  8
0
  6
BYBLOCK
 62
     0
100
AcDbMText
 10
276.664404
 20
296.515425
 30
0.0
 40
4.572
 41
0.0
 71
     5
 72
     1
  1
\A1;17.17mm[0.676"]
 11
0.891007
 21
0.45399
 31
0.0
  0
POINT
  5
11F1
100
AcDbEntity
  8
DEFPOINTS
  6
BYBLOCK
 62
     0
100
AcDbPoint
 10
300.59197
 20
370.449941
 30
0.0
 50
333.0
  0
POINT
  5
11F2
100
AcDbEntity
  8
DEFPOINTS
  6
BYBLOCK
 62
     0
100
AcDbPoint
 10
334.781829
 20
265.536792
 30
0.0
 50
333.0
  0
POINT
  5
11F3
100
AcDbEntity
  8
DEFPOINTS
  6
BYBLOCK
 62
     0
100
AcDbPoint
 10
310.27228
 20
313.639492
 30
0.0
 50
333.0
  0
ENDBLK
  5
11F4
100
AcDbEntity
  8
0
100
AcDbBlockEnd
  0
BLOCK
  5
11F7
100
AcDbEntity
  8
0
100
AcDbBlockBegin
  2
*D21
 70
    65
 10
0.0
 20
0.0
 30
0.0
  3
*D21
  1

  0
LINE
  5
11F8
100
AcDbEntity
  8
0
  6
BYBLOCK
 62
     0
100
AcDbLine
 10
318.474381
 20
266.951265
 30
0.0
 11
301.200673
 21
300.852826
 31
0.0
  0
LINE
  5
11F9
100
AcDbEntity
  8
0
  6
BYBLOCK
 62
     0
100
AcDbLine
 10
335.019379
 20
312.953042
 30
0.0
 11
339.093061
 21
315.028686
 31
0.0
  0
LINE
  5
11FA
100
AcDbEntity
  8
0
  6
BYBLOCK
 62
     0
100
AcDbLine
 10
299.202636
 20
294.7035
 30
0.0
 11
295.128954
 21
292.627855
 31
0.0
  0
SOLID
  5
11FB
100
AcDbEntity
  8
0
  6
BYBLOCK
 62
     0
100
AcDbTrace
 10
334.673438
 20
313.631989
 30
0.0
 11
335.36532
 21
312.274095
 31
0.0
 12
330.945697
 22
310.877397
 32
0.0
 13
330.945697
 23
310.877397
 33
0.0
  0
SOLID
  5
11FC
100
AcDbEntity
  8
0
  6
BYBLOCK
 62
     0
100
AcDbTrace
 10
298.856695
 20
295.382447
 30
0.0
 11
299.548577
 21
294.024553
 31
0.0
 12
303.276318
 22
296.779144
 32
0.0
 13
303.276318
 23
296.779144
 33
0.0
  0
MTEXT
  5
11FD
100
AcDbEntity
  8
0
  6
BYBLOCK
 62
     0
100
AcDbMText
 10
269.668443
 20
279.655077
 30
0.0
 40
4.572
 41
0.0
 71
     5
 72
     1
  1
\A1;31.05mm[1.223"]
 11
0.891007
 21
0.45399
 31
0.0
  0
POINT
  5
11FE
100
AcDbEntity
  8
DEFPOINTS
  6
BYBLOCK
 62
     0
100
AcDbPoint
 10
300.59197
 20
370.449941
 30
0.0
 50
333.0
  0
POINT
  5
11FF
100
AcDbEntity
  8
DEFPOINTS
  6
BYBLOCK
 62
     0
100
AcDbPoint
 10
319.195091
 20
265.536792
 30
0.0
 50
333.0
  0
POINT
  5
1200
100
AcDbEntity
  8
DEFPOINTS
  6
BYBLOCK
 62
     0
100
AcDbPoint
 10
303.276318
 20
296.779144
 30
0.0
 50
333.0
  0
ENDBLK
  5
1201
100
AcDbEntity
  8
0
100
AcDbBlockEnd
  0
BLOCK
  5
12A4
100
AcDbEntity
  8
0
100
AcDbBlockBegin
  2
*D22
 70
    65
 10
0.0
 20
0.0
 30
0.0
  3
*D22
  1

  0
LINE
  5
12A5
100
AcDbEntity
  8
0
  6
BYBLOCK
 62
     0
100
AcDbLine
 10
263.784809
 20
237.173278
 30
0.0
 11
73.916023
 21
140.4303
 31
0.0
  0
LINE
  5
12A6
100
AcDbEntity
  8
0
  6
BYBLOCK
 62
     0
100
AcDbLine
 10
75.91406
 20
146.579626
 30
0.0
 11
73.838416
 21
150.653308
 31
0.0
  0
LINE
  5
12A7
100
AcDbEntity
  8
0
  6
BYBLOCK
 62
     0
100
AcDbLine
 10
81.498182
 20
135.620169
 30
0.0
 11
83.573827
 21
131.546487
 31
0.0
  0
LINE
  5
12A8
100
AcDbEntity
  8
0
  6
BYBLOCK
 62
     0
100
AcDbLine
 10
83.573827
 20
131.546487
 30
0.0
 11
79.500145
 21
129.470843
 31
0.0
  0
SOLID
  5
12A9
100
AcDbEntity
  8
0
  6
BYBLOCK
 62
     0
100
AcDbTrace
 10
75.235113
 20
146.233685
 30
0.0
 11
76.593007
 21
146.925567
 31
0.0
 12
77.989705
 22
142.505944
 32
0.0
 13
77.989705
 23
142.505944
 33
0.0
  0
SOLID
  5
12AA
100
AcDbEntity
  8
0
  6
BYBLOCK
 62
     0
100
AcDbTrace
 10
80.819235
 20
135.274228
 30
0.0
 11
82.177129
 21
135.96611
 31
0.0
 12
79.422538
 22
139.693851
 32
0.0
 13
79.422538
 23
139.693851
 33
0.0
  0
MTEXT
  5
12AB
100
AcDbEntity
  8
0
  6
BYBLOCK
 62
     0
100
AcDbMText
 10
56.076475
 20
117.535887
 30
0.0
 40
4.572
 41
0.0
 71
     5
 72
     1
  1
\A1;3.16mm[0.124"]
 11
0.891007
 21
0.45399
 31
0.0
  0
POINT
  5
12AC
100
AcDbEntity
  8
DEFPOINTS
  6
BYBLOCK
 62
     0
100
AcDbPoint
 10
265.199282
 20
237.893988
 30
0.0
 50
333.0
  0
POINT
  5
12AD
100
AcDbEntity
  8
DEFPOINTS
  6
BYBLOCK
 62
     0
100
AcDbPoint
 10
30.179487
 20
114.603263
 30
0.0
 50
333.0
  0
POINT
  5
12AE
100
AcDbEntity
  8
DEFPOINTS
  6
BYBLOCK
 62
     0
100
AcDbPoint
 10
79.422538
 20
139.693851
 30
0.0
 50
333.0
  0
ENDBLK
  5
12AF
100
AcDbEntity
  8
0
100
AcDbBlockEnd
  0
BLOCK
  5
123B
100
AcDbEntity
  8
0
100
AcDbBlockBegin
  2
*D23
 70
    65
 10
0.0
 20
0.0
 30
0.0
  3
*D23
  1

  0
LINE
  5
123C
100
AcDbEntity
  8
0
  6
BYBLOCK
 62
     0
100
AcDbLine
 10
333.367356
 20
264.816082
 30
0.0
 11
189.908135
 21
191.719958
 31
0.0
  0
LINE
  5
123D
100
AcDbEntity
  8
0
  6
BYBLOCK
 62
     0
100
AcDbLine
 10
190.126464
 20
201.36216
 30
0.0
 11
188.050819
 21
205.435841
 31
0.0
  0
LINE
  5
123E
100
AcDbEntity
  8
0
  6
BYBLOCK
 62
     0
100
AcDbLine
 10
196.057462
 20
189.721921
 30
0.0
 11
198.133106
 21
185.648239
 31
0.0
  0
LINE
  5
123F
100
AcDbEntity
  8
0
  6
BYBLOCK
 62
     0
100
AcDbLine
 10
198.133106
 20
185.648239
 30
0.0
 11
194.059425
 21
183.572595
 31
0.0
  0
SOLID
  5
1240
100
AcDbEntity
  8
0
  6
BYBLOCK
 62
     0
100
AcDbTrace
 10
189.447517
 20
201.016219
 30
0.0
 11
190.805411
 21
201.7081
 31
0.0
 12
192.202109
 22
197.288478
 32
0.0
 13
192.202109
 23
197.288478
 33
0.0
  0
SOLID
  5
1241
100
AcDbEntity
  8
0
  6
BYBLOCK
 62
     0
100
AcDbTrace
 10
195.378515
 20
189.37598
 30
0.0
 11
196.736409
 21
190.067862
 31
0.0
 12
193.981817
 22
193.795603
 32
0.0
 13
193.981817
 23
193.795603
 33
0.0
  0
MTEXT
  5
1242
100
AcDbEntity
  8
0
  6
BYBLOCK
 62
     0
100
AcDbMText
 10
169.956807
 20
171.291698
 30
0.0
 40
4.572
 41
0.0
 71
     5
 72
     1
  1
\A1;3.92mm[0.154"]
 11
0.891007
 21
0.45399
 31
0.0
  0
POINT
  5
1243
100
AcDbEntity
  8
DEFPOINTS
  6
BYBLOCK
 62
     0
100
AcDbPoint
 10
440.418756
 20
323.761177
 30
0.0
 50
333.0
  0
POINT
  5
1244
100
AcDbEntity
  8
DEFPOINTS
  6
BYBLOCK
 62
     0
100
AcDbPoint
 10
334.781829
 20
265.536792
 30
0.0
 50
333.0
  0
POINT
  5
1245
100
AcDbEntity
  8
DEFPOINTS
  6
BYBLOCK
 62
     0
100
AcDbPoint
 10
193.981817
 20
193.795603
 30
0.0
 50
333.0
  0
ENDBLK
  5
1246
100
AcDbEntity
  8
0
100
AcDbBlockEnd
  0
BLOCK
  5
12B0
100
AcDbEntity
  8
0
100
AcDbBlockBegin
  2
*D24
 70
    65
 10
0.0
 20
0.0
 30
0.0
  3
*D24
  1

  0
LINE
  5
12B1
100
AcDbEntity
  8
0
  6
BYBLOCK
 62
     0
100
AcDbLine
 10
290.68384
 20
239.655722
 30
0.0
 11
259.106344
 21
223.566184
 31
0.0
  0
LINE
  5
12B2
100
AcDbEntity
  8
0
  6
BYBLOCK
 62
     0
100
AcDbLine
 10
257.997295
 20
235.81351
 30
0.0
 11
255.921651
 21
239.887192
 31
0.0
  0
LINE
  5
12B3
100
AcDbEntity
  8
0
  6
BYBLOCK
 62
     0
100
AcDbLine
 10
265.25567
 20
221.568147
 30
0.0
 11
267.331315
 21
217.494465
 31
0.0
  0
LINE
  5
12B4
100
AcDbEntity
  8
0
  6
BYBLOCK
 62
     0
100
AcDbLine
 10
267.331315
 20
217.494465
 30
0.0
 11
263.257633
 21
215.41882
 31
0.0
  0
SOLID
  5
12B5
100
AcDbEntity
  8
0
  6
BYBLOCK
 62
     0
100
AcDbTrace
 10
257.318348
 20
235.467569
 30
0.0
 11
258.676242
 21
236.159451
 31
0.0
 12
260.07294
 22
231.739828
 32
0.0
 13
260.07294
 23
231.739828
 33
0.0
  0
SOLID
  5
12B6
100
AcDbEntity
  8
0
  6
BYBLOCK
 62
     0
100
AcDbTrace
 10
264.576723
 20
221.222206
 30
0.0
 11
265.934617
 21
221.914088
 31
0.0
 12
263.180026
 22
225.641829
 32
0.0
 13
263.180026
 23
225.641829
 33
0.0
  0
MTEXT
  5
12B7
100
AcDbEntity
  8
0
  6
BYBLOCK
 62
     0
100
AcDbMText
 10
210.842927
 20
188.712194
 30
0.0
 40
4.572
 41
0.0
 71
     5
 72
     1
  1
\A1;6.84mm\S 0.00mm^ -0.05mm;{\o\l\H10.972800;[}0.269"\S 0.000"^ -0.002";{\o\l\H10.972800;]}
 11
0.891007
 21
0.45399
 31
0.0
  0
POINT
  5
12B8
100
AcDbEntity
  8
DEFPOINTS
  6
BYBLOCK
 62
     0
100
AcDbPoint
 10
30.179487
 20
114.603263
 30
0.0
 50
333.0
  0
POINT
  5
12B9
100
AcDbEntity
  8
DEFPOINTS
  6
BYBLOCK
 62
     0
100
AcDbPoint
 10
292.098312
 20
240.376432
 30
0.0
 50
333.0
  0
POINT
  5
12BA
100
AcDbEntity
  8
DEFPOINTS
  6
BYBLOCK
 62
     0
100
AcDbPoint
 10
263.180026
 20
225.641829
 30
0.0
 50
333.0
  0
ENDBLK
  5
12BB
100
AcDbEntity
  8
0
100
AcDbBlockEnd
  0
BLOCK
  5
1254
100
AcDbEntity
  8
0
100
AcDbBlockBegin
  2
*D25
 70
    65
 10
0.0
 20
0.0
 30
0.0
  3
*D25
  1

  0
ARC
  5
1255
100
AcDbEntity
  8
0
  6
BYBLOCK
 62
     0
100
AcDbCircle
 10
348.297303
 20
276.822952
 30
0.0
 40
100.663957
100
AcDbArc
 50
272.602509
 51
276.44962
  0
ARC
  5
1256
100
AcDbEntity
  8
0
  6
BYBLOCK
 62
     0
100
AcDbCircle
 10
348.297303
 20
276.822952
 30
0.0
 40
100.663957
100
AcDbArc
 50
290.766554
 51
294.397491
  0
SOLID
  5
1257
100
AcDbEntity
  8
0
  6
BYBLOCK
 62
     0
100
AcDbTrace
 10
352.885429
 20
175.501018
 30
0.0
 11
352.85082
 21
177.024625
 31
0.0
 12
348.297303
 22
176.158995
 32
0.0
 13
348.297303
 23
176.158995
 33
0.0
  0
SOLID
  5
1258
100
AcDbEntity
  8
0
  6
BYBLOCK
 62
     0
100
AcDbTrace
 10
389.547583
 20
185.834738
 30
0.0
 11
390.208449
 21
184.461482
 31
0.0
 12
393.997784
 22
187.13071
 32
0.0
 13
393.997784
 23
187.13071
 33
0.0
  0
MTEXT
  5
1259
100
AcDbEntity
  8
0
  6
BYBLOCK
 62
     0
100
AcDbMText
 10
371.796838
 20
178.940348
 30
0.0
 40
4.572
 41
0.0
 71
     5
 72
     1
  1
\A1;27.00°
  0
POINT
  5
125A
100
AcDbEntity
  8
DEFPOINTS
  6
BYBLOCK
 62
     0
100
AcDbPoint
 10
364.044616
 20
177.398335
 30
0.0
  0
POINT
  5
125B
100
AcDbEntity
  8
DEFPOINTS
  6
BYBLOCK
 62
     0
100
AcDbPoint
 10
348.297303
 20
162.37015
 30
0.0
  0
POINT
  5
125C
100
AcDbEntity
  8
DEFPOINTS
  6
BYBLOCK
 62
     0
100
AcDbPoint
 10
300.59197
 20
370.449941
 30
0.0
  0
POINT
  5
125D
100
AcDbEntity
  8
DEFPOINTS
  6
BYBLOCK
 62
     0
100
AcDbPoint
 10
399.70308
 20
175.933436
 30
0.0
  0
POINT
  5
125E
100
AcDbEntity
  8
DEFPOINTS
  6
BYBLOCK
 62
     0
100
AcDbPoint
 10
348.297303
 20
488.530836
 30
0.0
  0
ENDBLK
  5
125F
100
AcDbEntity
  8
0
100
AcDbBlockEnd
  0
BLOCK
  5
1281
100
AcDbEntity
  8
0
100
AcDbBlockBegin
  2
*D26
 70
    65
 10
0.0
 20
0.0
 30
0.0
  3
*D26
  1

  0
LINE
  5
1282
100
AcDbEntity
  8
0
  6
BYBLOCK
 62
     0
100
AcDbLine
 10
549.698772
 20
305.063806
 30
0.0
 11
549.698772
 21
466.78125
 31
0.0
  0
LINE
  5
1283
100
AcDbEntity
  8
0
  6
BYBLOCK
 62
     0
100
AcDbLine
 10
545.126772
 20
462.20925
 30
0.0
 11
505.767038
 21
462.20925
 31
0.0
  0
LINE
  5
1284
100
AcDbEntity
  8
0
  6
BYBLOCK
 62
     0
100
AcDbLine
 10
352.869303
 20
462.20925
 30
0.0
 11
392.229038
 21
462.20925
 31
0.0
  0
SOLID
  5
1285
100
AcDbEntity
  8
0
  6
BYBLOCK
 62
     0
100
AcDbTrace
 10
545.126772
 20
462.97125
 30
0.0
 11
545.126772
 21
461.44725
 31
0.0
 12
549.698772
 22
462.20925
 32
0.0
 13
549.698772
 23
462.20925
 33
0.0
  0
SOLID
  5
1286
100
AcDbEntity
  8
0
  6
BYBLOCK
 62
     0
100
AcDbTrace
 10
352.869303
 20
462.97125
 30
0.0
 11
352.869303
 21
461.44725
 31
0.0
 12
348.297303
 22
462.20925
 32
0.0
 13
348.297303
 23
462.20925
 33
0.0
  0
MTEXT
  5
1287
100
AcDbEntity
  8
0
  6
BYBLOCK
 62
     0
100
AcDbMText
 10
448.998038
 20
462.20925
 30
0.0
 40
4.572
 41
0.0
 71
     5
 72
     1
  1
\A1;201.40mm±0.03mm[7.929"±0.001"]
  0
POINT
  5
1288
100
AcDbEntity
  8
DEFPOINTS
  6
BYBLOCK
 62
     0
100
AcDbPoint
 10
549.698772
 20
303.476306
 30
0.0
  0
POINT
  5
1289
100
AcDbEntity
  8
DEFPOINTS
  6
BYBLOCK
 62
     0
100
AcDbPoint
 10
348.297303
 20
488.530836
 30
0.0
  0
POINT
  5
128A
100
AcDbEntity
  8
DEFPOINTS
  6
BYBLOCK
 62
     0
100
AcDbPoint
 10
348.297303
 20
462.20925
 30
0.0
  0
ENDBLK
  5
128B
100
AcDbEntity
  8
0
100
AcDbBlockEnd
  0
BLOCK
  5
12D4
100
AcDbEntity
  8
0
100
AcDbBlockBegin
  2
*D27
 70
    65
 10
0.0
 20
0.0
 30
0.0
  3
*D27
  1

  0
LINE
  5
12D5
100
AcDbEntity
  8
0
  6
BYBLOCK
 62
     0
100
AcDbLine
 10
499.516684
 20
273.718959
 30
0.0
 11
696.688553
 21
273.718959
 31
0.0
  0
LINE
  5
12D6
100
AcDbEntity
  8
0
  6
BYBLOCK
 62
     0
100
AcDbLine
 10
692.116553
 20
269.146959
 30
0.0
 11
692.116553
 21
266.021553
 31
0.0
  0
LINE
  5
12D7
100
AcDbEntity
  8
0
  6
BYBLOCK
 62
     0
100
AcDbLine
 10
692.116553
 20
253.752148
 30
0.0
 11
692.116553
 21
256.877553
 31
0.0
  0
SOLID
  5
12D8
100
AcDbEntity
  8
0
  6
BYBLOCK
 62
     0
100
AcDbTrace
 10
691.354553
 20
269.146959
 30
0.0
 11
692.878553
 21
269.146959
 31
0.0
 12
692.116553
 22
273.718959
 32
0.0
 13
692.116553
 23
273.718959
 33
0.0
  0
SOLID
  5
12D9
100
AcDbEntity
  8
0
  6
BYBLOCK
 62
     0
100
AcDbTrace
 10
691.354553
 20
253.752148
 30
0.0
 11
692.878553
 21
253.752148
 31
0.0
 12
692.116553
 22
249.180148
 32
0.0
 13
692.116553
 23
249.180148
 33
0.0
  0
MTEXT
  5
12DA
100
AcDbEntity
  8
0
  6
BYBLOCK
 62
     0
100
AcDbMText
 10
692.116553
 20
261.449553
 30
0.0
 40
4.572
 41
0.0
 71
     5
 72
     1
  1
\A1;24.54mm±0.03mm[0.966"±0.001"]
  0
POINT
  5
12DB
100
AcDbEntity
  8
DEFPOINTS
  6
BYBLOCK
 62
     0
100
AcDbPoint
 10
497.929184
 20
273.718959
 30
0.0
  0
POINT
  5
12DC
100
AcDbEntity
  8
DEFPOINTS
  6
BYBLOCK
 62
     0
100
AcDbPoint
 10
797.197275
 20
249.180148
 30
0.0
  0
POINT
  5
12DD
100
AcDbEntity
  8
DEFPOINTS
  6
BYBLOCK
 62
     0
100
AcDbPoint
 10
692.116553
 20
249.180148
 30
0.0
  0
ENDBLK
  5
12DE
100
AcDbEntity
  8
0
100
AcDbBlockEnd
  0
ENDSEC
  0
SECTION
  2
ENTITIES
  0
TEXT
  5
435
100
AcDbEntity
  8
TEXT
100
AcDbText
 10
715.394362
 20
38.427413
 30
0.0
 40
3.0
  1
LAYER 4B BACKWARD SUPPORT RIB
100
AcDbText
  0
TEXT
  5
436
100
AcDbEntity
  8
TEXT
100
AcDbText
 10
716.550246
 20
24.25368
 30
0.0
 40
3.0
  1
B-FAC
100
AcDbText
  0
TEXT
  5
437
100
AcDbEntity
  8
TEXT
100
AcDbText
 10
764.271411
 20
24.468434
 30
0.0
 40
3.0
  1
L4-RIB04
100
AcDbText
  0
TEXT
  5
438
100
AcDbEntity
  8
TEXT
100
AcDbText
 10
718.081904
 20
17.166814
 30
0.0
 40
3.0
  1
1=1
100
AcDbText
  0
TEXT
  5
439
100
AcDbEntity
  8
TEXT
100
AcDbText
 10
671.46273
 20
34.347095
 30
0.0
 40
3.0
  1
S. KYRE
100
AcDbText
  0
TEXT
  5
43A
100
AcDbEntity
  8
TEXT
100
AcDbText
 10
693.161055
 20
33.488082
 30
0.0
 40
1.5
  1
11-09-95
100
AcDbText
  0
LINE
  5
755
100
AcDbEntity
  8
BEAMS-B
100
AcDbLine
 10
342.378883
 20
277.218959
 30
0.0
 11
265.199282
 21
237.893988
 31
0.0
  0
LINE
  5
756
100
AcDbEntity
  8
BEAMS-B
100
AcDbLine
 10
265.199282
 20
237.893988
 30
0.0
 11
280.78602
 21
237.893988
 31
0.0
  0
ARC
  5
757
100
AcDbEntity
  8
BEAMS-B
100
AcDbCircle
 10
346.935456
 20
267.219035
 30
0.0
 40
2.0
100
AcDbArc
 50
359.99865
 51
90.0
  0
LINE
  5
758
100
AcDbEntity
  8
BEAMS-B
100
AcDbLine
 10
341.950934
 20
268.022264
 30
0.0
 11
344.299731
 21
269.219035
 31
0.0
  0
ARC
  5
759
100
AcDbEntity
  8
BEAMS-B
100
AcDbCircle
 10
342.858915
 20
266.240251
 30
0.0
 40
2.0
100
AcDbArc
 50
117.0
 51
207.0
  0
LINE
  5
75A
100
AcDbEntity
  8
BEAMS-B
100
AcDbLine
 10
344.299731
 20
269.219035
 30
0.0
 11
346.935456
 21
269.219035
 31
0.0
  0
LINE
  5
75B
100
AcDbEntity
  8
BEAMS-B
100
AcDbLine
 10
342.378883
 20
277.218959
 30
0.0
 11
505.702963
 21
277.218959
 31
0.0
  0
LINE
  5
75C
100
AcDbEntity
  8
BEAMS-B
100
AcDbLine
 10
394.952939
 20
267.218988
 30
0.0
 11
348.935456
 21
267.218988
 31
0.0
  0
LINE
  5
75E
100
AcDbEntity
  8
BEAMS-B
100
AcDbLine
 10
448.827939
 20
267.218988
 30
0.0
 11
402.952939
 21
267.218988
 31
0.0
  0
LINE
  5
75F
100
AcDbEntity
  8
BEAMS-B
100
AcDbLine
 10
396.952939
 20
269.219035
 30
0.0
 11
400.952939
 21
269.219035
 31
0.0
  0
ARC
  5
760
100
AcDbEntity
  8
BEAMS-B
100
AcDbCircle
 10
400.952939
 20
267.219035
 30
0.0
 40
2.0
100
AcDbArc
 50
359.99865
 51
90.0
  0
ARC
  5
761
100
AcDbEntity
  8
BEAMS-B
100
AcDbCircle
 10
396.952939
 20
267.219035
 30
0.0
 40
2.0
100
AcDbArc
 50
90.0
 51
180.00135
  0
ARC
  5
763
100
AcDbEntity
  8
BEAMS-B
100
AcDbCircle
 10
450.827939
 20
267.219035
 30
0.0
 40
2.0
100
AcDbArc
 50
90.0
 51
180.00135
  0
LINE
  5
764
100
AcDbEntity
  8
BEAMS-B
100
AcDbLine
 10
450.827939
 20
269.219035
 30
0.0
 11
454.827939
 21
269.219035
 31
0.0
  0
ARC
  5
765
100
AcDbEntity
  8
BEAMS-B
100
AcDbCircle
 10
454.827939
 20
267.219035
 30
0.0
 40
2.0
100
AcDbArc
 50
359.99865
 51
90.0
  0
LINE
  5
773
100
AcDbEntity
  8
BEAMS-B
100
AcDbLine
 10
505.702963
 20
267.218988
 30
0.0
 11
505.702963
 21
277.218959
 31
0.0
  0
LINE
  5
776
100
AcDbEntity
  8
BEAMS-B
100
AcDbLine
 10
505.702963
 20
267.218988
 30
0.0
 11
456.827939
 21
267.218988
 31
0.0
  0
LINE
  5
793
100
AcDbEntity
  8
CENTER
100
AcDbLine
 10
396.952939
 20
266.081543
 30
0.0
 11
396.952939
 21
270.485525
 31
0.0
  0
LINE
  5
794
100
AcDbEntity
  8
CENTER
100
AcDbLine
 10
393.86111
 20
267.219035
 30
0.0
 11
398.266761
 21
267.219035
 31
0.0
  0
LINE
  5
795
100
AcDbEntity
  8
CENTER
100
AcDbLine
 10
404.044768
 20
267.219035
 30
0.0
 11
399.639117
 21
267.219035
 31
0.0
  0
LINE
  5
796
100
AcDbEntity
  8
CENTER
100
AcDbLine
 10
400.952939
 20
266.081543
 30
0.0
 11
400.952939
 21
270.485525
 31
0.0
  0
LINE
  5
797
100
AcDbEntity
  8
CENTER
100
AcDbLine
 10
457.919768
 20
267.219035
 30
0.0
 11
453.514117
 21
267.219035
 31
0.0
  0
LINE
  5
798
100
AcDbEntity
  8
CENTER
100
AcDbLine
 10
447.73611
 20
267.219035
 30
0.0
 11
452.141761
 21
267.219035
 31
0.0
  0
LINE
  5
799
100
AcDbEntity
  8
CENTER
100
AcDbLine
 10
450.827939
 20
266.081543
 30
0.0
 11
450.827939
 21
270.485525
 31
0.0
  0
LINE
  5
79A
100
AcDbEntity
  8
CENTER
100
AcDbLine
 10
454.827939
 20
266.081543
 30
0.0
 11
454.827939
 21
270.485525
 31
0.0
  0
LINE
  5
79B
100
AcDbEntity
  8
CENTER
100
AcDbLine
 10
350.027284
 20
267.219035
 30
0.0
 11
345.621633
 21
267.219035
 31
0.0
  0
LINE
  5
79C
100
AcDbEntity
  8
CENTER
100
AcDbLine
 10
346.935456
 20
266.081543
 30
0.0
 11
346.935456
 21
270.485525
 31
0.0
  0
LINE
  5
79D
100
AcDbEntity
  8
CENTER
100
AcDbLine
 10
343.500787
 20
264.980507
 30
0.0
 11
341.355234
 21
269.19139
 31
0.0
  0
LINE
  5
79E
100
AcDbEntity
  8
CENTER
100
AcDbLine
 10
340.082928
 20
264.825814
 30
0.0
 11
344.091686
 21
266.868379
 31
0.0
  0
DIMENSION
  5
829
100
AcDbEntity
  8
DIM
100
AcDbDimension
  2
*D0
 10
454.827939
 20
267.219035
 30
0.0
 11
552.361995
 21
330.806529
 31
0.0
 12
130.714396
 22
44.794863
 32
0.0
 70
   164
  3
STANDARD$4
100
AcDbRadialDimension
 15
456.220922
 25
268.654165
 35
0.0
 40
0.0
1001
ACAD
1000
DSTYLE
1002
{
1070
   288
1070
     1
1070
    40
1040
25.4
1070
     3
1000
mm
1070
   271
1070
     2
1070
     4
1000
"
1070
   143
1040
0.03937
1070
   171
1070
     3
1070
   170
1070
     1
1002
}
  0
TEXT
  5
83E
100
AcDbEntity
  8
DIM
100
AcDbText
 10
523.329425
 20
320.768603
 30
0.0
 40
4.572
  1
7X
100
AcDbText
  0
LINE
  5
966
100
AcDbEntity
  8
BEAMS-B
100
AcDbLine
 10
280.78602
 20
237.893988
 30
0.0
 11
288.988922
 21
242.073575
 31
0.0
  0
ARC
  5
967
100
AcDbEntity
  8
BEAMS-B
100
AcDbCircle
 10
289.896903
 20
240.291562
 30
0.0
 40
2.0
100
AcDbArc
 50
27.0
 51
117.0
  0
LINE
  5
968
100
AcDbEntity
  8
BEAMS-B
100
AcDbLine
 10
292.098312
 20
240.376432
 30
0.0
 11
291.678916
 21
241.199543
 31
0.0
  0
LINE
  5
969
100
AcDbEntity
  8
BEAMS-B
100
AcDbLine
 10
341.076902
 20
265.33227
 30
0.0
 11
292.098312
 21
240.376432
 31
0.0
  0
LINE
  5
979
100
AcDbEntity
  8
CENTER
100
AcDbLine
 10
288.989186
 20
239.829057
 30
0.0
 11
292.67441
 21
241.706773
 31
0.0
  0
LINE
  5
97A
100
AcDbEntity
  8
CENTER
100
AcDbLine
 10
290.436977
 20
239.231607
 30
0.0
 11
288.411762
 21
243.206317
 31
0.0
  0
LINE
  5
A96
100
AcDbEntity
  8
TEXT
100
AcDbLine
 10
685.369457
 20
504.822347
 30
0.0
 11
685.369457
 21
481.916809
 31
0.0
  0
LINE
  5
A97
100
AcDbEntity
  8
TEXT
100
AcDbLine
 10
695.281868
 20
504.822347
 30
0.0
 11
695.281868
 21
481.916809
 31
0.0
  0
LINE
  5
A98
100
AcDbEntity
  8
TEXT
100
AcDbLine
 10
764.877868
 20
504.822347
 30
0.0
 11
764.877868
 21
481.916809
 31
0.0
  0
LINE
  5
A99
100
AcDbEntity
  8
TEXT
100
AcDbLine
 10
787.229868
 20
504.822347
 30
0.0
 11
787.229868
 21
481.916809
 31
0.0
  0
TEXT
  5
A9A
100
AcDbEntity
  8
TEXT
100
AcDbText
 10
688.048837
 20
499.694942
 30
0.0
 40
2.0
  1
01
100
AcDbText
  0
TEXT
  5
A9B
100
AcDbEntity
  8
TEXT
100
AcDbText
 10
700.048837
 20
499.694942
 30
0.0
 40
2.0
  1
ADD ALIGNMENT HOLE
100
AcDbText
  0
TEXT
  5
A9C
100
AcDbEntity
  8
TEXT
100
AcDbText
 10
769.048837
 20
499.694942
 30
0.0
 40
2.0
  1
03-27-96
100
AcDbText
  0
INSERT
  5
AEB
100
AcDbEntity
  8
TEXT
100
AcDbBlockReference
  2
D-BORDER
 10
0.0
 20
0.0
 30
0.0
 41
25.4
 42
25.4
 43
25.4
  0
LINE
  5
AF0
100
AcDbEntity
  8
CENTER
100
AcDbLine
 10
294.301494
 20
134.727346
 30
0.0
 11
294.301494
 21
460.888032
 31
0.0
  0
LINE
  5
AF1
100
AcDbEntity
  8
CENTER
100
AcDbLine
 10
252.021271
 20
249.180148
 30
0.0
 11
797.197275
 21
249.180148
 31
0.0
  0
LINE
  5
AF2
100
AcDbEntity
  8
CENTER
100
AcDbLine
 10
30.179487
 20
114.603263
 30
0.0
 11
386.422947
 21
296.118372
 31
0.0
  0
LINE
  5
AF3
100
AcDbEntity
  8
CENTER
100
AcDbLine
 10
246.59616
 20
342.807137
 30
0.0
 11
345.70727
 21
148.290632
 31
0.0
  0
ACAD_ZOMBIE_ENTITY
  5
D03
100
AcDbEntity
  8
TEXT
100
AcDbZombieEntity
 90
      498
 91
      515
 92
        8
310
0800000000000000
 93
       97
310
D28000000020290400007802D3
330
D04
330
D05
330
D06
330
D07
330
D04
 94
        0
  0
CIRCLE
  5
D44
100
AcDbEntity
  8
BEAMS-B
100
AcDbCircle
 10
294.301494
 20
249.180148
 30
0.0
 40
1.19125
  0
DIMENSION
  5
FA6
100
AcDbEntity
  8
DIM
100
AcDbDimension
  2
*D3
 10
293.496885
 20
249.862303
 30
0.0
 11
400.035303
 21
218.824067
 31
0.0
 70
   163
  1
{<>}\P{2X}
  3
STANDARD$3
100
AcDbDiametricDimension
 15
295.450078
 25
248.497993
 35
0.0
 40
0.0
1001
ACAD
1000
DSTYLE
1002
{
1070
   288
1070
     1
1070
    47
1040
0.03
1070
    71
1070
     1
1070
    48
1040
0.03
1070
   272
1070
     2
1070
    75
1070
     1
1070
    40
1040
25.4
1070
     3
1000
mm
1070
   271
1070
     2
1070
     4
1000
"
1070
   274
1070
     3
1070
   143
1040
0.03937
1070
   171
1070
     3
1070
   170
1070
     1
1002
}
  0
TEXT
  5
FCA
100
AcDbEntity
  8
TEXT
100
AcDbText
 10
697.030287
 20
489.100967
 30
0.0
 40
2.0
  1
KEVLAR COMPOSITE
100
AcDbText
  0
TEXT
  5
FCB
100
AcDbEntity
  8
TEXT
100
AcDbText
 10
697.030287
 20
492.149182
 30
0.0
 40
2.0
  1
CHANGE MATERIAL TO CARBON-FIBER -
100
AcDbText
  0
TEXT
  5
FCC
100
AcDbEntity
  8
TEXT
100
AcDbText
 10
769.434903
 20
495.451415
 30
0.0
 40
2.0
  1
01-08-97
100
AcDbText
  0
TEXT
  5
FCD
100
AcDbEntity
  8
TEXT
100
AcDbText
 10
697.030287
 20
495.451415
 30
0.0
 40
2.0
  1
CHANGE LOCATION OF LOCATING HOLES
100
AcDbText
  0
TEXT
  5
FCE
100
AcDbEntity
  8
TEXT
100
AcDbText
 10
688.030287
 20
495.451415
 30
0.0
 40
2.0
  1
02
100
AcDbText
  0
POLYLINE
  5
1059
100
AcDbEntity
  8
TEXT
100
AcDb2dPolyline
 66
     1
 10
0.0
 20
0.0
 30
0.0
 70
     1
  0
VERTEX
  5
105A
100
AcDbEntity
  8
TEXT
100
AcDbVertex
100
AcDb2dVertex
 10
143.246891
 20
320.241357
 30
0.0
  0
VERTEX
  5
105B
100
AcDbEntity
  8
TEXT
100
AcDbVertex
100
AcDb2dVertex
 10
143.246891
 20
420.241357
 30
0.0
  0
VERTEX
  5
105C
100
AcDbEntity
  8
TEXT
100
AcDbVertex
100
AcDb2dVertex
 10
145.278891
 20
420.241357
 30
0.0
  0
VERTEX
  5
105D
100
AcDbEntity
  8
TEXT
100
AcDbVertex
100
AcDb2dVertex
 10
145.278891
 20
320.241357
 30
0.0
  0
SEQEND
  5
105E
100
AcDbEntity
  8
TEXT
  0
POLYLINE
  5
105F
100
AcDbEntity
  8
C-FIBER
100
AcDb2dPolyline
 66
     1
 10
0.0
 20
0.0
 30
0.0
 70
     1
  0
VERTEX
  5
1060
100
AcDbEntity
  8
C-FIBER
100
AcDbVertex
100
AcDb2dVertex
 10
145.278891
 20
420.241357
 30
0.0
  0
VERTEX
  5
1061
100
AcDbEntity
  8
C-FIBER
100
AcDbVertex
100
AcDb2dVertex
 10
145.278891
 20
350.241357
 30
0.0
  0
VERTEX
  5
1062
100
AcDbEntity
  8
C-FIBER
100
AcDbVertex
100
AcDb2dVertex
 10
146.802891
 20
350.241357
 30
0.0
  0
VERTEX
  5
1063
100
AcDbEntity
  8
C-FIBER
100
AcDbVertex
100
AcDb2dVertex
 10
146.802891
 20
420.241357
 30
0.0
  0
SEQEND
  5
1064
100
AcDbEntity
  8
C-FIBER
  0
POLYLINE
  5
1065
100
AcDbEntity
  8
C-FIBER
100
AcDb2dPolyline
 66
     1
 10
0.0
 20
0.0
 30
0.0
 70
     1
  0
VERTEX
  5
1066
100
AcDbEntity
  8
C-FIBER
100
AcDbVertex
100
AcDb2dVertex
 10
143.246891
 20
420.241357
 30
0.0
  0
VERTEX
  5
1067
100
AcDbEntity
  8
C-FIBER
100
AcDbVertex
100
AcDb2dVertex
 10
143.246891
 20
350.241357
 30
0.0
  0
VERTEX
  5
1068
100
AcDbEntity
  8
C-FIBER
100
AcDbVertex
100
AcDb2dVertex
 10
141.722891
 20
350.241357
 30
0.0
  0
VERTEX
  5
1069
100
AcDbEntity
  8
C-FIBER
100
AcDbVertex
100
AcDb2dVertex
 10
141.722891
 20
420.241357
 30
0.0
  0
SEQEND
  5
106A
100
AcDbEntity
  8
C-FIBER
  0
LEADER
  5
106B
100
AcDbEntity
  8
C-FIBER
100
AcDbLeader
  3
STANDARD
 73
     0
 74
     0
 75
     1
 40
4.572
 41
51.816
 76
     3
 10
146.460489
 20
367.509218
 30
0.0
 10
168.726922
 20
399.803806
 30
0.0
 10
173.298922
 20
399.803806
 30
0.0
 77
   256
1001
ACAD
1000
DSTYLE
1002
{
1070
   288
1070
     1
1070
    47
1040
0.03
1070
    71
1070
     1
1070
    48
1040
0.03
1070
   272
1070
     2
1070
    76
1070
     1
1070
    40
1040
25.4
1070
     3
1000
mm
1070
   271
1070
     2
1070
     4
1000
"
1070
   274
1070
     3
1070
   143
1040
0.03937
1070
   171
1070
     3
1070
   170
1070
     1
1002
}
  0
MTEXT
  5
106C
100
AcDbEntity
  8
C-FIBER
100
AcDbMText
 10
186.120691
 20
399.803806
 30
0.0
 40
4.572
 41
0.0
 71
     4
 72
     1
  1
{CARBON FIBER}
  0
LEADER
  5
106D
100
AcDbEntity
  8
C-FIBER
100
AcDbLeader
  3
STANDARD
 76
     2
 10
142.397027
 20
375.872413
 30
0.0
 10
168.726922
 20
399.803806
 30
0.0
 77
   256
1001
ACAD
1000
DSTYLE
1002
{
1070
   288
1070
     1
1070
    47
1040
0.03
1070
    71
1070
     1
1070
    48
1040
0.03
1070
   272
1070
     2
1070
    76
1070
     1
1070
    40
1040
25.4
1070
     3
1000
mm
1070
   271
1070
     2
1070
     4
1000
"
1070
   274
1070
     3
1070
   143
1040
0.03937
1070
   171
1070
     3
1070
   170
1070
     1
1002
}
  0
LEADER
  5
106E
100
AcDbEntity
  8
KEVLAR
100
AcDbLeader
  3
STANDARD
 73
     0
 74
     0
 75
     1
 40
4.572
 41
27.432
 76
     3
 10
143.979866
 20
330.283366
 30
0.0
 10
163.5831
 20
360.365765
 30
0.0
 10
168.1551
 20
360.365765
 30
0.0
 77
   256
1001
ACAD
1000
DSTYLE
1002
{
1070
   288
1070
     1
1070
    47
1040
0.03
1070
    71
1070
     1
1070
    48
1040
0.03
1070
   272
1070
     2
1070
    76
1070
     1
1070
    40
1040
25.4
1070
     3
1000
mm
1070
   271
1070
     2
1070
     4
1000
"
1070
   274
1070
     3
1070
   143
1040
0.03937
1070
   171
1070
     3
1070
   170
1070
     1
1002
}
  0
MTEXT
  5
106F
100
AcDbEntity
  8
KEVLAR
100
AcDbMText
 10
170.4411
 20
360.365765
 30
0.0
 40
4.572
 41
0.0
 71
     4
 72
     1
  1
{KEVLAR}
  0
DIMENSION
  5
1070
100
AcDbEntity
  8
DIM
100
AcDbDimension
  2
*D4
 10
146.802891
 20
429.631307
 30
0.0
 11
207.381891
 21
429.631307
 31
0.0
 12
-10.535769
 22
0.0
 32
0.0
 70
    32
  3
STANDARD
100
AcDbAlignedDimension
 13
141.722891
 23
420.241357
 33
0.0
 14
146.802891
 24
420.241357
 34
0.0
100
AcDbRotatedDimension
1001
ACAD
1000
DSTYLE
1002
{
1070
    47
1040
0.03
1070
    71
1070
     1
1070
    48
1040
0.03
1070
   272
1070
     2
1070
    40
1040
25.4
1070
     3
1000
mm
1070
   144
1040
0.1
1070
   271
1070
     2
1070
     4
1000
"
1070
   274
1070
     3
1070
   143
1040
0.03937
1070
   171
1070
     3
1070
   170
1070
     1
1002
}
  0
DIMENSION
  5
1071
100
AcDbEntity
  8
DIM
100
AcDbDimension
  2
*D5
 10
146.802891
 20
441.947887
 30
0.0
 11
207.381891
 21
441.947887
 31
0.0
 12
-10.535769
 22
0.0
 32
0.0
 70
    32
  3
STANDARD
100
AcDbAlignedDimension
 13
145.278891
 23
420.241357
 33
0.0
 14
146.802891
 24
420.241357
 34
0.0
100
AcDbRotatedDimension
1001
ACAD
1000
DSTYLE
1002
{
1070
    47
1040
0.03
1070
    71
1070
     1
1070
    48
1040
0.03
1070
   272
1070
     2
1070
    40
1040
25.4
1070
     3
1000
mm
1070
   144
1040
0.1
1070
   271
1070
     2
1070
     4
1000
"
1070
   274
1070
     3
1070
   143
1040
0.03937
1070
   171
1070
     3
1070
   170
1070
     1
1002
}
  0
DIMENSION
  5
1072
100
AcDbEntity
  8
DIM
100
AcDbDimension
  2
*D6
 10
141.722891
 20
454.649361
 30
0.0
 11
81.143891
 21
454.649361
 31
0.0
 12
-10.535769
 22
0.0
 32
0.0
 70
    32
  3
STANDARD
100
AcDbAlignedDimension
 13
143.246891
 23
420.241357
 33
0.0
 14
141.722891
 24
420.241357
 34
0.0
100
AcDbRotatedDimension
1001
ACAD
1000
DSTYLE
1002
{
1070
    47
1040
0.03
1070
    71
1070
     1
1070
    48
1040
0.03
1070
   272
1070
     2
1070
    40
1040
25.4
1070
     3
1000
mm
1070
   144
1040
0.1
1070
   271
1070
     2
1070
     4
1000
"
1070
   274
1070
     3
1070
   143
1040
0.03937
1070
   171
1070
     3
1070
   170
1070
     1
1002
}
  0
DIMENSION
  5
1073
100
AcDbEntity
  8
DIM
100
AcDbDimension
  2
*D7
 10
111.329818
 20
320.241357
 30
0.0
 11
111.329818
 21
335.241357
 31
0.0
 12
-10.535769
 22
0.0
 32
0.0
 70
    32
  3
STANDARD
100
AcDbAlignedDimension
 13
141.722891
 23
350.241357
 33
0.0
 14
143.246891
 24
320.241357
 34
0.0
 50
90.0
100
AcDbRotatedDimension
1001
ACAD
1000
DSTYLE
1002
{
1070
    47
1040
0.03
1070
    48
1040
0.03
1070
   272
1070
     2
1070
    40
1040
25.4
1070
     3
1000
mm
1070
   144
1040
0.1
1070
   271
1070
     2
1070
     4
1000
"
1070
   274
1070
     3
1070
   143
1040
0.03937
1070
   171
1070
     3
1070
   170
1070
     1
1002
}
  0
TEXT
  5
1074
100
AcDbEntity
  8
TEXT
100
AcDbText
 10
87.708596
 20
299.849376
 30
0.0
 40
8.0
  1
ENDVIEW
100
AcDbText
  0
TEXT
  5
1075
100
AcDbEntity
  8
TEXT
100
AcDbText
 10
87.708596
 20
286.516043
 30
0.0
 40
8.0
  1
SCALE: 10=1
100
AcDbText
  0
MTEXT
  5
10DA
100
AcDbEntity
  8
TEXT
100
AcDbMText
 10
459.926339
 20
198.699571
 30
0.0
 40
4.0
 41
188.3382
 71
     1
 72
     1
  3
{MATERIAL: }\P{0.51mm [0.020"] thick Kevlar-Carbon-fiber-Epoxy-composite}\P\P{LAMINATE SCHEDULE:}\P\P{Core:}\P{cloth:  2 layers Kevlar 29 (0.004" thick ea.)}\P{ 1.7 oz/sq. yd. plain weave}\P{epoxy: heat resistant laminating epoxy}\P{ Ciba-Geigy RP400
  3
5R/RP1500H}\P{cure: 24 hrs at room temp. @ 20psi}\P{ 2 hrs postcure at 66°C}\P\P{Skins:}\P{cloth: 1 layer Carbon fiber (0.006" thick)}\P{ xx oz/sq. yd. plain weave}\P{epoxy: heat resistant laminating epoxy}\P{ Ciba-Geigy RP4005R/RP1500H}\P{cure: 24 h
  1
rs at room temp. @ 20psi}\P{ 2 hrs postcure at 66°C}\P\P{LASER CUTTING:}\P{use fixture L4-RIB14}\P
  0
TEXT
  5
10DD
100
AcDbEntity
  8
TEXT
100
AcDbText
 10
806.082954
 20
24.278503
 30
0.0
 40
3.0
  1
03
100
AcDbText
  0
DIMENSION
  5
1141
100
AcDbEntity
  8
DIM
100
AcDbDimension
  2
*D8
 10
294.301494
 20
371.618079
 30
0.0
 11
255.058494
 21
371.618079
 31
0.0
 12
-53.995809
 22
-27.642804
 32
0.0
 70
    32
  3
STANDARD
100
AcDbAlignedDimension
 13
346.935456
 23
270.485525
 33
0.0
 14
294.301494
 24
460.888032
 34
0.0
100
AcDbRotatedDimension
1001
ACAD
1000
DSTYLE
1002
{
1070
    47
1040
0.03
1070
    48
1040
0.03
1070
   272
1070
     2
1070
    76
1070
     1
1070
    40
1040
25.4
1070
     3
1000
mm
1070
   271
1070
     2
1070
     4
1000
"
1070
   274
1070
     3
1070
   143
1040
0.03937
1070
   171
1070
     3
1070
   170
1070
     1
1002
}
  0
DIMENSION
  5
114E
100
AcDbEntity
  8
DIM
100
AcDbDimension
  2
*D9
 10
294.301494
 20
386.807471
 30
0.0
 11
345.627217
 21
386.807471
 31
0.0
 12
-53.995809
 22
-27.642804
 32
0.0
 70
    32
  3
STANDARD
100
AcDbAlignedDimension
 13
396.952939
 23
270.485525
 33
0.0
 14
294.301494
 24
460.888032
 34
0.0
100
AcDbRotatedDimension
1001
ACAD
1000
DSTYLE
1002
{
1070
    47
1040
0.03
1070
    48
1040
0.03
1070
   272
1070
     2
1070
    76
1070
     1
1070
    40
1040
25.4
1070
     3
1000
mm
1070
   271
1070
     2
1070
     4
1000
"
1070
   274
1070
     3
1070
   143
1040
0.03937
1070
   171
1070
     3
1070
   170
1070
     1
1002
}
  0
DIMENSION
  5
115B
100
AcDbEntity
  8
DIM
100
AcDbDimension
  2
*D10
 10
294.301494
 20
397.921661
 30
0.0
 11
347.627217
 21
397.921661
 31
0.0
 12
-53.995809
 22
-27.642804
 32
0.0
 70
    32
  3
STANDARD
100
AcDbAlignedDimension
 13
400.952939
 23
270.485525
 33
0.0
 14
294.301494
 24
460.888032
 34
0.0
100
AcDbRotatedDimension
1001
ACAD
1000
DSTYLE
1002
{
1070
    47
1040
0.03
1070
    48
1040
0.03
1070
   272
1070
     2
1070
    76
1070
     1
1070
    40
1040
25.4
1070
     3
1000
mm
1070
   271
1070
     2
1070
     4
1000
"
1070
   274
1070
     3
1070
   143
1040
0.03937
1070
   171
1070
     3
1070
   170
1070
     1
1002
}
  0
DIMENSION
  5
1168
100
AcDbEntity
  8
DIM
100
AcDbDimension
  2
*D11
 10
294.301494
 20
409.776795
 30
0.0
 11
372.564717
 21
409.776795
 31
0.0
 12
-53.995809
 22
-27.642804
 32
0.0
 70
    32
  3
STANDARD
100
AcDbAlignedDimension
 13
450.827939
 23
270.485525
 33
0.0
 14
294.301494
 24
460.888032
 34
0.0
100
AcDbRotatedDimension
1001
ACAD
1000
DSTYLE
1002
{
1070
    47
1040
0.03
1070
    48
1040
0.03
1070
   272
1070
     2
1070
    76
1070
     1
1070
    40
1040
25.4
1070
     3
1000
mm
1070
   271
1070
     2
1070
     4
1000
"
1070
   274
1070
     3
1070
   143
1040
0.03937
1070
   171
1070
     3
1070
   170
1070
     1
1002
}
  0
DIMENSION
  5
1175
100
AcDbEntity
  8
DIM
100
AcDbDimension
  2
*D12
 10
294.301494
 20
422.74335
 30
0.0
 11
374.564717
 21
422.74335
 31
0.0
 12
-53.995809
 22
-27.642804
 32
0.0
 70
    32
  3
STANDARD
100
AcDbAlignedDimension
 13
454.827939
 23
270.485525
 33
0.0
 14
294.301494
 24
460.888032
 34
0.0
100
AcDbRotatedDimension
1001
ACAD
1000
DSTYLE
1002
{
1070
    47
1040
0.03
1070
    48
1040
0.03
1070
   272
1070
     2
1070
    76
1070
     1
1070
    40
1040
25.4
1070
     3
1000
mm
1070
   271
1070
     2
1070
     4
1000
"
1070
   274
1070
     3
1070
   143
1040
0.03937
1070
   171
1070
     3
1070
   170
1070
     1
1002
}
  0
DIMENSION
  5
1182
100
AcDbEntity
  8
DIM
100
AcDbDimension
  2
*D13
 10
294.301494
 20
445.398299
 30
0.0
 11
400.002228
 21
445.398299
 31
0.0
 12
-53.995809
 22
-27.642804
 32
0.0
 70
    32
  3
STANDARD
100
AcDbAlignedDimension
 13
505.702963
 23
277.218959
 33
0.0
 14
294.301494
 24
460.888032
 34
0.0
100
AcDbRotatedDimension
1001
ACAD
1000
DSTYLE
1002
{
1070
    47
1040
0.03
1070
    48
1040
0.03
1070
   272
1070
     2
1070
    76
1070
     1
1070
    40
1040
25.4
1070
     3
1000
mm
1070
   271
1070
     2
1070
     4
1000
"
1070
   274
1070
     3
1070
   143
1040
0.03937
1070
   171
1070
     3
1070
   170
1070
     1
1002
}
  0
DIMENSION
  5
118F
100
AcDbEntity
  8
DIM
100
AcDbDimension
  2
*D14
 10
780.239969
 20
249.180148
 30
0.0
 11
780.239969
 21
263.199553
 31
0.0
 70
    32
  3
STANDARD
100
AcDbAlignedDimension
 13
505.702963
 23
277.218959
 33
0.0
 14
797.197275
 24
249.180148
 34
0.0
 50
90.0
100
AcDbRotatedDimension
1001
ACAD
1000
DSTYLE
1002
{
1070
    47
1040
0.03
1070
    48
1040
0.03
1070
   272
1070
     2
1070
    76
1070
     1
1070
    40
1040
25.4
1070
     3
1000
mm
1070
   271
1070
     2
1070
     4
1000
"
1070
   274
1070
     3
1070
   143
1040
0.03937
1070
   171
1070
     3
1070
   170
1070
     1
1002
}
  0
DIMENSION
  5
119D
100
AcDbEntity
  8
DIM
100
AcDbDimension
  2
*D15
 10
628.139767
 20
249.180148
 30
0.0
 11
564.741367
 21
240.036148
 31
0.0
 70
    32
  3
STANDARD
100
AcDbAlignedDimension
 13
505.702963
 23
267.218988
 33
0.0
 14
797.197275
 24
249.180148
 34
0.0
 50
90.0
100
AcDbRotatedDimension
1001
ACAD
1000
DSTYLE
1002
{
1070
    47
1040
0.05
1070
    71
1070
     1
1070
   272
1070
     2
1070
    76
1070
     1
1070
    40
1040
25.4
1070
     3
1000
mm
1070
   271
1070
     2
1070
     4
1000
"
1070
   274
1070
     3
1070
   143
1040
0.03937
1070
   171
1070
     3
1070
   170
1070
     1
1002
}
  0
DIMENSION
  5
11C1
100
AcDbEntity
  8
DIM
100
AcDbDimension
  2
*D16
 10
251.741271
 20
332.709289
 30
0.0
 11
217.114975
 21
315.06631
 31
0.0
 12
-53.995809
 22
-27.642804
 32
0.0
 70
    32
 51
333.0
  3
STANDARD
100
AcDbAlignedDimension
 13
342.378883
 23
277.218959
 33
0.0
 14
246.59616
 24
342.807137
 34
0.0
 50
27.0
100
AcDbRotatedDimension
1001
ACAD
1000
DSTYLE
1002
{
1070
    47
1040
0.05
1070
   272
1070
     2
1070
    76
1070
     1
1070
    40
1040
25.4
1070
     3
1000
mm
1070
   271
1070
     2
1070
     4
1000
"
1070
   274
1070
     3
1070
   143
1040
0.03937
1070
   171
1070
     3
1070
   170
1070
     1
1002
}
  0
DIMENSION
  5
11CE
100
AcDbEntity
  8
DIM
100
AcDbDimension
  2
*D17
 10
256.627819
 20
323.118898
 30
0.0
 11
222.680471
 21
305.82186
 31
0.0
 12
-53.995809
 22
-27.642804
 32
0.0
 70
    32
 51
333.0
  3
STANDARD
100
AcDbAlignedDimension
 13
344.299731
 23
269.219035
 33
0.0
 14
246.59616
 24
342.807137
 34
0.0
 50
27.0
100
AcDbRotatedDimension
1001
ACAD
1000
DSTYLE
1002
{
1070
    47
1040
0.05
1070
   272
1070
     2
1070
    76
1070
     1
1070
    40
1040
25.4
1070
     3
1000
mm
1070
   271
1070
     2
1070
     4
1000
"
1070
   274
1070
     3
1070
   143
1040
0.03937
1070
   171
1070
     3
1070
   170
1070
     1
1002
}
  0
DIMENSION
  5
11DB
100
AcDbEntity
  8
DIM
100
AcDbDimension
  2
*D18
 10
261.664227
 20
313.234391
 30
0.0
 11
228.735299
 21
296.456265
 31
0.0
 12
-53.995809
 22
-27.642804
 32
0.0
 70
    32
 51
333.0
  3
STANDARD
100
AcDbAlignedDimension
 13
341.355234
 23
269.19139
 33
0.0
 14
246.59616
 24
342.807137
 34
0.0
 50
27.0
100
AcDbRotatedDimension
1001
ACAD
1000
DSTYLE
1002
{
1070
    47
1040
0.05
1070
   272
1070
     2
1070
    76
1070
     1
1070
    40
1040
25.4
1070
     3
1000
mm
1070
   271
1070
     2
1070
     4
1000
"
1070
   274
1070
     3
1070
   143
1040
0.03937
1070
   171
1070
     3
1070
   170
1070
     1
1002
}
  0
DIMENSION
  5
11E8
100
AcDbEntity
  8
DIM
100
AcDbDimension
  2
*D19
 10
259.62973
 20
299.694234
 30
0.0
 11
227.379749
 21
283.262048
 31
0.0
 12
-53.995809
 22
-27.642804
 32
0.0
 70
    32
 51
333.0
  3
STANDARD
100
AcDbAlignedDimension
 13
246.59616
 23
342.807137
 33
0.0
 14
288.411762
 24
243.206317
 34
0.0
 50
27.0
100
AcDbRotatedDimension
1001
ACAD
1000
DSTYLE
1002
{
1070
    47
1040
0.05
1070
   272
1070
     2
1070
    75
1070
     1
1070
    40
1040
25.4
1070
     3
1000
mm
1070
   271
1070
     2
1070
     4
1000
"
1070
   274
1070
     3
1070
   143
1040
0.03937
1070
   171
1070
     3
1070
   170
1070
     1
1002
}
  0
DIMENSION
  5
11F5
100
AcDbEntity
  8
DIM
100
AcDbDimension
  2
*D20
 10
256.27647
 20
285.996688
 30
0.0
 11
222.668595
 21
268.87262
 31
0.0
 12
-53.995809
 22
-27.642804
 32
0.0
 70
    32
 51
333.0
  3
STANDARD
100
AcDbAlignedDimension
 13
246.59616
 23
342.807137
 33
0.0
 14
280.78602
 24
237.893988
 34
0.0
 50
27.0
100
AcDbRotatedDimension
1001
ACAD
1000
DSTYLE
1002
{
1070
    47
1040
0.05
1070
   272
1070
     2
1070
    75
1070
     1
1070
    40
1040
25.4
1070
     3
1000
mm
1070
   271
1070
     2
1070
     4
1000
"
1070
   274
1070
     3
1070
   143
1040
0.03937
1070
   171
1070
     3
1070
   170
1070
     1
1002
}
  0
DIMENSION
  5
1202
100
AcDbEntity
  8
DIM
100
AcDbDimension
  2
*D21
 10
249.280508
 20
269.13634
 30
0.0
 11
215.672633
 21
252.012272
 31
0.0
 12
-53.995809
 22
-27.642804
 32
0.0
 70
    32
 51
333.0
  3
STANDARD
100
AcDbAlignedDimension
 13
246.59616
 23
342.807137
 33
0.0
 14
265.199282
 24
237.893988
 34
0.0
 50
27.0
100
AcDbRotatedDimension
1001
ACAD
1000
DSTYLE
1002
{
1070
    47
1040
0.05
1070
   272
1070
     2
1070
    75
1070
     1
1070
    40
1040
25.4
1070
     3
1000
mm
1070
   271
1070
     2
1070
     4
1000
"
1070
   274
1070
     3
1070
   143
1040
0.03937
1070
   171
1070
     3
1070
   170
1070
     1
1002
}
  0
DIMENSION
  5
1210
100
AcDbEntity
  8
DIM
100
AcDbDimension
  2
*D22
 10
79.422538
 20
139.693851
 30
0.0
 11
56.076475
 21
117.535887
 31
0.0
 70
    32
 51
333.0
  3
STANDARD
100
AcDbAlignedDimension
 13
265.199282
 23
237.893988
 33
0.0
 14
30.179487
 24
114.603263
 34
0.0
 50
117.0
100
AcDbRotatedDimension
1001
ACAD
1000
DSTYLE
1002
{
1070
    47
1040
0.05
1070
   272
1070
     2
1070
    76
1070
     1
1070
    40
1040
25.4
1070
     3
1000
mm
1070
   271
1070
     2
1070
     4
1000
"
1070
   274
1070
     3
1070
   143
1040
0.03937
1070
   171
1070
     3
1070
   170
1070
     1
1002
}
  0
DIMENSION
  5
121E
100
AcDbEntity
  8
DIM
100
AcDbDimension
  2
*D23
 10
139.986008
 20
166.152799
 30
0.0
 11
115.960998
 21
143.648893
 31
0.0
 12
-53.995809
 22
-27.642804
 32
0.0
 70
    32
 51
333.0
  3
STANDARD
100
AcDbAlignedDimension
 13
386.422947
 23
296.118372
 33
0.0
 14
280.78602
 24
237.893988
 34
0.0
 50
117.0
100
AcDbRotatedDimension
1001
ACAD
1000
DSTYLE
1002
{
1070
    47
1040
0.05
1070
   272
1070
     2
1070
    75
1070
     1
1070
    40
1040
25.4
1070
     3
1000
mm
1070
   271
1070
     2
1070
     4
1000
"
1070
   274
1070
     3
1070
   143
1040
0.03937
1070
   171
1070
     3
1070
   170
1070
     1
1002
}
  0
DIMENSION
  5
123A
100
AcDbEntity
  8
DIM
100
AcDbDimension
  2
*D24
 10
263.180026
 20
225.641829
 30
0.0
 11
210.842927
 21
188.712194
 31
0.0
 70
    32
 51
333.0
  3
STANDARD
100
AcDbAlignedDimension
 13
30.179487
 23
114.603263
 33
0.0
 14
292.098312
 24
240.376432
 34
0.0
 50
117.0
100
AcDbRotatedDimension
1001
ACAD
1000
DSTYLE
1002
{
1070
    71
1070
     1
1070
    48
1040
0.05
1070
   272
1070
     2
1070
    75
1070
     1
1070
    40
1040
25.4
1070
     3
1000
mm
1070
   271
1070
     2
1070
     4
1000
"
1070
   274
1070
     3
1070
   143
1040
0.03937
1070
   171
1070
     3
1070
   170
1070
     1
1002
}
  0
DIMENSION
  5
1260
100
AcDbEntity
  8
DIM
100
AcDbDimension
  2
*D25
 10
294.301494
 20
460.888032
 30
0.0
 11
317.801028
 21
151.297544
 31
0.0
 12
-53.995809
 22
-27.642804
 32
0.0
 70
    34
  3
STANDARD$2
100
AcDb2LineAngularDimension
 13
246.59616
 23
342.807137
 33
0.0
 14
345.70727
 24
148.290632
 34
0.0
 15
294.301494
 25
134.727346
 35
0.0
 16
326.382068
 26
153.764902
 36
0.0
1001
ACAD
1000
DSTYLE
1002
{
1070
    48
1040
0.05
1070
   272
1070
     2
1070
    75
1070
     1
1070
    40
1040
25.4
1070
   271
1070
     2
1070
     4
1000
"
1070
   274
1070
     3
1070
   143
1040
0.03937
1070
   171
1070
     3
1070
   170
1070
     1
1002
}
  0
LINE
  5
1266
100
AcDbEntity
  8
BEAMS-B
100
AcDbLine
 10
505.702963
 20
270.218988
 30
0.0
 11
344.05956
 21
270.218988
 31
0.0
  0
LINE
  5
1267
100
AcDbEntity
  8
BEAMS-B
100
AcDbLine
 10
344.05956
 20
270.218988
 30
0.0
 11
280.618175
 21
237.893988
 31
0.0
  0
CIRCLE
  5
1272
100
AcDbEntity
  8
KEVLAR
100
AcDbCircle
 10
495.702963
 20
273.718959
 30
0.0
 40
1.1905
  0
LINE
  5
1273
100
AcDbEntity
  8
CENTER
100
AcDbLine
 10
495.702963
 20
271.613521
 30
0.0
 11
495.702963
 21
275.833502
 31
0.0
  0
LINE
  5
1274
100
AcDbEntity
  8
CENTER
100
AcDbLine
 10
497.929184
 20
273.718959
 30
0.0
 11
493.425661
 21
273.718959
 31
0.0
  0
DIMENSION
  5
128C
100
AcDbEntity
  8
DIM
100
AcDbDimension
  2
*D26
 10
294.301494
 20
434.566446
 30
0.0
 11
395.002228
 21
434.566446
 31
0.0
 12
-53.995809
 22
-27.642804
 32
0.0
 70
    32
  3
STANDARD
100
AcDbAlignedDimension
 13
495.702963
 23
275.833502
 33
0.0
 14
294.301494
 24
460.888032
 34
0.0
100
AcDbRotatedDimension
1001
ACAD
1000
DSTYLE
1002
{
1070
    47
1040
0.03
1070
    71
1070
     1
1070
    48
1040
0.03
1070
   272
1070
     2
1070
    76
1070
     1
1070
    40
1040
25.4
1070
     3
1000
mm
1070
   271
1070
     2
1070
     4
1000
"
1070
   274
1070
     3
1070
   143
1040
0.03937
1070
   171
1070
     3
1070
   170
1070
     1
1002
}
  0
DIMENSION
  5
12DF
100
AcDbEntity
  8
DIM
100
AcDbDimension
  2
*D27
 10
692.116553
 20
249.180148
 30
0.0
 11
692.116553
 21
261.449553
 31
0.0
 70
    32
  3
STANDARD
100
AcDbAlignedDimension
 13
497.929184
 23
273.718959
 33
0.0
 14
797.197275
 24
249.180148
 34
0.0
 50
90.0
100
AcDbRotatedDimension
1001
ACAD
1000
DSTYLE
1002
{
1070
    47
1040
0.03
1070
    71
1070
     1
1070
    48
1040
0.03
1070
   272
1070
     2
1070
    76
1070
     1
1070
    40
1040
25.4
1070
     3
1000
mm
1070
   271
1070
     2
1070
     4
1000
"
1070
   274
1070
     3
1070
   143
1040
0.03937
1070
   171
1070
     3
1070
   170
1070
     1
1002
}
  0
TEXT
  5
12F6
100
AcDbEntity
  8
TEXT
100
AcDbText
 10
688.030287
 20
485.070967
 30
0.0
 40
2.0
  1
03
100
AcDbText
  0
TEXT
  5
12F7
100
AcDbEntity
  8
TEXT
100
AcDbText
 10
697.030287
 20
485.070967
 30
0.0
 40
2.0
  1
ADD SECOND LOCATING HOLE
100
AcDbText
  0
TEXT
  5
12F8
100
AcDbEntity
  8
TEXT
100
AcDbText
 10
769.434903
 20
485.070967
 30
0.0
 40
2.0
  1
03-18-97
100
AcDbText
  0
ENDSEC
  0
SECTION
  2
OBJECTS
  0
DICTIONARY
  5
C
100
AcDbDictionary
  3
ACAD_GROUP
350
D
  3
ACAD_MLINESTYLE
350
E
  3
ACASAPPOBJECT
350
D3F
  3
ACASGREF_MASTER
350
CF3
  3
ACCELVIEW
350
E7E
  3
ACDMSYSVARMGR
350
D0F
  3
ACGREF_MASTER
350
CF1
  3
ACME_COMMAND_HISTORY
350
CEF
  3
ACME_SCOPE_NAME
350
CEE
  3
AD_APPL
350
D02
  3
AD_DRAWMGR_NAME
350
D22
  3
AD_GREF_MODULE
350
D0A
  3
AD_HOLENOTE_REPOSITORY
350
D09
  3
ADSYSVARMGR
350
CF8
  3
AMI_MASTER
350
CF2
  3
AUTOCAD_ASSEMBLIES_PROJECT
350
D2E
  3
DESIGNER_ASSEMBLIES_SYSVARS
350
D29
  0
DICTIONARY
  5
D
102
{ACAD_REACTORS
330
C
102
}
100
AcDbDictionary
  0
DICTIONARY
  5
E
102
{ACAD_REACTORS
330
C
102
}
100
AcDbDictionary
  3
STANDARD
350
13
  0
ACAD_ZOMBIE_OBJECT
  5
D3F
102
{ACAD_REACTORS
330
C
102
}
100
AcDbZombieObject
 90
      499
 91
      536
 93
        2
310
90
360
D3D
 94
        0
  0
ACAD_ZOMBIE_OBJECT
  5
CF3
102
{ACAD_REACTORS
330
C
102
}
100
AcDbZombieObject
 90
      499
 91
      505
 93
       34
310
010000404C
 94
        0
  0
ACAD_ZOMBIE_OBJECT
  5
E7E
102
{ACAD_REACTORS
330
C
102
}
100
AcDbZombieObject
 90
      499
 91
      537
 93
       12
310
92A4
330
D03
330
D44
330
0
330
0
330
0
330
0
330
0
330
0
330
0
330
0
330
0
330
0
330
0
330
0
330
0
330
0
330
0
330
0
330
0
330
FA6
330
0
330
FCA
330
FCB
330
FCC
330
FCD
330
FCE
330
1059
330
105F
330
1065
330
106B
330
106C
330
106D
330
106E
330
106F
330
1070
330
1071
330
1072
330
1073
330
1074
330
1075
330
10DA
330
10DD
 94
        0
  0
ACAD_ZOMBIE_OBJECT
  5
D0F
102
{ACAD_REACTORS
330
C
102
}
100
AcDbZombieObject
 90
      499
 91
      510
 93
      176
310
4C5114810100000000000000000000000000000000004F
330
D10
330
D11
330
D12
330
D13
330
D14
330
D15
330
D17
330
D18
330
D19
330
D1A
330
D1B
330
D1C
330
D1D
330
D1E
330
D1F
330
D20
330
D21
 94
        0
  0
ACAD_ZOMBIE_OBJECT
  5
CF1
102
{ACAD_REACTORS
330
C
102
}
100
AcDbZombieObject
 90
      499
 91
      503
 93
      114
310
01000040C00000000000000000002B
 94
        0
  0
ACAD_ZOMBIE_OBJECT
  5
CEF
102
{ACAD_REACTORS
330
C
102
}
100
AcDbZombieObject
 90
      499
 91
      501
 93
     2250
310
478050444494D31404050A4E202D2053455456415201411112534C501014293880B4814D1551590548050444494D31404050A4E202D20534554564152014115539113E014115539113E0142911253505391D5531054A0140D550D4E0141D4D514915510D220140D550D4E01411693D3D3601411693D3D360142541054D5115
310
0D3125420141D156141313D111601411353D59160142541054D51150D31254101014213880B481693D3D3405074558504C4F4445805054552415345805054D54455854805045A4F4F4D80505515341564580506444445444954805045A4F4F4D805045A4F4F4D80508434F5059434C4950805045A4F4F4D805045A4F4F4D80
310
5054454455854805045A4F4F4D805055153415645805044F50454E80
 94
        0
  0
ACAD_ZOMBIE_OBJECT
  5
CEE
102
{ACAD_REACTORS
330
C
102
}
100
AcDbZombieObject
 90
      499
 91
      500
 93
      456
310
01010040931000000000000000000000000000000000000000000000000000000000000000000000000000000000000000000000000009010000
360
CF4
360
CF5
360
CF6
360
CF7
360
CF9
360
CFA
360
CFB
360
CFC
360
CFD
360
CFE
360
CFF
360
D00
360
D01
360
D04
360
D05
360
D06
360
D07
360
D08
360
D0B
360
D0C
360
D0D
360
D0E
360
D10
360
D11
360
D12
360
D13
360
D14
360
D15
360
D17
360
D18
360
D19
360
D1A
360
D1B
360
D1C
360
D1D
360
D1E
360
D1F
360
D20
360
D21
360
D2A
360
D2B
360
D2C
360
D2D
360
D32
360
D33
360
D34
360
D35
360
D36
360
D3A
330
D03
 94
        0
  0
ACAD_ZOMBIE_OBJECT
  5
D02
102
{ACAD_REACTORS
330
C
102
}
100
AcDbZombieObject
 90
      499
 91
      514
 93
       42
310
000100004353
330
CF4
 94
        0
  0
ACAD_ZOMBIE_OBJECT
  5
D22
102
{ACAD_REACTORS
330
C
102
}
100
AcDbZombieObject
 90
      499
 91
      526
 93
       42
310
000100004410
330
D0B
 94
        0
  0
ACAD_ZOMBIE_OBJECT
  5
D0A
102
{ACAD_REACTORS
330
C
102
}
100
AcDbZombieObject
 90
      499
 91
      521
 93
      114
310
000000428000000000000000000000
 94
        0
  0
ACAD_ZOMBIE_OBJECT
  5
D09
102
{ACAD_REACTORS
330
C
102
}
100
AcDbZombieObject
 90
      499
 91
      520
 93
        8
310
002A
330
D08
 94
        0
  0
ACAD_ZOMBIE_OBJECT
  5
CF8
102
{ACAD_REACTORS
330
C
102
}
100
AcDbZombieObject
 90
      499
 91
      510
 93
      104
310
9094410100000000000000000000
330
CF9
330
CFA
330
CFB
330
CFC
330
CFD
330
CFE
330
CFF
330
D00
330
D01
 94
        0
  0
ACAD_ZOMBIE_OBJECT
  5
CF2
102
{ACAD_REACTORS
330
C
102
}
100
AcDbZombieObject
 90
      499
 91
      504
 93
       34
310
0100004040
 94
        0
  0
ACAD_ZOMBIE_OBJECT
  5
D2E
102
{ACAD_REACTORS
330
C
102
}
100
AcDbZombieObject
 90
      499
 91
      527
 93
       58
310
0100004180000003
330
D34
330
D3A
330
D35
 94
        0
  0
ACAD_ZOMBIE_OBJECT
  5
D29
102
{ACAD_REACTORS
330
C
102
}
100
AcDbZombieObject
 90
      499
 91
      510
 93
       64
310
904441010000000000
330
D2A
330
D2B
330
D2C
330
D2D
 94
        0
  0
MLINESTYLE
  5
13
102
{ACAD_REACTORS
330
E
102
}
100
AcDbMlineStyle
  2
STANDARD
 70
     0
  3

 62
     0
 51
90.0
 52
90.0
 71
     2
 49
0.5
 62
   256
  6
BYLAYER
 49
-0.5
 62
   256
  6
BYLAYER
  0
ACAD_ZOMBIE_OBJECT
  5
D3D
100
AcDbZombieObject
 90
      499
 91
      534
 93
      720
310
9064D2E312E313607014B7269BC41100000000000000E03F1EC52B91F85EA10FE1EC52B91F85EA10FD034153471EC52B91F85EA10FC000000FC83D797414650540C000000000000E03F3F2A7C749358940FC000000FC83D797414F
 94
        0
  0
ACAD_ZOMBIE_OBJECT
  5
CF4
100
AcDbZombieObject
 90
      499
 91
      506
 93
      280
310
000000000000014119185D1940506462E312E3136014119185D1940506462E312E313600
330
CEE
330
CF5
330
CF6
330
CF8
330
D03
 94
        0
  0
ACAD_ZOMBIE_OBJECT
  5
CF5
100
AcDbZombieObject
 90
      499
 91
      507
 93
      120
310
00009024410100000092080002A6A600
330
CEE
330
D04
330
D05
330
0
 94
        0
  0
ACAD_ZOMBIE_OBJECT
  5
CF6
100
AcDbZombieObject
 90
      499
 91
      508
 93
       46
310
000000009208
330
CEE
330
0
330
CF7
 94
        0
  0
ACAD_ZOMBIE_OBJECT
  5
CF7
100
AcDbZombieObject
 90
      499
 91
      509
 93
       22
310
0000AA
330
CEE
 94
        0
  0
ACAD_ZOMBIE_OBJECT
  5
CF9
100
AcDbZombieObject
 90
      499
 91
      511
 93
      124
310
00000142905350D3D39114D414D69050
330
CEE
 94
        0
  0
ACAD_ZOMBIE_OBJECT
  5
CFA
100
AcDbZombieObject
 90
      499
 91
      511
 93
      124
310
000001429053549553115353D1115010
330
CEE
 94
        0
  0
ACAD_ZOMBIE_OBJECT
  5
CFB
100
AcDbZombieObject
 90
      499
 91
      511
 93
      108
310
00000142105354D2D353D1115014
330
CEE
 94
        0
  0
ACAD_ZOMBIE_OBJECT
  5
CFC
100
AcDbZombieObject
 90
      499
 91
      511
 93
      140
310
000001435053511253511254D41353D11162
330
CEE
 94
        0
  0
ACAD_ZOMBIE_OBJECT
  5
CFD
100
AcDbZombieObject
 90
      499
 91
      512
 93
      180
310
00000142905354D2D05391D513D3000000000000010404
330
CEE
 94
        0
  0
ACAD_ZOMBIE_OBJECT
  5
CFE
100
AcDbZombieObject
 90
      499
 91
      513
 93
      164
310
00000142505354D2D4D516531140505434F4E542A2
330
CEE
 94
        0
  0
ACAD_ZOMBIE_OBJECT
  5
CFF
100
AcDbZombieObject
 90
      499
 91
      511
 93
      108
310
00000142105350D3511112535014
330
CEE
 94
        0
  0
ACAD_ZOMBIE_OBJECT
  5
D00
100
AcDbZombieObject
 90
      499
 91
      513
 93
      116
310
000001425053541054919253114063
330
CEE
 94
        0
  0
ACAD_ZOMBIE_OBJECT
  5
D01
100
AcDbZombieObject
 90
      499
 91
      511
 93
      100
310
00000142105350D3D35414D5A3
330
CEE
 94
        0
  0
ACAD_ZOMBIE_OBJECT
  5
D04
100
AcDbZombieObject
 90
      499
 91
      516
 93
      164
310
000092090148200A00000440000FFFFFFFF000000C
330
CEE
330
D05
330
CF5
330
D03
 94
        0
  0
ACAD_ZOMBIE_OBJECT
  5
D05
100
AcDbZombieObject
 90
      499
 91
      517
 93
       82
310
000040520802482A800000
330
CEE
330
D04
330
CF5
330
D03
 94
        0
  0
ACAD_ZOMBIE_OBJECT
  5
D06
100
AcDbZombieObject
 90
      499
 91
      509
 93
       22
310
0000A8
330
CEE
 94
        0
  0
ACAD_ZOMBIE_OBJECT
  5
D07
100
AcDbZombieObject
 90
      499
 91
      518
 93
       38
310
000000920A
330
CEE
330
0
 94
        0
  0
ACAD_ZOMBIE_OBJECT
  5
D08
100
AcDbZombieObject
 90
      499
 91
      519
 93
     3196
310
0000419208050A544852555F4452494C4C0142D09312539117D1149253130050A544852555F43424F52450142D09312539117D0D093D4914050A544852555F4353494E4B0142D09312539117D0D4D25392D0648201459EC94958C8094950535112504815121493D551D20B9F4051C7B252563202525414D444941205820252
310
5414D44455020444545507D014F5EC94958C8094950535112504815121493D551D20B9F57141ED0D093D49148094958C80949505350D112504816080949505350D091115408111151541F405437B252563202525414D4449412058202525414D44455020444545507D5C507B43424F524520252563202525414D4344494120
310
58202525414D434244455020444545507D014EDEC94958C8094950535112504815121493D551D20B9F57141ED0D4D25392C8094958C80949505350D112504816080949505350D4D05391C949591F405417B252563202525414D4449412058202525414D44455020444545507D5C507B4353494E4B20252563202525414D434
310
449412058202525414D4353414E472525647D0
330
CEE
 94
        0
  0
ACAD_ZOMBIE_OBJECT
  5
D0B
100
AcDbZombieObject
 90
      499
 91
      522
 93
      308
310
0000014119185D1940507442E312E313663014119185D1940507442E312E313663405010000004
330
CEE
330
D0C
330
D0E
330
D0F
 94
        0
  0
ACAD_ZOMBIE_OBJECT
  5
D0C
100
AcDbZombieObject
 90
      499
 91
      523
 93
       56
310
000090144101004D
330
CEE
330
D0D
 94
        0
  0
ACAD_ZOMBIE_OBJECT
  5
D0D
100
AcDbZombieObject
 90
      499
 91
      524
 93
       40
310
0000A4410144
330
CEE
 94
        0
  0
ACAD_ZOMBIE_OBJECT
  5
D0E
100
AcDbZombieObject
 90
      499
 91
      525
 93
       68
310
0000A44101920A4820
330
CEE
 94
        0
  0
ACAD_ZOMBIE_OBJECT
  5
D10
100
AcDbZombieObject
 90
      499
 91
      511
 93
      108
310
000001421053521310D05310D012
330
CEE
 94
        0
  0
ACAD_ZOMBIE_OBJECT
  5
D11
100
AcDbZombieObject
 90
      499
 91
      511
 93
      124
310
000001429053541493D2951654115010
330
CEE
 94
        0
  0
ACAD_ZOMBIE_OBJECT
  5
D12
100
AcDbZombieObject
 90
      499
 91
      511
 93
      124
310
00000142905354915554D15112535013
330
CEE
 94
        0
  0
ACAD_ZOMBIE_OBJECT
  5
D13
100
AcDbZombieObject
 90
      499
 91
      511
 93
      132
310
00000143105354D150D51253D391125360
330
CEE
 94
        0
  0
ACAD_ZOMBIE_OBJECT
  5
D14
100
AcDbZombieObject
 90
      499
 91
      511
 93
      124
310
00000142905355941093D49111549013
330
CEE
 94
        0
  0
ACAD_ZOMBIE_OBJECT
  5
D15
100
AcDbZombieObject
 90
      499
 91
      513
 93
      180
310
00000142905352125113151654114050648494444454E0
330
CEE
 94
        0
  0
ACAD_ZOMBIE_OBJECT
  5
D17
100
AcDbZombieObject
 90
      499
 91
      513
 93
      196
310
00000142905354D150D315165411405085048414E544F4D325
330
CEE
 94
        0
  0
ACAD_ZOMBIE_OBJECT
  5
D18
100
AcDbZombieObject
 90
      499
 91
      511
 93
      108
310
00000142105354D51114D0D51021
330
CEE
 94
        0
  0
ACAD_ZOMBIE_OBJECT
  5
D19
100
AcDbZombieObject
 90
      499
 91
      511
 93
      108
310
00000142105354D5111510541021
330
CEE
 94
        0
  0
ACAD_ZOMBIE_OBJECT
  5
D1A
100
AcDbZombieObject
 90
      499
 91
      511
 93
      108
310
00000142105354D5111115131021
330
CEE
 94
        0
  0
ACAD_ZOMBIE_OBJECT
  5
D1B
100
AcDbZombieObject
 90
      499
 91
      512
 93
      148
310
00000141905350D310D34295C8FC2F528BC3F4
330
CEE
 94
        0
  0
ACAD_ZOMBIE_OBJECT
  5
D1C
100
AcDbZombieObject
 90
      499
 91
      512
 93
      156
310
00000141D05350D311D05402B8716D9CEF7C33F4
330
CEE
 94
        0
  0
ACAD_ZOMBIE_OBJECT
  5
D1D
100
AcDbZombieObject
 90
      499
 91
      512
 93
      164
310
00000142105350D313D4D2150295C8FC2F528BC3F5
330
CEE
 94
        0
  0
ACAD_ZOMBIE_OBJECT
  5
D1E
100
AcDbZombieObject
 90
      499
 91
      511
 93
      100
310
00000141D05350D31410549018
330
CEE
 94
        0
  0
ACAD_ZOMBIE_OBJECT
  5
D1F
100
AcDbZombieObject
 90
      499
 91
      511
 93
      100
310
0000014210535590539254D222
330
CEE
 94
        0
  0
ACAD_ZOMBIE_OBJECT
  5
D20
100
AcDbZombieObject
 90
      499
 91
      512
 93
      188
310
00000142D0535312539155121250D2C295C8FC2F5289C3F0
330
CEE
 94
        0
  0
ACAD_ZOMBIE_OBJECT
  5
D21
100
AcDbZombieObject
 90
      499
 91
      513
 93
      164
310
00000142105350D3151654114050643454E5445525
330
CEE
 94
        0
  0
ACAD_ZOMBIE_OBJECT
  5
D2A
100
AcDbZombieObject
 90
      499
 91
      511
 93
      132
310
00000142D05050555513D4D3D31591501C
330
CEE
 94
        0
  0
ACAD_ZOMBIE_OBJECT
  5
D2B
100
AcDbZombieObject
 90
      499
 91
      511
 93
      156
310
00000143905050555513D054D4D1535093115015
330
CEE
 94
        0
  0
ACAD_ZOMBIE_OBJECT
  5
D2C
100
AcDbZombieObject
 90
      499
 91
      511
 93
      148
310
00000143505055925155D49154D513D4915013
330
CEE
 94
        0
  0
ACAD_ZOMBIE_OBJECT
  5
D2D
100
AcDbZombieObject
 90
      499
 91
      511
 93
      124
310
00000142D050525394D15495105094E0
330
CEE
 94
        0
  0
ACAD_ZOMBIE_OBJECT
  5
D32
100
AcDbZombieObject
 90
      499
 91
      528
 93
       32
310
0000000074
330
CEE
340
D2F
330
D33
330
D2F
 94
        0
  0
ACAD_ZOMBIE_OBJECT
  5
D33
100
AcDbZombieObject
 90
      499
 91
      529
 93
      143
310
00000142130D0B5492508C0D10400522080D
330
CEE
330
D32
 94
        0
  0
ACAD_ZOMBIE_OBJECT
  5
D34
100
AcDbZombieObject
 90
      499
 91
      530
 93
       72
310
000000A44101A4410100
330
CEE
330
D33
 94
        0
  0
ACAD_ZOMBIE_OBJECT
  5
D35
100
AcDbZombieObject
 90
      499
 91
      531
 93
       80
310
0000901441010000000052
330
CEE
330
D36
330
D36
330
D36
330
D36
 94
        0
  0
ACAD_ZOMBIE_OBJECT
  5
D36
100
AcDbZombieObject
 90
      499
 91
      532
 93
      173
310
00000000406AAAAAAAAAAAAAAAAA806A44101A441010
330
CEE
330
D35
330
D33
 94
        0
  0
ACAD_ZOMBIE_OBJECT
  5
D3A
100
AcDbZombieObject
 90
      499
 91
      533
 93
       26
310
00008000
330
CEE
330
0
 94
        0
  0
ENDSEC
  0
EOF
