  0
SECTION
  2
HEADER
  9
$ACADVER
  1
AC1012
  9
$DWGCODEPAGE
  3
ansi_1252
  9
$INSBASE
 10
0.0
 20
0.0
 30
0.0
  9
$EXTMIN
 10
25.4
 20
15.875
 30
0.0
  9
$EXTMAX
 10
813.97907
 20
519.368925
 30
0.0
  9
$LIMMIN
 10
0.0
 20
0.0
  9
$LIMMAX
 10
812.0
 20
533.0
  9
$ORTHOMODE
 70
     1
  9
$REGENMODE
 70
     1
  9
$FILLMODE
 70
     1
  9
$QTEXTMODE
 70
     0
  9
$MIRRTEXT
 70
     1
  9
$DRAGMODE
 70
     2
  9
$LTSCALE
 40
10.0
  9
$OSMODE
 70
     1
  9
$ATTMODE
 70
     1
  9
$TEXTSIZE
 40
3.0
  9
$TRACEWID
 40
0.05
  9
$TEXTSTYLE
  7
STANDARD
  9
$CLAYER
  8
DIM
  9
$CELTYPE
  6
BYLAYER
  9
$CECOLOR
 62
   256
  9
$CELTSCALE
 40
1.0
  9
$DELOBJ
 70
     1
  9
$DISPSILH
 70
     0
  9
$DIMSCALE
 40
25.4
  9
$DIMASZ
 40
0.18
  9
$DIMEXO
 40
0.0625
  9
$DIMDLI
 40
0.38
  9
$DIMRND
 40
0.0
  9
$DIMDLE
 40
0.0
  9
$DIMEXE
 40
0.18
  9
$DIMTP
 40
0.03
  9
$DIMTM
 40
0.03
  9
$DIMTXT
 40
0.18
  9
$DIMCEN
 40
0.09
  9
$DIMTSZ
 40
0.0
  9
$DIMTOL
 70
     1
  9
$DIMLIM
 70
     0
  9
$DIMTIH
 70
     1
  9
$DIMTOH
 70
     1
  9
$DIMSE1
 70
     0
  9
$DIMSE2
 70
     1
  9
$DIMTAD
 70
     0
  9
$DIMZIN
 70
     0
  9
$DIMBLK
  1

  9
$DIMASO
 70
     1
  9
$DIMSHO
 70
     1
  9
$DIMPOST
  1
mm
  9
$DIMAPOST
  1
"
  9
$DIMALT
 70
     1
  9
$DIMALTD
 70
     3
  9
$DIMALTF
 40
0.03937
  9
$DIMLFAC
 40
1.0
  9
$DIMTOFL
 70
     0
  9
$DIMTVP
 40
0.0
  9
$DIMTIX
 70
     0
  9
$DIMSOXD
 70
     0
  9
$DIMSAH
 70
     0
  9
$DIMBLK1
  1

  9
$DIMBLK2
  1

  9
$DIMSTYLE
  2
STANDARD
  9
$DIMCLRD
 70
     0
  9
$DIMCLRE
 70
     0
  9
$DIMCLRT
 70
     0
  9
$DIMTFAC
 40
1.0
  9
$DIMGAP
 40
0.09
  9
$DIMJUST
 70
     0
  9
$DIMSD1
 70
     0
  9
$DIMSD2
 70
     0
  9
$DIMTOLJ
 70
     1
  9
$DIMTZIN
 70
     0
  9
$DIMALTZ
 70
     0
  9
$DIMALTTZ
 70
     0
  9
$DIMFIT
 70
     0
  9
$DIMUPT
 70
     0
  9
$DIMUNIT
 70
     2
  9
$DIMDEC
 70
     2
  9
$DIMTDEC
 70
     2
  9
$DIMALTU
 70
     2
  9
$DIMALTTD
 70
     3
  9
$DIMTXSTY
  7
STANDARD
  9
$DIMAUNIT
 70
     0
  9
$LUNITS
 70
     2
  9
$LUPREC
 70
     4
  9
$SKETCHINC
 40
0.1
  9
$FILLETRAD
 40
0.0
  9
$AUNITS
 70
     0
  9
$AUPREC
 70
     0
  9
$MENU
  1
C:\CIM\ACAD
  9
$ELEVATION
 40
0.0
  9
$PELEVATION
 40
0.0
  9
$THICKNESS
 40
0.0
  9
$LIMCHECK
 70
     0
  9
$BLIPMODE
 70
     1
  9
$CHAMFERA
 40
0.0
  9
$CHAMFERB
 40
0.0
  9
$CHAMFERC
 40
0.0
  9
$CHAMFERD
 40
0.0
  9
$SKPOLY
 70
     0
  9
$TDCREATE
 40
2450030.500736111
  9
$TDUPDATE
 40
2450526.653856782
  9
$TDINDWG
 40
0.1008644329
  9
$TDUSRTIMER
 40
0.1008644329
  9
$USRTIMER
 70
     1
  9
$ANGBASE
 50
0.0
  9
$ANGDIR
 70
     0
  9
$PDMODE
 70
     0
  9
$PDSIZE
 40
0.0
  9
$PLINEWID
 40
0.0
  9
$COORDS
 70
     1
  9
$SPLFRAME
 70
     0
  9
$SPLINETYPE
 70
     6
  9
$SPLINESEGS
 70
     8
  9
$ATTDIA
 70
     0
  9
$ATTREQ
 70
     1
  9
$HANDLING
 70
     1
  9
$HANDSEED
  5
10C8
  9
$SURFTAB1
 70
     6
  9
$SURFTAB2
 70
     6
  9
$SURFTYPE
 70
     6
  9
$SURFU
 70
     6
  9
$SURFV
 70
     6
  9
$UCSNAME
  2

  9
$UCSORG
 10
0.0
 20
0.0
 30
0.0
  9
$UCSXDIR
 10
1.0
 20
0.0
 30
0.0
  9
$UCSYDIR
 10
0.0
 20
1.0
 30
0.0
  9
$PUCSNAME
  2

  9
$PUCSORG
 10
0.0
 20
0.0
 30
0.0
  9
$PUCSXDIR
 10
1.0
 20
0.0
 30
0.0
  9
$PUCSYDIR
 10
0.0
 20
1.0
 30
0.0
  9
$USERI1
 70
     0
  9
$USERI2
 70
     0
  9
$USERI3
 70
     0
  9
$USERI4
 70
     0
  9
$USERI5
 70
     0
  9
$USERR1
 40
0.0
  9
$USERR2
 40
0.0
  9
$USERR3
 40
0.0
  9
$USERR4
 40
0.0
  9
$USERR5
 40
0.0
  9
$WORLDVIEW
 70
     1
  9
$SHADEDGE
 70
     3
  9
$SHADEDIF
 70
    70
  9
$TILEMODE
 70
     1
  9
$MAXACTVP
 70
    16
  9
$PINSBASE
 10
0.0
 20
0.0
 30
0.0
  9
$PLIMCHECK
 70
     0
  9
$PEXTMIN
 10
1.000000E+20
 20
1.000000E+20
 30
1.000000E+20
  9
$PEXTMAX
 10
-1.000000E+20
 20
-1.000000E+20
 30
-1.000000E+20
  9
$PLIMMIN
 10
0.0
 20
0.0
  9
$PLIMMAX
 10
12.0
 20
9.0
  9
$UNITMODE
 70
     0
  9
$VISRETAIN
 70
     0
  9
$PLINEGEN
 70
     0
  9
$PSLTSCALE
 70
     1
  9
$TREEDEPTH
 70
  3020
  9
$PICKSTYLE
 70
     1
  9
$CMLSTYLE
  2
STANDARD
  9
$CMLJUST
 70
     0
  9
$CMLSCALE
 40
1.0
  9
$SAVEIMAGES
 70
     0
  0
ENDSEC
  0
SECTION
  2
CLASSES
  0
CLASS
  1
ACMESCOPE
  2
AcMeScope
  3
ACME_MODULE_NAME
 90
        0
280
     0
281
     0
  0
CLASS
  1
ACMECOMMANDHISTORY
  2
AcMeCommandHistory
  3
ACME_MODULE_NAME
 90
        0
280
     0
281
     0
  0
CLASS
  1
AcRfInsAdjusterMgr
  2
AcRfInsAdjusterMgr
  3
ACME_MODULE_NAME
 90
        0
280
     0
281
     0
  0
CLASS
  1
ACGREFMASTER
  2
AcGrefMaster
  3
"AcadRfServer"
 90
        0
280
     0
281
     0
  0
CLASS
  1
AmiMaster
  2
AmiMaster
  3
"AmiServices"
 90
        0
280
     0
281
     0
  0
CLASS
  1
ACASGREFMASTER
  2
AcAsGrefMaster
  3
"AutoSurfResolver"
 90
        0
280
     0
281
     0
  0
CLASS
  1
ADAPPL
  2
AcAdAppl
  3
"DesignerServices"
 90
        0
280
     0
281
     0
  0
CLASS
  1
DEPMGR
  2
AcAdDepMgr
  3
"DesignerServices"
 90
        0
280
     0
281
     0
  0
CLASS
  1
PARAMMGR
  2
AcAdParamMgr
  3
"DesignerServices"
 90
        0
280
     0
281
     0
  0
CLASS
  1
PARAMSCOPE
  2
AcAdParamScope
  3
"DesignerServices"
 90
        0
280
     0
281
     0
  0
CLASS
  1
"IM_SYSVAR_MAN"
  2
AcImSysVarManager
  3
"ADAM"
 90
        0
280
     0
281
     0
  0
CLASS
  1
SYSTEM_VAR_INT
  2
AcImIntSysVar
  3
"ADAM"
 90
        0
280
     0
281
     0
  0
CLASS
  1
SYSTEM_VAR_REAL
  2
AcImRealSysVar
  3
"ADAM"
 90
        0
280
     0
281
     0
  0
CLASS
  1
SYSTEM_VAR_STR
  2
AcImStrSysVar
  3
"ADAM"
 90
        0
280
     0
281
     0
  0
CLASS
  1
NAMEDAPPL
  2
AcAdNamedAppl
  3
"DesignerServices"
 90
        0
280
     0
281
     0
  0
CLASS
  1
ADPART
  2
AcAdPart
  3
"DesignerServices"
 90
        0
280
     0
281
     1
  0
CLASS
  1
ADBASE
  2
AcAdBase
  3
"DesignerServices"
 90
        0
280
     0
281
     0
  0
CLASS
  1
BODYID
  2
AcAdBodyId
  3
"DesignerServices"
 90
        0
280
     0
281
     0
  0
CLASS
  1
WORKPLANEDISPLAYMGR
  2
AcAdDisplayMgr
  3
"DesignerServices"
 90
        0
280
     0
281
     0
  0
CLASS
  1
ADHNTMPLT
  2
AdHoleNoteTemplateMgr
  3
"DesignerServices"
 90
        0
280
     0
281
     0
  0
CLASS
  1
AM_HNTEMPLATE_MGR_NAME
  2
AdHoleNoteTemplateMgrName
  3
"DesignerServices"
 90
        0
280
     0
281
     0
  0
CLASS
  1
AcAdGrefModule
  2
AcAdGrefModule
  3
AD_GREF_SERVICES_NSTR
 90
        0
280
     0
281
     0
  0
CLASS
  1
AM_DRAWING_MGR
  2
AcDmDwgMgr
  3
"Designer_Drawing_Mgmt"
 90
        0
280
     0
281
     0
  0
CLASS
  1
AM_DWG_DOCUMENT
  2
AcDmDwgDocument
  3
"Designer_Drawing_Mgmt"
 90
        0
280
     0
281
     0
  0
CLASS
  1
AM_DWG_SHEET
  2
AcDmSheet
  3
"Designer_Drawing_Mgmt"
 90
        0
280
     0
281
     0
  0
CLASS
  1
AM_VIEWDIMPARMAP
  2
AcDmViewDimParMap
  3
"Designer_Drawing_Mgmt"
 90
        0
280
     0
281
     0
  0
CLASS
  1
AM_DWGMGR_NAME
  2
AcDmDwgMgrName
  3
"Designer_Drawing_Mgmt"
 90
        0
280
     0
281
     0
  0
CLASS
  1
ACAMPROJECT
  2
AcAmProject
  3
"DesignerAssemblies"
 90
        0
280
     0
281
     0
  0
CLASS
  1
ACAMGRCOMPDEF
  2
AcAmGrCompDef
  3
"DesignerAssemblies"
 90
        0
280
     0
281
     0
  0
CLASS
  1
ACAMCOMPDEF
  2
AcAmCompDef
  3
"DesignerAssemblies"
 90
        0
280
     0
281
     0
  0
CLASS
  1
ACAMCOMPDEFMGR
  2
AcAmCompDefMgr
  3
"DesignerAssemblies"
 90
        0
280
     0
281
     0
  0
CLASS
  1
AMCONTEXTMGR
  2
AcAmContextMgr
  3
"DesignerAssemblies"
 90
        0
280
     0
281
     0
  0
CLASS
  1
AcAmContextModeler
  2
AcAmContextModeler
  3
"DesignerAssemblies"
 90
        0
280
     0
281
     0
  0
CLASS
  1
ACAMDRAWINGMAN
  2
AcAmDrawingMan
  3
"DesignerAssemblies"
 90
        0
280
     0
281
     0
  0
CLASS
  1
ASSYSVARS
  2
AcAsSysVars
  3
"AutoSurf"
 90
        0
280
     0
281
     0
  0
CLASS
  1
ASSTATICVARS
  2
AcAsStaticVars
  3
"AutoSurf"
 90
        0
280
     0
281
     0
  0
CLASS
  1
ASAPP
  2
AcAsAppObject
  3
"AutoSurf"
 90
        0
280
     0
281
     0
  0
CLASS
  1
AGDICTIONARY
  2
AgDictionary
  3
"AccelView"
 90
        1
280
     0
281
     0
  0
ENDSEC
  0
SECTION
  2
TABLES
  0
TABLE
  2
VPORT
  5
8
100
AcDbSymbolTable
 70
     3
  0
VPORT
  5
10C7
100
AcDbSymbolTableRecord
100
AcDbViewportTableRecord
  2
*ACTIVE
 70
     0
 10
0.0
 20
0.0
 11
1.0
 21
1.0
 12
429.908709
 22
268.362462
 13
0.0
 23
0.0
 14
1.0
 24
1.0
 15
10.0
 25
10.0
 16
0.0
 26
0.0
 36
1.0
 17
0.0
 27
0.0
 37
0.0
 40
504.974925
 41
1.602094
 42
50.0
 43
0.0
 44
0.0
 50
0.0
 51
0.0
 71
     0
 72
   100
 73
     1
 74
     0
 75
     0
 76
     1
 77
     0
 78
     0
  0
ENDTAB
  0
TABLE
  2
LTYPE
  5
5
100
AcDbSymbolTable
 70
     6
  0
LTYPE
  5
14
100
AcDbSymbolTableRecord
100
AcDbLinetypeTableRecord
  2
BYBLOCK
 70
     0
  3

 72
    65
 73
     0
 40
0.0
  0
LTYPE
  5
15
100
AcDbSymbolTableRecord
100
AcDbLinetypeTableRecord
  2
BYLAYER
 70
     0
  3

 72
    65
 73
     0
 40
0.0
  0
LTYPE
  5
16
100
AcDbSymbolTableRecord
100
AcDbLinetypeTableRecord
  2
CONTINUOUS
 70
    64
  3
Solid line
 72
    65
 73
     0
 40
0.0
  0
LTYPE
  5
24
100
AcDbSymbolTableRecord
100
AcDbLinetypeTableRecord
  2
CENTER
 70
    64
  3
____ _ ____ _ ____ _ ____ _ ____ _ ____ _ ____ 
 72
    65
 73
     4
 40
2.0
 49
1.25
 74
     0
 49
-0.25
 74
     0
 49
0.25
 74
     0
 49
-0.25
 74
     0
  0
LTYPE
  5
26
100
AcDbSymbolTableRecord
100
AcDbLinetypeTableRecord
  2
HIDDEN
 70
    64
  3
__ __ __ __ __ __ __ __ __ __ __ __ __ __ __ __
 72
    65
 73
     2
 40
0.375
 49
0.25
 74
     0
 49
-0.125
 74
     0
  0
LTYPE
  5
C3F
100
AcDbSymbolTableRecord
100
AcDbLinetypeTableRecord
  2
PHANTOM2
 70
     0
  3
___ _ _ ___ _ _ ___ _ _ ___ _ _ ___ _ _ ___ _ _
 72
    65
 73
     6
 40
1.25
 49
0.625
 74
     0
 49
-0.125
 74
     0
 49
0.125
 74
     0
 49
-0.125
 74
     0
 49
0.125
 74
     0
 49
-0.125
 74
     0
  0
LTYPE
  5
C69
100
AcDbSymbolTableRecord
100
AcDbLinetypeTableRecord
  2
ASULTYPE
 70
     0
  3
Solid line
 72
    65
 73
     2
 40
3.0
 49
2.5
 74
     0
 49
0.5
 74
     0
  0
LTYPE
  5
C6A
100
AcDbSymbolTableRecord
100
AcDbLinetypeTableRecord
  2
ASVLTYPE
 70
     0
  3
__ __ __ __ __ __ __ __ __ __ __ __ __ __ __ __ __ __ __ __ __
 72
    65
 73
     2
 40
0.75
 49
0.5
 74
     0
 49
-0.25
 74
     0
  0
ENDTAB
  0
TABLE
  2
LAYER
  5
2
100
AcDbSymbolTable
 70
    10
  0
LAYER
  5
F
100
AcDbSymbolTableRecord
100
AcDbLayerTableRecord
  2
0
 70
     0
 62
     7
  6
CONTINUOUS
  0
LAYER
  5
23
100
AcDbSymbolTableRecord
100
AcDbLayerTableRecord
  2
CENTER
 70
    64
 62
     1
  6
CENTER
  0
LAYER
  5
29
100
AcDbSymbolTableRecord
100
AcDbLayerTableRecord
  2
DIM
 70
    64
 62
     3
  6
CONTINUOUS
  0
LAYER
  5
2A
100
AcDbSymbolTableRecord
100
AcDbLayerTableRecord
  2
TEXT
 70
    64
 62
     7
  6
CONTINUOUS
  0
LAYER
  5
6F
100
AcDbSymbolTableRecord
100
AcDbLayerTableRecord
  2
BORDER
 70
    64
 62
     6
  6
CONTINUOUS
  0
LAYER
  5
FC
100
AcDbSymbolTableRecord
100
AcDbLayerTableRecord
  2
DEFPOINTS
 70
    64
 62
     7
  6
CONTINUOUS
  0
LAYER
  5
441
100
AcDbSymbolTableRecord
100
AcDbLayerTableRecord
  2
BEAMS-B
 70
    64
 62
     7
  6
CONTINUOUS
  0
LAYER
  5
9BC
100
AcDbSymbolTableRecord
100
AcDbLayerTableRecord
  2
KEVLAR
 70
    64
 62
     7
  6
CONTINUOUS
  0
LAYER
  5
DFB
100
AcDbSymbolTableRecord
100
AcDbLayerTableRecord
  2
C-FIBER
 70
    64
 62
     5
  6
CONTINUOUS
  0
LAYER
  5
103A
100
AcDbSymbolTableRecord
100
AcDbLayerTableRecord
  2
ASHADE
 70
    68
 62
     7
  6
CONTINUOUS
  0
ENDTAB
  0
TABLE
  2
STYLE
  5
3
100
AcDbSymbolTable
 70
     4
  0
STYLE
  5
10
100
AcDbSymbolTableRecord
100
AcDbTextStyleTableRecord
  2
STANDARD
 70
    64
 40
0.0
 41
1.0
 50
0.0
 71
     0
 42
3.0
  3
txt
  4

  0
STYLE
  5
28
100
AcDbSymbolTableRecord
100
AcDbTextStyleTableRecord
  2
CIM_TB
 70
    64
 40
0.0
 41
1.0
 50
0.0
 71
     0
 42
0.2
  3
romans
  4

  0
STYLE
  5
70
100
AcDbSymbolTableRecord
100
AcDbTextStyleTableRecord
  2
ADESK2
 70
    64
 40
0.0
 41
1.0
 50
0.0
 71
     0
 42
0.065
  3
romans
  4

  0
STYLE
  5
1037
100
AcDbSymbolTableRecord
100
AcDbTextStyleTableRecord
  2
ASHADE
 70
    64
 40
0.2
 41
1.0
 50
0.0
 71
     0
 42
3.0
  3
simplex
  4

  0
ENDTAB
  0
TABLE
  2
VIEW
  5
6
100
AcDbSymbolTable
 70
     0
  0
ENDTAB
  0
TABLE
  2
UCS
  5
7
100
AcDbSymbolTable
 70
     1
  0
UCS
  5
2D
100
AcDbSymbolTableRecord
100
AcDbUCSTableRecord
  2
CIM_TB_HOLD
 70
     0
 10
0.0
 20
0.0
 30
0.0
 11
1.0
 21
0.0
 31
0.0
 12
0.0
 22
1.0
 32
0.0
  0
ENDTAB
  0
TABLE
  2
APPID
  5
9
100
AcDbSymbolTable
 70
    11
  0
APPID
  5
11
100
AcDbSymbolTableRecord
100
AcDbRegAppTableRecord
  2
ACAD
 70
     0
  0
APPID
  5
22
100
AcDbSymbolTableRecord
100
AcDbRegAppTableRecord
  2
TB_S_MPD
 70
     0
  0
APPID
  5
C4C
100
AcDbSymbolTableRecord
100
AcDbRegAppTableRecord
  2
AD_DRAW
 70
     0
  0
APPID
  5
C64
100
AcDbSymbolTableRecord
100
AcDbRegAppTableRecord
  2
DESIGNERASSEMBLIES
 70
     0
  0
APPID
  5
C65
100
AcDbSymbolTableRecord
100
AcDbRegAppTableRecord
  2
MCAD_NO_VIS
 70
     0
  0
APPID
  5
C6B
100
AcDbSymbolTableRecord
100
AcDbRegAppTableRecord
  2
ASURF_PCURVE_APPNAME
 70
     0
  0
APPID
  5
1038
100
AcDbSymbolTableRecord
100
AcDbRegAppTableRecord
  2
AVE_RENDER
 70
     0
  0
APPID
  5
1039
100
AcDbSymbolTableRecord
100
AcDbRegAppTableRecord
  2
AVE_ENTITY_MATERIAL
 70
     0
  0
APPID
  5
1046
100
AcDbSymbolTableRecord
100
AcDbRegAppTableRecord
  2
AVE_FINISH
 70
     0
  0
APPID
  5
1047
100
AcDbSymbolTableRecord
100
AcDbRegAppTableRecord
  2
AVE_MATERIAL
 70
     0
  0
APPID
  5
1048
100
AcDbSymbolTableRecord
100
AcDbRegAppTableRecord
  2
AVE_GLOBAL
 70
     0
  0
ENDTAB
  0
TABLE
  2
DIMSTYLE
  5
A
100
AcDbSymbolTable
 70
     5
  0
DIMSTYLE
105
1D
100
AcDbSymbolTableRecord
100
AcDbDimStyleTableRecord
  2
STANDARD
 70
     0
  3

  4

  5

  6

  7

 40
1.0
 41
0.18
 42
0.0625
 43
0.38
 44
0.18
 45
0.0
 46
0.0
 47
0.0
 48
0.0
140
0.18
141
0.09
142
0.0
143
25.4
144
1.0
145
0.0
146
1.0
147
0.09
 71
     0
 72
     0
 73
     1
 74
     1
 75
     0
 76
     0
 77
     0
 78
     0
170
     0
171
     2
172
     0
173
     0
174
     0
175
     0
176
     0
177
     0
178
     0
270
     2
271
     3
272
     4
273
     2
274
     2
340
10
275
     0
280
     0
281
     0
282
     0
283
     1
284
     0
285
     0
286
     0
287
     0
288
     0
  0
DIMSTYLE
105
2B
100
AcDbSymbolTableRecord
100
AcDbDimStyleTableRecord
  2
STANDARD$4
 70
     0
  3

  4

  5

  6

  7

 40
1.0
 41
0.18
 42
0.0625
 43
0.38
 44
0.18
 45
0.0
 46
0.0
 47
0.0
 48
0.0
140
0.18
141
0.09
142
0.0
143
25.4
144
1.0
145
0.0
146
1.0
147
0.09
 71
     0
 72
     0
 73
     1
 74
     1
 75
     0
 76
     0
 77
     0
 78
     0
170
     0
171
     2
172
     0
173
     0
174
     0
175
     0
176
     0
177
     0
178
     0
270
     2
271
     4
272
     4
273
     2
274
     2
340
10
275
     0
280
     0
281
     0
282
     0
283
     1
284
     0
285
     0
286
     0
287
     3
288
     0
  0
DIMSTYLE
105
2C
100
AcDbSymbolTableRecord
100
AcDbDimStyleTableRecord
  2
STANDARD$3
 70
     0
  3

  4

  5

  6

  7

 40
1.0
 41
0.18
 42
0.0625
 43
0.38
 44
0.18
 45
0.0
 46
0.0
 47
0.0
 48
0.0
140
0.18
141
0.09
142
0.0
143
25.4
144
1.0
145
0.0
146
1.0
147
0.09
 71
     0
 72
     0
 73
     1
 74
     1
 75
     0
 76
     0
 77
     0
 78
     0
170
     0
171
     2
172
     0
173
     0
174
     0
175
     0
176
     0
177
     0
178
     0
270
     2
271
     4
272
     4
273
     2
274
     2
340
10
275
     0
280
     0
281
     0
282
     0
283
     1
284
     0
285
     0
286
     0
287
     3
288
     0
  0
DIMSTYLE
105
326
100
AcDbSymbolTableRecord
100
AcDbDimStyleTableRecord
  2
STANDARD$2
 70
     0
  3

  4
"
  5

  6

  7

 40
25.4
 41
0.18
 42
0.0625
 43
0.38
 44
0.18
 45
0.0
 46
0.0
 47
0.0
 48
0.0
140
0.18
141
0.09
142
0.0
143
0.03937
144
1.0
145
0.0
146
1.0
147
0.09
 71
     0
 72
     0
 73
     1
 74
     1
 75
     0
 76
     0
 77
     0
 78
     0
170
     1
171
     3
172
     0
173
     0
174
     0
175
     0
176
     0
177
     0
178
     0
270
     2
271
     2
272
     4
273
     2
274
     2
340
10
275
     0
280
     0
281
     0
282
     0
283
     1
284
     0
285
     0
286
     0
287
     0
288
     0
  0
DIMSTYLE
105
754
100
AcDbSymbolTableRecord
100
AcDbDimStyleTableRecord
  2
SU1
 70
     0
  3

  4

  5

  6

  7

 40
1.0
 41
0.18
 42
0.0625
 43
0.38
 44
0.18
 45
0.0
 46
0.0
 47
0.001
 48
0.0
140
0.18
141
0.09
142
0.0
143
25.4
144
1.0
145
0.0
146
1.0
147
0.09
 71
     0
 72
     0
 73
     1
 74
     1
 75
     0
 76
     0
 77
     0
 78
     0
170
     0
171
     2
172
     0
173
     0
174
     0
175
     0
176
     0
177
     0
178
     0
270
     2
271
     3
272
     3
273
     2
274
     2
340
10
275
     0
280
     0
281
     0
282
     0
283
     1
284
     0
285
     0
286
     0
287
     0
288
     0
  0
ENDTAB
  0
TABLE
  2
BLOCK_RECORD
  5
1
100
AcDbSymbolTable
 70
    29
  0
BLOCK_RECORD
  5
1A
100
AcDbSymbolTableRecord
100
AcDbBlockTableRecord
  2
*MODEL_SPACE
  0
BLOCK_RECORD
  5
17
100
AcDbSymbolTableRecord
100
AcDbBlockTableRecord
  2
*PAPER_SPACE
  0
BLOCK_RECORD
  5
734
100
AcDbSymbolTableRecord
100
AcDbBlockTableRecord
  2
*D0
  0
BLOCK_RECORD
  5
9BD
100
AcDbSymbolTableRecord
100
AcDbBlockTableRecord
  2
D-BORDER
  0
BLOCK_RECORD
  5
C58
100
AcDbSymbolTableRecord
100
AcDbBlockTableRecord
  2
*U2
  0
BLOCK_RECORD
  5
D90
100
AcDbSymbolTableRecord
100
AcDbBlockTableRecord
  2
*D3
  0
BLOCK_RECORD
  5
E6E
100
AcDbSymbolTableRecord
100
AcDbBlockTableRecord
  2
*D4
  0
BLOCK_RECORD
  5
E7B
100
AcDbSymbolTableRecord
100
AcDbBlockTableRecord
  2
*D5
  0
BLOCK_RECORD
  5
E88
100
AcDbSymbolTableRecord
100
AcDbBlockTableRecord
  2
*D6
  0
BLOCK_RECORD
  5
E95
100
AcDbSymbolTableRecord
100
AcDbBlockTableRecord
  2
*D7
  0
BLOCK_RECORD
  5
F44
100
AcDbSymbolTableRecord
100
AcDbBlockTableRecord
  2
*D8
  0
BLOCK_RECORD
  5
F51
100
AcDbSymbolTableRecord
100
AcDbBlockTableRecord
  2
*D9
  0
BLOCK_RECORD
  5
F5E
100
AcDbSymbolTableRecord
100
AcDbBlockTableRecord
  2
*D10
  0
BLOCK_RECORD
  5
F6B
100
AcDbSymbolTableRecord
100
AcDbBlockTableRecord
  2
*D11
  0
BLOCK_RECORD
  5
F78
100
AcDbSymbolTableRecord
100
AcDbBlockTableRecord
  2
*D12
  0
BLOCK_RECORD
  5
F86
100
AcDbSymbolTableRecord
100
AcDbBlockTableRecord
  2
*D13
  0
BLOCK_RECORD
  5
F97
100
AcDbSymbolTableRecord
100
AcDbBlockTableRecord
  2
*D14
  0
BLOCK_RECORD
  5
FA4
100
AcDbSymbolTableRecord
100
AcDbBlockTableRecord
  2
*D15
  0
BLOCK_RECORD
  5
FB1
100
AcDbSymbolTableRecord
100
AcDbBlockTableRecord
  2
*D16
  0
BLOCK_RECORD
  5
FBE
100
AcDbSymbolTableRecord
100
AcDbBlockTableRecord
  2
*D17
  0
BLOCK_RECORD
  5
FCB
100
AcDbSymbolTableRecord
100
AcDbBlockTableRecord
  2
*D18
  0
BLOCK_RECORD
  5
FD8
100
AcDbSymbolTableRecord
100
AcDbBlockTableRecord
  2
*D19
  0
BLOCK_RECORD
  5
FE5
100
AcDbSymbolTableRecord
100
AcDbBlockTableRecord
  2
*D20
  0
BLOCK_RECORD
  5
FF3
100
AcDbSymbolTableRecord
100
AcDbBlockTableRecord
  2
*D21
  0
BLOCK_RECORD
  5
1001
100
AcDbSymbolTableRecord
100
AcDbBlockTableRecord
  2
*D22
  0
BLOCK_RECORD
  5
100F
100
AcDbSymbolTableRecord
100
AcDbBlockTableRecord
  2
*D23
  0
BLOCK_RECORD
  5
101D
100
AcDbSymbolTableRecord
100
AcDbBlockTableRecord
  2
*D24
  0
BLOCK_RECORD
  5
103B
100
AcDbSymbolTableRecord
100
AcDbBlockTableRecord
  2
AVE_RENDER
  0
BLOCK_RECORD
  5
1049
100
AcDbSymbolTableRecord
100
AcDbBlockTableRecord
  2
AVE_GLOBAL
  0
BLOCK_RECORD
  5
1061
100
AcDbSymbolTableRecord
100
AcDbBlockTableRecord
  2
*D27
  0
BLOCK_RECORD
  5
1091
100
AcDbSymbolTableRecord
100
AcDbBlockTableRecord
  2
*D28
  0
ENDTAB
  0
ENDSEC
  0
SECTION
  2
BLOCKS
  0
BLOCK
  5
1B
100
AcDbEntity
  8
0
100
AcDbBlockBegin
  2
*MODEL_SPACE
 70
     0
 10
0.0
 20
0.0
 30
0.0
  3
*MODEL_SPACE
  1

  0
ENDBLK
  5
1C
100
AcDbEntity
  8
0
100
AcDbBlockEnd
  0
BLOCK
  5
18
100
AcDbEntity
 67
     1
  8
0
100
AcDbBlockBegin
  2
*PAPER_SPACE
 70
     0
 10
0.0
 20
0.0
 30
0.0
  3
*PAPER_SPACE
  1

  0
ENDBLK
  5
19
100
AcDbEntity
 67
     1
  8
0
100
AcDbBlockEnd
  0
BLOCK
  5
7C1
100
AcDbEntity
  8
0
100
AcDbBlockBegin
  2
*D0
 70
    65
 10
0.0
 20
0.0
 30
0.0
  3
*D0
  1

  0
LINE
  5
7C2
100
AcDbEntity
  8
0
  6
BYBLOCK
 62
     0
100
AcDbLine
 10
167.932343
 20
253.162195
 30
0.0
 11
92.368853
 21
309.332685
 31
0.0
  0
LINE
  5
7C3
100
AcDbEntity
  8
0
  6
BYBLOCK
 62
     0
100
AcDbLine
 10
92.368853
 20
309.332685
 30
0.0
 11
87.796853
 21
309.332685
 31
0.0
  0
SOLID
  5
7C4
100
AcDbEntity
  8
0
  6
BYBLOCK
 62
     0
100
AcDbTrace
 10
168.386938
 20
253.77374
 30
0.0
 11
167.477748
 21
252.550649
 31
0.0
 12
171.601613
 22
250.434624
 32
0.0
 13
171.601613
 23
250.434624
 33
0.0
  0
MTEXT
  5
7C5
100
AcDbEntity
  8
0
  6
BYBLOCK
 62
     0
100
AcDbMText
 10
56.554853
 20
309.332685
 30
0.0
 40
4.572
 41
0.0
 71
     5
 72
     1
  1
\A1;R2.00mm[R0.079"]
  0
LINE
  5
7C6
100
AcDbEntity
  8
0
  6
BYBLOCK
 62
     0
100
AcDbLine
 10
170.920719
 20
249.241462
 30
0.0
 11
175.492719
 21
249.241462
 31
0.0
  0
LINE
  5
7C7
100
AcDbEntity
  8
0
  6
BYBLOCK
 62
     0
100
AcDbLine
 10
173.206719
 20
246.955462
 30
0.0
 11
173.206719
 21
251.527462
 31
0.0
  0
POINT
  5
7C8
100
AcDbEntity
  8
DEFPOINTS
  6
BYBLOCK
 62
     0
100
AcDbPoint
 10
171.601613
 20
250.434624
 30
0.0
  0
POINT
  5
7C9
100
AcDbEntity
  8
DEFPOINTS
  6
BYBLOCK
 62
     0
100
AcDbPoint
 10
173.206719
 20
249.241462
 30
0.0
  0
ENDBLK
  5
7CA
100
AcDbEntity
  8
0
100
AcDbBlockEnd
  0
BLOCK
  5
A00
100
AcDbEntity
  8
TEXT
100
AcDbBlockBegin
  2
D-BORDER
 70
     0
 10
0.0
 20
0.0
 30
0.0
  3
D-BORDER
  1

  0
LINE
  5
9BE
100
AcDbEntity
  8
TEXT
100
AcDbLine
 10
1.0
 20
19.947595
 30
0.0
 11
3.5625
 21
19.947595
 31
0.0
  0
LINE
  5
9BF
100
AcDbEntity
  8
TEXT
100
AcDbLine
 10
3.5625
 20
19.947595
 30
0.0
 11
3.5625
 21
20.447595
 31
0.0
  0
CIRCLE
  5
9C0
100
AcDbEntity
  8
TEXT
100
AcDbCircle
 10
1.677871
 20
20.184056
 30
0.0
 40
0.1875
  0
CIRCLE
  5
9C1
100
AcDbEntity
  8
TEXT
100
AcDbCircle
 10
1.677871
 20
20.184056
 30
0.0
 40
0.09375
  0
LINE
  5
9C2
100
AcDbEntity
  8
TEXT
  6
CENTER
100
AcDbLine
 10
1.443951
 20
20.184056
 30
0.0
 11
2.896621
 21
20.184056
 31
0.0
  0
LINE
  5
9C3
100
AcDbEntity
  8
TEXT
  6
CENTER
100
AcDbLine
 10
1.677871
 20
19.955375
 30
0.0
 11
1.677871
 21
20.423251
 31
0.0
  0
LINE
  5
9C4
100
AcDbEntity
  8
TEXT
100
AcDbLine
 10
2.146621
 20
20.277806
 30
0.0
 11
2.631263
 21
20.371556
 31
0.0
  0
LINE
  5
9C5
100
AcDbEntity
  8
TEXT
100
AcDbLine
 10
2.146621
 20
20.090306
 30
0.0
 11
2.631263
 21
19.996556
 31
0.0
  0
LINE
  5
9C6
100
AcDbEntity
  8
TEXT
100
AcDbLine
 10
2.146621
 20
20.090306
 30
0.0
 11
2.146621
 21
20.277806
 31
0.0
  0
LINE
  5
9C7
100
AcDbEntity
  8
TEXT
100
AcDbLine
 10
2.631263
 20
20.371556
 30
0.0
 11
2.631263
 21
19.996556
 31
0.0
  0
TEXT
  5
9C8
100
AcDbEntity
  8
TEXT
100
AcDbText
 10
1.1875
 20
19.762423
 30
0.0
 40
0.1
  1
THIRD ANGLE PROJECTION
100
AcDbText
  0
LINE
  5
9C9
100
AcDbEntity
  8
TEXT
100
AcDbLine
 10
3.5625
 20
19.947595
 30
0.0
 11
3.5625
 21
19.697595
 31
0.0
  0
LINE
  5
9CA
100
AcDbEntity
  8
TEXT
100
AcDbLine
 10
3.5625
 20
19.697595
 30
0.0
 11
1.0
 21
19.697595
 31
0.0
  0
TEXT
  5
9CB
100
AcDbEntity
  8
TEXT
100
AcDbText
 10
31.135292
 20
0.744377
 30
0.0
 40
0.065
  1
OF
  7
ADESK2
100
AcDbText
  0
TEXT
  5
9CC
100
AcDbEntity
  8
TEXT
100
AcDbText
 10
27.375724
 20
1.474951
 30
0.0
 40
0.065
  1
DATE
  7
ADESK2
100
AcDbText
  0
LINE
  5
9CD
100
AcDbEntity
  8
TEXT
100
AcDbLine
 10
27.252305
 20
1.591501
 30
0.0
 11
27.252305
 21
0.625
 31
0.0
  0
TEXT
  5
9CE
100
AcDbEntity
  8
TEXT
100
AcDbText
 10
25.832321
 20
0.856501
 30
0.0
 40
0.065
  1
DESIGN
  7
ADESK2
100
AcDbText
  0
TEXT
  5
9CF
100
AcDbEntity
  8
TEXT
100
AcDbText
 10
25.832321
 20
1.171501
 30
0.0
 40
0.065
  1
CHECKED
  7
ADESK2
100
AcDbText
  0
LINE
  5
9D0
100
AcDbEntity
  8
TEXT
100
AcDbLine
 10
25.752321
 20
1.591501
 30
0.0
 11
27.752321
 21
1.591501
 31
0.0
  0
TEXT
  5
9D1
100
AcDbEntity
  8
TEXT
100
AcDbText
 10
31.234702
 20
19.965196
 30
0.0
 40
0.065
  1
APPROVED
  7
ADESK2
100
AcDbText
  0
TEXT
  5
9D2
100
AcDbEntity
  8
TEXT
100
AcDbText
 10
30.441002
 20
19.965196
 30
0.0
 40
0.065
  1
DATE
  7
ADESK2
100
AcDbText
  0
TEXT
  5
9D3
100
AcDbEntity
  8
TEXT
100
AcDbText
 10
28.375302
 20
19.965196
 30
0.0
 40
0.065
  1
DESCRIPTION
  7
ADESK2
100
AcDbText
  0
TEXT
  5
9D4
100
AcDbEntity
  8
TEXT
100
AcDbText
 10
27.073402
 20
19.965196
 30
0.0
 40
0.065
  1
REV
  7
ADESK2
100
AcDbText
  0
TEXT
  5
9D5
100
AcDbEntity
  8
TEXT
100
AcDbText
 10
29.203502
 20
20.207396
 30
0.0
 40
0.065
  1
REVISIONS
  7
ADESK2
100
AcDbText
  0
LINE
  5
9D6
100
AcDbEntity
  8
TEXT
100
AcDbLine
 10
30.993302
 20
19.874896
 30
0.0
 11
30.993302
 21
20.124896
 31
0.0
  0
LINE
  5
9D7
100
AcDbEntity
  8
TEXT
100
AcDbLine
 10
30.113302
 20
19.874896
 30
0.0
 11
30.113302
 21
20.124896
 31
0.0
  0
LINE
  5
9D8
100
AcDbEntity
  8
TEXT
100
AcDbLine
 10
27.373302
 20
19.874896
 30
0.0
 11
27.373302
 21
20.124896
 31
0.0
  0
LINE
  5
9D9
100
AcDbEntity
  8
TEXT
100
AcDbLine
 10
26.983049
 20
20.434959
 30
0.0
 11
26.983049
 21
19.874896
 31
0.0
  0
LINE
  5
9DA
100
AcDbEntity
  8
TEXT
100
AcDbLine
 10
26.983049
 20
19.874896
 30
0.0
 11
32.037356
 21
19.874896
 31
0.0
  0
LINE
  5
9DB
100
AcDbEntity
  8
TEXT
100
AcDbLine
 10
26.983049
 20
20.124896
 30
0.0
 11
32.037356
 21
20.124896
 31
0.0
  0
TEXT
  5
9DC
100
AcDbEntity
  8
TEXT
100
AcDbText
 10
31.702821
 20
1.167401
 30
0.0
 40
0.065
  1
REV
  7
ADESK2
100
AcDbText
  0
TEXT
  5
9DD
100
AcDbEntity
  8
TEXT
100
AcDbText
 10
29.323321
 20
1.167401
 30
0.0
 40
0.065
  1
DWG NO.
  7
ADESK2
100
AcDbText
  0
TEXT
  5
9DE
100
AcDbEntity
  8
TEXT
100
AcDbText
 10
27.840221
 20
1.167401
 30
0.0
 40
0.065
  1
SIZE
  7
ADESK2
100
AcDbText
  0
TEXT
  5
9DF
100
AcDbEntity
  8
TEXT
100
AcDbText
 10
30.305121
 20
0.744001
 30
0.0
 40
0.065
  1
SHEET
  7
ADESK2
100
AcDbText
  0
TEXT
  5
9E0
100
AcDbEntity
  8
TEXT
100
AcDbText
 10
27.804621
 20
0.744001
 30
0.0
 40
0.065
  1
SCALE
  7
ADESK2
100
AcDbText
  0
LINE
  5
9E1
100
AcDbEntity
  8
TEXT
100
AcDbLine
 10
31.622321
 20
0.901501
 30
0.0
 11
31.622321
 21
1.281501
 31
0.0
  0
LINE
  5
9E2
100
AcDbEntity
  8
TEXT
100
AcDbLine
 10
29.252321
 20
0.901501
 30
0.0
 11
29.252321
 21
1.281501
 31
0.0
  0
LINE
  5
9E3
100
AcDbEntity
  8
TEXT
100
AcDbLine
 10
28.132321
 20
0.901501
 30
0.0
 11
28.132321
 21
1.281501
 31
0.0
  0
LINE
  5
9E4
100
AcDbEntity
  8
TEXT
100
AcDbLine
 10
30.252321
 20
0.625
 30
0.0
 11
30.252321
 21
0.901501
 31
0.0
  0
LINE
  5
9E5
100
AcDbEntity
  8
TEXT
100
AcDbLine
 10
28.752321
 20
0.625
 30
0.0
 11
28.752321
 21
0.901501
 31
0.0
  0
LINE
  5
9E6
100
AcDbEntity
  8
BORDER
100
AcDbLine
 10
27.752321
 20
0.625
 30
0.0
 11
27.752321
 21
2.401501
 31
0.0
  0
LINE
  5
9E7
100
AcDbEntity
  8
BORDER
100
AcDbLine
 10
27.752321
 20
1.901501
 30
0.0
 11
32.024118
 21
1.901501
 31
0.0
  0
LINE
  5
9E8
100
AcDbEntity
  8
TEXT
100
AcDbLine
 10
27.752321
 20
0.901501
 30
0.0
 11
32.024118
 21
0.901501
 31
0.0
  0
LINE
  5
9E9
100
AcDbEntity
  8
TEXT
100
AcDbLine
 10
25.752321
 20
1.281501
 30
0.0
 11
32.024118
 21
1.281501
 31
0.0
  0
LINE
  5
9EA
100
AcDbEntity
  8
TEXT
100
AcDbLine
 10
25.752321
 20
0.966501
 30
0.0
 11
27.752321
 21
0.966501
 31
0.0
  0
LINE
  5
9EB
100
AcDbEntity
  8
BORDER
100
AcDbLine
 10
25.752321
 20
2.401501
 30
0.0
 11
32.024118
 21
2.401501
 31
0.0
  0
LINE
  5
9EC
100
AcDbEntity
  8
BORDER
100
AcDbLine
 10
25.752321
 20
0.625
 30
0.0
 11
25.752321
 21
2.824147
 31
0.0
  0
TEXT
  5
9ED
100
AcDbEntity
  8
TEXT
100
AcDbText
 10
25.820631
 20
1.479964
 30
0.0
 40
0.065
  1
DRAWN
  7
ADESK2
100
AcDbText
  0
TEXT
  5
9EE
100
AcDbEntity
  8
BORDER
100
AcDbText
 10
25.930285
 20
2.549228
 30
0.0
 40
0.15
  1
UNIVERSITY OF CALIFORNIA @ SANTA BARBARA
100
AcDbText
  0
LINE
  5
9EF
100
AcDbEntity
  8
BORDER
100
AcDbLine
 10
25.75128
 20
2.824147
 30
0.0
 11
32.024118
 21
2.824147
 31
0.0
  0
LINE
  5
9F0
100
AcDbEntity
  8
BORDER
100
AcDbLine
 10
32.04642
 20
0.625
 30
0.0
 11
32.04642
 21
20.447595
 31
0.0
  0
LINE
  5
9F1
100
AcDbEntity
  8
BORDER
100
AcDbLine
 10
1.0
 20
20.447595
 30
0.0
 11
1.0
 21
0.625
 31
0.0
  0
LINE
  5
9F2
100
AcDbEntity
  8
BORDER
100
AcDbLine
 10
1.0
 20
0.625
 30
0.0
 11
32.04642
 21
0.625
 31
0.0
  0
TEXT
  5
9F3
100
AcDbEntity
  8
TEXT
100
AcDbText
 10
28.203393
 20
1.165354
 30
0.0
 40
0.075
  1
DIRECTORY
100
AcDbText
  0
LINE
  5
9F4
100
AcDbEntity
  8
BORDER
100
AcDbLine
 10
1.0
 20
20.447595
 30
0.0
 11
32.04642
 21
20.447595
 31
0.0
  0
TEXT
  5
9F5
100
AcDbEntity
  8
BORDER
100
AcDbText
 10
28.439864
 20
2.075566
 30
0.0
 40
0.15
  1
HIGH ENERGY PHYSICS
100
AcDbText
  0
TEXT
  5
9F6
100
AcDbEntity
  8
BORDER
100
AcDbText
 10
27.876167
 20
0.934778
 30
0.0
 40
0.2
  1
D
100
AcDbText
  0
TEXT
  5
9F7
100
AcDbEntity
  8
TEXT
100
AcDbText
 10
25.981606
 20
2.285089
 30
0.0
 40
0.065
  1
UNLESS OTHERWISE SPECIFIED:
  7
ADESK2
 72
     1
 11
26.752321
 21
2.285089
 31
0.0
100
AcDbText
  0
TEXT
  5
9F8
100
AcDbEntity
  8
TEXT
100
AcDbText
 10
26.055892
 20
2.179851
 30
0.0
 40
0.065
  1
DIMENSIONS ARE IN INCHES
  7
ADESK2
 72
     1
 11
26.752321
 21
2.179851
 31
0.0
100
AcDbText
  0
TEXT
  5
9F9
100
AcDbEntity
  8
TEXT
100
AcDbText
 10
26.45363
 20
2.074613
 30
0.0
 40
0.065
  1
TOLERANCES
  7
ADESK2
 72
     1
 11
26.752321
 21
2.074613
 31
0.0
100
AcDbText
  0
TEXT
  5
9FA
100
AcDbEntity
  8
TEXT
100
AcDbText
 10
26.067279
 20
1.966743
 30
0.0
 40
0.065
  1
DECIMALS
  7
ADESK2
100
AcDbText
  0
TEXT
  5
9FB
100
AcDbEntity
  8
TEXT
100
AcDbText
 10
26.067279
 20
1.861505
 30
0.0
 40
0.065
  1
.XX  %%P .05
  7
ADESK2
100
AcDbText
  0
TEXT
  5
9FC
100
AcDbEntity
  8
TEXT
100
AcDbText
 10
26.067279
 20
1.756267
 30
0.0
 40
0.065
  1
.XXX %%P .005
  7
ADESK2
100
AcDbText
  0
TEXT
  5
9FD
100
AcDbEntity
  8
TEXT
100
AcDbText
 10
26.137916
 20
1.653744
 30
0.0
 40
0.065
  1
DO NOT SCALE DRAWING
  7
ADESK2
 72
     1
 11
26.752321
 21
1.653744
 31
0.0
100
AcDbText
  0
TEXT
  5
9FE
100
AcDbEntity
  8
TEXT
100
AcDbText
 10
26.931176
 20
1.966743
 30
0.0
 40
0.065
  1
ANGULAR
  7
ADESK2
100
AcDbText
  0
TEXT
  5
9FF
100
AcDbEntity
  8
TEXT
100
AcDbText
 10
26.931176
 20
1.861505
 30
0.0
 40
0.065
  1
  %%P 0.5%%D
  7
ADESK2
100
AcDbText
  0
ENDBLK
  5
A01
100
AcDbEntity
  8
TEXT
100
AcDbBlockEnd
  0
BLOCK
  5
C59
100
AcDbEntity
  8
DIM
100
AcDbBlockBegin
  2
*U2
 70
     1
 10
0.0
 20
0.0
 30
0.0
  3
*U2
  1

  0
ENDBLK
  5
C5A
100
AcDbEntity
  8
DIM
100
AcDbBlockEnd
  0
BLOCK
  5
10A1
100
AcDbEntity
  8
0
100
AcDbBlockBegin
  2
*D3
 70
    65
 10
0.0
 20
0.0
 30
0.0
  3
*D3
  1

  0
LINE
  5
10A2
100
AcDbEntity
  8
0
  6
BYBLOCK
 62
     0
100
AcDbLine
 10
482.673636
 20
294.343987
 30
0.0
 11
436.993443
 21
275.111339
 31
0.0
  0
LINE
  5
10A3
100
AcDbEntity
  8
0
  6
BYBLOCK
 62
     0
100
AcDbLine
 10
436.993443
 20
275.111339
 30
0.0
 11
432.421443
 21
275.111339
 31
0.0
  0
SOLID
  5
10A4
100
AcDbEntity
  8
0
  6
BYBLOCK
 62
     0
100
AcDbTrace
 10
482.377951
 20
295.046279
 30
0.0
 11
482.969321
 21
293.641695
 31
0.0
 12
486.88739
 22
296.118096
 32
0.0
 13
486.88739
 23
296.118096
 33
0.0
  0
MTEXT
  5
10A5
100
AcDbEntity
  8
0
  6
BYBLOCK
 62
     0
100
AcDbMText
 10
375.578864
 20
273.476244
 30
0.0
 40
4.572
 41
0.0
 71
     5
 72
     1
  1
\A1;{\U+22052.38mm±0.03mm[\U+22050.094"±0.001"]}\P{2X}
  0
LINE
  5
10A6
100
AcDbEntity
  8
0
  6
BYBLOCK
 62
     0
100
AcDbLine
 10
485.699297
 20
296.580346
 30
0.0
 11
490.271297
 21
296.580346
 31
0.0
  0
LINE
  5
10A7
100
AcDbEntity
  8
0
  6
BYBLOCK
 62
     0
100
AcDbLine
 10
487.985297
 20
294.294346
 30
0.0
 11
487.985297
 21
298.866346
 31
0.0
  0
POINT
  5
10A8
100
AcDbEntity
  8
DEFPOINTS
  6
BYBLOCK
 62
     0
100
AcDbPoint
 10
486.88739
 20
296.118096
 30
0.0
  0
POINT
  5
10A9
100
AcDbEntity
  8
DEFPOINTS
  6
BYBLOCK
 62
     0
100
AcDbPoint
 10
489.083205
 20
297.042596
 30
0.0
  0
ENDBLK
  5
10AA
100
AcDbEntity
  8
0
100
AcDbBlockEnd
  0
BLOCK
  5
EA2
100
AcDbEntity
  8
0
100
AcDbBlockBegin
  2
*D4
 70
    65
 10
0.0
 20
0.0
 30
0.0
  3
*D4
  1

  0
LINE
  5
EA3
100
AcDbEntity
  8
0
  6
BYBLOCK
 62
     0
100
AcDbLine
 10
667.153359
 20
335.505946
 30
0.0
 11
633.775786
 21
335.505946
 31
0.0
  0
LINE
  5
EA4
100
AcDbEntity
  8
0
  6
BYBLOCK
 62
     0
100
AcDbLine
 10
668.677359
 20
305.505946
 30
0.0
 11
633.775786
 21
305.505946
 31
0.0
  0
LINE
  5
EA5
100
AcDbEntity
  8
0
  6
BYBLOCK
 62
     0
100
AcDbLine
 10
638.347786
 20
330.933946
 30
0.0
 11
638.347786
 21
325.077946
 31
0.0
  0
LINE
  5
EA6
100
AcDbEntity
  8
0
  6
BYBLOCK
 62
     0
100
AcDbLine
 10
638.347786
 20
310.077946
 30
0.0
 11
638.347786
 21
315.933946
 31
0.0
  0
SOLID
  5
EA7
100
AcDbEntity
  8
0
  6
BYBLOCK
 62
     0
100
AcDbTrace
 10
637.585786
 20
330.933946
 30
0.0
 11
639.109786
 21
330.933946
 31
0.0
 12
638.347786
 22
335.505946
 32
0.0
 13
638.347786
 23
335.505946
 33
0.0
  0
SOLID
  5
EA8
100
AcDbEntity
  8
0
  6
BYBLOCK
 62
     0
100
AcDbTrace
 10
637.585786
 20
310.077946
 30
0.0
 11
639.109786
 21
310.077946
 31
0.0
 12
638.347786
 22
305.505946
 32
0.0
 13
638.347786
 23
305.505946
 33
0.0
  0
MTEXT
  5
EA9
100
AcDbEntity
  8
0
  6
BYBLOCK
 62
     0
100
AcDbMText
 10
638.347786
 20
320.505946
 30
0.0
 40
4.572
 41
0.0
 71
     5
 72
     1
  1
\A1;3.00mm[0.118"]
  0
POINT
  5
EAA
100
AcDbEntity
  8
DEFPOINTS
  6
BYBLOCK
 62
     0
100
AcDbPoint
 10
668.740859
 20
335.505946
 30
0.0
  0
POINT
  5
EAB
100
AcDbEntity
  8
DEFPOINTS
  6
BYBLOCK
 62
     0
100
AcDbPoint
 10
670.264859
 20
305.505946
 30
0.0
  0
POINT
  5
EAC
100
AcDbEntity
  8
DEFPOINTS
  6
BYBLOCK
 62
     0
100
AcDbPoint
 10
638.347786
 20
305.505946
 30
0.0
  0
ENDBLK
  5
EAD
100
AcDbEntity
  8
0
100
AcDbBlockEnd
  0
BLOCK
  5
EAE
100
AcDbEntity
  8
0
100
AcDbBlockBegin
  2
*D5
 70
    65
 10
0.0
 20
0.0
 30
0.0
  3
*D5
  1

  0
LINE
  5
EAF
100
AcDbEntity
  8
0
  6
BYBLOCK
 62
     0
100
AcDbLine
 10
670.264859
 20
407.093446
 30
0.0
 11
670.264859
 21
444.48595
 31
0.0
  0
LINE
  5
EB0
100
AcDbEntity
  8
0
  6
BYBLOCK
 62
     0
100
AcDbLine
 10
668.740859
 20
407.093446
 30
0.0
 11
668.740859
 21
444.48595
 31
0.0
  0
LINE
  5
EB1
100
AcDbEntity
  8
0
  6
BYBLOCK
 62
     0
100
AcDbLine
 10
674.836859
 20
439.91395
 30
0.0
 11
679.408859
 21
439.91395
 31
0.0
  0
LINE
  5
EB2
100
AcDbEntity
  8
0
  6
BYBLOCK
 62
     0
100
AcDbLine
 10
664.168859
 20
439.91395
 30
0.0
 11
659.596859
 21
439.91395
 31
0.0
  0
SOLID
  5
EB3
100
AcDbEntity
  8
0
  6
BYBLOCK
 62
     0
100
AcDbTrace
 10
674.836859
 20
440.67595
 30
0.0
 11
674.836859
 21
439.15195
 31
0.0
 12
670.264859
 22
439.91395
 32
0.0
 13
670.264859
 23
439.91395
 33
0.0
  0
SOLID
  5
EB4
100
AcDbEntity
  8
0
  6
BYBLOCK
 62
     0
100
AcDbTrace
 10
664.168859
 20
440.67595
 30
0.0
 11
664.168859
 21
439.15195
 31
0.0
 12
668.740859
 22
439.91395
 32
0.0
 13
668.740859
 23
439.91395
 33
0.0
  0
MTEXT
  5
EB5
100
AcDbEntity
  8
0
  6
BYBLOCK
 62
     0
100
AcDbMText
 10
608.161859
 20
439.91395
 30
0.0
 40
4.572
 41
0.0
 71
     5
 72
     1
  1
\A1;0.15mm±0.03mm[0.006"±0.001"]
  0
POINT
  5
EB6
100
AcDbEntity
  8
DEFPOINTS
  6
BYBLOCK
 62
     0
100
AcDbPoint
 10
670.264859
 20
405.505946
 30
0.0
  0
POINT
  5
EB7
100
AcDbEntity
  8
DEFPOINTS
  6
BYBLOCK
 62
     0
100
AcDbPoint
 10
668.740859
 20
405.505946
 30
0.0
  0
POINT
  5
EB8
100
AcDbEntity
  8
DEFPOINTS
  6
BYBLOCK
 62
     0
100
AcDbPoint
 10
668.740859
 20
439.91395
 30
0.0
  0
ENDBLK
  5
EB9
100
AcDbEntity
  8
0
100
AcDbBlockEnd
  0
BLOCK
  5
EBA
100
AcDbEntity
  8
0
100
AcDbBlockBegin
  2
*D6
 70
    65
 10
0.0
 20
0.0
 30
0.0
  3
*D6
  1

  0
LINE
  5
EBB
100
AcDbEntity
  8
0
  6
BYBLOCK
 62
     0
100
AcDbLine
 10
672.296859
 20
407.093446
 30
0.0
 11
672.296859
 21
431.784476
 31
0.0
  0
LINE
  5
EBC
100
AcDbEntity
  8
0
  6
BYBLOCK
 62
     0
100
AcDbLine
 10
673.820859
 20
407.093446
 30
0.0
 11
673.820859
 21
431.784476
 31
0.0
  0
LINE
  5
EBD
100
AcDbEntity
  8
0
  6
BYBLOCK
 62
     0
100
AcDbLine
 10
667.724859
 20
427.212476
 30
0.0
 11
663.152859
 21
427.212476
 31
0.0
  0
LINE
  5
EBE
100
AcDbEntity
  8
0
  6
BYBLOCK
 62
     0
100
AcDbLine
 10
678.392859
 20
427.212476
 30
0.0
 11
682.964859
 21
427.212476
 31
0.0
  0
SOLID
  5
EBF
100
AcDbEntity
  8
0
  6
BYBLOCK
 62
     0
100
AcDbTrace
 10
667.724859
 20
427.974476
 30
0.0
 11
667.724859
 21
426.450476
 31
0.0
 12
672.296859
 22
427.212476
 32
0.0
 13
672.296859
 23
427.212476
 33
0.0
  0
SOLID
  5
EC0
100
AcDbEntity
  8
0
  6
BYBLOCK
 62
     0
100
AcDbTrace
 10
678.392859
 20
427.974476
 30
0.0
 11
678.392859
 21
426.450476
 31
0.0
 12
673.820859
 22
427.212476
 32
0.0
 13
673.820859
 23
427.212476
 33
0.0
  0
MTEXT
  5
EC1
100
AcDbEntity
  8
0
  6
BYBLOCK
 62
     0
100
AcDbMText
 10
734.399859
 20
427.212476
 30
0.0
 40
4.572
 41
0.0
 71
     5
 72
     1
  1
\A1;0.15mm±0.03mm[0.006"±0.001"]
  0
POINT
  5
EC2
100
AcDbEntity
  8
DEFPOINTS
  6
BYBLOCK
 62
     0
100
AcDbPoint
 10
672.296859
 20
405.505946
 30
0.0
  0
POINT
  5
EC3
100
AcDbEntity
  8
DEFPOINTS
  6
BYBLOCK
 62
     0
100
AcDbPoint
 10
673.820859
 20
405.505946
 30
0.0
  0
POINT
  5
EC4
100
AcDbEntity
  8
DEFPOINTS
  6
BYBLOCK
 62
     0
100
AcDbPoint
 10
673.820859
 20
427.212476
 30
0.0
  0
ENDBLK
  5
EC5
100
AcDbEntity
  8
0
100
AcDbBlockEnd
  0
BLOCK
  5
EC6
100
AcDbEntity
  8
0
100
AcDbBlockBegin
  2
*D7
 70
    65
 10
0.0
 20
0.0
 30
0.0
  3
*D7
  1

  0
LINE
  5
EC7
100
AcDbEntity
  8
0
  6
BYBLOCK
 62
     0
100
AcDbLine
 10
668.740859
 20
407.093446
 30
0.0
 11
668.740859
 21
419.467897
 31
0.0
  0
LINE
  5
EC8
100
AcDbEntity
  8
0
  6
BYBLOCK
 62
     0
100
AcDbLine
 10
673.820859
 20
407.093446
 30
0.0
 11
673.820859
 21
419.467897
 31
0.0
  0
LINE
  5
EC9
100
AcDbEntity
  8
0
  6
BYBLOCK
 62
     0
100
AcDbLine
 10
664.168859
 20
414.895897
 30
0.0
 11
659.596859
 21
414.895897
 31
0.0
  0
LINE
  5
ECA
100
AcDbEntity
  8
0
  6
BYBLOCK
 62
     0
100
AcDbLine
 10
678.392859
 20
414.895897
 30
0.0
 11
682.964859
 21
414.895897
 31
0.0
  0
SOLID
  5
ECB
100
AcDbEntity
  8
0
  6
BYBLOCK
 62
     0
100
AcDbTrace
 10
664.168859
 20
415.657897
 30
0.0
 11
664.168859
 21
414.133897
 31
0.0
 12
668.740859
 22
414.895897
 32
0.0
 13
668.740859
 23
414.895897
 33
0.0
  0
SOLID
  5
ECC
100
AcDbEntity
  8
0
  6
BYBLOCK
 62
     0
100
AcDbTrace
 10
678.392859
 20
415.657897
 30
0.0
 11
678.392859
 21
414.133897
 31
0.0
 12
673.820859
 22
414.895897
 32
0.0
 13
673.820859
 23
414.895897
 33
0.0
  0
MTEXT
  5
ECD
100
AcDbEntity
  8
0
  6
BYBLOCK
 62
     0
100
AcDbMText
 10
734.399859
 20
414.895897
 30
0.0
 40
4.572
 41
0.0
 71
     5
 72
     1
  1
\A1;0.51mm±0.03mm[0.020"±0.001"]
  0
POINT
  5
ECE
100
AcDbEntity
  8
DEFPOINTS
  6
BYBLOCK
 62
     0
100
AcDbPoint
 10
668.740859
 20
405.505946
 30
0.0
  0
POINT
  5
ECF
100
AcDbEntity
  8
DEFPOINTS
  6
BYBLOCK
 62
     0
100
AcDbPoint
 10
673.820859
 20
405.505946
 30
0.0
  0
POINT
  5
ED0
100
AcDbEntity
  8
DEFPOINTS
  6
BYBLOCK
 62
     0
100
AcDbPoint
 10
673.820859
 20
414.895897
 30
0.0
  0
ENDBLK
  5
ED1
100
AcDbEntity
  8
0
100
AcDbBlockEnd
  0
BLOCK
  5
F45
100
AcDbEntity
  8
0
100
AcDbBlockBegin
  2
*D8
 70
    65
 10
0.0
 20
0.0
 30
0.0
  3
*D8
  1

  0
LINE
  5
F46
100
AcDbEntity
  8
0
  6
BYBLOCK
 62
     0
100
AcDbLine
 10
365.395855
 20
321.375226
 30
0.0
 11
365.395855
 21
420.648883
 31
0.0
  0
LINE
  5
F47
100
AcDbEntity
  8
0
  6
BYBLOCK
 62
     0
100
AcDbLine
 10
360.823855
 20
416.076883
 30
0.0
 11
356.251855
 21
416.076883
 31
0.0
  0
LINE
  5
F48
100
AcDbEntity
  8
0
  6
BYBLOCK
 62
     0
100
AcDbLine
 10
424.090936
 20
416.076883
 30
0.0
 11
428.662936
 21
416.076883
 31
0.0
  0
SOLID
  5
F49
100
AcDbEntity
  8
0
  6
BYBLOCK
 62
     0
100
AcDbTrace
 10
360.823855
 20
416.838883
 30
0.0
 11
360.823855
 21
415.314883
 31
0.0
 12
365.395855
 22
416.076883
 32
0.0
 13
365.395855
 23
416.076883
 33
0.0
  0
SOLID
  5
F4A
100
AcDbEntity
  8
0
  6
BYBLOCK
 62
     0
100
AcDbTrace
 10
424.090936
 20
416.838883
 30
0.0
 11
424.090936
 21
415.314883
 31
0.0
 12
419.518936
 22
416.076883
 32
0.0
 13
419.518936
 23
416.076883
 33
0.0
  0
MTEXT
  5
F4B
100
AcDbEntity
  8
0
  6
BYBLOCK
 62
     0
100
AcDbMText
 10
456.856936
 20
416.076883
 30
0.0
 40
4.572
 41
0.0
 71
     5
 72
     1
  1
\A1;54.12mm[2.131"]
  0
POINT
  5
F4C
100
AcDbEntity
  8
DEFPOINTS
  6
BYBLOCK
 62
     0
100
AcDbPoint
 10
365.395855
 20
319.787726
 30
0.0
  0
POINT
  5
F4D
100
AcDbEntity
  8
DEFPOINTS
  6
BYBLOCK
 62
     0
100
AcDbPoint
 10
419.518936
 20
482.331473
 30
0.0
  0
POINT
  5
F4E
100
AcDbEntity
  8
DEFPOINTS
  6
BYBLOCK
 62
     0
100
AcDbPoint
 10
419.518936
 20
416.076883
 30
0.0
  0
ENDBLK
  5
F4F
100
AcDbEntity
  8
0
100
AcDbBlockEnd
  0
BLOCK
  5
F52
100
AcDbEntity
  8
0
100
AcDbBlockBegin
  2
*D9
 70
    65
 10
0.0
 20
0.0
 30
0.0
  3
*D9
  1

  0
LINE
  5
F53
100
AcDbEntity
  8
0
  6
BYBLOCK
 62
     0
100
AcDbLine
 10
301.808309
 20
321.375226
 30
0.0
 11
301.808309
 21
434.932031
 31
0.0
  0
LINE
  5
F54
100
AcDbEntity
  8
0
  6
BYBLOCK
 62
     0
100
AcDbLine
 10
306.380309
 20
430.360031
 30
0.0
 11
330.183622
 21
430.360031
 31
0.0
  0
LINE
  5
F55
100
AcDbEntity
  8
0
  6
BYBLOCK
 62
     0
100
AcDbLine
 10
414.946936
 20
430.360031
 30
0.0
 11
391.143622
 21
430.360031
 31
0.0
  0
SOLID
  5
F56
100
AcDbEntity
  8
0
  6
BYBLOCK
 62
     0
100
AcDbTrace
 10
306.380309
 20
431.122031
 30
0.0
 11
306.380309
 21
429.598031
 31
0.0
 12
301.808309
 22
430.360031
 32
0.0
 13
301.808309
 23
430.360031
 33
0.0
  0
SOLID
  5
F57
100
AcDbEntity
  8
0
  6
BYBLOCK
 62
     0
100
AcDbTrace
 10
414.946936
 20
431.122031
 30
0.0
 11
414.946936
 21
429.598031
 31
0.0
 12
419.518936
 22
430.360031
 32
0.0
 13
419.518936
 23
430.360031
 33
0.0
  0
MTEXT
  5
F58
100
AcDbEntity
  8
0
  6
BYBLOCK
 62
     0
100
AcDbMText
 10
360.663622
 20
430.360031
 30
0.0
 40
4.572
 41
0.0
 71
     5
 72
     1
  1
\A1;117.71mm[4.634"]
  0
POINT
  5
F59
100
AcDbEntity
  8
DEFPOINTS
  6
BYBLOCK
 62
     0
100
AcDbPoint
 10
301.808309
 20
319.787726
 30
0.0
  0
POINT
  5
F5A
100
AcDbEntity
  8
DEFPOINTS
  6
BYBLOCK
 62
     0
100
AcDbPoint
 10
419.518936
 20
482.331473
 30
0.0
  0
POINT
  5
F5B
100
AcDbEntity
  8
DEFPOINTS
  6
BYBLOCK
 62
     0
100
AcDbPoint
 10
419.518936
 20
430.360031
 30
0.0
  0
ENDBLK
  5
F5C
100
AcDbEntity
  8
0
100
AcDbBlockEnd
  0
BLOCK
  5
F5F
100
AcDbEntity
  8
0
100
AcDbBlockBegin
  2
*D10
 70
    65
 10
0.0
 20
0.0
 30
0.0
  3
*D10
  1

  0
LINE
  5
F60
100
AcDbEntity
  8
0
  6
BYBLOCK
 62
     0
100
AcDbLine
 10
297.808309
 20
321.375226
 30
0.0
 11
297.808309
 21
446.789739
 31
0.0
  0
LINE
  5
F61
100
AcDbEntity
  8
0
  6
BYBLOCK
 62
     0
100
AcDbLine
 10
302.380309
 20
442.217739
 30
0.0
 11
328.183622
 21
442.217739
 31
0.0
  0
LINE
  5
F62
100
AcDbEntity
  8
0
  6
BYBLOCK
 62
     0
100
AcDbLine
 10
414.946936
 20
442.217739
 30
0.0
 11
389.143622
 21
442.217739
 31
0.0
  0
SOLID
  5
F63
100
AcDbEntity
  8
0
  6
BYBLOCK
 62
     0
100
AcDbTrace
 10
302.380309
 20
442.979739
 30
0.0
 11
302.380309
 21
441.455739
 31
0.0
 12
297.808309
 22
442.217739
 32
0.0
 13
297.808309
 23
442.217739
 33
0.0
  0
SOLID
  5
F64
100
AcDbEntity
  8
0
  6
BYBLOCK
 62
     0
100
AcDbTrace
 10
414.946936
 20
442.979739
 30
0.0
 11
414.946936
 21
441.455739
 31
0.0
 12
419.518936
 22
442.217739
 32
0.0
 13
419.518936
 23
442.217739
 33
0.0
  0
MTEXT
  5
F65
100
AcDbEntity
  8
0
  6
BYBLOCK
 62
     0
100
AcDbMText
 10
358.663622
 20
442.217739
 30
0.0
 40
4.572
 41
0.0
 71
     5
 72
     1
  1
\A1;121.71mm[4.792"]
  0
POINT
  5
F66
100
AcDbEntity
  8
DEFPOINTS
  6
BYBLOCK
 62
     0
100
AcDbPoint
 10
297.808309
 20
319.787726
 30
0.0
  0
POINT
  5
F67
100
AcDbEntity
  8
DEFPOINTS
  6
BYBLOCK
 62
     0
100
AcDbPoint
 10
419.518936
 20
482.331473
 30
0.0
  0
POINT
  5
F68
100
AcDbEntity
  8
DEFPOINTS
  6
BYBLOCK
 62
     0
100
AcDbPoint
 10
419.518936
 20
442.217739
 30
0.0
  0
ENDBLK
  5
F69
100
AcDbEntity
  8
0
100
AcDbBlockEnd
  0
BLOCK
  5
1056
100
AcDbEntity
  8
0
100
AcDbBlockBegin
  2
*D11
 70
    65
 10
0.0
 20
0.0
 30
0.0
  3
*D11
  1

  0
LINE
  5
1057
100
AcDbEntity
  8
0
  6
BYBLOCK
 62
     0
100
AcDbLine
 10
233.063355
 20
328.212401
 30
0.0
 11
233.063355
 21
470.779848
 31
0.0
  0
LINE
  5
1058
100
AcDbEntity
  8
0
  6
BYBLOCK
 62
     0
100
AcDbLine
 10
237.635355
 20
466.207848
 30
0.0
 11
295.049145
 21
466.207848
 31
0.0
  0
LINE
  5
1059
100
AcDbEntity
  8
0
  6
BYBLOCK
 62
     0
100
AcDbLine
 10
414.946936
 20
466.207848
 30
0.0
 11
357.533145
 21
466.207848
 31
0.0
  0
SOLID
  5
105A
100
AcDbEntity
  8
0
  6
BYBLOCK
 62
     0
100
AcDbTrace
 10
237.635355
 20
466.969848
 30
0.0
 11
237.635355
 21
465.445848
 31
0.0
 12
233.063355
 22
466.207848
 32
0.0
 13
233.063355
 23
466.207848
 33
0.0
  0
SOLID
  5
105B
100
AcDbEntity
  8
0
  6
BYBLOCK
 62
     0
100
AcDbTrace
 10
414.946936
 20
466.969848
 30
0.0
 11
414.946936
 21
465.445848
 31
0.0
 12
419.518936
 22
466.207848
 32
0.0
 13
419.518936
 23
466.207848
 33
0.0
  0
MTEXT
  5
105C
100
AcDbEntity
  8
0
  6
BYBLOCK
 62
     0
100
AcDbMText
 10
326.291145
 20
466.207848
 30
0.0
 40
4.572
 41
0.0
 71
     5
 72
     1
  1
\A1;186.46mm[7.341"]
  0
POINT
  5
105D
100
AcDbEntity
  8
DEFPOINTS
  6
BYBLOCK
 62
     0
100
AcDbPoint
 10
233.063355
 20
326.624901
 30
0.0
  0
POINT
  5
105E
100
AcDbEntity
  8
DEFPOINTS
  6
BYBLOCK
 62
     0
100
AcDbPoint
 10
419.518936
 20
482.331473
 30
0.0
  0
POINT
  5
105F
100
AcDbEntity
  8
DEFPOINTS
  6
BYBLOCK
 62
     0
100
AcDbPoint
 10
419.518936
 20
466.207848
 30
0.0
  0
ENDBLK
  5
1060
100
AcDbEntity
  8
0
100
AcDbBlockEnd
  0
BLOCK
  5
107A
100
AcDbEntity
  8
0
100
AcDbBlockBegin
  2
*D12
 70
    65
 10
0.0
 20
0.0
 30
0.0
  3
*D12
  1

  0
LINE
  5
107B
100
AcDbEntity
  8
0
  6
BYBLOCK
 62
     0
100
AcDbLine
 10
299.942217
 20
316.62493
 30
0.0
 11
280.107164
 21
316.62493
 31
0.0
  0
LINE
  5
107C
100
AcDbEntity
  8
0
  6
BYBLOCK
 62
     0
100
AcDbLine
 10
284.679164
 20
321.19693
 30
0.0
 11
284.679164
 21
325.76893
 31
0.0
  0
LINE
  5
107D
100
AcDbEntity
  8
0
  6
BYBLOCK
 62
     0
100
AcDbLine
 10
284.679164
 20
292.008346
 30
0.0
 11
284.679164
 21
287.436346
 31
0.0
  0
LINE
  5
107E
100
AcDbEntity
  8
0
  6
BYBLOCK
 62
     0
100
AcDbLine
 10
284.679164
 20
287.436346
 30
0.0
 11
280.107164
 21
287.436346
 31
0.0
  0
SOLID
  5
107F
100
AcDbEntity
  8
0
  6
BYBLOCK
 62
     0
100
AcDbTrace
 10
283.917164
 20
321.19693
 30
0.0
 11
285.441164
 21
321.19693
 31
0.0
 12
284.679164
 22
316.62493
 32
0.0
 13
284.679164
 23
316.62493
 33
0.0
  0
SOLID
  5
1080
100
AcDbEntity
  8
0
  6
BYBLOCK
 62
     0
100
AcDbTrace
 10
283.917164
 20
292.008346
 30
0.0
 11
285.441164
 21
292.008346
 31
0.0
 12
284.679164
 22
296.580346
 32
0.0
 13
284.679164
 23
296.580346
 33
0.0
  0
MTEXT
  5
1081
100
AcDbEntity
  8
0
  6
BYBLOCK
 62
     0
100
AcDbMText
 10
219.756764
 20
287.436346
 30
0.0
 40
4.572
 41
0.0
 71
     5
 72
     1
  1
\A1;20.04mm\S+0.05mm^  0.00mm;{\o\l\H10.972800;[}0.789"\S+0.002"^  0.000";{\o\l\H10.972800;]}
  0
POINT
  5
1082
100
AcDbEntity
  8
DEFPOINTS
  6
BYBLOCK
 62
     0
100
AcDbPoint
 10
301.529717
 20
316.62493
 30
0.0
  0
POINT
  5
1083
100
AcDbEntity
  8
DEFPOINTS
  6
BYBLOCK
 62
     0
100
AcDbPoint
 10
35.550639
 20
296.580346
 30
0.0
  0
POINT
  5
1084
100
AcDbEntity
  8
DEFPOINTS
  6
BYBLOCK
 62
     0
100
AcDbPoint
 10
284.679164
 20
296.580346
 30
0.0
  0
ENDBLK
  5
1085
100
AcDbEntity
  8
0
100
AcDbBlockEnd
  0
BLOCK
  5
1086
100
AcDbEntity
  8
0
100
AcDbBlockBegin
  2
*D13
 70
    65
 10
0.0
 20
0.0
 30
0.0
  3
*D13
  1

  0
LINE
  5
1087
100
AcDbEntity
  8
0
  6
BYBLOCK
 62
     0
100
AcDbLine
 10
299.942217
 20
326.624901
 30
0.0
 11
56.695559
 21
326.624901
 31
0.0
  0
LINE
  5
1088
100
AcDbEntity
  8
0
  6
BYBLOCK
 62
     0
100
AcDbLine
 10
61.267559
 20
322.052901
 30
0.0
 11
61.267559
 21
316.174623
 31
0.0
  0
LINE
  5
1089
100
AcDbEntity
  8
0
  6
BYBLOCK
 62
     0
100
AcDbLine
 10
61.267559
 20
301.152346
 30
0.0
 11
61.267559
 21
307.030623
 31
0.0
  0
SOLID
  5
108A
100
AcDbEntity
  8
0
  6
BYBLOCK
 62
     0
100
AcDbTrace
 10
60.505559
 20
322.052901
 30
0.0
 11
62.029559
 21
322.052901
 31
0.0
 12
61.267559
 22
326.624901
 32
0.0
 13
61.267559
 23
326.624901
 33
0.0
  0
SOLID
  5
108B
100
AcDbEntity
  8
0
  6
BYBLOCK
 62
     0
100
AcDbTrace
 10
60.505559
 20
301.152346
 30
0.0
 11
62.029559
 21
301.152346
 31
0.0
 12
61.267559
 22
296.580346
 32
0.0
 13
61.267559
 23
296.580346
 33
0.0
  0
MTEXT
  5
108C
100
AcDbEntity
  8
0
  6
BYBLOCK
 62
     0
100
AcDbMText
 10
61.267559
 20
311.602623
 30
0.0
 40
4.572
 41
0.0
 71
     5
 72
     1
  1
\A1;30.04mm[1.183"]
  0
POINT
  5
108D
100
AcDbEntity
  8
DEFPOINTS
  6
BYBLOCK
 62
     0
100
AcDbPoint
 10
301.529717
 20
326.624901
 30
0.0
  0
POINT
  5
108E
100
AcDbEntity
  8
DEFPOINTS
  6
BYBLOCK
 62
     0
100
AcDbPoint
 10
35.550639
 20
296.580346
 30
0.0
  0
POINT
  5
108F
100
AcDbEntity
  8
DEFPOINTS
  6
BYBLOCK
 62
     0
100
AcDbPoint
 10
61.267559
 20
296.580346
 30
0.0
  0
ENDBLK
  5
1090
100
AcDbEntity
  8
0
100
AcDbBlockEnd
  0
BLOCK
  5
F98
100
AcDbEntity
  8
0
100
AcDbBlockBegin
  2
*D14
 70
    65
 10
0.0
 20
0.0
 30
0.0
  3
*D14
  1

  0
LINE
  5
F99
100
AcDbEntity
  8
0
  6
BYBLOCK
 62
     0
100
AcDbLine
 10
370.794914
 20
328.02658
 30
0.0
 11
413.49482
 21
408.333423
 31
0.0
  0
LINE
  5
F9A
100
AcDbEntity
  8
0
  6
BYBLOCK
 62
     0
100
AcDbLine
 10
407.311559
 20
406.44301
 30
0.0
 11
403.274723
 21
408.589434
 31
0.0
  0
LINE
  5
F9B
100
AcDbEntity
  8
0
  6
BYBLOCK
 62
     0
100
AcDbLine
 10
466.405361
 20
375.022278
 30
0.0
 11
470.442198
 21
372.875854
 31
0.0
  0
SOLID
  5
F9C
100
AcDbEntity
  8
0
  6
BYBLOCK
 62
     0
100
AcDbTrace
 10
407.669297
 20
407.115816
 30
0.0
 11
406.953822
 21
405.770204
 31
0.0
 12
411.348396
 22
404.296586
 32
0.0
 13
411.348396
 23
404.296586
 33
0.0
  0
SOLID
  5
F9D
100
AcDbEntity
  8
0
  6
BYBLOCK
 62
     0
100
AcDbTrace
 10
466.763099
 20
375.695084
 30
0.0
 11
466.047624
 21
374.349472
 31
0.0
 12
462.368525
 22
377.168702
 32
0.0
 13
462.368525
 23
377.168702
 33
0.0
  0
MTEXT
  5
F9E
100
AcDbEntity
  8
0
  6
BYBLOCK
 62
     0
100
AcDbMText
 10
497.354441
 20
358.566361
 30
0.0
 40
4.572
 41
0.0
 71
     5
 72
     1
  1
\A1;57.78mm[2.275"]
 11
0.882948
 21
-0.469472
 31
0.0
  0
POINT
  5
F9F
100
AcDbEntity
  8
DEFPOINTS
  6
BYBLOCK
 62
     0
100
AcDbPoint
 10
370.049628
 20
326.624901
 30
0.0
 50
28.0
  0
POINT
  5
FA0
100
AcDbEntity
  8
DEFPOINTS
  6
BYBLOCK
 62
     0
100
AcDbPoint
 10
473.529281
 20
398.159031
 30
0.0
 50
28.0
  0
POINT
  5
FA1
100
AcDbEntity
  8
DEFPOINTS
  6
BYBLOCK
 62
     0
100
AcDbPoint
 10
462.368525
 20
377.168702
 30
0.0
 50
28.0
  0
ENDBLK
  5
FA2
100
AcDbEntity
  8
0
100
AcDbBlockEnd
  0
BLOCK
  5
FA5
100
AcDbEntity
  8
0
100
AcDbBlockBegin
  2
*D15
 70
    65
 10
0.0
 20
0.0
 30
0.0
  3
*D15
  1

  0
LINE
  5
FA6
100
AcDbEntity
  8
0
  6
BYBLOCK
 62
     0
100
AcDbLine
 10
368.80024
 20
320.026656
 30
0.0
 11
410.245607
 21
397.974054
 31
0.0
  0
LINE
  5
FA7
100
AcDbEntity
  8
0
  6
BYBLOCK
 62
     0
100
AcDbLine
 10
404.062346
 20
396.083642
 30
0.0
 11
400.02551
 21
398.230066
 31
0.0
  0
LINE
  5
FA8
100
AcDbEntity
  8
0
  6
BYBLOCK
 62
     0
100
AcDbLine
 10
461.395071
 20
365.599292
 30
0.0
 11
465.431907
 21
363.452868
 31
0.0
  0
SOLID
  5
FA9
100
AcDbEntity
  8
0
  6
BYBLOCK
 62
     0
100
AcDbTrace
 10
404.420084
 20
396.756448
 30
0.0
 11
403.704609
 21
395.410836
 31
0.0
 12
408.099183
 22
393.937218
 32
0.0
 13
408.099183
 23
393.937218
 33
0.0
  0
SOLID
  5
FAA
100
AcDbEntity
  8
0
  6
BYBLOCK
 62
     0
100
AcDbTrace
 10
461.752808
 20
366.272098
 30
0.0
 11
461.037333
 21
364.926486
 31
0.0
 12
457.358234
 22
367.745716
 32
0.0
 13
457.358234
 23
367.745716
 33
0.0
  0
MTEXT
  5
FAB
100
AcDbEntity
  8
0
  6
BYBLOCK
 62
     0
100
AcDbMText
 10
491.671344
 20
349.501112
 30
0.0
 40
4.572
 41
0.0
 71
     5
 72
     1
  1
\A1;55.79mm[2.196"]
 11
0.882948
 21
-0.469472
 31
0.0
  0
POINT
  5
FAC
100
AcDbEntity
  8
DEFPOINTS
  6
BYBLOCK
 62
     0
100
AcDbPoint
 10
368.054954
 20
318.624977
 30
0.0
 50
28.0
  0
POINT
  5
FAD
100
AcDbEntity
  8
DEFPOINTS
  6
BYBLOCK
 62
     0
100
AcDbPoint
 10
473.529281
 20
398.159031
 30
0.0
 50
28.0
  0
POINT
  5
FAE
100
AcDbEntity
  8
DEFPOINTS
  6
BYBLOCK
 62
     0
100
AcDbPoint
 10
457.358234
 20
367.745716
 30
0.0
 50
28.0
  0
ENDBLK
  5
FAF
100
AcDbEntity
  8
0
100
AcDbBlockEnd
  0
BLOCK
  5
FB2
100
AcDbEntity
  8
0
100
AcDbBlockBegin
  2
*D16
 70
    65
 10
0.0
 20
0.0
 30
0.0
  3
*D16
  1

  0
LINE
  5
FB3
100
AcDbEntity
  8
0
  6
BYBLOCK
 62
     0
100
AcDbLine
 10
371.656121
 20
319.732919
 30
0.0
 11
407.625631
 21
387.38173
 31
0.0
  0
LINE
  5
FB4
100
AcDbEntity
  8
0
  6
BYBLOCK
 62
     0
100
AcDbLine
 10
401.442371
 20
385.491317
 30
0.0
 11
397.405534
 21
387.637741
 31
0.0
  0
LINE
  5
FB5
100
AcDbEntity
  8
0
  6
BYBLOCK
 62
     0
100
AcDbLine
 10
456.426901
 20
356.255524
 30
0.0
 11
460.463738
 21
354.1091
 31
0.0
  0
SOLID
  5
FB6
100
AcDbEntity
  8
0
  6
BYBLOCK
 62
     0
100
AcDbTrace
 10
401.800108
 20
386.164123
 30
0.0
 11
401.084633
 21
384.818511
 31
0.0
 12
405.479207
 22
383.344893
 32
0.0
 13
405.479207
 23
383.344893
 33
0.0
  0
SOLID
  5
FB7
100
AcDbEntity
  8
0
  6
BYBLOCK
 62
     0
100
AcDbTrace
 10
456.784638
 20
356.92833
 30
0.0
 11
456.069164
 21
355.582718
 31
0.0
 12
452.390065
 22
358.401948
 32
0.0
 13
452.390065
 23
358.401948
 33
0.0
  0
MTEXT
  5
FB8
100
AcDbEntity
  8
0
  6
BYBLOCK
 62
     0
100
AcDbMText
 10
486.366771
 20
340.336213
 30
0.0
 40
4.572
 41
0.0
 71
     5
 72
     1
  1
\A1;53.13mm[2.092"]
 11
0.882948
 21
-0.469472
 31
0.0
  0
POINT
  5
FB9
100
AcDbEntity
  8
DEFPOINTS
  6
BYBLOCK
 62
     0
100
AcDbPoint
 10
370.910834
 20
318.33124
 30
0.0
 50
28.0
  0
POINT
  5
FBA
100
AcDbEntity
  8
DEFPOINTS
  6
BYBLOCK
 62
     0
100
AcDbPoint
 10
473.529281
 20
398.159031
 30
0.0
 50
28.0
  0
POINT
  5
FBB
100
AcDbEntity
  8
DEFPOINTS
  6
BYBLOCK
 62
     0
100
AcDbPoint
 10
452.390065
 20
358.401948
 30
0.0
 50
28.0
  0
ENDBLK
  5
FBC
100
AcDbEntity
  8
0
100
AcDbBlockEnd
  0
BLOCK
  5
FBF
100
AcDbEntity
  8
0
100
AcDbBlockBegin
  2
*D17
 70
    65
 10
0.0
 20
0.0
 30
0.0
  3
*D17
  1

  0
LINE
  5
FC0
100
AcDbEntity
  8
0
  6
BYBLOCK
 62
     0
100
AcDbLine
 10
424.294812
 20
293.122471
 30
0.0
 11
454.445344
 21
349.827376
 31
0.0
  0
LINE
  5
FC1
100
AcDbEntity
  8
0
  6
BYBLOCK
 62
     0
100
AcDbLine
 10
443.105474
 20
350.678781
 30
0.0
 11
439.068638
 21
352.825205
 31
0.0
  0
LINE
  5
FC2
100
AcDbEntity
  8
0
  6
BYBLOCK
 62
     0
100
AcDbLine
 10
456.335757
 20
343.644115
 30
0.0
 11
460.372593
 21
341.497691
 31
0.0
  0
SOLID
  5
FC3
100
AcDbEntity
  8
0
  6
BYBLOCK
 62
     0
100
AcDbTrace
 10
443.463211
 20
351.351587
 30
0.0
 11
442.747737
 21
350.005975
 31
0.0
 12
447.14231
 22
348.532357
 32
0.0
 13
447.14231
 23
348.532357
 33
0.0
  0
SOLID
  5
FC4
100
AcDbEntity
  8
0
  6
BYBLOCK
 62
     0
100
AcDbTrace
 10
456.693494
 20
344.316921
 30
0.0
 11
455.97802
 21
342.971309
 31
0.0
 12
452.29892
 22
345.790539
 32
0.0
 13
452.29892
 23
345.790539
 33
0.0
  0
MTEXT
  5
FC5
100
AcDbEntity
  8
0
  6
BYBLOCK
 62
     0
100
AcDbMText
 10
484.593612
 20
328.619147
 30
0.0
 40
4.572
 41
0.0
 71
     5
 72
     1
  1
\A1;5.84mm[0.230"]
 11
0.882948
 21
-0.469472
 31
0.0
  0
POINT
  5
FC6
100
AcDbEntity
  8
DEFPOINTS
  6
BYBLOCK
 62
     0
100
AcDbPoint
 10
473.529281
 20
398.159031
 30
0.0
 50
28.0
  0
POINT
  5
FC7
100
AcDbEntity
  8
DEFPOINTS
  6
BYBLOCK
 62
     0
100
AcDbPoint
 10
423.549526
 20
291.720791
 30
0.0
 50
28.0
  0
POINT
  5
FC8
100
AcDbEntity
  8
DEFPOINTS
  6
BYBLOCK
 62
     0
100
AcDbPoint
 10
452.29892
 20
345.790539
 30
0.0
 50
28.0
  0
ENDBLK
  5
FC9
100
AcDbEntity
  8
0
100
AcDbBlockEnd
  0
BLOCK
  5
FCC
100
AcDbEntity
  8
0
100
AcDbBlockBegin
  2
*D18
 70
    65
 10
0.0
 20
0.0
 30
0.0
  3
*D18
  1

  0
LINE
  5
FCD
100
AcDbEntity
  8
0
  6
BYBLOCK
 62
     0
100
AcDbLine
 10
433.215612
 20
286.822664
 30
0.0
 11
458.885107
 21
335.099962
 31
0.0
  0
LINE
  5
FCE
100
AcDbEntity
  8
0
  6
BYBLOCK
 62
     0
100
AcDbLine
 10
437.979224
 20
341.037707
 30
0.0
 11
433.942387
 21
343.184131
 31
0.0
  0
LINE
  5
FCF
100
AcDbEntity
  8
0
  6
BYBLOCK
 62
     0
100
AcDbLine
 10
460.775519
 20
328.916701
 30
0.0
 11
464.812355
 21
326.770277
 31
0.0
  0
SOLID
  5
FD0
100
AcDbEntity
  8
0
  6
BYBLOCK
 62
     0
100
AcDbTrace
 10
438.336961
 20
341.710513
 30
0.0
 11
437.621486
 21
340.364901
 31
0.0
 12
442.01606
 22
338.891283
 32
0.0
 13
442.01606
 23
338.891283
 33
0.0
  0
SOLID
  5
FD1
100
AcDbEntity
  8
0
  6
BYBLOCK
 62
     0
100
AcDbTrace
 10
461.133256
 20
329.589508
 30
0.0
 11
460.417782
 21
328.243895
 31
0.0
 12
456.738683
 22
331.063125
 32
0.0
 13
456.738683
 23
331.063125
 33
0.0
  0
MTEXT
  5
FD2
100
AcDbEntity
  8
0
  6
BYBLOCK
 62
     0
100
AcDbMText
 10
490.715389
 20
312.99739
 30
0.0
 40
4.572
 41
0.0
 71
     5
 72
     1
  1
\A1;16.67mm[0.656"]
 11
0.882948
 21
-0.469472
 31
0.0
  0
POINT
  5
FD3
100
AcDbEntity
  8
DEFPOINTS
  6
BYBLOCK
 62
     0
100
AcDbPoint
 10
473.529281
 20
398.159031
 30
0.0
 50
28.0
  0
POINT
  5
FD4
100
AcDbEntity
  8
DEFPOINTS
  6
BYBLOCK
 62
     0
100
AcDbPoint
 10
432.470326
 20
285.420984
 30
0.0
 50
28.0
  0
POINT
  5
FD5
100
AcDbEntity
  8
DEFPOINTS
  6
BYBLOCK
 62
     0
100
AcDbPoint
 10
456.738683
 20
331.063125
 30
0.0
 50
28.0
  0
ENDBLK
  5
FD6
100
AcDbEntity
  8
0
100
AcDbBlockEnd
  0
BLOCK
  5
FD9
100
AcDbEntity
  8
0
100
AcDbBlockBegin
  2
*D19
 70
    65
 10
0.0
 20
0.0
 30
0.0
  3
*D19
  1

  0
LINE
  5
FDA
100
AcDbEntity
  8
0
  6
BYBLOCK
 62
     0
100
AcDbLine
 10
442.153413
 20
290.084593
 30
0.0
 11
459.457756
 21
322.629329
 31
0.0
  0
LINE
  5
FDB
100
AcDbEntity
  8
0
  6
BYBLOCK
 62
     0
100
AcDbLine
 10
432.936126
 20
331.55302
 30
0.0
 11
428.89929
 21
333.699444
 31
0.0
  0
LINE
  5
FDC
100
AcDbEntity
  8
0
  6
BYBLOCK
 62
     0
100
AcDbLine
 10
461.348169
 20
316.446069
 30
0.0
 11
465.385005
 21
314.299645
 31
0.0
  0
SOLID
  5
FDD
100
AcDbEntity
  8
0
  6
BYBLOCK
 62
     0
100
AcDbTrace
 10
433.293864
 20
332.225826
 30
0.0
 11
432.578389
 21
330.880214
 31
0.0
 12
436.972963
 22
329.406596
 32
0.0
 13
436.972963
 23
329.406596
 33
0.0
  0
SOLID
  5
FDE
100
AcDbEntity
  8
0
  6
BYBLOCK
 62
     0
100
AcDbTrace
 10
461.705906
 20
317.118875
 30
0.0
 11
460.990432
 21
315.773263
 31
0.0
 12
457.311332
 22
318.592493
 32
0.0
 13
457.311332
 23
318.592493
 33
0.0
  0
MTEXT
  5
FDF
100
AcDbEntity
  8
0
  6
BYBLOCK
 62
     0
100
AcDbMText
 10
491.288039
 20
300.526758
 30
0.0
 40
4.572
 41
0.0
 71
     5
 72
     1
  1
\A1;23.03mm[0.907"]
 11
0.882948
 21
-0.469472
 31
0.0
  0
POINT
  5
FE0
100
AcDbEntity
  8
DEFPOINTS
  6
BYBLOCK
 62
     0
100
AcDbPoint
 10
473.529281
 20
398.159031
 30
0.0
 50
28.0
  0
POINT
  5
FE1
100
AcDbEntity
  8
DEFPOINTS
  6
BYBLOCK
 62
     0
100
AcDbPoint
 10
441.408127
 20
288.682914
 30
0.0
 50
28.0
  0
POINT
  5
FE2
100
AcDbEntity
  8
DEFPOINTS
  6
BYBLOCK
 62
     0
100
AcDbPoint
 10
457.311332
 20
318.592493
 30
0.0
 50
28.0
  0
ENDBLK
  5
FE3
100
AcDbEntity
  8
0
100
AcDbBlockEnd
  0
BLOCK
  5
FE6
100
AcDbEntity
  8
0
100
AcDbBlockBegin
  2
*D20
 70
    65
 10
0.0
 20
0.0
 30
0.0
  3
*D20
  1

  0
LINE
  5
FE7
100
AcDbEntity
  8
0
  6
BYBLOCK
 62
     0
100
AcDbLine
 10
442.809806
 20
287.937627
 30
0.0
 11
452.981736
 21
282.529116
 31
0.0
  0
LINE
  5
FE8
100
AcDbEntity
  8
0
  6
BYBLOCK
 62
     0
100
AcDbLine
 10
445.247654
 20
277.722033
 30
0.0
 11
443.10123
 21
273.685197
 31
0.0
  0
LINE
  5
FE9
100
AcDbEntity
  8
0
  6
BYBLOCK
 62
     0
100
AcDbLine
 10
451.091324
 20
288.712377
 30
0.0
 11
453.237748
 21
292.749213
 31
0.0
  0
LINE
  5
FEA
100
AcDbEntity
  8
0
  6
BYBLOCK
 62
     0
100
AcDbLine
 10
453.237748
 20
292.749213
 30
0.0
 11
457.274584
 21
290.602789
 31
0.0
  0
SOLID
  5
FEB
100
AcDbEntity
  8
0
  6
BYBLOCK
 62
     0
100
AcDbTrace
 10
444.574848
 20
278.079771
 30
0.0
 11
445.92046
 21
277.364296
 31
0.0
 12
447.394078
 22
281.75887
 32
0.0
 13
447.394078
 23
281.75887
 33
0.0
  0
SOLID
  5
FEC
100
AcDbEntity
  8
0
  6
BYBLOCK
 62
     0
100
AcDbTrace
 10
450.418518
 20
289.070114
 30
0.0
 11
451.76413
 21
288.35464
 31
0.0
 12
448.9449
 22
284.67554
 32
0.0
 13
448.9449
 23
284.67554
 33
0.0
  0
MTEXT
  5
FED
100
AcDbEntity
  8
0
  6
BYBLOCK
 62
     0
100
AcDbMText
 10
480.486393
 20
278.260851
 30
0.0
 40
4.572
 41
0.0
 71
     5
 72
     1
  1
\A1;3.30mm[0.130"]
 11
0.882948
 21
-0.469472
 31
0.0
  0
POINT
  5
FEE
100
AcDbEntity
  8
DEFPOINTS
  6
BYBLOCK
 62
     0
100
AcDbPoint
 10
322.707638
 20
348.055826
 30
0.0
 50
28.0
  0
POINT
  5
FEF
100
AcDbEntity
  8
DEFPOINTS
  6
BYBLOCK
 62
     0
100
AcDbPoint
 10
441.408127
 20
288.682914
 30
0.0
 50
28.0
  0
POINT
  5
FF0
100
AcDbEntity
  8
DEFPOINTS
  6
BYBLOCK
 62
     0
100
AcDbPoint
 10
448.9449
 20
284.67554
 30
0.0
 50
28.0
  0
ENDBLK
  5
FF1
100
AcDbEntity
  8
0
100
AcDbBlockEnd
  0
BLOCK
  5
FF4
100
AcDbEntity
  8
0
100
AcDbBlockBegin
  2
*D21
 70
    65
 10
0.0
 20
0.0
 30
0.0
  3
*D21
  1

  0
LINE
  5
FF5
100
AcDbEntity
  8
0
  6
BYBLOCK
 62
     0
100
AcDbLine
 10
433.872005
 20
284.675698
 30
0.0
 11
504.468458
 21
247.138898
 31
0.0
  0
LINE
  5
FF6
100
AcDbEntity
  8
0
  6
BYBLOCK
 62
     0
100
AcDbLine
 10
498.285197
 20
245.248486
 30
0.0
 11
496.138773
 21
241.21165
 31
0.0
  0
LINE
  5
FF7
100
AcDbEntity
  8
0
  6
BYBLOCK
 62
     0
100
AcDbLine
 10
504.349278
 20
256.653363
 30
0.0
 11
506.495702
 21
260.6902
 31
0.0
  0
LINE
  5
FF8
100
AcDbEntity
  8
0
  6
BYBLOCK
 62
     0
100
AcDbLine
 10
506.495702
 20
260.6902
 30
0.0
 11
510.532538
 21
258.543776
 31
0.0
  0
SOLID
  5
FF9
100
AcDbEntity
  8
0
  6
BYBLOCK
 62
     0
100
AcDbTrace
 10
497.612391
 20
245.606223
 30
0.0
 11
498.958003
 21
244.890749
 31
0.0
 12
500.431621
 22
249.285322
 32
0.0
 13
500.431621
 23
249.285322
 33
0.0
  0
SOLID
  5
FFA
100
AcDbEntity
  8
0
  6
BYBLOCK
 62
     0
100
AcDbTrace
 10
503.676472
 20
257.011101
 30
0.0
 11
505.022084
 21
256.295626
 31
0.0
 12
502.202854
 22
252.616527
 32
0.0
 13
502.202854
 23
252.616527
 33
0.0
  0
MTEXT
  5
FFB
100
AcDbEntity
  8
0
  6
BYBLOCK
 62
     0
100
AcDbMText
 10
534.417154
 20
245.844101
 30
0.0
 40
4.572
 41
0.0
 71
     5
 72
     1
  1
\A1;3.77mm[0.149"]
 11
0.882948
 21
-0.469472
 31
0.0
  0
POINT
  5
FFC
100
AcDbEntity
  8
DEFPOINTS
  6
BYBLOCK
 62
     0
100
AcDbPoint
 10
432.470326
 20
285.420984
 30
0.0
 50
28.0
  0
POINT
  5
FFD
100
AcDbEntity
  8
DEFPOINTS
  6
BYBLOCK
 62
     0
100
AcDbPoint
 10
322.707638
 20
348.055826
 30
0.0
 50
28.0
  0
POINT
  5
FFE
100
AcDbEntity
  8
DEFPOINTS
  6
BYBLOCK
 62
     0
100
AcDbPoint
 10
502.202854
 20
252.616527
 30
0.0
 50
28.0
  0
ENDBLK
  5
FFF
100
AcDbEntity
  8
0
100
AcDbBlockEnd
  0
BLOCK
  5
1002
100
AcDbEntity
  8
0
100
AcDbBlockBegin
  2
*D22
 70
    65
 10
0.0
 20
0.0
 30
0.0
  3
*D22
  1

  0
LINE
  5
1003
100
AcDbEntity
  8
0
  6
BYBLOCK
 62
     0
100
AcDbLine
 10
424.493184
 20
287.397365
 30
0.0
 11
559.720283
 21
215.495841
 31
0.0
  0
LINE
  5
1004
100
AcDbEntity
  8
0
  6
BYBLOCK
 62
     0
100
AcDbLine
 10
553.537023
 20
213.605429
 30
0.0
 11
551.390599
 21
209.568593
 31
0.0
  0
LINE
  5
1005
100
AcDbEntity
  8
0
  6
BYBLOCK
 62
     0
100
AcDbLine
 10
560.540047
 20
226.776202
 30
0.0
 11
562.686471
 21
230.813038
 31
0.0
  0
LINE
  5
1006
100
AcDbEntity
  8
0
  6
BYBLOCK
 62
     0
100
AcDbLine
 10
562.686471
 20
230.813038
 30
0.0
 11
566.723307
 21
228.666614
 31
0.0
  0
SOLID
  5
1007
100
AcDbEntity
  8
0
  6
BYBLOCK
 62
     0
100
AcDbTrace
 10
552.864217
 20
213.963166
 30
0.0
 11
554.209829
 21
213.247692
 31
0.0
 12
555.683447
 22
217.642265
 32
0.0
 13
555.683447
 23
217.642265
 33
0.0
  0
SOLID
  5
1008
100
AcDbEntity
  8
0
  6
BYBLOCK
 62
     0
100
AcDbTrace
 10
559.867241
 20
227.133939
 30
0.0
 11
561.212853
 21
226.418464
 31
0.0
 12
558.393623
 22
222.739365
 32
0.0
 13
558.393623
 23
222.739365
 33
0.0
  0
MTEXT
  5
1009
100
AcDbEntity
  8
0
  6
BYBLOCK
 62
     0
100
AcDbMText
 10
591.280729
 20
215.609201
 30
0.0
 40
4.572
 41
0.0
 71
     5
 72
     1
  1
\A1;5.77mm[0.227"]
 11
0.882948
 21
-0.469472
 31
0.0
  0
POINT
  5
100A
100
AcDbEntity
  8
DEFPOINTS
  6
BYBLOCK
 62
     0
100
AcDbPoint
 10
423.091505
 20
288.142651
 30
0.0
 50
28.0
  0
POINT
  5
100B
100
AcDbEntity
  8
DEFPOINTS
  6
BYBLOCK
 62
     0
100
AcDbPoint
 10
322.707638
 20
348.055826
 30
0.0
 50
28.0
  0
POINT
  5
100C
100
AcDbEntity
  8
DEFPOINTS
  6
BYBLOCK
 62
     0
100
AcDbPoint
 10
558.393623
 20
222.739365
 30
0.0
 50
28.0
  0
ENDBLK
  5
100D
100
AcDbEntity
  8
0
100
AcDbBlockEnd
  0
BLOCK
  5
106E
100
AcDbEntity
  8
0
100
AcDbBlockBegin
  2
*D23
 70
    65
 10
0.0
 20
0.0
 30
0.0
  3
*D23
  1

  0
LINE
  5
106F
100
AcDbEntity
  8
0
  6
BYBLOCK
 62
     0
100
AcDbLine
 10
489.633818
 20
288.119418
 30
0.0
 11
686.479618
 21
183.45465
 31
0.0
  0
LINE
  5
1070
100
AcDbEntity
  8
0
  6
BYBLOCK
 62
     0
100
AcDbLine
 10
680.296358
 20
181.564237
 30
0.0
 11
678.149934
 21
177.527401
 31
0.0
  0
LINE
  5
1071
100
AcDbEntity
  8
0
  6
BYBLOCK
 62
     0
100
AcDbLine
 10
687.733079
 20
195.550677
 30
0.0
 11
689.879503
 21
199.587513
 31
0.0
  0
LINE
  5
1072
100
AcDbEntity
  8
0
  6
BYBLOCK
 62
     0
100
AcDbLine
 10
689.879503
 20
199.587513
 30
0.0
 11
693.91634
 21
197.441089
 31
0.0
  0
SOLID
  5
1073
100
AcDbEntity
  8
0
  6
BYBLOCK
 62
     0
100
AcDbTrace
 10
679.623551
 20
181.921975
 30
0.0
 11
680.969164
 21
181.2065
 31
0.0
 12
682.442782
 22
185.601074
 32
0.0
 13
682.442782
 23
185.601074
 33
0.0
  0
SOLID
  5
1074
100
AcDbEntity
  8
0
  6
BYBLOCK
 62
     0
100
AcDbTrace
 10
687.060273
 20
195.908414
 30
0.0
 11
688.405885
 21
195.192939
 31
0.0
 12
685.586655
 22
191.51384
 32
0.0
 13
685.586655
 23
191.51384
 33
0.0
  0
MTEXT
  5
1075
100
AcDbEntity
  8
0
  6
BYBLOCK
 62
     0
100
AcDbMText
 10
745.520565
 20
170.002636
 30
0.0
 40
4.572
 41
0.0
 71
     5
 72
     1
  1
\A1;6.70mm\S 0.00mm^ -0.05mm;{\o\l\H10.972800;[}0.264"\S 0.000"^ -0.002";{\o\l\H10.972800;]}
 11
0.882948
 21
-0.469472
 31
0.0
  0
POINT
  5
1076
100
AcDbEntity
  8
DEFPOINTS
  6
BYBLOCK
 62
     0
100
AcDbPoint
 10
488.232139
 20
288.864704
 30
0.0
 50
28.0
  0
POINT
  5
1077
100
AcDbEntity
  8
DEFPOINTS
  6
BYBLOCK
 62
     0
100
AcDbPoint
 10
802.03561
 20
129.596833
 30
0.0
 50
28.0
  0
POINT
  5
1078
100
AcDbEntity
  8
DEFPOINTS
  6
BYBLOCK
 62
     0
100
AcDbPoint
 10
685.586655
 20
191.51384
 30
0.0
 50
28.0
  0
ENDBLK
  5
1079
100
AcDbEntity
  8
0
100
AcDbBlockEnd
  0
BLOCK
  5
101E
100
AcDbEntity
  8
0
100
AcDbBlockBegin
  2
*D24
 70
    65
 10
0.0
 20
0.0
 30
0.0
  3
*D24
  1

  0
ARC
  5
101F
100
AcDbEntity
  8
0
  6
BYBLOCK
 62
     0
100
AcDbCircle
 10
419.518936
 20
296.580346
 30
0.0
 40
88.178966
100
AcDbArc
 50
244.971067
 51
247.654786
  0
ARC
  5
1020
100
AcDbEntity
  8
0
  6
BYBLOCK
 62
     0
100
AcDbCircle
 10
419.518936
 20
296.580346
 30
0.0
 40
88.178966
100
AcDbArc
 50
264.050168
 51
267.028933
  0
SOLID
  5
1021
100
AcDbEntity
  8
0
  6
BYBLOCK
 62
     0
100
AcDbTrace
 10
381.872369
 20
216.000037
 30
0.0
 11
382.552719
 21
217.363745
 31
0.0
 12
378.121419
 22
218.722941
 32
0.0
 13
378.121419
 23
218.722941
 33
0.0
  0
SOLID
  5
1022
100
AcDbEntity
  8
0
  6
BYBLOCK
 62
     0
100
AcDbTrace
 10
414.968227
 20
209.281651
 30
0.0
 11
414.928718
 21
207.758164
 31
0.0
 12
419.518936
 22
208.40138
 32
0.0
 13
419.518936
 23
208.40138
 33
0.0
  0
MTEXT
  5
1023
100
AcDbEntity
  8
0
  6
BYBLOCK
 62
     0
100
AcDbMText
 10
398.186513
 20
211.020673
 30
0.0
 40
4.572
 41
0.0
 71
     5
 72
     1
  1
\A1;28.00°
  0
POINT
  5
1024
100
AcDbEntity
  8
DEFPOINTS
  6
BYBLOCK
 62
     0
100
AcDbPoint
 10
391.296211
 20
213.03989
 30
0.0
  0
POINT
  5
1025
100
AcDbEntity
  8
DEFPOINTS
  6
BYBLOCK
 62
     0
100
AcDbPoint
 10
473.529281
 20
398.159031
 30
0.0
  0
POINT
  5
1026
100
AcDbEntity
  8
DEFPOINTS
  6
BYBLOCK
 62
     0
100
AcDbPoint
 10
419.518936
 20
194.792463
 30
0.0
  0
POINT
  5
1027
100
AcDbEntity
  8
DEFPOINTS
  6
BYBLOCK
 62
     0
100
AcDbPoint
 10
419.518936
 20
482.331473
 30
0.0
  0
POINT
  5
1028
100
AcDbEntity
  8
DEFPOINTS
  6
BYBLOCK
 62
     0
100
AcDbPoint
 10
371.368553
 20
206.022646
 30
0.0
  0
ENDBLK
  5
1029
100
AcDbEntity
  8
0
100
AcDbBlockEnd
  0
BLOCK
  5
103C
100
AcDbEntity
  8
ASHADE
100
AcDbBlockBegin
  2
AVE_RENDER
 70
    64
 10
0.0
 20
0.0
 30
0.0
  3
AVE_RENDER
  1
AVE_RENDER
  0
ENDBLK
  5
103D
100
AcDbEntity
  8
0
100
AcDbBlockEnd
  0
BLOCK
  5
104A
100
AcDbEntity
  8
ASHADE
100
AcDbBlockBegin
  2
AVE_GLOBAL
 70
    64
 10
0.0
 20
0.0
 30
0.0
  3
AVE_GLOBAL
  1
AVE_GLOBAL
  0
ENDBLK
  5
104B
100
AcDbEntity
  8
0
100
AcDbBlockEnd
  0
BLOCK
  5
10B0
100
AcDbEntity
  8
0
100
AcDbBlockBegin
  2
*D27
 70
    65
 10
0.0
 20
0.0
 30
0.0
  3
*D27
  1

  0
LINE
  5
10B1
100
AcDbEntity
  8
0
  6
BYBLOCK
 62
     0
100
AcDbLine
 10
311.529717
 20
326.667435
 30
0.0
 11
311.529717
 21
458.821489
 31
0.0
  0
LINE
  5
10B2
100
AcDbEntity
  8
0
  6
BYBLOCK
 62
     0
100
AcDbLine
 10
316.101717
 20
454.249489
 30
0.0
 11
342.226507
 21
454.249489
 31
0.0
  0
LINE
  5
10B3
100
AcDbEntity
  8
0
  6
BYBLOCK
 62
     0
100
AcDbLine
 10
483.413297
 20
454.249489
 30
0.0
 11
457.288507
 21
454.249489
 31
0.0
  0
SOLID
  5
10B4
100
AcDbEntity
  8
0
  6
BYBLOCK
 62
     0
100
AcDbTrace
 10
316.101717
 20
455.011489
 30
0.0
 11
316.101717
 21
453.487489
 31
0.0
 12
311.529717
 22
454.249489
 32
0.0
 13
311.529717
 23
454.249489
 33
0.0
  0
SOLID
  5
10B5
100
AcDbEntity
  8
0
  6
BYBLOCK
 62
     0
100
AcDbTrace
 10
483.413297
 20
455.011489
 30
0.0
 11
483.413297
 21
453.487489
 31
0.0
 12
487.985297
 22
454.249489
 32
0.0
 13
487.985297
 23
454.249489
 33
0.0
  0
MTEXT
  5
10B6
100
AcDbEntity
  8
0
  6
BYBLOCK
 62
     0
100
AcDbMText
 10
399.757507
 20
454.249489
 30
0.0
 40
4.572
 41
0.0
 71
     5
 72
     1
  1
\A1;176.46mm±0.03mm[6.947"±0.001"]
  0
POINT
  5
10B7
100
AcDbEntity
  8
DEFPOINTS
  6
BYBLOCK
 62
     0
100
AcDbPoint
 10
311.529717
 20
325.079935
 30
0.0
  0
POINT
  5
10B8
100
AcDbEntity
  8
DEFPOINTS
  6
BYBLOCK
 62
     0
100
AcDbPoint
 10
487.985297
 20
482.331473
 30
0.0
  0
POINT
  5
10B9
100
AcDbEntity
  8
DEFPOINTS
  6
BYBLOCK
 62
     0
100
AcDbPoint
 10
487.985297
 20
454.249489
 30
0.0
  0
ENDBLK
  5
10BA
100
AcDbEntity
  8
0
100
AcDbBlockEnd
  0
BLOCK
  5
10BB
100
AcDbEntity
  8
0
100
AcDbBlockBegin
  2
*D28
 70
    65
 10
0.0
 20
0.0
 30
0.0
  3
*D28
  1

  0
LINE
  5
10BC
100
AcDbEntity
  8
0
  6
BYBLOCK
 62
     0
100
AcDbLine
 10
307.969008
 20
323.124901
 30
0.0
 11
140.95695
 21
323.124901
 31
0.0
  0
LINE
  5
10BD
100
AcDbEntity
  8
0
  6
BYBLOCK
 62
     0
100
AcDbLine
 10
145.52895
 20
318.552901
 30
0.0
 11
145.52895
 21
314.424623
 31
0.0
  0
LINE
  5
10BE
100
AcDbEntity
  8
0
  6
BYBLOCK
 62
     0
100
AcDbLine
 10
145.52895
 20
301.152346
 30
0.0
 11
145.52895
 21
305.280623
 31
0.0
  0
SOLID
  5
10BF
100
AcDbEntity
  8
0
  6
BYBLOCK
 62
     0
100
AcDbTrace
 10
144.76695
 20
318.552901
 30
0.0
 11
146.29095
 21
318.552901
 31
0.0
 12
145.52895
 22
323.124901
 32
0.0
 13
145.52895
 23
323.124901
 33
0.0
  0
SOLID
  5
10C0
100
AcDbEntity
  8
0
  6
BYBLOCK
 62
     0
100
AcDbTrace
 10
144.76695
 20
301.152346
 30
0.0
 11
146.29095
 21
301.152346
 31
0.0
 12
145.52895
 22
296.580346
 32
0.0
 13
145.52895
 23
296.580346
 33
0.0
  0
MTEXT
  5
10C1
100
AcDbEntity
  8
0
  6
BYBLOCK
 62
     0
100
AcDbMText
 10
145.52895
 20
309.852623
 30
0.0
 40
4.572
 41
0.0
 71
     5
 72
     1
  1
\A1;26.54mm±0.03mm[1.045"±0.001"]
  0
POINT
  5
10C2
100
AcDbEntity
  8
DEFPOINTS
  6
BYBLOCK
 62
     0
100
AcDbPoint
 10
309.556508
 20
323.124901
 30
0.0
  0
POINT
  5
10C3
100
AcDbEntity
  8
DEFPOINTS
  6
BYBLOCK
 62
     0
100
AcDbPoint
 10
35.550639
 20
296.580346
 30
0.0
  0
POINT
  5
10C4
100
AcDbEntity
  8
DEFPOINTS
  6
BYBLOCK
 62
     0
100
AcDbPoint
 10
145.52895
 20
296.580346
 30
0.0
  0
ENDBLK
  5
10C5
100
AcDbEntity
  8
0
100
AcDbBlockEnd
  0
ENDSEC
  0
SECTION
  2
ENTITIES
  0
TEXT
  5
435
100
AcDbEntity
  8
TEXT
100
AcDbText
 10
715.423802
 20
38.427413
 30
0.0
 40
3.0
  1
LAYER 4B FORWARD SUPPORT RIB
100
AcDbText
  0
TEXT
  5
436
100
AcDbEntity
  8
TEXT
100
AcDbText
 10
716.579686
 20
24.25368
 30
0.0
 40
3.0
  1
B-FAC
100
AcDbText
  0
TEXT
  5
437
100
AcDbEntity
  8
TEXT
100
AcDbText
 10
764.300851
 20
24.468434
 30
0.0
 40
3.0
  1
L4-RIB03
100
AcDbText
  0
TEXT
  5
438
100
AcDbEntity
  8
TEXT
100
AcDbText
 10
718.111345
 20
17.166814
 30
0.0
 40
3.0
  1
1=1
100
AcDbText
  0
TEXT
  5
439
100
AcDbEntity
  8
TEXT
100
AcDbText
 10
671.492171
 20
34.347095
 30
0.0
 40
3.0
  1
S. KYRE
100
AcDbText
  0
TEXT
  5
43A
100
AcDbEntity
  8
TEXT
100
AcDbText
 10
693.190496
 20
33.488082
 30
0.0
 40
1.5
  1
11-09-95
100
AcDbText
  0
LINE
  5
48E
100
AcDbEntity
  8
CENTER
100
AcDbLine
 10
373.217527
 20
316.624977
 30
0.0
 11
369.149405
 21
316.624977
 31
0.0
  0
LINE
  5
48F
100
AcDbEntity
  8
CENTER
100
AcDbLine
 10
363.331814
 20
316.624977
 30
0.0
 11
367.399936
 21
316.624977
 31
0.0
  0
LINE
  5
490
100
AcDbEntity
  8
CENTER
100
AcDbLine
 10
366.27467
 20
315.66221
 30
0.0
 11
366.27467
 21
319.787726
 31
0.0
  0
LINE
  5
491
100
AcDbEntity
  8
CENTER
100
AcDbLine
 10
370.27467
 20
315.66221
 30
0.0
 11
370.27467
 21
319.787726
 31
0.0
  0
LINE
  5
493
100
AcDbEntity
  8
CENTER
100
AcDbLine
 10
430.91936
 20
316.624977
 30
0.0
 11
434.987482
 21
316.624977
 31
0.0
  0
LINE
  5
494
100
AcDbEntity
  8
CENTER
100
AcDbLine
 10
433.862217
 20
315.66221
 30
0.0
 11
433.862217
 21
319.787726
 31
0.0
  0
LINE
  5
496
100
AcDbEntity
  8
CENTER
100
AcDbLine
 10
437.431254
 20
314.671456
 30
0.0
 11
439.377196
 21
318.33124
 31
0.0
  0
LINE
  5
497
100
AcDbEntity
  8
CENTER
100
AcDbLine
 10
440.581351
 20
314.201077
 30
0.0
 11
437.107832
 21
316.04798
 31
0.0
  0
LINE
  5
498
100
AcDbEntity
  8
CENTER
100
AcDbLine
 10
489.856195
 20
287.659001
 30
0.0
 11
492.015887
 21
291.720791
 31
0.0
  0
LINE
  5
499
100
AcDbEntity
  8
CENTER
100
AcDbLine
 10
491.557867
 20
288.142651
 30
0.0
 11
487.538428
 21
290.279825
 31
0.0
  0
LINE
  5
67A
100
AcDbEntity
  8
BEAMS-B
100
AcDbLine
 10
431.862217
 20
316.62493
 30
0.0
 11
372.27467
 21
316.62493
 31
0.0
  0
LINE
  5
67F
100
AcDbEntity
  8
BEAMS-B
100
AcDbLine
 10
364.27467
 20
316.62493
 30
0.0
 11
301.529717
 21
316.62493
 31
0.0
  0
LINE
  5
683
100
AcDbEntity
  8
BEAMS-B
100
AcDbLine
 10
366.27467
 20
318.624977
 30
0.0
 11
370.27467
 21
318.624977
 31
0.0
  0
ARC
  5
684
100
AcDbEntity
  8
BEAMS-B
100
AcDbCircle
 10
366.27467
 20
316.624977
 30
0.0
 40
2.0
100
AcDbArc
 50
90.0
 51
180.00135
  0
ARC
  5
685
100
AcDbEntity
  8
BEAMS-B
100
AcDbCircle
 10
370.27467
 20
316.624977
 30
0.0
 40
2.0
100
AcDbArc
 50
359.99865
 51
90.0
  0
LINE
  5
686
100
AcDbEntity
  8
BEAMS-B
100
AcDbLine
 10
433.862217
 20
318.624977
 30
0.0
 11
436.521315
 21
318.624977
 31
0.0
  0
ARC
  5
687
100
AcDbEntity
  8
BEAMS-B
100
AcDbCircle
 10
433.862217
 20
316.624977
 30
0.0
 40
2.0
100
AcDbArc
 50
90.0
 51
180.00135
  0
LINE
  5
688
100
AcDbEntity
  8
BEAMS-B
100
AcDbLine
 10
438.869509
 20
317.37642
 30
0.0
 11
436.521315
 21
318.624977
 31
0.0
  0
ARC
  5
689
100
AcDbEntity
  8
BEAMS-B
100
AcDbCircle
 10
437.930566
 20
315.610525
 30
0.0
 40
2.0
100
AcDbArc
 50
332.0
 51
62.0
  0
LINE
  5
68A
100
AcDbEntity
  8
BEAMS-B
100
AcDbLine
 10
509.874488
 20
288.682914
 30
0.0
 11
500.936687
 21
285.420984
 31
0.0
  0
LINE
  5
68B
100
AcDbEntity
  8
BEAMS-B
100
AcDbLine
 10
438.515989
 20
326.624901
 30
0.0
 11
509.874488
 21
288.682914
 31
0.0
  0
LINE
  5
68C
100
AcDbEntity
  8
BEAMS-B
100
AcDbLine
 10
488.232139
 20
288.864704
 30
0.0
 11
439.696461
 21
314.671582
 31
0.0
  0
ARC
  5
68D
100
AcDbEntity
  8
BEAMS-B
100
AcDbCircle
 10
490.431732
 20
288.741428
 30
0.0
 40
2.0
100
AcDbArc
 50
62.0
 51
152.0
  0
LINE
  5
68E
100
AcDbEntity
  8
BEAMS-B
100
AcDbLine
 10
488.232139
 20
288.864704
 30
0.0
 11
488.665836
 21
289.680371
 31
0.0
  0
LINE
  5
68F
100
AcDbEntity
  8
BEAMS-B
100
AcDbLine
 10
491.370675
 20
290.507323
 30
0.0
 11
500.936687
 21
285.420984
 31
0.0
  0
LINE
  5
691
100
AcDbEntity
  8
BEAMS-B
100
AcDbLine
 10
301.529717
 20
326.624901
 30
0.0
 11
301.529717
 21
316.62493
 31
0.0
  0
LINE
  5
692
100
AcDbEntity
  8
BEAMS-B
100
AcDbLine
 10
301.529717
 20
326.624901
 30
0.0
 11
438.515989
 21
326.624901
 31
0.0
  0
DIMENSION
  5
73F
100
AcDbEntity
  8
DIM
100
AcDbDimension
  2
*D0
 10
366.27467
 20
316.624977
 30
0.0
 11
249.622805
 21
376.7162
 31
0.0
 12
193.067952
 22
67.383515
 32
0.0
 70
   164
  3
STANDARD$4
100
AcDbRadialDimension
 15
364.669565
 25
317.81814
 35
0.0
 40
0.0
1001
ACAD
1000
DSTYLE
1002
{
1070
   288
1070
     1
1070
    40
1040
25.4
1070
     3
1000
mm
1070
   271
1070
     2
1070
     4
1000
"
1070
   143
1040
0.03937
1070
   171
1070
     3
1070
   170
1070
     1
1002
}
  0
TEXT
  5
74F
100
AcDbEntity
  8
DIM
100
AcDbText
 10
220.335759
 20
366.537041
 30
0.0
 40
4.572
  1
5X
100
AcDbText
  0
LINE
  5
989
100
AcDbEntity
  8
TEXT
100
AcDbLine
 10
685.369457
 20
504.822347
 30
0.0
 11
685.369457
 21
479.25971
 31
0.0
  0
LINE
  5
98A
100
AcDbEntity
  8
TEXT
100
AcDbLine
 10
695.281868
 20
504.822347
 30
0.0
 11
695.281868
 21
479.25971
 31
0.0
  0
LINE
  5
98B
100
AcDbEntity
  8
TEXT
100
AcDbLine
 10
764.877868
 20
504.822347
 30
0.0
 11
764.877868
 21
479.25971
 31
0.0
  0
LINE
  5
98C
100
AcDbEntity
  8
TEXT
100
AcDbLine
 10
787.229868
 20
504.822347
 30
0.0
 11
787.229868
 21
479.25971
 31
0.0
  0
TEXT
  5
98D
100
AcDbEntity
  8
TEXT
100
AcDbText
 10
688.048837
 20
499.694942
 30
0.0
 40
2.0
  1
01
100
AcDbText
  0
TEXT
  5
98E
100
AcDbEntity
  8
TEXT
100
AcDbText
 10
699.048837
 20
499.694942
 30
0.0
 40
2.0
  1
ADD ALIGNMENT HOLE
100
AcDbText
  0
TEXT
  5
98F
100
AcDbEntity
  8
TEXT
100
AcDbText
 10
768.048837
 20
499.694942
 30
0.0
 40
2.0
  1
03-27-96
100
AcDbText
  0
INSERT
  5
A02
100
AcDbEntity
  8
TEXT
100
AcDbBlockReference
  2
D-BORDER
 10
0.0
 20
0.0
 30
0.0
 41
25.4
 42
25.4
 43
25.4
  0
LINE
  5
A04
100
AcDbEntity
  8
CENTER
100
AcDbLine
 10
487.985297
 20
194.792463
 30
0.0
 11
487.985297
 21
482.331473
 31
0.0
  0
LINE
  5
A05
100
AcDbEntity
  8
CENTER
100
AcDbLine
 10
524.442087
 20
296.580346
 30
0.0
 11
35.550639
 21
296.580346
 31
0.0
  0
LINE
  5
A06
100
AcDbEntity
  8
CENTER
100
AcDbLine
 10
802.03561
 20
129.596833
 30
0.0
 11
391.174
 21
348.055826
 31
0.0
  0
LINE
  5
A07
100
AcDbEntity
  8
CENTER
100
AcDbLine
 10
541.995642
 20
398.159031
 30
0.0
 11
439.834914
 21
206.022646
 31
0.0
  0
ACAD_ZOMBIE_ENTITY
  5
C2C
100
AcDbEntity
  8
DIM
100
AcDbZombieEntity
 90
      498
 91
      515
 92
        8
310
0800000000000000
 93
       97
310
D28000000020290400007802C3
330
C2D
330
C2E
330
C2F
330
C30
330
C2D
 94
        0
  0
CIRCLE
  5
C6D
100
AcDbEntity
  8
BEAMS-B
100
AcDbCircle
 10
487.985297
 20
296.580346
 30
0.0
 40
1.19125
  0
DIMENSION
  5
D9B
100
AcDbEntity
  8
DIM
100
AcDbDimension
  2
*D3
 10
489.083205
 20
297.042596
 30
0.0
 11
375.578864
 21
273.476244
 31
0.0
 70
   163
  1
{<>}\P{2X}
  3
STANDARD$3
100
AcDbDiametricDimension
 15
486.88739
 25
296.118096
 35
0.0
 40
0.0
1001
ACAD
1000
DSTYLE
1002
{
1070
   288
1070
     1
1070
    47
1040
0.03
1070
    71
1070
     1
1070
    48
1040
0.03
1070
   272
1070
     2
1070
    76
1070
     1
1070
    40
1040
25.4
1070
     3
1000
mm
1070
   271
1070
     2
1070
     4
1000
"
1070
   274
1070
     3
1070
   143
1040
0.03937
1070
   171
1070
     3
1070
   170
1070
     1
1002
}
  0
TEXT
  5
DC0
100
AcDbEntity
  8
TEXT
100
AcDbText
 10
688.09825
 20
494.650041
 30
0.0
 40
2.0
  1
02
100
AcDbText
  0
TEXT
  5
DC1
100
AcDbEntity
  8
TEXT
100
AcDbText
 10
697.09825
 20
494.650041
 30
0.0
 40
2.0
  1
CHANGE LOCATION OF LOCATING HOLES
100
AcDbText
  0
TEXT
  5
DC2
100
AcDbEntity
  8
TEXT
100
AcDbText
 10
768.32028
 20
494.650041
 30
0.0
 40
2.0
  1
01-08-97
100
AcDbText
  0
TEXT
  5
DC3
100
AcDbEntity
  8
TEXT
100
AcDbText
 10
697.09825
 20
491.347809
 30
0.0
 40
2.0
  1
CHANGE MATERIAL TO CARBON-FIBER -
100
AcDbText
  0
TEXT
  5
DC4
100
AcDbEntity
  8
TEXT
100
AcDbText
 10
697.09825
 20
488.299593
 30
0.0
 40
2.0
  1
KEVLAR COMPOSITE
100
AcDbText
  0
TEXT
  5
DC5
100
AcDbEntity
  8
TEXT
100
AcDbText
 10
805.09474
 20
24.413928
 30
0.0
 40
3.0
  1
03
100
AcDbText
  0
MTEXT
  5
DC6
100
AcDbEntity
  8
TEXT
100
AcDbMText
 10
61.441831
 20
233.372614
 30
0.0
 40
5.0
 41
226.7496
 71
     1
 72
     1
  3
{MATERIAL: }\P{0.51mm [0.020"] thick Kevlar-Carbon-fiber-Epoxy-composite}\P\P{LAMINATE SCHEDULE:}\P\P{Core:}\P{cloth:  2 layers Kevlar 29 (0.004" thick ea.)}\P{ 1.7 oz/sq. yd. plain weave}\P{epoxy: heat resistant laminating epoxy}\P{ Ciba-Geigy RP400
  3
5R/RP1500H}\P{cure: 24 hrs at room temp. @ 20psi}\P{ 2 hrs postcure at 66°C}\P\P{Skins:}\P{cloth: 1 layer Carbon fiber (0.006" thick)}\P{ xx oz/sq. yd. plain weave}\P{epoxy: heat resistant laminating epoxy}\P{ Ciba-Geigy RP4005R/RP1500H}\P{cure: 24 h
  1
rs at room temp. @ 20psi}\P{ 2 hrs postcure at 66°C}\P\P{LASER CUTTING:}\P{use fixture L4-RIB13}\P
  0
TEXT
  5
E51
100
AcDbEntity
  8
TEXT
100
AcDbText
 10
614.726563
 20
271.780632
 30
0.0
 40
8.0
  1
SCALE: 10=1
100
AcDbText
  0
TEXT
  5
E52
100
AcDbEntity
  8
TEXT
100
AcDbText
 10
614.726563
 20
285.113965
 30
0.0
 40
8.0
  1
ENDVIEW
100
AcDbText
  0
DIMENSION
  5
E53
100
AcDbEntity
  8
DIM
100
AcDbDimension
  2
*D4
 10
638.347786
 20
305.505946
 30
0.0
 11
638.347786
 21
320.505946
 31
0.0
 70
    32
  3
STANDARD
100
AcDbAlignedDimension
 13
668.740859
 23
335.505946
 33
0.0
 14
670.264859
 24
305.505946
 34
0.0
 50
90.0
100
AcDbRotatedDimension
1001
ACAD
1000
DSTYLE
1002
{
1070
    47
1040
0.03
1070
    48
1040
0.03
1070
   272
1070
     2
1070
    40
1040
25.4
1070
     3
1000
mm
1070
   144
1040
0.1
1070
   271
1070
     2
1070
     4
1000
"
1070
   274
1070
     3
1070
   143
1040
0.03937
1070
   171
1070
     3
1070
   170
1070
     1
1002
}
  0
DIMENSION
  5
E54
100
AcDbEntity
  8
DIM
100
AcDbDimension
  2
*D5
 10
668.740859
 20
439.91395
 30
0.0
 11
608.161859
 21
439.91395
 31
0.0
 70
    32
  3
STANDARD
100
AcDbAlignedDimension
 13
670.264859
 23
405.505946
 33
0.0
 14
668.740859
 24
405.505946
 34
0.0
100
AcDbRotatedDimension
1001
ACAD
1000
DSTYLE
1002
{
1070
    47
1040
0.03
1070
    71
1070
     1
1070
    48
1040
0.03
1070
   272
1070
     2
1070
    40
1040
25.4
1070
     3
1000
mm
1070
   144
1040
0.1
1070
   271
1070
     2
1070
     4
1000
"
1070
   274
1070
     3
1070
   143
1040
0.03937
1070
   171
1070
     3
1070
   170
1070
     1
1002
}
  0
DIMENSION
  5
E55
100
AcDbEntity
  8
DIM
100
AcDbDimension
  2
*D6
 10
673.820859
 20
427.212476
 30
0.0
 11
734.399859
 21
427.212476
 31
0.0
 70
    32
  3
STANDARD
100
AcDbAlignedDimension
 13
672.296859
 23
405.505946
 33
0.0
 14
673.820859
 24
405.505946
 34
0.0
100
AcDbRotatedDimension
1001
ACAD
1000
DSTYLE
1002
{
1070
    47
1040
0.03
1070
    71
1070
     1
1070
    48
1040
0.03
1070
   272
1070
     2
1070
    40
1040
25.4
1070
     3
1000
mm
1070
   144
1040
0.1
1070
   271
1070
     2
1070
     4
1000
"
1070
   274
1070
     3
1070
   143
1040
0.03937
1070
   171
1070
     3
1070
   170
1070
     1
1002
}
  0
DIMENSION
  5
E56
100
AcDbEntity
  8
DIM
100
AcDbDimension
  2
*D7
 10
673.820859
 20
414.895897
 30
0.0
 11
734.399859
 21
414.895897
 31
0.0
 70
    32
  3
STANDARD
100
AcDbAlignedDimension
 13
668.740859
 23
405.505946
 33
0.0
 14
673.820859
 24
405.505946
 34
0.0
100
AcDbRotatedDimension
1001
ACAD
1000
DSTYLE
1002
{
1070
    47
1040
0.03
1070
    71
1070
     1
1070
    48
1040
0.03
1070
   272
1070
     2
1070
    40
1040
25.4
1070
     3
1000
mm
1070
   144
1040
0.1
1070
   271
1070
     2
1070
     4
1000
"
1070
   274
1070
     3
1070
   143
1040
0.03937
1070
   171
1070
     3
1070
   170
1070
     1
1002
}
  0
MTEXT
  5
E57
100
AcDbEntity
  8
KEVLAR
100
AcDbMText
 10
697.459067
 20
345.630355
 30
0.0
 40
4.572
 41
0.0
 71
     4
 72
     1
  1
{KEVLAR}
  0
LEADER
  5
E58
100
AcDbEntity
  8
KEVLAR
100
AcDbLeader
  3
STANDARD
 73
     0
 74
     0
 75
     1
 40
4.572
 41
27.432
 76
     3
 10
670.997833
 20
315.547955
 30
0.0
 10
690.601067
 20
345.630355
 30
0.0
 10
695.173067
 20
345.630355
 30
0.0
 77
   256
1001
ACAD
1000
DSTYLE
1002
{
1070
   288
1070
     1
1070
    47
1040
0.03
1070
    71
1070
     1
1070
    48
1040
0.03
1070
   272
1070
     2
1070
    76
1070
     1
1070
    40
1040
25.4
1070
     3
1000
mm
1070
   271
1070
     2
1070
     4
1000
"
1070
   274
1070
     3
1070
   143
1040
0.03937
1070
   171
1070
     3
1070
   170
1070
     1
1002
}
  0
LEADER
  5
E59
100
AcDbEntity
  8
C-FIBER
100
AcDbLeader
  3
STANDARD
 76
     2
 10
669.414994
 20
361.137002
 30
0.0
 10
695.744889
 20
385.068395
 30
0.0
 77
   256
1001
ACAD
1000
DSTYLE
1002
{
1070
   288
1070
     1
1070
    47
1040
0.03
1070
    71
1070
     1
1070
    48
1040
0.03
1070
   272
1070
     2
1070
    76
1070
     1
1070
    40
1040
25.4
1070
     3
1000
mm
1070
   271
1070
     2
1070
     4
1000
"
1070
   274
1070
     3
1070
   143
1040
0.03937
1070
   171
1070
     3
1070
   170
1070
     1
1002
}
  0
MTEXT
  5
E5A
100
AcDbEntity
  8
C-FIBER
100
AcDbMText
 10
702.602889
 20
385.068395
 30
0.0
 40
4.572
 41
0.0
 71
     4
 72
     1
  1
{CARBON FIBER}
  0
LEADER
  5
E5B
100
AcDbEntity
  8
C-FIBER
100
AcDbLeader
  3
STANDARD
 73
     0
 74
     0
 75
     1
 40
4.572
 41
51.816
 76
     3
 10
673.478456
 20
352.773807
 30
0.0
 10
695.744889
 20
385.068395
 30
0.0
 10
700.316889
 20
385.068395
 30
0.0
 77
   256
1001
ACAD
1000
DSTYLE
1002
{
1070
   288
1070
     1
1070
    47
1040
0.03
1070
    71
1070
     1
1070
    48
1040
0.03
1070
   272
1070
     2
1070
    76
1070
     1
1070
    40
1040
25.4
1070
     3
1000
mm
1070
   271
1070
     2
1070
     4
1000
"
1070
   274
1070
     3
1070
   143
1040
0.03937
1070
   171
1070
     3
1070
   170
1070
     1
1002
}
  0
POLYLINE
  5
E5C
100
AcDbEntity
  8
C-FIBER
100
AcDb2dPolyline
 66
     1
 10
0.0
 20
0.0
 30
0.0
 70
     1
  0
VERTEX
  5
E5D
100
AcDbEntity
  8
C-FIBER
100
AcDbVertex
100
AcDb2dVertex
 10
670.264859
 20
405.505946
 30
0.0
  0
VERTEX
  5
E5E
100
AcDbEntity
  8
C-FIBER
100
AcDbVertex
100
AcDb2dVertex
 10
670.264859
 20
335.505946
 30
0.0
  0
VERTEX
  5
E5F
100
AcDbEntity
  8
C-FIBER
100
AcDbVertex
100
AcDb2dVertex
 10
668.740859
 20
335.505946
 30
0.0
  0
VERTEX
  5
E60
100
AcDbEntity
  8
C-FIBER
100
AcDbVertex
100
AcDb2dVertex
 10
668.740859
 20
405.505946
 30
0.0
  0
SEQEND
  5
E61
100
AcDbEntity
  8
C-FIBER
  0
POLYLINE
  5
E62
100
AcDbEntity
  8
C-FIBER
100
AcDb2dPolyline
 66
     1
 10
0.0
 20
0.0
 30
0.0
 70
     1
  0
VERTEX
  5
E63
100
AcDbEntity
  8
C-FIBER
100
AcDbVertex
100
AcDb2dVertex
 10
672.296859
 20
405.505946
 30
0.0
  0
VERTEX
  5
E64
100
AcDbEntity
  8
C-FIBER
100
AcDbVertex
100
AcDb2dVertex
 10
672.296859
 20
335.505946
 30
0.0
  0
VERTEX
  5
E65
100
AcDbEntity
  8
C-FIBER
100
AcDbVertex
100
AcDb2dVertex
 10
673.820859
 20
335.505946
 30
0.0
  0
VERTEX
  5
E66
100
AcDbEntity
  8
C-FIBER
100
AcDbVertex
100
AcDb2dVertex
 10
673.820859
 20
405.505946
 30
0.0
  0
SEQEND
  5
E67
100
AcDbEntity
  8
C-FIBER
  0
POLYLINE
  5
E68
100
AcDbEntity
  8
TEXT
100
AcDb2dPolyline
 66
     1
 10
0.0
 20
0.0
 30
0.0
 70
     1
  0
VERTEX
  5
E69
100
AcDbEntity
  8
TEXT
100
AcDbVertex
100
AcDb2dVertex
 10
670.264859
 20
305.505946
 30
0.0
  0
VERTEX
  5
E6A
100
AcDbEntity
  8
TEXT
100
AcDbVertex
100
AcDb2dVertex
 10
670.264859
 20
405.505946
 30
0.0
  0
VERTEX
  5
E6B
100
AcDbEntity
  8
TEXT
100
AcDbVertex
100
AcDb2dVertex
 10
672.296859
 20
405.505946
 30
0.0
  0
VERTEX
  5
E6C
100
AcDbEntity
  8
TEXT
100
AcDbVertex
100
AcDb2dVertex
 10
672.296859
 20
305.505946
 30
0.0
  0
SEQEND
  5
E6D
100
AcDbEntity
  8
TEXT
  0
DIMENSION
  5
F50
100
AcDbEntity
  8
DIM
100
AcDbDimension
  2
*D8
 10
487.985297
 20
416.076883
 30
0.0
 11
525.323297
 21
416.076883
 31
0.0
 12
68.466362
 22
0.0
 32
0.0
 70
    32
  3
STANDARD
100
AcDbAlignedDimension
 13
433.862217
 23
319.787726
 33
0.0
 14
487.985297
 24
482.331473
 34
0.0
100
AcDbRotatedDimension
1001
ACAD
1000
DSTYLE
1002
{
1070
    47
1040
0.03
1070
    48
1040
0.03
1070
   272
1070
     2
1070
    76
1070
     1
1070
    40
1040
25.4
1070
     3
1000
mm
1070
   271
1070
     2
1070
     4
1000
"
1070
   274
1070
     3
1070
   143
1040
0.03937
1070
   171
1070
     3
1070
   170
1070
     1
1002
}
  0
DIMENSION
  5
F5D
100
AcDbEntity
  8
DIM
100
AcDbDimension
  2
*D9
 10
487.985297
 20
430.360031
 30
0.0
 11
429.129984
 21
430.360031
 31
0.0
 12
68.466362
 22
0.0
 32
0.0
 70
    32
  3
STANDARD
100
AcDbAlignedDimension
 13
370.27467
 23
319.787726
 33
0.0
 14
487.985297
 24
482.331473
 34
0.0
100
AcDbRotatedDimension
1001
ACAD
1000
DSTYLE
1002
{
1070
    47
1040
0.03
1070
    48
1040
0.03
1070
   272
1070
     2
1070
    76
1070
     1
1070
    40
1040
25.4
1070
     3
1000
mm
1070
   271
1070
     2
1070
     4
1000
"
1070
   274
1070
     3
1070
   143
1040
0.03937
1070
   171
1070
     3
1070
   170
1070
     1
1002
}
  0
DIMENSION
  5
F6A
100
AcDbEntity
  8
DIM
100
AcDbDimension
  2
*D10
 10
487.985297
 20
442.217739
 30
0.0
 11
427.129984
 21
442.217739
 31
0.0
 12
68.466362
 22
0.0
 32
0.0
 70
    32
  3
STANDARD
100
AcDbAlignedDimension
 13
366.27467
 23
319.787726
 33
0.0
 14
487.985297
 24
482.331473
 34
0.0
100
AcDbRotatedDimension
1001
ACAD
1000
DSTYLE
1002
{
1070
    47
1040
0.03
1070
    48
1040
0.03
1070
   272
1070
     2
1070
    76
1070
     1
1070
    40
1040
25.4
1070
     3
1000
mm
1070
   271
1070
     2
1070
     4
1000
"
1070
   274
1070
     3
1070
   143
1040
0.03937
1070
   171
1070
     3
1070
   170
1070
     1
1002
}
  0
DIMENSION
  5
F77
100
AcDbEntity
  8
DIM
100
AcDbDimension
  2
*D11
 10
487.985297
 20
466.207848
 30
0.0
 11
394.757507
 21
466.207848
 31
0.0
 12
68.466362
 22
0.0
 32
0.0
 70
    32
  3
STANDARD
100
AcDbAlignedDimension
 13
301.529717
 23
326.624901
 33
0.0
 14
487.985297
 24
482.331473
 34
0.0
100
AcDbRotatedDimension
1001
ACAD
1000
DSTYLE
1002
{
1070
    47
1040
0.03
1070
    48
1040
0.03
1070
   272
1070
     2
1070
    76
1070
     1
1070
    40
1040
25.4
1070
     3
1000
mm
1070
   271
1070
     2
1070
     4
1000
"
1070
   274
1070
     3
1070
   143
1040
0.03937
1070
   171
1070
     3
1070
   170
1070
     1
1002
}
  0
DIMENSION
  5
F85
100
AcDbEntity
  8
DIM
100
AcDbDimension
  2
*D12
 10
284.679164
 20
296.580346
 30
0.0
 11
219.756764
 21
287.436346
 31
0.0
 70
    32
  3
STANDARD
100
AcDbAlignedDimension
 13
301.529717
 23
316.62493
 33
0.0
 14
35.550639
 24
296.580346
 34
0.0
 50
90.0
100
AcDbRotatedDimension
1001
ACAD
1000
DSTYLE
1002
{
1070
    47
1040
0.05
1070
    71
1070
     1
1070
   272
1070
     2
1070
    76
1070
     1
1070
    40
1040
25.4
1070
     3
1000
mm
1070
   271
1070
     2
1070
     4
1000
"
1070
   274
1070
     3
1070
   143
1040
0.03937
1070
   171
1070
     3
1070
   170
1070
     1
1002
}
  0
DIMENSION
  5
F92
100
AcDbEntity
  8
DIM
100
AcDbDimension
  2
*D13
 10
61.267559
 20
296.580346
 30
0.0
 11
61.267559
 21
311.602623
 31
0.0
 70
    32
  3
STANDARD
100
AcDbAlignedDimension
 13
301.529717
 23
326.624901
 33
0.0
 14
35.550639
 24
296.580346
 34
0.0
 50
90.0
100
AcDbRotatedDimension
1001
ACAD
1000
DSTYLE
1002
{
1070
    47
1040
0.05
1070
   272
1070
     2
1070
    76
1070
     1
1070
    40
1040
25.4
1070
     3
1000
mm
1070
   271
1070
     2
1070
     4
1000
"
1070
   274
1070
     3
1070
   143
1040
0.03937
1070
   171
1070
     3
1070
   170
1070
     1
1002
}
  0
DIMENSION
  5
FA3
100
AcDbEntity
  8
DIM
100
AcDbDimension
  2
*D14
 10
530.834887
 20
377.168702
 30
0.0
 11
565.820802
 21
358.566361
 31
0.0
 12
68.466362
 22
0.0
 32
0.0
 70
    32
 51
28.0
  3
STANDARD
100
AcDbAlignedDimension
 13
438.515989
 23
326.624901
 33
0.0
 14
541.995642
 24
398.159031
 34
0.0
 50
332.0
100
AcDbRotatedDimension
1001
ACAD
1000
DSTYLE
1002
{
1070
    47
1040
0.05
1070
   272
1070
     2
1070
    76
1070
     1
1070
    40
1040
25.4
1070
     3
1000
mm
1070
   271
1070
     2
1070
     4
1000
"
1070
   274
1070
     3
1070
   143
1040
0.03937
1070
   171
1070
     3
1070
   170
1070
     1
1002
}
  0
DIMENSION
  5
FB0
100
AcDbEntity
  8
DIM
100
AcDbDimension
  2
*D15
 10
525.824596
 20
367.745716
 30
0.0
 11
560.137705
 21
349.501112
 31
0.0
 12
68.466362
 22
0.0
 32
0.0
 70
    32
 51
28.0
  3
STANDARD
100
AcDbAlignedDimension
 13
436.521315
 23
318.624977
 33
0.0
 14
541.995642
 24
398.159031
 34
0.0
 50
332.0
100
AcDbRotatedDimension
1001
ACAD
1000
DSTYLE
1002
{
1070
    47
1040
0.05
1070
   272
1070
     2
1070
    76
1070
     1
1070
    40
1040
25.4
1070
     3
1000
mm
1070
   271
1070
     2
1070
     4
1000
"
1070
   274
1070
     3
1070
   143
1040
0.03937
1070
   171
1070
     3
1070
   170
1070
     1
1002
}
  0
DIMENSION
  5
FBD
100
AcDbEntity
  8
DIM
100
AcDbDimension
  2
*D16
 10
520.856426
 20
358.401948
 30
0.0
 11
554.833133
 21
340.336213
 31
0.0
 12
68.466362
 22
0.0
 32
0.0
 70
    32
 51
28.0
  3
STANDARD
100
AcDbAlignedDimension
 13
439.377196
 23
318.33124
 33
0.0
 14
541.995642
 24
398.159031
 34
0.0
 50
332.0
100
AcDbRotatedDimension
1001
ACAD
1000
DSTYLE
1002
{
1070
    47
1040
0.05
1070
   272
1070
     2
1070
    76
1070
     1
1070
    40
1040
25.4
1070
     3
1000
mm
1070
   271
1070
     2
1070
     4
1000
"
1070
   274
1070
     3
1070
   143
1040
0.03937
1070
   171
1070
     3
1070
   170
1070
     1
1002
}
  0
DIMENSION
  5
FCA
100
AcDbEntity
  8
DIM
100
AcDbDimension
  2
*D17
 10
520.765282
 20
345.790539
 30
0.0
 11
553.059973
 21
328.619147
 31
0.0
 12
68.466362
 22
0.0
 32
0.0
 70
    32
 51
28.0
  3
STANDARD
100
AcDbAlignedDimension
 13
541.995642
 23
398.159031
 33
0.0
 14
492.015887
 24
291.720791
 34
0.0
 50
332.0
100
AcDbRotatedDimension
1001
ACAD
1000
DSTYLE
1002
{
1070
    47
1040
0.05
1070
   272
1070
     2
1070
    75
1070
     1
1070
    40
1040
25.4
1070
     3
1000
mm
1070
   271
1070
     2
1070
     4
1000
"
1070
   274
1070
     3
1070
   143
1040
0.03937
1070
   171
1070
     3
1070
   170
1070
     1
1002
}
  0
DIMENSION
  5
FD7
100
AcDbEntity
  8
DIM
100
AcDbDimension
  2
*D18
 10
525.205044
 20
331.063125
 30
0.0
 11
559.181751
 21
312.99739
 31
0.0
 12
68.466362
 22
0.0
 32
0.0
 70
    32
 51
28.0
  3
STANDARD
100
AcDbAlignedDimension
 13
541.995642
 23
398.159031
 33
0.0
 14
500.936687
 24
285.420984
 34
0.0
 50
332.0
100
AcDbRotatedDimension
1001
ACAD
1000
DSTYLE
1002
{
1070
    47
1040
0.05
1070
   272
1070
     2
1070
    75
1070
     1
1070
    40
1040
25.4
1070
     3
1000
mm
1070
   271
1070
     2
1070
     4
1000
"
1070
   274
1070
     3
1070
   143
1040
0.03937
1070
   171
1070
     3
1070
   170
1070
     1
1002
}
  0
DIMENSION
  5
FE4
100
AcDbEntity
  8
DIM
100
AcDbDimension
  2
*D19
 10
525.777694
 20
318.592493
 30
0.0
 11
559.7544
 21
300.526758
 31
0.0
 12
68.466362
 22
0.0
 32
0.0
 70
    32
 51
28.0
  3
STANDARD
100
AcDbAlignedDimension
 13
541.995642
 23
398.159031
 33
0.0
 14
509.874488
 24
288.682914
 34
0.0
 50
332.0
100
AcDbRotatedDimension
1001
ACAD
1000
DSTYLE
1002
{
1070
    47
1040
0.05
1070
   272
1070
     2
1070
    75
1070
     1
1070
    40
1040
25.4
1070
     3
1000
mm
1070
   271
1070
     2
1070
     4
1000
"
1070
   274
1070
     3
1070
   143
1040
0.03937
1070
   171
1070
     3
1070
   170
1070
     1
1002
}
  0
DIMENSION
  5
FF2
100
AcDbEntity
  8
DIM
100
AcDbDimension
  2
*D20
 10
517.411261
 20
284.67554
 30
0.0
 11
548.952755
 21
278.260851
 31
0.0
 12
68.466362
 22
0.0
 32
0.0
 70
    32
 51
28.0
  3
STANDARD
100
AcDbAlignedDimension
 13
391.174
 23
348.055826
 33
0.0
 14
509.874488
 24
288.682914
 34
0.0
 50
62.0
100
AcDbRotatedDimension
1001
ACAD
1000
DSTYLE
1002
{
1070
    47
1040
0.05
1070
   272
1070
     2
1070
    75
1070
     1
1070
    40
1040
25.4
1070
     3
1000
mm
1070
   271
1070
     2
1070
     4
1000
"
1070
   274
1070
     3
1070
   143
1040
0.03937
1070
   171
1070
     3
1070
   170
1070
     1
1002
}
  0
DIMENSION
  5
1000
100
AcDbEntity
  8
DIM
100
AcDbDimension
  2
*D21
 10
570.669215
 20
252.616527
 30
0.0
 11
602.883515
 21
245.844101
 31
0.0
 12
68.466362
 22
0.0
 32
0.0
 70
    32
 51
28.0
  3
STANDARD
100
AcDbAlignedDimension
 13
500.936687
 23
285.420984
 33
0.0
 14
391.174
 24
348.055826
 34
0.0
 50
62.0
100
AcDbRotatedDimension
1001
ACAD
1000
DSTYLE
1002
{
1070
    47
1040
0.05
1070
   272
1070
     2
1070
    76
1070
     1
1070
    40
1040
25.4
1070
     3
1000
mm
1070
   271
1070
     2
1070
     4
1000
"
1070
   274
1070
     3
1070
   143
1040
0.03937
1070
   171
1070
     3
1070
   170
1070
     1
1002
}
  0
DIMENSION
  5
100E
100
AcDbEntity
  8
DIM
100
AcDbDimension
  2
*D22
 10
626.859984
 20
222.739365
 30
0.0
 11
659.74709
 21
215.609201
 31
0.0
 12
68.466362
 22
0.0
 32
0.0
 70
    32
 51
28.0
  3
STANDARD
100
AcDbAlignedDimension
 13
491.557867
 23
288.142651
 33
0.0
 14
391.174
 24
348.055826
 34
0.0
 50
62.0
100
AcDbRotatedDimension
1001
ACAD
1000
DSTYLE
1002
{
1070
    47
1040
0.05
1070
   272
1070
     2
1070
    76
1070
     1
1070
    40
1040
25.4
1070
     3
1000
mm
1070
   271
1070
     2
1070
     4
1000
"
1070
   274
1070
     3
1070
   143
1040
0.03937
1070
   171
1070
     3
1070
   170
1070
     1
1002
}
  0
DIMENSION
  5
101C
100
AcDbEntity
  8
DIM
100
AcDbDimension
  2
*D23
 10
685.586655
 20
191.51384
 30
0.0
 11
745.520565
 21
170.002636
 31
0.0
 70
    32
 51
28.0
  3
STANDARD
100
AcDbAlignedDimension
 13
488.232139
 23
288.864704
 33
0.0
 14
802.03561
 24
129.596833
 34
0.0
 50
62.0
100
AcDbRotatedDimension
1001
ACAD
1000
DSTYLE
1002
{
1070
    71
1070
     1
1070
    48
1040
0.05
1070
   272
1070
     2
1070
    76
1070
     1
1070
    40
1040
25.4
1070
     3
1000
mm
1070
   271
1070
     2
1070
     4
1000
"
1070
   274
1070
     3
1070
   143
1040
0.03937
1070
   171
1070
     3
1070
   170
1070
     1
1002
}
  0
DIMENSION
  5
102A
100
AcDbEntity
  8
DIM
100
AcDbDimension
  2
*D24
 10
439.834914
 20
206.022646
 30
0.0
 11
466.652875
 21
211.020673
 31
0.0
 12
68.466362
 22
0.0
 32
0.0
 70
    34
  3
STANDARD$2
100
AcDb2LineAngularDimension
 13
487.985297
 23
194.792463
 33
0.0
 14
487.985297
 24
482.331473
 34
0.0
 15
541.995642
 25
398.159031
 35
0.0
 16
473.156599
 26
209.657164
 36
0.0
1001
ACAD
1000
DSTYLE
1002
{
1070
    48
1040
0.05
1070
   272
1070
     2
1070
    76
1070
     1
1070
    40
1040
25.4
1070
   271
1070
     2
1070
     4
1000
"
1070
   274
1070
     3
1070
   143
1040
0.03937
1070
   171
1070
     3
1070
   170
1070
     1
1002
}
  0
LINE
  5
102F
100
AcDbEntity
  8
BEAMS-B
100
AcDbLine
 10
436.770732
 20
319.62493
 30
0.0
 11
301.529717
 21
319.62493
 31
0.0
  0
LINE
  5
1030
100
AcDbEntity
  8
BEAMS-B
100
AcDbLine
 10
501.032934
 20
285.45611
 30
0.0
 11
436.770732
 21
319.62493
 31
0.0
  0
INSERT
  5
103E
100
AcDbEntity
  8
ASHADE
 62
     1
100
AcDbBlockReference
  2
AVE_RENDER
 10
0.0
 20
0.0
 30
0.0
1001
AVE_RENDER
1002
{
1070
     6
1000
Pref
1070
    30
1070
    20
1070
     1
1070
     0
1000

1070
    10
1070
     1
1070
    30
1040
1.0
1070
     1
1040
0.3
1040
0.7
1040
0.0
1040
10.0
1010
-1.0
1020
-1.0
1030
-1.0
1040
0.3
1070
    49
1070
     0
1070
     0
1010
1.0
1020
1.0
1030
1.0
1040
45.0
1070
     1
1070
     0
1000
WCS
1040
0.0
1002
}
  0
INSERT
  5
103F
100
AcDbEntity
  8
ASHADE
 62
     3
100
AcDbBlockReference
  2
AVE_RENDER
 10
0.0
 20
0.0
 30
0.0
1001
AVE_RENDER
1002
{
1070
     0
1000
Full Opt
1070
     0
1070
     1
1070
     1
1070
     1
1070
     0
1070
     0
1070
     0
1070
     1
1070
     1
1040
0.0001
1040
0.0001
1002
}
  0
INSERT
  5
1040
100
AcDbEntity
  8
ASHADE
 62
     4
100
AcDbBlockReference
  2
AVE_RENDER
 10
0.0
 20
0.0
 30
0.0
1001
AVE_RENDER
1002
{
1070
     0
1000
Quick Opt
1070
     0
1070
     1
1070
     1
1070
     1
1070
     0
1070
     0
1070
     1
1002
}
  0
INSERT
  5
1041
100
AcDbEntity
  8
ASHADE
 62
     5
100
AcDbBlockReference
  2
AVE_RENDER
 10
0.0
 20
0.0
 30
0.0
1001
AVE_RENDER
1002
{
1070
     1
1000
Scanl Opt
1070
     2
1070
     0
1070
     2
1040
2.0
1040
4.0
1070
     0
1070
     1
1070
     0
1040
0.03
1002
}
  0
INSERT
  5
1042
100
AcDbEntity
  8
ASHADE
 62
     6
100
AcDbBlockReference
  2
AVE_RENDER
 10
0.0
 20
0.0
 30
0.0
1001
AVE_RENDER
1002
{
1070
     2
1000
Raytr Opt
1070
     2
1070
     0
1070
     2
1040
2.0
1040
4.0
1070
     0
1070
     1
1070
     1
1040
0.03
1070
     3
1040
0.03
1002
}
  0
INSERT
  5
1043
100
AcDbEntity
  8
ASHADE
 62
     7
100
AcDbBlockReference
  2
AVE_RENDER
 10
0.0
 20
0.0
 30
0.0
1001
AVE_RENDER
1002
{
1070
     0
1000
RFile Opt
1070
     5
1070
   640
1070
   480
1070
 10000
1070
     3
1070
    32
1070
    24
1070
     0
1070
     0
1070
     0
1070
     1
1070
     0
1070
     0
1070
     0
1002
}
  0
INSERT
  5
1044
100
AcDbEntity
  8
ASHADE
 62
     8
100
AcDbBlockReference
  2
AVE_RENDER
 10
0.0
 20
0.0
 30
0.0
1001
AVE_RENDER
1002
{
1070
     0
1000
Fog Opt
1070
     0
1070
     0
1040
0.0
1040
1.0
1040
0.0
1040
1.0
1010
0.5
1020
0.5
1030
0.5
1002
}
  0
INSERT
  5
1045
100
AcDbEntity
  8
ASHADE
 62
     9
100
AcDbBlockReference
  2
AVE_RENDER
 10
0.0
 20
0.0
 30
0.0
1001
AVE_RENDER
1002
{
1070
     0
1000
BG Opt
1070
     0
1070
     1
1010
0.0
1020
0.0
1030
0.0
1010
1.0
1020
0.0
1030
0.0
1010
0.0
1020
1.0
1030
0.0
1010
0.0
1020
0.0
1030
1.0
1040
0.5
1040
0.33
1040
0.0
1000

1070
     1
1000

1070
     1
1070
     1
1040
1.0
1040
1.0
1040
0.0
1040
0.0
1070
     0
1002
}
  0
INSERT
  5
104C
100
AcDbEntity
  8
ASHADE
 62
     1
100
AcDbBlockReference
  2
AVE_GLOBAL
 10
0.0
 20
0.0
 30
0.0
1001
AVE_MATERIAL
1002
{
1000
*GLOBAL*
1000
1
1000
Global finish.
1002
{
1002
}
1002
{
1070
    63
1002
{
1002
{
1010
-1.0
1020
-1.0
1030
-1.0
1002
}
1040
0.1
1000

1040
0.0
1002
{
1002
}
1040
0.0
1002
{
1002
}
1040
0.0
1002
}
1002
{
1002
{
1010
-1.0
1020
-1.0
1030
-1.0
1002
}
1040
0.7
1000

1040
0.0
1002
{
1002
}
1040
0.0
1002
{
1002
}
1040
0.0
1002
}
1002
{
1002
{
1010
-1.0
1020
-1.0
1030
-1.0
1002
}
1040
0.2
1000

1040
0.0
1002
{
1002
}
1040
0.0
1002
{
1002
}
1040
0.0
1002
}
1002
{
1070
     0
1002
{
1070
     1
1002
{
1040
1.0
1040
1.0
1000

1040
0.0
1002
{
1002
}
1040
0.0
1002
{
1002
}
1040
0.0
1002
}
1002
}
1040
1.0
1040
0.0
1040
0.0
1002
}
1002
{
1040
1.0
1040
1.0
1000

1040
0.0
1002
{
1002
}
1040
0.0
1002
{
1002
}
1040
0.0
1002
}
1002
{
1040
0.5
1040
1.0
1000

1040
0.0
1002
{
1002
}
1040
0.0
1002
{
1002
}
1040
0.0
1002
}
1002
{
1070
     0
1040
0.0
1002
{
1002
}
1040
1.0
1002
{
1002
}
1040
0.0
1002
}
1002
{
1040
0.0
1002
{
1002
{
1010
0.0
1020
0.0
1030
0.0
1002
}
1040
1.0
1000

1040
0.0
1002
{
1002
}
1040
0.0
1002
{
1002
}
1040
0.0
1002
}
1002
}
1002
{
1002
{
1070
     1
1002
{
1040
0.0
1040
1.0
1000

1040
0.0
1002
{
1002
}
1040
0.0
1002
{
1002
}
1040
0.0
1002
}
1002
}
1040
0.0
1002
{
1002
}
1010
1.0
1020
0.0
1030
0.0
1010
0.0
1020
1.0
1030
0.0
1010
0.0
1020
0.0
1030
1.0
1070
     0
1002
}
1002
{
1002
{
1040
1.0
1040
1.0
1002
{
1070
     1
1002
{
1040
1.0
1040
1.0
1000

1040
0.0
1002
{
1002
}
1040
0.0
1002
{
1002
}
1040
0.0
1002
}
1002
}
1002
}
1070
     0
1040
0.0
1002
{
1002
}
1002
}
1002
{
1002
}
1002
}
1002
{
1071
        3
1070
     3
1070
     0
1002
{
1070
     2
1070
     0
1070
     0
1040
0.0
1002
}
1070
     0
1070
     2
1002
{
1002
}
1002
}
1002
{
1040
8030.0
1040
190.300003
1040
0.305
1040
228.0
1040
545.0
1040
14.0
1040
17.4
1040
0.456
1002
}
1002
}
  0
CIRCLE
  5
1053
100
AcDbEntity
  8
KEVLAR
100
AcDbCircle
 10
311.529717
 20
323.124901
 30
0.0
 40
1.1905
  0
LINE
  5
1054
100
AcDbEntity
  8
CENTER
100
AcDbLine
 10
313.590054
 20
323.124901
 30
0.0
 11
309.556508
 21
323.124901
 31
0.0
  0
LINE
  5
1055
100
AcDbEntity
  8
CENTER
100
AcDbLine
 10
311.529717
 20
325.079935
 30
0.0
 11
311.529717
 21
321.048371
 31
0.0
  0
DIMENSION
  5
106D
100
AcDbEntity
  8
DIM
100
AcDbDimension
  2
*D27
 10
487.985297
 20
454.249489
 30
0.0
 11
399.757507
 21
454.249489
 31
0.0
 70
    32
  3
STANDARD
100
AcDbAlignedDimension
 13
311.529717
 23
325.079935
 33
0.0
 14
487.985297
 24
482.331473
 34
0.0
100
AcDbRotatedDimension
1001
ACAD
1000
DSTYLE
1002
{
1070
    47
1040
0.03
1070
    71
1070
     1
1070
    48
1040
0.03
1070
   272
1070
     2
1070
    76
1070
     1
1070
    40
1040
25.4
1070
     3
1000
mm
1070
   271
1070
     2
1070
     4
1000
"
1070
   274
1070
     3
1070
   143
1040
0.03937
1070
   171
1070
     3
1070
   170
1070
     1
1002
}
  0
DIMENSION
  5
109D
100
AcDbEntity
  8
DIM
100
AcDbDimension
  2
*D28
 10
145.52895
 20
296.580346
 30
0.0
 11
145.52895
 21
309.852623
 31
0.0
 70
    32
  3
STANDARD
100
AcDbAlignedDimension
 13
309.556508
 23
323.124901
 33
0.0
 14
35.550639
 24
296.580346
 34
0.0
 50
90.0
100
AcDbRotatedDimension
1001
ACAD
1000
DSTYLE
1002
{
1070
    47
1040
0.03
1070
    71
1070
     1
1070
    48
1040
0.03
1070
   272
1070
     2
1070
    76
1070
     1
1070
    40
1040
25.4
1070
     3
1000
mm
1070
   271
1070
     2
1070
     4
1000
"
1070
   274
1070
     3
1070
   143
1040
0.03937
1070
   171
1070
     3
1070
   170
1070
     1
1002
}
  0
TEXT
  5
109E
100
AcDbEntity
  8
TEXT
100
AcDbText
 10
688.09825
 20
483.836306
 30
0.0
 40
2.0
  1
03
100
AcDbText
  0
TEXT
  5
109F
100
AcDbEntity
  8
TEXT
100
AcDbText
 10
697.09825
 20
483.836306
 30
0.0
 40
2.0
  1
ADD SECOND LOCATING HOLE
100
AcDbText
  0
TEXT
  5
10A0
100
AcDbEntity
  8
TEXT
100
AcDbText
 10
768.32028
 20
483.836306
 30
0.0
 40
2.0
  1
03-18-97
100
AcDbText
  0
ENDSEC
  0
SECTION
  2
OBJECTS
  0
DICTIONARY
  5
C
100
AcDbDictionary
  3
ACAD_GROUP
350
D
  3
ACAD_MLINESTYLE
350
E
  3
ACASAPPOBJECT
350
C68
  3
ACASGREF_MASTER
350
C1C
  3
ACCELVIEW
350
ED2
  3
ACDMSYSVARMGR
350
C38
  3
ACGREF_MASTER
350
C1A
  3
ACME_COMMAND_HISTORY
350
C18
  3
ACME_SCOPE_NAME
350
C17
  3
AD_APPL
350
C2B
  3
AD_DRAWMGR_NAME
350
C4B
  3
AD_GREF_MODULE
350
C33
  3
AD_HOLENOTE_REPOSITORY
350
C32
  3
ADSYSVARMGR
350
C21
  3
AMI_MASTER
350
C1B
  3
AUTOCAD_ASSEMBLIES_PROJECT
350
C57
  3
DESIGNER_ASSEMBLIES_SYSVARS
350
C52
  0
DICTIONARY
  5
D
102
{ACAD_REACTORS
330
C
102
}
100
AcDbDictionary
  0
DICTIONARY
  5
E
102
{ACAD_REACTORS
330
C
102
}
100
AcDbDictionary
  3
STANDARD
350
13
  0
ACAD_ZOMBIE_OBJECT
  5
C68
102
{ACAD_REACTORS
330
C
102
}
100
AcDbZombieObject
 90
      499
 91
      536
 93
        2
310
90
360
C66
 94
        0
  0
ACAD_ZOMBIE_OBJECT
  5
C1C
102
{ACAD_REACTORS
330
C
102
}
100
AcDbZombieObject
 90
      499
 91
      505
 93
       34
310
0100004054
 94
        0
  0
ACAD_ZOMBIE_OBJECT
  5
ED2
102
{ACAD_REACTORS
330
C
102
}
100
AcDbZombieObject
 90
      499
 91
      537
 93
       12
310
9284
330
C2C
330
C6D
330
0
330
0
330
0
330
0
330
0
330
0
330
0
330
0
330
0
330
0
330
0
330
0
330
0
330
0
330
0
330
D9B
330
0
330
DC0
330
DC1
330
DC2
330
DC3
330
DC4
330
DC5
330
DC6
330
E51
330
E52
330
E53
330
E54
330
E55
330
E56
330
E57
330
E58
330
E59
330
E5A
330
E5B
330
E5C
330
E62
330
E68
 94
        0
  0
ACAD_ZOMBIE_OBJECT
  5
C38
102
{ACAD_REACTORS
330
C
102
}
100
AcDbZombieObject
 90
      499
 91
      510
 93
      176
310
4C5114810100000000000000000000000000000000004F
330
C39
330
C3A
330
C3B
330
C3C
330
C3D
330
C3E
330
C40
330
C41
330
C42
330
C43
330
C44
330
C45
330
C46
330
C47
330
C48
330
C49
330
C4A
 94
        0
  0
ACAD_ZOMBIE_OBJECT
  5
C1A
102
{ACAD_REACTORS
330
C
102
}
100
AcDbZombieObject
 90
      499
 91
      503
 93
      114
310
01000040C000000000000000000009
 94
        0
  0
ACAD_ZOMBIE_OBJECT
  5
C18
102
{ACAD_REACTORS
330
C
102
}
100
AcDbZombieObject
 90
      499
 91
      501
 93
     1844
310
4780504554E444F8050A44494D414E47554C415280503554353805075354524554434880503554353805045A4F4F4D805045A4F4F4D805095041535445434C495040405084E202D205A4F4F4D0141D156141313D111601411693D3D3601411693D3D3601411353D59160141911111511255201411693D3D360141511511561
310
5201411693D3D36014151549054D160141535511561520141911111511255201411353D5916014151549054D16014055601411693D3D360142541054D51150D3125420141D156141313D111601415454D05591601411693D3D360140556014055601411455525520
 94
        0
  0
ACAD_ZOMBIE_OBJECT
  5
C17
102
{ACAD_REACTORS
330
C
102
}
100
AcDbZombieObject
 90
      499
 91
      500
 93
      456
310
01010040931000000000000000000000000000000000000000000000000000000000000000000000000000000000000000000000000009010008
360
C1D
360
C1E
360
C1F
360
C20
360
C22
360
C23
360
C24
360
C25
360
C26
360
C27
360
C28
360
C29
360
C2A
360
C2D
360
C2E
360
C2F
360
C30
360
C31
360
C34
360
C35
360
C36
360
C37
360
C39
360
C3A
360
C3B
360
C3C
360
C3D
360
C3E
360
C40
360
C41
360
C42
360
C43
360
C44
360
C45
360
C46
360
C47
360
C48
360
C49
360
C4A
360
C53
360
C54
360
C55
360
C56
360
C5B
360
C5C
360
C5D
360
C5E
360
C5F
360
C63
330
C2C
 94
        0
  0
ACAD_ZOMBIE_OBJECT
  5
C2B
102
{ACAD_REACTORS
330
C
102
}
100
AcDbZombieObject
 90
      499
 91
      514
 93
       42
310
000100004340
330
C1D
 94
        0
  0
ACAD_ZOMBIE_OBJECT
  5
C4B
102
{ACAD_REACTORS
330
C
102
}
100
AcDbZombieObject
 90
      499
 91
      526
 93
       42
310
000100004413
330
C34
 94
        0
  0
ACAD_ZOMBIE_OBJECT
  5
C33
102
{ACAD_REACTORS
330
C
102
}
100
AcDbZombieObject
 90
      499
 91
      521
 93
      114
310
000000428000000000000000000009
 94
        0
  0
ACAD_ZOMBIE_OBJECT
  5
C32
102
{ACAD_REACTORS
330
C
102
}
100
AcDbZombieObject
 90
      499
 91
      520
 93
        8
310
0008
330
C31
 94
        0
  0
ACAD_ZOMBIE_OBJECT
  5
C21
102
{ACAD_REACTORS
330
C
102
}
100
AcDbZombieObject
 90
      499
 91
      510
 93
      104
310
9094410100000000000000000062
330
C22
330
C23
330
C24
330
C25
330
C26
330
C27
330
C28
330
C29
330
C2A
 94
        0
  0
ACAD_ZOMBIE_OBJECT
  5
C1B
102
{ACAD_REACTORS
330
C
102
}
100
AcDbZombieObject
 90
      499
 91
      504
 93
       34
310
0100004054
 94
        0
  0
ACAD_ZOMBIE_OBJECT
  5
C57
102
{ACAD_REACTORS
330
C
102
}
100
AcDbZombieObject
 90
      499
 91
      527
 93
       58
310
0100004180000012
330
C5D
330
C63
330
C5E
 94
        0
  0
ACAD_ZOMBIE_OBJECT
  5
C52
102
{ACAD_REACTORS
330
C
102
}
100
AcDbZombieObject
 90
      499
 91
      510
 93
       64
310
904441010000000000
330
C53
330
C54
330
C55
330
C56
 94
        0
  0
MLINESTYLE
  5
13
102
{ACAD_REACTORS
330
E
102
}
100
AcDbMlineStyle
  2
STANDARD
 70
     0
  3

 62
     0
 51
90.0
 52
90.0
 71
     2
 49
0.5
 62
   256
  6
BYLAYER
 49
-0.5
 62
   256
  6
BYLAYER
  0
ACAD_ZOMBIE_OBJECT
  5
C66
100
AcDbZombieObject
 90
      499
 91
      534
 93
      720
310
9064D2E312E313607014B7269BC41100000000000000E03F1EC52B91F85EA10FE1EC52B91F85EA10FD034153471EC52B91F85EA10FC000000FC83D797414650540C000000000000E03F3F2A7C749358940FC000000FC83D797414F
 94
        0
  0
ACAD_ZOMBIE_OBJECT
  5
C1D
100
AcDbZombieObject
 90
      499
 91
      506
 93
      280
310
000000000000014119185D1940506462E312E3136014119185D1940506462E312E313600
330
C17
330
C1E
330
C1F
330
C21
330
C2C
 94
        0
  0
ACAD_ZOMBIE_OBJECT
  5
C1E
100
AcDbZombieObject
 90
      499
 91
      507
 93
      120
310
00009024410100000092080002A6A600
330
C17
330
C2E
330
C2D
330
0
 94
        0
  0
ACAD_ZOMBIE_OBJECT
  5
C1F
100
AcDbZombieObject
 90
      499
 91
      508
 93
       46
310
000000009208
330
C17
330
0
330
C20
 94
        0
  0
ACAD_ZOMBIE_OBJECT
  5
C20
100
AcDbZombieObject
 90
      499
 91
      509
 93
       22
310
0000A8
330
C17
 94
        0
  0
ACAD_ZOMBIE_OBJECT
  5
C22
100
AcDbZombieObject
 90
      499
 91
      511
 93
      124
310
00000142905350D3D39114D414D69050
330
C17
 94
        0
  0
ACAD_ZOMBIE_OBJECT
  5
C23
100
AcDbZombieObject
 90
      499
 91
      511
 93
      124
310
000001429053549553115353D1115010
330
C17
 94
        0
  0
ACAD_ZOMBIE_OBJECT
  5
C24
100
AcDbZombieObject
 90
      499
 91
      511
 93
      108
310
00000142105354D2D353D1115010
330
C17
 94
        0
  0
ACAD_ZOMBIE_OBJECT
  5
C25
100
AcDbZombieObject
 90
      499
 91
      511
 93
      140
310
000001435053511253511254D41353D11160
330
C17
 94
        0
  0
ACAD_ZOMBIE_OBJECT
  5
C26
100
AcDbZombieObject
 90
      499
 91
      512
 93
      180
310
00000142905354D2D05391D513D3000000000000010400
330
C17
 94
        0
  0
ACAD_ZOMBIE_OBJECT
  5
C27
100
AcDbZombieObject
 90
      499
 91
      513
 93
      164
310
00000142505354D2D4D516531140505434F4E542A0
330
C17
 94
        0
  0
ACAD_ZOMBIE_OBJECT
  5
C28
100
AcDbZombieObject
 90
      499
 91
      511
 93
      108
310
00000142105350D3511112535010
330
C17
 94
        0
  0
ACAD_ZOMBIE_OBJECT
  5
C29
100
AcDbZombieObject
 90
      499
 91
      513
 93
      116
310
000001425053541054919253114060
330
C17
 94
        0
  0
ACAD_ZOMBIE_OBJECT
  5
C2A
100
AcDbZombieObject
 90
      499
 91
      511
 93
      100
310
00000142105350D3D35414D5A0
330
C17
 94
        0
  0
ACAD_ZOMBIE_OBJECT
  5
C2D
100
AcDbZombieObject
 90
      499
 91
      516
 93
      164
310
000092090148200A00000440000FFFFFFFF0000000
330
C17
330
C2E
330
C1E
330
C2C
 94
        0
  0
ACAD_ZOMBIE_OBJECT
  5
C2E
100
AcDbZombieObject
 90
      499
 91
      517
 93
       82
310
000040520802482A800000
330
C17
330
C2D
330
C1E
330
C2C
 94
        0
  0
ACAD_ZOMBIE_OBJECT
  5
C2F
100
AcDbZombieObject
 90
      499
 91
      509
 93
       22
310
0000A9
330
C17
 94
        0
  0
ACAD_ZOMBIE_OBJECT
  5
C30
100
AcDbZombieObject
 90
      499
 91
      518
 93
       38
310
000000920A
330
C17
330
0
 94
        0
  0
ACAD_ZOMBIE_OBJECT
  5
C31
100
AcDbZombieObject
 90
      499
 91
      519
 93
     3196
310
0000419208050A544852555F4452494C4C0142D09312539117D1149253130050A544852555F43424F52450142D09312539117D0D093D4914050A544852555F4353494E4B0142D09312539117D0D4D25392D0648201459EC94958C8094950535112504815121493D551D20B9F4051C7B252563202525414D444941205820252
310
5414D44455020444545507D014F5EC94958C8094950535112504815121493D551D20B9F57141ED0D093D49148094958C80949505350D112504816080949505350D091115408111151541F405437B252563202525414D4449412058202525414D44455020444545507D5C507B43424F524520252563202525414D4344494120
310
58202525414D434244455020444545507D014EDEC94958C8094950535112504815121493D551D20B9F57141ED0D4D25392C8094958C80949505350D112504816080949505350D4D05391C949591F405417B252563202525414D4449412058202525414D44455020444545507D5C507B4353494E4B20252563202525414D434
310
449412058202525414D4353414E472525647D0
330
C17
 94
        0
  0
ACAD_ZOMBIE_OBJECT
  5
C34
100
AcDbZombieObject
 90
      499
 91
      522
 93
      308
310
0000014119185D1940507442E312E313663014119185D1940507442E312E313663405010000004
330
C17
330
C35
330
C37
330
C38
 94
        0
  0
ACAD_ZOMBIE_OBJECT
  5
C35
100
AcDbZombieObject
 90
      499
 91
      523
 93
       56
310
0000901441010000
330
C17
330
C36
 94
        0
  0
ACAD_ZOMBIE_OBJECT
  5
C36
100
AcDbZombieObject
 90
      499
 91
      524
 93
       40
310
0000A4410152
330
C17
 94
        0
  0
ACAD_ZOMBIE_OBJECT
  5
C37
100
AcDbZombieObject
 90
      499
 91
      525
 93
       68
310
0000A44101920A4820
330
C17
 94
        0
  0
ACAD_ZOMBIE_OBJECT
  5
C39
100
AcDbZombieObject
 90
      499
 91
      511
 93
      108
310
000001421053521310D05310D010
330
C17
 94
        0
  0
ACAD_ZOMBIE_OBJECT
  5
C3A
100
AcDbZombieObject
 90
      499
 91
      511
 93
      124
310
000001429053541493D2951654115013
330
C17
 94
        0
  0
ACAD_ZOMBIE_OBJECT
  5
C3B
100
AcDbZombieObject
 90
      499
 91
      511
 93
      124
310
00000142905354915554D15112535010
330
C17
 94
        0
  0
ACAD_ZOMBIE_OBJECT
  5
C3C
100
AcDbZombieObject
 90
      499
 91
      511
 93
      132
310
00000143105354D150D51253D391125366
330
C17
 94
        0
  0
ACAD_ZOMBIE_OBJECT
  5
C3D
100
AcDbZombieObject
 90
      499
 91
      511
 93
      124
310
00000142905355941093D49111549010
330
C17
 94
        0
  0
ACAD_ZOMBIE_OBJECT
  5
C3E
100
AcDbZombieObject
 90
      499
 91
      513
 93
      180
310
00000142905352125113151654114050648494444454E1
330
C17
 94
        0
  0
ACAD_ZOMBIE_OBJECT
  5
C40
100
AcDbZombieObject
 90
      499
 91
      513
 93
      196
310
00000142905354D150D315165411405085048414E544F4D320
330
C17
 94
        0
  0
ACAD_ZOMBIE_OBJECT
  5
C41
100
AcDbZombieObject
 90
      499
 91
      511
 93
      108
310
00000142105354D51114D0D51021
330
C17
 94
        0
  0
ACAD_ZOMBIE_OBJECT
  5
C42
100
AcDbZombieObject
 90
      499
 91
      511
 93
      108
310
00000142105354D5111510541021
330
C17
 94
        0
  0
ACAD_ZOMBIE_OBJECT
  5
C43
100
AcDbZombieObject
 90
      499
 91
      511
 93
      108
310
00000142105354D5111115131021
330
C17
 94
        0
  0
ACAD_ZOMBIE_OBJECT
  5
C44
100
AcDbZombieObject
 90
      499
 91
      512
 93
      148
310
00000141905350D310D34295C8FC2F528BC3F4
330
C17
 94
        0
  0
ACAD_ZOMBIE_OBJECT
  5
C45
100
AcDbZombieObject
 90
      499
 91
      512
 93
      156
310
00000141D05350D311D05402B8716D9CEF7C33F4
330
C17
 94
        0
  0
ACAD_ZOMBIE_OBJECT
  5
C46
100
AcDbZombieObject
 90
      499
 91
      512
 93
      164
310
00000142105350D313D4D2150295C8FC2F528BC3F0
330
C17
 94
        0
  0
ACAD_ZOMBIE_OBJECT
  5
C47
100
AcDbZombieObject
 90
      499
 91
      511
 93
      100
310
00000141D05350D31410549018
330
C17
 94
        0
  0
ACAD_ZOMBIE_OBJECT
  5
C48
100
AcDbZombieObject
 90
      499
 91
      511
 93
      100
310
0000014210535590539254D222
330
C17
 94
        0
  0
ACAD_ZOMBIE_OBJECT
  5
C49
100
AcDbZombieObject
 90
      499
 91
      512
 93
      188
310
00000142D0535312539155121250D2C295C8FC2F5289C3F4
330
C17
 94
        0
  0
ACAD_ZOMBIE_OBJECT
  5
C4A
100
AcDbZombieObject
 90
      499
 91
      513
 93
      164
310
00000142105350D3151654114050643454E5445520
330
C17
 94
        0
  0
ACAD_ZOMBIE_OBJECT
  5
C53
100
AcDbZombieObject
 90
      499
 91
      511
 93
      132
310
00000142D05050555513D4D3D315915010
330
C17
 94
        0
  0
ACAD_ZOMBIE_OBJECT
  5
C54
100
AcDbZombieObject
 90
      499
 91
      511
 93
      156
310
00000143905050555513D054D4D1535093115010
330
C17
 94
        0
  0
ACAD_ZOMBIE_OBJECT
  5
C55
100
AcDbZombieObject
 90
      499
 91
      511
 93
      148
310
00000143505055925155D49154D513D4915015
330
C17
 94
        0
  0
ACAD_ZOMBIE_OBJECT
  5
C56
100
AcDbZombieObject
 90
      499
 91
      511
 93
      124
310
00000142D050525394D15495105094E0
330
C17
 94
        0
  0
ACAD_ZOMBIE_OBJECT
  5
C5B
100
AcDbZombieObject
 90
      499
 91
      528
 93
       32
310
0000000074
330
C17
340
C58
330
C5C
330
C58
 94
        0
  0
ACAD_ZOMBIE_OBJECT
  5
C5C
100
AcDbZombieObject
 90
      499
 91
      529
 93
      143
310
00000142130D0B5492508C0CD0400522080C
330
C17
330
C5B
 94
        0
  0
ACAD_ZOMBIE_OBJECT
  5
C5D
100
AcDbZombieObject
 90
      499
 91
      530
 93
       72
310
000000A44101A4410100
330
C17
330
C5C
 94
        0
  0
ACAD_ZOMBIE_OBJECT
  5
C5E
100
AcDbZombieObject
 90
      499
 91
      531
 93
       80
310
000090144101000000006C
330
C17
330
C5F
330
C5F
330
C5F
330
C5F
 94
        0
  0
ACAD_ZOMBIE_OBJECT
  5
C5F
100
AcDbZombieObject
 90
      499
 91
      532
 93
      173
310
00000000406AAAAAAAAAAAAAAAAA806A44101A441010
330
C17
330
C5E
330
C5C
 94
        0
  0
ACAD_ZOMBIE_OBJECT
  5
C63
100
AcDbZombieObject
 90
      499
 91
      533
 93
       26
310
00008015
330
C17
330
0
 94
        0
  0
ENDSEC
  0
EOF
