  0
SECTION
  2
HEADER
  9
$ACADVER
  1
AC1012
  9
$DWGCODEPAGE
  3
ansi_1252
  9
$INSBASE
 10
0.0
 20
0.0
 30
0.0
  9
$EXTMIN
 10
3.175
 20
3.175
 30
0.0
  9
$EXTMAX
 10
791.75407
 20
506.668925
 30
0.0
  9
$LIMMIN
 10
0.0
 20
0.0
  9
$LIMMAX
 10
838.0
 20
533.0
  9
$ORTHOMODE
 70
     0
  9
$REGENMODE
 70
     1
  9
$FILLMODE
 70
     1
  9
$QTEXTMODE
 70
     0
  9
$MIRRTEXT
 70
     1
  9
$DRAGMODE
 70
     2
  9
$LTSCALE
 40
10.0
  9
$OSMODE
 70
     0
  9
$ATTMODE
 70
     1
  9
$TEXTSIZE
 40
6.0
  9
$TRACEWID
 40
0.05
  9
$TEXTSTYLE
  7
STANDARD
  9
$CLAYER
  8
FOOT-B
  9
$CELTYPE
  6
BYLAYER
  9
$CECOLOR
 62
   256
  9
$CELTSCALE
 40
1.0
  9
$DELOBJ
 70
     1
  9
$DISPSILH
 70
     0
  9
$DIMSCALE
 40
25.4
  9
$DIMASZ
 40
0.18
  9
$DIMEXO
 40
0.0625
  9
$DIMDLI
 40
0.38
  9
$DIMRND
 40
0.0
  9
$DIMDLE
 40
0.0
  9
$DIMEXE
 40
0.18
  9
$DIMTP
 40
0.03
  9
$DIMTM
 40
0.03
  9
$DIMTXT
 40
0.18
  9
$DIMCEN
 40
0.09
  9
$DIMTSZ
 40
0.0
  9
$DIMTOL
 70
     0
  9
$DIMLIM
 70
     0
  9
$DIMTIH
 70
     1
  9
$DIMTOH
 70
     1
  9
$DIMSE1
 70
     0
  9
$DIMSE2
 70
     0
  9
$DIMTAD
 70
     0
  9
$DIMZIN
 70
     0
  9
$DIMBLK
  1

  9
$DIMASO
 70
     1
  9
$DIMSHO
 70
     1
  9
$DIMPOST
  1

  9
$DIMAPOST
  1
"
  9
$DIMALT
 70
     1
  9
$DIMALTD
 70
     3
  9
$DIMALTF
 40
0.03937
  9
$DIMLFAC
 40
1.0
  9
$DIMTOFL
 70
     0
  9
$DIMTVP
 40
0.0
  9
$DIMTIX
 70
     0
  9
$DIMSOXD
 70
     0
  9
$DIMSAH
 70
     0
  9
$DIMBLK1
  1

  9
$DIMBLK2
  1

  9
$DIMSTYLE
  2
SU1
  9
$DIMCLRD
 70
     0
  9
$DIMCLRE
 70
     0
  9
$DIMCLRT
 70
     0
  9
$DIMTFAC
 40
1.0
  9
$DIMGAP
 40
0.09
  9
$DIMJUST
 70
     0
  9
$DIMSD1
 70
     0
  9
$DIMSD2
 70
     0
  9
$DIMTOLJ
 70
     1
  9
$DIMTZIN
 70
     0
  9
$DIMALTZ
 70
     0
  9
$DIMALTTZ
 70
     0
  9
$DIMFIT
 70
     0
  9
$DIMUPT
 70
     0
  9
$DIMUNIT
 70
     2
  9
$DIMDEC
 70
     2
  9
$DIMTDEC
 70
     2
  9
$DIMALTU
 70
     2
  9
$DIMALTTD
 70
     3
  9
$DIMTXSTY
  7
STANDARD
  9
$DIMAUNIT
 70
     0
  9
$LUNITS
 70
     2
  9
$LUPREC
 70
     4
  9
$SKETCHINC
 40
0.1
  9
$FILLETRAD
 40
1.5875
  9
$AUNITS
 70
     0
  9
$AUPREC
 70
     0
  9
$MENU
  1
acad
  9
$ELEVATION
 40
0.0
  9
$PELEVATION
 40
0.0
  9
$THICKNESS
 40
0.0
  9
$LIMCHECK
 70
     0
  9
$BLIPMODE
 70
     1
  9
$CHAMFERA
 40
0.0
  9
$CHAMFERB
 40
0.0
  9
$CHAMFERC
 40
0.0
  9
$CHAMFERD
 40
0.0
  9
$SKPOLY
 70
     0
  9
$TDCREATE
 40
2450480.640983657
  9
$TDUPDATE
 40
2450487.623822280
  9
$TDINDWG
 40
0.3833684028
  9
$TDUSRTIMER
 40
0.3833684028
  9
$USRTIMER
 70
     1
  9
$ANGBASE
 50
0.0
  9
$ANGDIR
 70
     0
  9
$PDMODE
 70
     0
  9
$PDSIZE
 40
0.0
  9
$PLINEWID
 40
0.0
  9
$COORDS
 70
     1
  9
$SPLFRAME
 70
     0
  9
$SPLINETYPE
 70
     6
  9
$SPLINESEGS
 70
     8
  9
$ATTDIA
 70
     0
  9
$ATTREQ
 70
     1
  9
$HANDLING
 70
     1
  9
$HANDSEED
  5
123C
  9
$SURFTAB1
 70
     6
  9
$SURFTAB2
 70
     6
  9
$SURFTYPE
 70
     6
  9
$SURFU
 70
     6
  9
$SURFV
 70
     6
  9
$UCSNAME
  2

  9
$UCSORG
 10
0.0
 20
0.0
 30
0.0
  9
$UCSXDIR
 10
1.0
 20
0.0
 30
0.0
  9
$UCSYDIR
 10
0.0
 20
1.0
 30
0.0
  9
$PUCSNAME
  2

  9
$PUCSORG
 10
0.0
 20
0.0
 30
0.0
  9
$PUCSXDIR
 10
1.0
 20
0.0
 30
0.0
  9
$PUCSYDIR
 10
0.0
 20
1.0
 30
0.0
  9
$USERI1
 70
     0
  9
$USERI2
 70
     0
  9
$USERI3
 70
     0
  9
$USERI4
 70
     0
  9
$USERI5
 70
     0
  9
$USERR1
 40
0.0
  9
$USERR2
 40
0.0
  9
$USERR3
 40
0.0
  9
$USERR4
 40
0.0
  9
$USERR5
 40
0.0
  9
$WORLDVIEW
 70
     1
  9
$SHADEDGE
 70
     3
  9
$SHADEDIF
 70
    70
  9
$TILEMODE
 70
     1
  9
$MAXACTVP
 70
    16
  9
$PINSBASE
 10
0.0
 20
0.0
 30
0.0
  9
$PLIMCHECK
 70
     0
  9
$PEXTMIN
 10
1.000000E+20
 20
1.000000E+20
 30
1.000000E+20
  9
$PEXTMAX
 10
-1.000000E+20
 20
-1.000000E+20
 30
-1.000000E+20
  9
$PLIMMIN
 10
0.0
 20
0.0
  9
$PLIMMAX
 10
12.0
 20
9.0
  9
$UNITMODE
 70
     0
  9
$VISRETAIN
 70
     0
  9
$PLINEGEN
 70
     0
  9
$PSLTSCALE
 70
     1
  9
$TREEDEPTH
 70
  3020
  9
$PICKSTYLE
 70
     1
  9
$CMLSTYLE
  2
STANDARD
  9
$CMLJUST
 70
     0
  9
$CMLSCALE
 40
1.0
  9
$SAVEIMAGES
 70
     0
  0
ENDSEC
  0
SECTION
  2
CLASSES
  0
CLASS
  1
ACMESCOPE
  2
AcMeScope
  3
ACME_MODULE_NAME
 90
        0
280
     0
281
     0
  0
CLASS
  1
ACMECOMMANDHISTORY
  2
AcMeCommandHistory
  3
ACME_MODULE_NAME
 90
        0
280
     0
281
     0
  0
CLASS
  1
AcRfInsAdjusterMgr
  2
AcRfInsAdjusterMgr
  3
ACME_MODULE_NAME
 90
        0
280
     0
281
     0
  0
CLASS
  1
ACGREFMASTER
  2
AcGrefMaster
  3
"AcadRfServer"
 90
        0
280
     0
281
     0
  0
CLASS
  1
AmiMaster
  2
AmiMaster
  3
"AmiServices"
 90
        0
280
     0
281
     0
  0
CLASS
  1
ACASGREFMASTER
  2
AcAsGrefMaster
  3
"AutoSurfResolver"
 90
        0
280
     0
281
     0
  0
CLASS
  1
ADAPPL
  2
AcAdAppl
  3
"DesignerServices"
 90
        0
280
     0
281
     0
  0
CLASS
  1
DEPMGR
  2
AcAdDepMgr
  3
"DesignerServices"
 90
        0
280
     0
281
     0
  0
CLASS
  1
PARAMMGR
  2
AcAdParamMgr
  3
"DesignerServices"
 90
        0
280
     0
281
     0
  0
CLASS
  1
PARAMSCOPE
  2
AcAdParamScope
  3
"DesignerServices"
 90
        0
280
     0
281
     0
  0
CLASS
  1
"IM_SYSVAR_MAN"
  2
AcImSysVarManager
  3
"ADAM"
 90
        0
280
     0
281
     0
  0
CLASS
  1
SYSTEM_VAR_INT
  2
AcImIntSysVar
  3
"ADAM"
 90
        0
280
     0
281
     0
  0
CLASS
  1
SYSTEM_VAR_REAL
  2
AcImRealSysVar
  3
"ADAM"
 90
        0
280
     0
281
     0
  0
CLASS
  1
SYSTEM_VAR_STR
  2
AcImStrSysVar
  3
"ADAM"
 90
        0
280
     0
281
     0
  0
CLASS
  1
NAMEDAPPL
  2
AcAdNamedAppl
  3
"DesignerServices"
 90
        0
280
     0
281
     0
  0
CLASS
  1
ADPART
  2
AcAdPart
  3
"DesignerServices"
 90
        0
280
     0
281
     1
  0
CLASS
  1
ADBASE
  2
AcAdBase
  3
"DesignerServices"
 90
        0
280
     0
281
     0
  0
CLASS
  1
BODYID
  2
AcAdBodyId
  3
"DesignerServices"
 90
        0
280
     0
281
     0
  0
CLASS
  1
WORKPLANEDISPLAYMGR
  2
AcAdDisplayMgr
  3
"DesignerServices"
 90
        0
280
     0
281
     0
  0
CLASS
  1
ADHNTMPLT
  2
AdHoleNoteTemplateMgr
  3
"DesignerServices"
 90
        0
280
     0
281
     0
  0
CLASS
  1
AM_HNTEMPLATE_MGR_NAME
  2
AdHoleNoteTemplateMgrName
  3
"DesignerServices"
 90
        0
280
     0
281
     0
  0
CLASS
  1
AcAdGrefModule
  2
AcAdGrefModule
  3
AD_GREF_SERVICES_NSTR
 90
        0
280
     0
281
     0
  0
CLASS
  1
AM_DRAWING_MGR
  2
AcDmDwgMgr
  3
"Designer_Drawing_Mgmt"
 90
        0
280
     0
281
     0
  0
CLASS
  1
AM_DWG_DOCUMENT
  2
AcDmDwgDocument
  3
"Designer_Drawing_Mgmt"
 90
        0
280
     0
281
     0
  0
CLASS
  1
AM_DWG_SHEET
  2
AcDmSheet
  3
"Designer_Drawing_Mgmt"
 90
        0
280
     0
281
     0
  0
CLASS
  1
AM_VIEWDIMPARMAP
  2
AcDmViewDimParMap
  3
"Designer_Drawing_Mgmt"
 90
        0
280
     0
281
     0
  0
CLASS
  1
AM_DWGMGR_NAME
  2
AcDmDwgMgrName
  3
"Designer_Drawing_Mgmt"
 90
        0
280
     0
281
     0
  0
CLASS
  1
ACAMPROJECT
  2
AcAmProject
  3
"DesignerAssemblies"
 90
        0
280
     0
281
     0
  0
CLASS
  1
ACAMGRCOMPDEF
  2
AcAmGrCompDef
  3
"DesignerAssemblies"
 90
        0
280
     0
281
     0
  0
CLASS
  1
ACAMCOMPDEF
  2
AcAmCompDef
  3
"DesignerAssemblies"
 90
        0
280
     0
281
     0
  0
CLASS
  1
ACAMCOMPDEFMGR
  2
AcAmCompDefMgr
  3
"DesignerAssemblies"
 90
        0
280
     0
281
     0
  0
CLASS
  1
AMCONTEXTMGR
  2
AcAmContextMgr
  3
"DesignerAssemblies"
 90
        0
280
     0
281
     0
  0
CLASS
  1
AcAmContextModeler
  2
AcAmContextModeler
  3
"DesignerAssemblies"
 90
        0
280
     0
281
     0
  0
CLASS
  1
ACAMDRAWINGMAN
  2
AcAmDrawingMan
  3
"DesignerAssemblies"
 90
        0
280
     0
281
     0
  0
CLASS
  1
ASSYSVARS
  2
AcAsSysVars
  3
"AutoSurf"
 90
        0
280
     0
281
     0
  0
CLASS
  1
ASSTATICVARS
  2
AcAsStaticVars
  3
"AutoSurf"
 90
        0
280
     0
281
     0
  0
CLASS
  1
ASAPP
  2
AcAsAppObject
  3
"AutoSurf"
 90
        0
280
     0
281
     0
  0
CLASS
  1
AGDICTIONARY
  2
AgDictionary
  3
"AccelView"
 90
        1
280
     0
281
     0
  0
ENDSEC
  0
SECTION
  2
TABLES
  0
TABLE
  2
VPORT
  5
8
100
AcDbSymbolTable
 70
     3
  0
VPORT
  5
123B
100
AcDbSymbolTableRecord
100
AcDbViewportTableRecord
  2
*ACTIVE
 70
     0
 10
0.0
 20
0.0
 11
1.0
 21
1.0
 12
406.497359
 22
254.921963
 13
0.0
 23
0.0
 14
0.125
 24
0.125
 15
10.0
 25
10.0
 16
0.0
 26
0.0
 36
1.0
 17
0.0
 27
0.0
 37
0.0
 40
503.493925
 41
1.602094
 42
50.0
 43
0.0
 44
0.0
 50
0.0
 51
0.0
 71
     0
 72
   100
 73
     1
 74
     0
 75
     0
 76
     1
 77
     0
 78
     0
  0
ENDTAB
  0
TABLE
  2
LTYPE
  5
5
100
AcDbSymbolTable
 70
     6
  0
LTYPE
  5
14
100
AcDbSymbolTableRecord
100
AcDbLinetypeTableRecord
  2
BYBLOCK
 70
     0
  3

 72
    65
 73
     0
 40
0.0
  0
LTYPE
  5
15
100
AcDbSymbolTableRecord
100
AcDbLinetypeTableRecord
  2
BYLAYER
 70
     0
  3

 72
    65
 73
     0
 40
0.0
  0
LTYPE
  5
16
100
AcDbSymbolTableRecord
100
AcDbLinetypeTableRecord
  2
CONTINUOUS
 70
    64
  3
Solid line
 72
    65
 73
     0
 40
0.0
  0
LTYPE
  5
4F
100
AcDbSymbolTableRecord
100
AcDbLinetypeTableRecord
  2
HIDDEN
 70
    64
  3
__ __ __ __ __ __ __ __ __ __ __ __ __ __ __ __
 72
    65
 73
     2
 40
0.375
 49
0.25
 74
     0
 49
-0.125
 74
     0
  0
LTYPE
  5
51
100
AcDbSymbolTableRecord
100
AcDbLinetypeTableRecord
  2
PHANTOM2
 70
     0
  3
___ _ _ ___ _ _ ___ _ _ ___ _ _ ___ _ _ ___ _ _
 72
    65
 73
     6
 40
1.25
 49
0.625
 74
     0
 49
-0.125
 74
     0
 49
0.125
 74
     0
 49
-0.125
 74
     0
 49
0.125
 74
     0
 49
-0.125
 74
     0
  0
LTYPE
  5
5C
100
AcDbSymbolTableRecord
100
AcDbLinetypeTableRecord
  2
CENTER
 70
    64
  3
____ _ ____ _ ____ _ ____ _ ____ _ ____ _ ____ 
 72
    65
 73
     4
 40
2.0
 49
1.25
 74
     0
 49
-0.25
 74
     0
 49
0.25
 74
     0
 49
-0.25
 74
     0
  0
LTYPE
  5
7C
100
AcDbSymbolTableRecord
100
AcDbLinetypeTableRecord
  2
ASULTYPE
 70
     0
  3
Solid line
 72
    65
 73
     2
 40
3.0
 49
2.5
 74
     0
 49
0.5
 74
     0
  0
LTYPE
  5
7D
100
AcDbSymbolTableRecord
100
AcDbLinetypeTableRecord
  2
ASVLTYPE
 70
     0
  3
__ __ __ __ __ __ __ __ __ __ __ __ __ __ __ __ __ __ __ __ __
 72
    65
 73
     2
 40
0.75
 49
0.5
 74
     0
 49
-0.25
 74
     0
  0
ENDTAB
  0
TABLE
  2
LAYER
  5
2
100
AcDbSymbolTable
 70
    11
  0
LAYER
  5
F
100
AcDbSymbolTableRecord
100
AcDbLayerTableRecord
  2
0
 70
     0
 62
     7
  6
CONTINUOUS
  0
LAYER
  5
7F
100
AcDbSymbolTableRecord
100
AcDbLayerTableRecord
  2
CENTER
 70
    64
 62
     1
  6
CENTER
  0
LAYER
  5
80
100
AcDbSymbolTableRecord
100
AcDbLayerTableRecord
  2
DIM
 70
    64
 62
     3
  6
CONTINUOUS
  0
LAYER
  5
81
100
AcDbSymbolTableRecord
100
AcDbLayerTableRecord
  2
TEXT
 70
    64
 62
     7
  6
CONTINUOUS
  0
LAYER
  5
9C
100
AcDbSymbolTableRecord
100
AcDbLayerTableRecord
  2
BORDER
 70
    64
 62
     6
  6
CONTINUOUS
  0
LAYER
  5
E5
100
AcDbSymbolTableRecord
100
AcDbLayerTableRecord
  2
FOOT-B
 70
    64
 62
     7
  6
CONTINUOUS
  0
LAYER
  5
165
100
AcDbSymbolTableRecord
100
AcDbLayerTableRecord
  2
FOOT-2
 70
    64
 62
     7
  6
CONTINUOUS
  0
LAYER
  5
1E5
100
AcDbSymbolTableRecord
100
AcDbLayerTableRecord
  2
HATCH
 70
    64
 62
     7
  6
CONTINUOUS
  0
LAYER
  5
24F
100
AcDbSymbolTableRecord
100
AcDbLayerTableRecord
  2
DEFPOINTS
 70
    64
 62
     7
  6
CONTINUOUS
  0
ENDTAB
  0
TABLE
  2
STYLE
  5
3
100
AcDbSymbolTable
 70
     3
  0
STYLE
  5
10
100
AcDbSymbolTableRecord
100
AcDbTextStyleTableRecord
  2
STANDARD
 70
    64
 40
0.0
 41
1.0
 50
0.0
 71
     0
 42
6.0
  3
txt
  4

  0
STYLE
  5
85
100
AcDbSymbolTableRecord
100
AcDbTextStyleTableRecord
  2
CIM_TB
 70
    64
 40
0.0
 41
1.0
 50
0.0
 71
     0
 42
0.2
  3
romans
  4

  0
STYLE
  5
9D
100
AcDbSymbolTableRecord
100
AcDbTextStyleTableRecord
  2
ADESK2
 70
    64
 40
0.0
 41
1.0
 50
0.0
 71
     0
 42
0.065
  3
romans
  4

  0
ENDTAB
  0
TABLE
  2
VIEW
  5
6
100
AcDbSymbolTable
 70
     0
  0
ENDTAB
  0
TABLE
  2
UCS
  5
7
100
AcDbSymbolTable
 70
     0
  0
ENDTAB
  0
TABLE
  2
APPID
  5
9
100
AcDbSymbolTable
 70
     6
  0
APPID
  5
11
100
AcDbSymbolTableRecord
100
AcDbRegAppTableRecord
  2
ACAD
 70
     0
  0
APPID
  5
5F
100
AcDbSymbolTableRecord
100
AcDbRegAppTableRecord
  2
AD_DRAW
 70
     0
  0
APPID
  5
77
100
AcDbSymbolTableRecord
100
AcDbRegAppTableRecord
  2
DESIGNERASSEMBLIES
 70
     0
  0
APPID
  5
78
100
AcDbSymbolTableRecord
100
AcDbRegAppTableRecord
  2
MCAD_NO_VIS
 70
     0
  0
APPID
  5
7E
100
AcDbSymbolTableRecord
100
AcDbRegAppTableRecord
  2
ASURF_PCURVE_APPNAME
 70
     0
  0
APPID
  5
82
100
AcDbSymbolTableRecord
100
AcDbRegAppTableRecord
  2
TB_S_MPD
 70
     0
  0
ENDTAB
  0
TABLE
  2
DIMSTYLE
  5
A
100
AcDbSymbolTable
 70
     6
  0
DIMSTYLE
105
1D
100
AcDbSymbolTableRecord
100
AcDbDimStyleTableRecord
  2
STANDARD
 70
     0
  3

  4

  5

  6

  7

 40
1.0
 41
0.18
 42
0.0625
 43
0.38
 44
0.18
 45
0.0
 46
0.0
 47
0.0
 48
0.0
140
0.18
141
0.09
142
0.0
143
25.4
144
1.0
145
0.0
146
1.0
147
0.09
 71
     0
 72
     0
 73
     1
 74
     1
 75
     0
 76
     0
 77
     0
 78
     0
170
     0
171
     2
172
     0
173
     0
174
     0
175
     0
176
     0
177
     0
178
     0
270
     2
271
     4
272
     4
273
     2
274
     2
340
10
275
     0
280
     0
281
     0
282
     0
283
     1
284
     0
285
     0
286
     0
287
     3
288
     0
  0
DIMSTYLE
105
8D
100
AcDbSymbolTableRecord
100
AcDbDimStyleTableRecord
  2
SU1
 70
     0
  3

  4

  5

  6

  7

 40
1.0
 41
0.18
 42
0.0625
 43
0.38
 44
0.18
 45
0.0
 46
0.0
 47
0.001
 48
0.0
140
0.18
141
0.09
142
0.0
143
25.4
144
1.0
145
0.0
146
1.0
147
0.09
 71
     0
 72
     0
 73
     1
 74
     1
 75
     0
 76
     0
 77
     0
 78
     0
170
     0
171
     2
172
     0
173
     0
174
     0
175
     0
176
     0
177
     0
178
     0
270
     2
271
     3
272
     3
273
     2
274
     2
340
10
275
     0
280
     0
281
     0
282
     0
283
     1
284
     0
285
     0
286
     0
287
     0
288
     0
  0
DIMSTYLE
105
8E
100
AcDbSymbolTableRecord
100
AcDbDimStyleTableRecord
  2
SU1$4
 70
     0
  3

  4

  5

  6

  7

 40
1.0
 41
0.18
 42
0.0625
 43
0.38
 44
0.18
 45
0.0
 46
0.0
 47
0.001
 48
0.0
140
0.18
141
0.09
142
0.0
143
25.4
144
1.0
145
0.0
146
1.0
147
0.09
 71
     0
 72
     0
 73
     1
 74
     1
 75
     0
 76
     0
 77
     0
 78
     0
170
     0
171
     2
172
     0
173
     0
174
     0
175
     0
176
     0
177
     0
178
     0
270
     2
271
     3
272
     3
273
     2
274
     2
340
10
275
     0
280
     0
281
     0
282
     0
283
     1
284
     0
285
     0
286
     0
287
     0
288
     1
  0
DIMSTYLE
105
8F
100
AcDbSymbolTableRecord
100
AcDbDimStyleTableRecord
  2
SU1$2
 70
     0
  3

  4

  5

  6

  7

 40
1.0
 41
0.18
 42
0.0625
 43
0.38
 44
0.18
 45
0.0
 46
0.0
 47
0.001
 48
0.0
140
0.18
141
0.09
142
0.0
143
25.4
144
1.0
145
0.0
146
1.0
147
0.09
 71
     0
 72
     0
 73
     1
 74
     1
 75
     0
 76
     0
 77
     0
 78
     0
170
     0
171
     2
172
     0
173
     0
174
     0
175
     0
176
     0
177
     0
178
     0
270
     2
271
     1
272
     3
273
     2
274
     2
340
10
275
     0
280
     0
281
     0
282
     0
283
     1
284
     0
285
     0
286
     0
287
     0
288
     0
  0
DIMSTYLE
105
90
100
AcDbSymbolTableRecord
100
AcDbDimStyleTableRecord
  2
SU1$3
 70
     0
  3

  4

  5

  6

  7

 40
1.0
 41
0.18
 42
0.0625
 43
0.38
 44
0.18
 45
0.0
 46
0.0
 47
0.001
 48
0.0
140
0.18
141
0.09
142
0.0
143
25.4
144
1.0
145
0.0
146
1.0
147
0.09
 71
     0
 72
     0
 73
     1
 74
     1
 75
     0
 76
     0
 77
     0
 78
     0
170
     0
171
     2
172
     0
173
     0
174
     0
175
     0
176
     0
177
     0
178
     0
270
     2
271
     3
272
     3
273
     2
274
     2
340
10
275
     0
280
     0
281
     0
282
     0
283
     1
284
     0
285
     0
286
     0
287
     0
288
     1
  0
DIMSTYLE
105
91
100
AcDbSymbolTableRecord
100
AcDbDimStyleTableRecord
  2
SU1$7
 70
     0
  3

  4

  5

  6

  7

 40
1.0
 41
0.18
 42
0.0625
 43
0.38
 44
0.18
 45
0.0
 46
0.0
 47
0.001
 48
0.0
140
0.18
141
0.09
142
0.0
143
25.4
144
1.0
145
0.0
146
1.0
147
0.09
 71
     0
 72
     0
 73
     1
 74
     1
 75
     0
 76
     0
 77
     0
 78
     0
170
     0
171
     2
172
     0
173
     0
174
     0
175
     0
176
     0
177
     0
178
     0
270
     2
271
     3
272
     3
273
     2
274
     2
340
10
275
     0
280
     0
281
     0
282
     0
283
     1
284
     0
285
     0
286
     0
287
     0
288
     1
  0
ENDTAB
  0
TABLE
  2
BLOCK_RECORD
  5
1
100
AcDbSymbolTable
 70
    39
  0
BLOCK_RECORD
  5
1A
100
AcDbSymbolTableRecord
100
AcDbBlockTableRecord
  2
*MODEL_SPACE
  0
BLOCK_RECORD
  5
17
100
AcDbSymbolTableRecord
100
AcDbBlockTableRecord
  2
*PAPER_SPACE
  0
BLOCK_RECORD
  5
6B
100
AcDbSymbolTableRecord
100
AcDbBlockTableRecord
  2
*U0
  0
BLOCK_RECORD
  5
9E
100
AcDbSymbolTableRecord
100
AcDbBlockTableRecord
  2
D-BORDER
  0
BLOCK_RECORD
  5
477
100
AcDbSymbolTableRecord
100
AcDbBlockTableRecord
  2
*D2
  0
BLOCK_RECORD
  5
48D
100
AcDbSymbolTableRecord
100
AcDbBlockTableRecord
  2
*D3
  0
BLOCK_RECORD
  5
EDE
100
AcDbSymbolTableRecord
100
AcDbBlockTableRecord
  2
*U5
  0
BLOCK_RECORD
  5
EE8
100
AcDbSymbolTableRecord
100
AcDbBlockTableRecord
  2
*U6
  0
BLOCK_RECORD
  5
EF2
100
AcDbSymbolTableRecord
100
AcDbBlockTableRecord
  2
*U7
  0
BLOCK_RECORD
  5
FAD
100
AcDbSymbolTableRecord
100
AcDbBlockTableRecord
  2
*X9
  0
BLOCK_RECORD
  5
FD1
100
AcDbSymbolTableRecord
100
AcDbBlockTableRecord
  2
*D10
  0
BLOCK_RECORD
  5
FE9
100
AcDbSymbolTableRecord
100
AcDbBlockTableRecord
  2
*D11
  0
BLOCK_RECORD
  5
FF6
100
AcDbSymbolTableRecord
100
AcDbBlockTableRecord
  2
*D12
  0
BLOCK_RECORD
  5
1003
100
AcDbSymbolTableRecord
100
AcDbBlockTableRecord
  2
*D13
  0
BLOCK_RECORD
  5
101D
100
AcDbSymbolTableRecord
100
AcDbBlockTableRecord
  2
*D14
  0
BLOCK_RECORD
  5
1036
100
AcDbSymbolTableRecord
100
AcDbBlockTableRecord
  2
*D15
  0
BLOCK_RECORD
  5
1044
100
AcDbSymbolTableRecord
100
AcDbBlockTableRecord
  2
*D16
  0
BLOCK_RECORD
  5
1051
100
AcDbSymbolTableRecord
100
AcDbBlockTableRecord
  2
*D17
  0
BLOCK_RECORD
  5
105F
100
AcDbSymbolTableRecord
100
AcDbBlockTableRecord
  2
*D18
  0
BLOCK_RECORD
  5
1085
100
AcDbSymbolTableRecord
100
AcDbBlockTableRecord
  2
*D19
  0
BLOCK_RECORD
  5
1092
100
AcDbSymbolTableRecord
100
AcDbBlockTableRecord
  2
*D20
  0
BLOCK_RECORD
  5
109F
100
AcDbSymbolTableRecord
100
AcDbBlockTableRecord
  2
*D21
  0
BLOCK_RECORD
  5
10AC
100
AcDbSymbolTableRecord
100
AcDbBlockTableRecord
  2
*D22
  0
BLOCK_RECORD
  5
10B9
100
AcDbSymbolTableRecord
100
AcDbBlockTableRecord
  2
*D23
  0
BLOCK_RECORD
  5
10C6
100
AcDbSymbolTableRecord
100
AcDbBlockTableRecord
  2
*D24
  0
BLOCK_RECORD
  5
10DE
100
AcDbSymbolTableRecord
100
AcDbBlockTableRecord
  2
*D25
  0
BLOCK_RECORD
  5
10ED
100
AcDbSymbolTableRecord
100
AcDbBlockTableRecord
  2
*D26
  0
BLOCK_RECORD
  5
10FC
100
AcDbSymbolTableRecord
100
AcDbBlockTableRecord
  2
*D27
  0
BLOCK_RECORD
  5
110B
100
AcDbSymbolTableRecord
100
AcDbBlockTableRecord
  2
*D28
  0
BLOCK_RECORD
  5
1119
100
AcDbSymbolTableRecord
100
AcDbBlockTableRecord
  2
*D29
  0
BLOCK_RECORD
  5
1135
100
AcDbSymbolTableRecord
100
AcDbBlockTableRecord
  2
*D30
  0
BLOCK_RECORD
  5
1144
100
AcDbSymbolTableRecord
100
AcDbBlockTableRecord
  2
*D31
  0
BLOCK_RECORD
  5
1153
100
AcDbSymbolTableRecord
100
AcDbBlockTableRecord
  2
*D32
  0
BLOCK_RECORD
  5
1162
100
AcDbSymbolTableRecord
100
AcDbBlockTableRecord
  2
*D33
  0
BLOCK_RECORD
  5
1198
100
AcDbSymbolTableRecord
100
AcDbBlockTableRecord
  2
*D34
  0
BLOCK_RECORD
  5
11AE
100
AcDbSymbolTableRecord
100
AcDbBlockTableRecord
  2
*D35
  0
BLOCK_RECORD
  5
11C4
100
AcDbSymbolTableRecord
100
AcDbBlockTableRecord
  2
*D36
  0
BLOCK_RECORD
  5
11D0
100
AcDbSymbolTableRecord
100
AcDbBlockTableRecord
  2
*D37
  0
BLOCK_RECORD
  5
1223
100
AcDbSymbolTableRecord
100
AcDbBlockTableRecord
  2
*D38
  0
ENDTAB
  0
ENDSEC
  0
SECTION
  2
BLOCKS
  0
BLOCK
  5
1B
100
AcDbEntity
  8
0
100
AcDbBlockBegin
  2
*MODEL_SPACE
 70
     0
 10
0.0
 20
0.0
 30
0.0
  3
*MODEL_SPACE
  1

  0
ENDBLK
  5
1C
100
AcDbEntity
  8
0
100
AcDbBlockEnd
  0
BLOCK
  5
18
100
AcDbEntity
 67
     1
  8
0
100
AcDbBlockBegin
  2
*PAPER_SPACE
 70
     0
 10
0.0
 20
0.0
 30
0.0
  3
*PAPER_SPACE
  1

  0
ENDBLK
  5
19
100
AcDbEntity
 67
     1
  8
0
100
AcDbBlockEnd
  0
BLOCK
  5
6C
100
AcDbEntity
  8
0
100
AcDbBlockBegin
  2
*U0
 70
     1
 10
0.0
 20
0.0
 30
0.0
  3
*U0
  1

  0
ENDBLK
  5
6D
100
AcDbEntity
  8
0
100
AcDbBlockEnd
  0
BLOCK
  5
E1
100
AcDbEntity
  8
0
100
AcDbBlockBegin
  2
D-BORDER
 70
     0
 10
0.0
 20
0.0
 30
0.0
  3
D-BORDER
  1

  0
LINE
  5
9F
100
AcDbEntity
  8
TEXT
100
AcDbLine
 10
0.125
 20
19.447595
 30
0.0
 11
2.6875
 21
19.447595
 31
0.0
  0
LINE
  5
A0
100
AcDbEntity
  8
TEXT
100
AcDbLine
 10
2.6875
 20
19.447595
 30
0.0
 11
2.6875
 21
19.947595
 31
0.0
  0
CIRCLE
  5
A1
100
AcDbEntity
  8
TEXT
100
AcDbCircle
 10
0.802871
 20
19.684056
 30
0.0
 40
0.1875
  0
CIRCLE
  5
A2
100
AcDbEntity
  8
TEXT
100
AcDbCircle
 10
0.802871
 20
19.684056
 30
0.0
 40
0.09375
  0
LINE
  5
A3
100
AcDbEntity
  8
TEXT
  6
CENTER
100
AcDbLine
 10
0.568951
 20
19.684056
 30
0.0
 11
2.021621
 21
19.684056
 31
0.0
  0
LINE
  5
A4
100
AcDbEntity
  8
TEXT
  6
CENTER
100
AcDbLine
 10
0.802871
 20
19.455375
 30
0.0
 11
0.802871
 21
19.923251
 31
0.0
  0
LINE
  5
A5
100
AcDbEntity
  8
TEXT
100
AcDbLine
 10
1.271621
 20
19.777806
 30
0.0
 11
1.756263
 21
19.871556
 31
0.0
  0
LINE
  5
A6
100
AcDbEntity
  8
TEXT
100
AcDbLine
 10
1.271621
 20
19.590306
 30
0.0
 11
1.756263
 21
19.496556
 31
0.0
  0
LINE
  5
A7
100
AcDbEntity
  8
TEXT
100
AcDbLine
 10
1.271621
 20
19.590306
 30
0.0
 11
1.271621
 21
19.777806
 31
0.0
  0
LINE
  5
A8
100
AcDbEntity
  8
TEXT
100
AcDbLine
 10
1.756263
 20
19.871556
 30
0.0
 11
1.756263
 21
19.496556
 31
0.0
  0
TEXT
  5
A9
100
AcDbEntity
  8
TEXT
100
AcDbText
 10
0.3125
 20
19.262423
 30
0.0
 40
0.1
  1
THIRD ANGLE PROJECTION
100
AcDbText
  0
LINE
  5
AA
100
AcDbEntity
  8
TEXT
100
AcDbLine
 10
2.6875
 20
19.447595
 30
0.0
 11
2.6875
 21
19.197595
 31
0.0
  0
LINE
  5
AB
100
AcDbEntity
  8
TEXT
100
AcDbLine
 10
2.6875
 20
19.197595
 30
0.0
 11
0.125
 21
19.197595
 31
0.0
  0
TEXT
  5
AC
100
AcDbEntity
  8
TEXT
100
AcDbText
 10
30.260292
 20
0.244377
 30
0.0
 40
0.065
  1
OF
  7
ADESK2
100
AcDbText
  0
TEXT
  5
AD
100
AcDbEntity
  8
TEXT
100
AcDbText
 10
26.500724
 20
0.974951
 30
0.0
 40
0.065
  1
DATE
  7
ADESK2
100
AcDbText
  0
LINE
  5
AE
100
AcDbEntity
  8
TEXT
100
AcDbLine
 10
26.377305
 20
1.091501
 30
0.0
 11
26.377305
 21
0.125
 31
0.0
  0
TEXT
  5
AF
100
AcDbEntity
  8
TEXT
100
AcDbText
 10
24.957321
 20
0.356501
 30
0.0
 40
0.065
  1
DESIGN
  7
ADESK2
100
AcDbText
  0
TEXT
  5
B0
100
AcDbEntity
  8
TEXT
100
AcDbText
 10
24.957321
 20
0.671501
 30
0.0
 40
0.065
  1
CHECKED
  7
ADESK2
100
AcDbText
  0
LINE
  5
B1
100
AcDbEntity
  8
TEXT
100
AcDbLine
 10
24.877321
 20
1.091501
 30
0.0
 11
26.877321
 21
1.091501
 31
0.0
  0
TEXT
  5
B2
100
AcDbEntity
  8
TEXT
100
AcDbText
 10
30.359702
 20
19.465196
 30
0.0
 40
0.065
  1
APPROVED
  7
ADESK2
100
AcDbText
  0
TEXT
  5
B3
100
AcDbEntity
  8
TEXT
100
AcDbText
 10
29.566002
 20
19.465196
 30
0.0
 40
0.065
  1
DATE
  7
ADESK2
100
AcDbText
  0
TEXT
  5
B4
100
AcDbEntity
  8
TEXT
100
AcDbText
 10
27.500302
 20
19.465196
 30
0.0
 40
0.065
  1
DESCRIPTION
  7
ADESK2
100
AcDbText
  0
TEXT
  5
B5
100
AcDbEntity
  8
TEXT
100
AcDbText
 10
26.198402
 20
19.465196
 30
0.0
 40
0.065
  1
REV
  7
ADESK2
100
AcDbText
  0
TEXT
  5
B6
100
AcDbEntity
  8
TEXT
100
AcDbText
 10
28.328502
 20
19.707396
 30
0.0
 40
0.065
  1
REVISIONS
  7
ADESK2
100
AcDbText
  0
LINE
  5
B7
100
AcDbEntity
  8
TEXT
100
AcDbLine
 10
30.118302
 20
19.374896
 30
0.0
 11
30.118302
 21
19.624896
 31
0.0
  0
LINE
  5
B8
100
AcDbEntity
  8
TEXT
100
AcDbLine
 10
29.238302
 20
19.374896
 30
0.0
 11
29.238302
 21
19.624896
 31
0.0
  0
LINE
  5
B9
100
AcDbEntity
  8
TEXT
100
AcDbLine
 10
26.498302
 20
19.374896
 30
0.0
 11
26.498302
 21
19.624896
 31
0.0
  0
LINE
  5
BA
100
AcDbEntity
  8
TEXT
100
AcDbLine
 10
26.108049
 20
19.934959
 30
0.0
 11
26.108049
 21
19.374896
 31
0.0
  0
LINE
  5
BB
100
AcDbEntity
  8
TEXT
100
AcDbLine
 10
26.108049
 20
19.374896
 30
0.0
 11
31.162356
 21
19.374896
 31
0.0
  0
LINE
  5
BC
100
AcDbEntity
  8
TEXT
100
AcDbLine
 10
26.108049
 20
19.624896
 30
0.0
 11
31.162356
 21
19.624896
 31
0.0
  0
TEXT
  5
BD
100
AcDbEntity
  8
TEXT
100
AcDbText
 10
30.827821
 20
0.667401
 30
0.0
 40
0.065
  1
REV
  7
ADESK2
100
AcDbText
  0
TEXT
  5
BE
100
AcDbEntity
  8
TEXT
100
AcDbText
 10
28.448321
 20
0.667401
 30
0.0
 40
0.065
  1
DWG NO.
  7
ADESK2
100
AcDbText
  0
TEXT
  5
BF
100
AcDbEntity
  8
TEXT
100
AcDbText
 10
26.965221
 20
0.667401
 30
0.0
 40
0.065
  1
SIZE
  7
ADESK2
100
AcDbText
  0
TEXT
  5
C0
100
AcDbEntity
  8
TEXT
100
AcDbText
 10
29.430121
 20
0.244001
 30
0.0
 40
0.065
  1
SHEET
  7
ADESK2
100
AcDbText
  0
TEXT
  5
C1
100
AcDbEntity
  8
TEXT
100
AcDbText
 10
26.929621
 20
0.244001
 30
0.0
 40
0.065
  1
SCALE
  7
ADESK2
100
AcDbText
  0
LINE
  5
C2
100
AcDbEntity
  8
TEXT
100
AcDbLine
 10
30.747321
 20
0.401501
 30
0.0
 11
30.747321
 21
0.781501
 31
0.0
  0
LINE
  5
C3
100
AcDbEntity
  8
TEXT
100
AcDbLine
 10
28.377321
 20
0.401501
 30
0.0
 11
28.377321
 21
0.781501
 31
0.0
  0
LINE
  5
C4
100
AcDbEntity
  8
TEXT
100
AcDbLine
 10
27.257321
 20
0.401501
 30
0.0
 11
27.257321
 21
0.781501
 31
0.0
  0
LINE
  5
C5
100
AcDbEntity
  8
TEXT
100
AcDbLine
 10
29.377321
 20
0.125
 30
0.0
 11
29.377321
 21
0.401501
 31
0.0
  0
LINE
  5
C6
100
AcDbEntity
  8
TEXT
100
AcDbLine
 10
27.877321
 20
0.125
 30
0.0
 11
27.877321
 21
0.401501
 31
0.0
  0
LINE
  5
C7
100
AcDbEntity
  8
BORDER
100
AcDbLine
 10
26.877321
 20
0.125
 30
0.0
 11
26.877321
 21
1.901501
 31
0.0
  0
LINE
  5
C8
100
AcDbEntity
  8
BORDER
100
AcDbLine
 10
26.877321
 20
1.401501
 30
0.0
 11
31.149118
 21
1.401501
 31
0.0
  0
LINE
  5
C9
100
AcDbEntity
  8
TEXT
100
AcDbLine
 10
26.877321
 20
0.401501
 30
0.0
 11
31.149118
 21
0.401501
 31
0.0
  0
LINE
  5
CA
100
AcDbEntity
  8
TEXT
100
AcDbLine
 10
24.877321
 20
0.781501
 30
0.0
 11
31.149118
 21
0.781501
 31
0.0
  0
LINE
  5
CB
100
AcDbEntity
  8
TEXT
100
AcDbLine
 10
24.877321
 20
0.466501
 30
0.0
 11
26.877321
 21
0.466501
 31
0.0
  0
LINE
  5
CC
100
AcDbEntity
  8
BORDER
100
AcDbLine
 10
24.877321
 20
1.901501
 30
0.0
 11
31.149118
 21
1.901501
 31
0.0
  0
LINE
  5
CD
100
AcDbEntity
  8
BORDER
100
AcDbLine
 10
24.877321
 20
0.125
 30
0.0
 11
24.877321
 21
2.324147
 31
0.0
  0
TEXT
  5
CE
100
AcDbEntity
  8
TEXT
100
AcDbText
 10
24.945631
 20
0.979964
 30
0.0
 40
0.065
  1
DRAWN
  7
ADESK2
100
AcDbText
  0
TEXT
  5
CF
100
AcDbEntity
  8
BORDER
100
AcDbText
 10
25.055285
 20
2.049228
 30
0.0
 40
0.15
  1
UNIVERSITY OF CALIFORNIA @ SANTA BARBARA
100
AcDbText
  0
LINE
  5
D0
100
AcDbEntity
  8
BORDER
100
AcDbLine
 10
24.87628
 20
2.324147
 30
0.0
 11
31.149118
 21
2.324147
 31
0.0
  0
LINE
  5
D1
100
AcDbEntity
  8
BORDER
100
AcDbLine
 10
31.17142
 20
0.125
 30
0.0
 11
31.17142
 21
19.947595
 31
0.0
  0
LINE
  5
D2
100
AcDbEntity
  8
BORDER
100
AcDbLine
 10
0.125
 20
19.947595
 30
0.0
 11
0.125
 21
0.125
 31
0.0
  0
LINE
  5
D3
100
AcDbEntity
  8
BORDER
100
AcDbLine
 10
0.125
 20
0.125
 30
0.0
 11
31.17142
 21
0.125
 31
0.0
  0
TEXT
  5
D4
100
AcDbEntity
  8
TEXT
100
AcDbText
 10
27.328393
 20
0.665354
 30
0.0
 40
0.075
  1
DIRECTORY
100
AcDbText
  0
LINE
  5
D5
100
AcDbEntity
  8
BORDER
100
AcDbLine
 10
0.125
 20
19.947595
 30
0.0
 11
31.17142
 21
19.947595
 31
0.0
  0
TEXT
  5
D6
100
AcDbEntity
  8
BORDER
100
AcDbText
 10
27.564864
 20
1.575566
 30
0.0
 40
0.15
  1
HIGH ENERGY PHYSICS
100
AcDbText
  0
TEXT
  5
D7
100
AcDbEntity
  8
BORDER
100
AcDbText
 10
27.001167
 20
0.434778
 30
0.0
 40
0.2
  1
D
100
AcDbText
  0
TEXT
  5
D8
100
AcDbEntity
  8
TEXT
100
AcDbText
 10
25.106606
 20
1.785089
 30
0.0
 40
0.065
  1
UNLESS OTHERWISE SPECIFIED:
  7
ADESK2
 72
     1
 11
25.877321
 21
1.785089
 31
0.0
100
AcDbText
  0
TEXT
  5
D9
100
AcDbEntity
  8
TEXT
100
AcDbText
 10
25.180892
 20
1.679851
 30
0.0
 40
0.065
  1
DIMENSIONS ARE IN INCHES
  7
ADESK2
 72
     1
 11
25.877321
 21
1.679851
 31
0.0
100
AcDbText
  0
TEXT
  5
DA
100
AcDbEntity
  8
TEXT
100
AcDbText
 10
25.57863
 20
1.574613
 30
0.0
 40
0.065
  1
TOLERANCES
  7
ADESK2
 72
     1
 11
25.877321
 21
1.574613
 31
0.0
100
AcDbText
  0
TEXT
  5
DB
100
AcDbEntity
  8
TEXT
100
AcDbText
 10
25.192279
 20
1.466743
 30
0.0
 40
0.065
  1
DECIMALS
  7
ADESK2
100
AcDbText
  0
TEXT
  5
DC
100
AcDbEntity
  8
TEXT
100
AcDbText
 10
25.192279
 20
1.361505
 30
0.0
 40
0.065
  1
.XX  %%P .05
  7
ADESK2
100
AcDbText
  0
TEXT
  5
DD
100
AcDbEntity
  8
TEXT
100
AcDbText
 10
25.192279
 20
1.256267
 30
0.0
 40
0.065
  1
.XXX %%P .005
  7
ADESK2
100
AcDbText
  0
TEXT
  5
DE
100
AcDbEntity
  8
TEXT
100
AcDbText
 10
25.262916
 20
1.153744
 30
0.0
 40
0.065
  1
DO NOT SCALE DRAWING
  7
ADESK2
 72
     1
 11
25.877321
 21
1.153744
 31
0.0
100
AcDbText
  0
TEXT
  5
DF
100
AcDbEntity
  8
TEXT
100
AcDbText
 10
26.056176
 20
1.466743
 30
0.0
 40
0.065
  1
ANGULAR
  7
ADESK2
100
AcDbText
  0
TEXT
  5
E0
100
AcDbEntity
  8
TEXT
100
AcDbText
 10
26.056176
 20
1.361505
 30
0.0
 40
0.065
  1
  %%P 0.5%%D
  7
ADESK2
100
AcDbText
  0
ENDBLK
  5
E2
100
AcDbEntity
  8
0
100
AcDbBlockEnd
  0
BLOCK
  5
1184
100
AcDbEntity
  8
0
100
AcDbBlockBegin
  2
*D2
 70
    65
 10
0.0
 20
0.0
 30
0.0
  3
*D2
  1
*TB
  0
LINE
  5
1185
100
AcDbEntity
  8
0
  6
BYBLOCK
 62
     0
100
AcDbLine
 10
405.747774
 20
462.421581
 30
0.0
 11
397.037945
 21
451.009015
 31
0.0
  0
LINE
  5
1186
100
AcDbEntity
  8
0
  6
BYBLOCK
 62
     0
100
AcDbLine
 10
397.037945
 20
451.009015
 30
0.0
 11
392.465945
 21
451.009015
 31
0.0
  0
SOLID
  5
1187
100
AcDbEntity
  8
0
  6
BYBLOCK
 62
     0
100
AcDbTrace
 10
405.142027
 20
462.883874
 30
0.0
 11
406.35352
 21
461.959288
 31
0.0
 12
408.521532
 22
466.056062
 32
0.0
 13
408.521532
 23
466.056062
 33
0.0
  0
MTEXT
  5
1188
100
AcDbEntity
  8
0
  6
BYBLOCK
 62
     0
100
AcDbMText
 10
361.223945
 20
451.009015
 30
0.0
 40
4.572
 41
0.0
 71
     5
 72
     1
  1
\A1;{R1.59mm[R0.062"]}\P{4X}
  0
LINE
  5
1189
100
AcDbEntity
  8
0
  6
BYBLOCK
 62
     0
100
AcDbLine
 10
407.198643
 20
467.318034
 30
0.0
 11
411.770643
 21
467.318034
 31
0.0
  0
LINE
  5
118A
100
AcDbEntity
  8
0
  6
BYBLOCK
 62
     0
100
AcDbLine
 10
409.484643
 20
465.032034
 30
0.0
 11
409.484643
 21
469.604034
 31
0.0
  0
POINT
  5
118B
100
AcDbEntity
  8
DEFPOINTS
  6
BYBLOCK
 62
     0
100
AcDbPoint
 10
408.521532
 20
466.056062
 30
0.0
  0
POINT
  5
118C
100
AcDbEntity
  8
DEFPOINTS
  6
BYBLOCK
 62
     0
100
AcDbPoint
 10
409.484643
 20
467.318034
 30
0.0
  0
ENDBLK
  5
118D
100
AcDbEntity
  8
0
100
AcDbBlockEnd
  0
BLOCK
  5
118E
100
AcDbEntity
  8
0
100
AcDbBlockBegin
  2
*D3
 70
    65
 10
0.0
 20
0.0
 30
0.0
  3
*D3
  1
*TB
  0
LINE
  5
118F
100
AcDbEntity
  8
0
  6
BYBLOCK
 62
     0
100
AcDbLine
 10
423.32501
 20
466.148597
 30
0.0
 11
393.554443
 21
429.322054
 31
0.0
  0
LINE
  5
1190
100
AcDbEntity
  8
0
  6
BYBLOCK
 62
     0
100
AcDbLine
 10
393.554443
 20
429.322054
 30
0.0
 11
388.982443
 21
429.322054
 31
0.0
  0
SOLID
  5
1191
100
AcDbEntity
  8
0
  6
BYBLOCK
 62
     0
100
AcDbTrace
 10
422.732424
 20
466.627644
 30
0.0
 11
423.917596
 21
465.669551
 31
0.0
 12
426.199289
 22
469.704114
 32
0.0
 13
426.199289
 23
469.704114
 33
0.0
  0
MTEXT
  5
1192
100
AcDbEntity
  8
0
  6
BYBLOCK
 62
     0
100
AcDbMText
 10
331.451443
 20
429.322054
 30
0.0
 40
4.572
 41
0.0
 71
     5
 72
     1
  1
\A1;{\U+22052.38mm±0.03mm[\U+22050.094"±0.001"]}\P{4X}
  0
LINE
  5
1193
100
AcDbEntity
  8
0
  6
BYBLOCK
 62
     0
100
AcDbLine
 10
424.662199
 20
470.630524
 30
0.0
 11
429.234199
 21
470.630524
 31
0.0
  0
LINE
  5
1194
100
AcDbEntity
  8
0
  6
BYBLOCK
 62
     0
100
AcDbLine
 10
426.948199
 20
468.344524
 30
0.0
 11
426.948199
 21
472.916524
 31
0.0
  0
POINT
  5
1195
100
AcDbEntity
  8
DEFPOINTS
  6
BYBLOCK
 62
     0
100
AcDbPoint
 10
426.199289
 20
469.704114
 30
0.0
  0
POINT
  5
1196
100
AcDbEntity
  8
DEFPOINTS
  6
BYBLOCK
 62
     0
100
AcDbPoint
 10
427.697108
 20
471.556934
 30
0.0
  0
ENDBLK
  5
1197
100
AcDbEntity
  8
0
100
AcDbBlockEnd
  0
BLOCK
  5
EE6
100
AcDbEntity
  8
0
100
AcDbBlockBegin
  2
*U5
 70
    65
 10
0.0
 20
0.0
 30
0.0
  3
*U5
  1
*TB
  0
CIRCLE
  5
EDF
100
AcDbEntity
  8
FOOT-2
100
AcDbCircle
 10
0.0
 20
0.0
 30
0.0
 40
0.046875
  0
LINE
  5
EE0
100
AcDbEntity
  8
CENTER
100
AcDbLine
 10
-0.015625
 20
0.0
 30
0.0
 11
0.015625
 21
0.0
 31
0.0
  0
LINE
  5
EE1
100
AcDbEntity
  8
CENTER
100
AcDbLine
 10
0.0
 20
-0.015625
 30
0.0
 11
0.0
 21
0.015625
 31
0.0
  0
LINE
  5
EE2
100
AcDbEntity
  8
CENTER
100
AcDbLine
 10
0.03125
 20
0.0
 30
0.0
 11
0.171875
 21
0.0
 31
0.0
  0
LINE
  5
EE3
100
AcDbEntity
  8
CENTER
100
AcDbLine
 10
0.0
 20
0.03125
 30
0.0
 11
0.0
 21
0.171875
 31
0.0
  0
LINE
  5
EE4
100
AcDbEntity
  8
CENTER
100
AcDbLine
 10
-0.03125
 20
0.0
 30
0.0
 11
-0.171875
 21
0.0
 31
0.0
  0
LINE
  5
EE5
100
AcDbEntity
  8
CENTER
100
AcDbLine
 10
0.0
 20
-0.03125
 30
0.0
 11
0.0
 21
-0.171875
 31
0.0
  0
ENDBLK
  5
EE7
100
AcDbEntity
  8
0
100
AcDbBlockEnd
  0
BLOCK
  5
EF0
100
AcDbEntity
  8
0
100
AcDbBlockBegin
  2
*U6
 70
    65
 10
0.0
 20
0.0
 30
0.0
  3
*U6
  1
*TB
  0
CIRCLE
  5
EE9
100
AcDbEntity
  8
FOOT-2
100
AcDbCircle
 10
0.0
 20
0.0
 30
0.0
 40
0.058
  0
LINE
  5
EEA
100
AcDbEntity
  8
CENTER
100
AcDbLine
 10
-0.019333
 20
0.0
 30
0.0
 11
0.019333
 21
0.0
 31
0.0
  0
LINE
  5
EEB
100
AcDbEntity
  8
CENTER
100
AcDbLine
 10
0.0
 20
-0.019333
 30
0.0
 11
0.0
 21
0.019333
 31
0.0
  0
LINE
  5
EEC
100
AcDbEntity
  8
CENTER
100
AcDbLine
 10
0.038667
 20
0.0
 30
0.0
 11
0.183
 21
0.0
 31
0.0
  0
LINE
  5
EED
100
AcDbEntity
  8
CENTER
100
AcDbLine
 10
0.0
 20
0.038667
 30
0.0
 11
0.0
 21
0.183
 31
0.0
  0
LINE
  5
EEE
100
AcDbEntity
  8
CENTER
100
AcDbLine
 10
-0.038667
 20
0.0
 30
0.0
 11
-0.183
 21
0.0
 31
0.0
  0
LINE
  5
EEF
100
AcDbEntity
  8
CENTER
100
AcDbLine
 10
0.0
 20
-0.038667
 30
0.0
 11
0.0
 21
-0.183
 31
0.0
  0
ENDBLK
  5
EF1
100
AcDbEntity
  8
0
100
AcDbBlockEnd
  0
BLOCK
  5
F05
100
AcDbEntity
  8
0
100
AcDbBlockBegin
  2
*U7
 70
    65
 10
0.0
 20
0.0
 30
0.0
  3
*U7
  1
*TB
  0
POLYLINE
  5
EF3
100
AcDbEntity
  8
FOOT-2
100
AcDb2dPolyline
 66
     1
 10
0.0
 20
0.0
 30
0.0
 70
     1
  0
VERTEX
  5
EF4
100
AcDbEntity
  8
FOOT-2
100
AcDbVertex
100
AcDb2dVertex
 10
0.0
 20
0.063
 30
0.0
 42
1.0
  0
VERTEX
  5
EF5
100
AcDbEntity
  8
FOOT-2
100
AcDbVertex
100
AcDb2dVertex
 10
0.0
 20
-0.063
 30
0.0
  0
VERTEX
  5
EF6
100
AcDbEntity
  8
FOOT-2
100
AcDbVertex
100
AcDb2dVertex
 10
0.176
 20
-0.063
 30
0.0
 42
1.0
  0
VERTEX
  5
EF7
100
AcDbEntity
  8
FOOT-2
100
AcDbVertex
100
AcDb2dVertex
 10
0.176
 20
0.063
 30
0.0
  0
SEQEND
  5
EF8
100
AcDbEntity
  8
FOOT-2
  0
LINE
  5
EF9
100
AcDbEntity
  8
CENTER
100
AcDbLine
 10
-0.021
 20
0.0
 30
0.0
 11
0.021
 21
0.0
 31
0.0
  0
LINE
  5
EFA
100
AcDbEntity
  8
CENTER
100
AcDbLine
 10
0.0
 20
-0.021
 30
0.0
 11
0.0
 21
0.021
 31
0.0
  0
LINE
  5
EFB
100
AcDbEntity
  8
CENTER
100
AcDbLine
 10
0.042
 20
0.0
 30
0.0
 11
0.188
 21
0.0
 31
0.0
  0
LINE
  5
EFC
100
AcDbEntity
  8
CENTER
100
AcDbLine
 10
0.0
 20
0.042
 30
0.0
 11
0.0
 21
0.188
 31
0.0
  0
LINE
  5
EFD
100
AcDbEntity
  8
CENTER
100
AcDbLine
 10
-0.042
 20
0.0
 30
0.0
 11
-0.188
 21
0.0
 31
0.0
  0
LINE
  5
EFE
100
AcDbEntity
  8
CENTER
100
AcDbLine
 10
0.0
 20
-0.042
 30
0.0
 11
0.0
 21
-0.188
 31
0.0
  0
LINE
  5
EFF
100
AcDbEntity
  8
CENTER
100
AcDbLine
 10
0.155
 20
0.0
 30
0.0
 11
0.197
 21
0.0
 31
0.0
  0
LINE
  5
F00
100
AcDbEntity
  8
CENTER
100
AcDbLine
 10
0.176
 20
-0.021
 30
0.0
 11
0.176
 21
0.021
 31
0.0
  0
LINE
  5
F01
100
AcDbEntity
  8
CENTER
100
AcDbLine
 10
0.218
 20
0.0
 30
0.0
 11
0.364
 21
0.0
 31
0.0
  0
LINE
  5
F02
100
AcDbEntity
  8
CENTER
100
AcDbLine
 10
0.176
 20
0.042
 30
0.0
 11
0.176
 21
0.188
 31
0.0
  0
LINE
  5
F03
100
AcDbEntity
  8
CENTER
100
AcDbLine
 10
0.134
 20
0.0
 30
0.0
 11
-0.012
 21
0.0
 31
0.0
  0
LINE
  5
F04
100
AcDbEntity
  8
CENTER
100
AcDbLine
 10
0.176
 20
-0.042
 30
0.0
 11
0.176
 21
-0.188
 31
0.0
  0
ENDBLK
  5
F06
100
AcDbEntity
  8
0
100
AcDbBlockEnd
  0
BLOCK
  5
FAE
100
AcDbEntity
  8
0
100
AcDbBlockBegin
  2
*X9
 70
    65
 10
0.0
 20
0.0
 30
0.0
  3
*X9
  1
*TB
  0
LINE
  5
FB0
100
AcDbEntity
  8
0
 62
     0
100
AcDbLine
 10
287.475767
 20
98.324703
 30
0.0
 11
288.237767
 21
99.086703
 31
0.0
  0
LINE
  5
FB1
100
AcDbEntity
  8
0
 62
     0
100
AcDbLine
 10
285.708001
 20
98.324703
 30
0.0
 11
286.470001
 21
99.086703
 31
0.0
  0
LINE
  5
FB2
100
AcDbEntity
  8
0
 62
     0
100
AcDbLine
 10
283.940234
 20
98.324703
 30
0.0
 11
284.702234
 21
99.086703
 31
0.0
  0
LINE
  5
FB3
100
AcDbEntity
  8
0
 62
     0
100
AcDbLine
 10
282.172467
 20
98.324703
 30
0.0
 11
282.934467
 21
99.086703
 31
0.0
  0
LINE
  5
FB4
100
AcDbEntity
  8
0
 62
     0
100
AcDbLine
 10
280.4047
 20
98.324703
 30
0.0
 11
281.1667
 21
99.086703
 31
0.0
  0
LINE
  5
FB5
100
AcDbEntity
  8
0
 62
     0
100
AcDbLine
 10
278.636933
 20
98.324703
 30
0.0
 11
279.398933
 21
99.086703
 31
0.0
  0
LINE
  5
FB6
100
AcDbEntity
  8
0
 62
     0
100
AcDbLine
 10
276.869166
 20
98.324703
 30
0.0
 11
277.631166
 21
99.086703
 31
0.0
  0
LINE
  5
FB7
100
AcDbEntity
  8
0
 62
     0
100
AcDbLine
 10
275.101399
 20
98.324703
 30
0.0
 11
275.863399
 21
99.086703
 31
0.0
  0
LINE
  5
FB8
100
AcDbEntity
  8
0
 62
     0
100
AcDbLine
 10
273.333632
 20
98.324703
 30
0.0
 11
274.095632
 21
99.086703
 31
0.0
  0
LINE
  5
FB9
100
AcDbEntity
  8
0
 62
     0
100
AcDbLine
 10
271.565865
 20
98.324703
 30
0.0
 11
272.327865
 21
99.086703
 31
0.0
  0
LINE
  5
FBA
100
AcDbEntity
  8
0
 62
     0
100
AcDbLine
 10
269.798098
 20
98.324703
 30
0.0
 11
270.560098
 21
99.086703
 31
0.0
  0
LINE
  5
FBB
100
AcDbEntity
  8
0
 62
     0
100
AcDbLine
 10
268.030331
 20
98.324703
 30
0.0
 11
268.792331
 21
99.086703
 31
0.0
  0
LINE
  5
FBC
100
AcDbEntity
  8
0
 62
     0
100
AcDbLine
 10
266.262564
 20
98.324703
 30
0.0
 11
267.024564
 21
99.086703
 31
0.0
  0
LINE
  5
FBD
100
AcDbEntity
  8
0
 62
     0
100
AcDbLine
 10
264.494797
 20
98.324703
 30
0.0
 11
265.256797
 21
99.086703
 31
0.0
  0
LINE
  5
FBE
100
AcDbEntity
  8
0
 62
     0
100
AcDbLine
 10
262.72703
 20
98.324703
 30
0.0
 11
263.48903
 21
99.086703
 31
0.0
  0
LINE
  5
FBF
100
AcDbEntity
  8
0
 62
     0
100
AcDbLine
 10
261.201475
 20
98.566916
 30
0.0
 11
261.721263
 21
99.086703
 31
0.0
  0
LINE
  5
FC0
100
AcDbEntity
  8
0
 62
     0
100
AcDbLine
 10
289.243534
 20
98.324703
 30
0.0
 11
290.005534
 21
99.086703
 31
0.0
  0
LINE
  5
FC1
100
AcDbEntity
  8
0
 62
     0
100
AcDbLine
 10
291.011301
 20
98.324703
 30
0.0
 11
291.773301
 21
99.086703
 31
0.0
  0
LINE
  5
FC2
100
AcDbEntity
  8
0
 62
     0
100
AcDbLine
 10
292.779068
 20
98.324703
 30
0.0
 11
293.541068
 21
99.086703
 31
0.0
  0
LINE
  5
FC3
100
AcDbEntity
  8
0
 62
     0
100
AcDbLine
 10
294.546835
 20
98.324703
 30
0.0
 11
295.308835
 21
99.086703
 31
0.0
  0
LINE
  5
FC4
100
AcDbEntity
  8
0
 62
     0
100
AcDbLine
 10
296.314602
 20
98.324703
 30
0.0
 11
297.076602
 21
99.086703
 31
0.0
  0
LINE
  5
FC5
100
AcDbEntity
  8
0
 62
     0
100
AcDbLine
 10
298.082369
 20
98.324703
 30
0.0
 11
298.844369
 21
99.086703
 31
0.0
  0
LINE
  5
FC6
100
AcDbEntity
  8
0
 62
     0
100
AcDbLine
 10
299.850136
 20
98.324703
 30
0.0
 11
300.612136
 21
99.086703
 31
0.0
  0
LINE
  5
FC7
100
AcDbEntity
  8
0
 62
     0
100
AcDbLine
 10
301.617903
 20
98.324703
 30
0.0
 11
302.379903
 21
99.086703
 31
0.0
  0
LINE
  5
FC8
100
AcDbEntity
  8
0
 62
     0
100
AcDbLine
 10
303.38567
 20
98.324703
 30
0.0
 11
304.14767
 21
99.086703
 31
0.0
  0
LINE
  5
FC9
100
AcDbEntity
  8
0
 62
     0
100
AcDbLine
 10
305.153437
 20
98.324703
 30
0.0
 11
306.384642
 21
99.555909
 31
0.0
  0
LINE
  5
FCA
100
AcDbEntity
  8
0
 62
     0
100
AcDbLine
 10
308.245196
 20
99.648696
 30
0.0
 11
309.988839
 21
101.392339
 31
0.0
  0
LINE
  5
FCB
100
AcDbEntity
  8
0
 62
     0
100
AcDbLine
 10
311.849393
 20
101.485126
 30
0.0
 11
313.593037
 21
103.228769
 31
0.0
  0
LINE
  5
FCC
100
AcDbEntity
  8
0
 62
     0
100
AcDbLine
 10
315.45359
 20
103.321556
 30
0.0
 11
317.197234
 21
105.065199
 31
0.0
  0
LINE
  5
FCD
100
AcDbEntity
  8
0
 62
     0
100
AcDbLine
 10
319.057788
 20
105.157986
 30
0.0
 11
320.801431
 21
106.901629
 31
0.0
  0
LINE
  5
FCE
100
AcDbEntity
  8
0
 62
     0
100
AcDbLine
 10
322.661985
 20
106.994416
 30
0.0
 11
324.405628
 21
108.73806
 31
0.0
  0
LINE
  5
FCF
100
AcDbEntity
  8
0
 62
     0
100
AcDbLine
 10
326.266182
 20
108.830847
 30
0.0
 11
328.009825
 21
110.57449
 31
0.0
  0
ENDBLK
  5
FD0
100
AcDbEntity
  8
0
100
AcDbBlockEnd
  0
BLOCK
  5
FDE
100
AcDbEntity
  8
0
100
AcDbBlockBegin
  2
*D10
 70
    65
 10
0.0
 20
0.0
 30
0.0
  3
*D10
  1
*TB
  0
LINE
  5
FDF
100
AcDbEntity
  8
0
  6
BYBLOCK
 62
     0
100
AcDbLine
 10
407.897143
 20
96.737203
 30
0.0
 11
407.897143
 21
60.616132
 31
0.0
  0
LINE
  5
FE0
100
AcDbEntity
  8
0
  6
BYBLOCK
 62
     0
100
AcDbLine
 10
470.432533
 20
65.188132
 30
0.0
 11
475.004533
 21
65.188132
 31
0.0
  0
LINE
  5
FE1
100
AcDbEntity
  8
0
  6
BYBLOCK
 62
     0
100
AcDbLine
 10
403.325143
 20
65.188132
 30
0.0
 11
398.753143
 21
65.188132
 31
0.0
  0
SOLID
  5
FE2
100
AcDbEntity
  8
0
  6
BYBLOCK
 62
     0
100
AcDbTrace
 10
470.432533
 20
65.950132
 30
0.0
 11
470.432533
 21
64.426132
 31
0.0
 12
465.860533
 22
65.188132
 32
0.0
 13
465.860533
 23
65.188132
 33
0.0
  0
SOLID
  5
FE3
100
AcDbEntity
  8
0
  6
BYBLOCK
 62
     0
100
AcDbTrace
 10
403.325143
 20
65.950132
 30
0.0
 11
403.325143
 21
64.426132
 31
0.0
 12
407.897143
 22
65.188132
 32
0.0
 13
407.897143
 23
65.188132
 33
0.0
  0
MTEXT
  5
FE4
100
AcDbEntity
  8
0
  6
BYBLOCK
 62
     0
100
AcDbMText
 10
368.273143
 20
65.188132
 30
0.0
 40
4.572
 41
0.0
 71
     5
 72
     1
  1
\A1;57.96mm[2.282"]
  0
POINT
  5
FE5
100
AcDbEntity
  8
DEFPOINTS
  6
BYBLOCK
 62
     0
100
AcDbPoint
 10
465.860533
 20
39.622604
 30
0.0
  0
POINT
  5
FE6
100
AcDbEntity
  8
DEFPOINTS
  6
BYBLOCK
 62
     0
100
AcDbPoint
 10
407.897143
 20
98.324703
 30
0.0
  0
POINT
  5
FE7
100
AcDbEntity
  8
DEFPOINTS
  6
BYBLOCK
 62
     0
100
AcDbPoint
 10
407.897143
 20
65.188132
 30
0.0
  0
ENDBLK
  5
FE8
100
AcDbEntity
  8
0
100
AcDbBlockEnd
  0
BLOCK
  5
FEA
100
AcDbEntity
  8
0
100
AcDbBlockBegin
  2
*D11
 70
    65
 10
0.0
 20
0.0
 30
0.0
  3
*D11
  1
*TB
  0
LINE
  5
FEB
100
AcDbEntity
  8
0
  6
BYBLOCK
 62
     0
100
AcDbLine
 10
426.948199
 20
99.034355
 30
0.0
 11
426.948199
 21
49.583081
 31
0.0
  0
LINE
  5
FEC
100
AcDbEntity
  8
0
  6
BYBLOCK
 62
     0
100
AcDbLine
 10
470.432533
 20
54.155081
 30
0.0
 11
475.004533
 21
54.155081
 31
0.0
  0
LINE
  5
FED
100
AcDbEntity
  8
0
  6
BYBLOCK
 62
     0
100
AcDbLine
 10
422.376199
 20
54.155081
 30
0.0
 11
417.804199
 21
54.155081
 31
0.0
  0
SOLID
  5
FEE
100
AcDbEntity
  8
0
  6
BYBLOCK
 62
     0
100
AcDbTrace
 10
470.432533
 20
54.917081
 30
0.0
 11
470.432533
 21
53.393081
 31
0.0
 12
465.860533
 22
54.155081
 32
0.0
 13
465.860533
 23
54.155081
 33
0.0
  0
SOLID
  5
FEF
100
AcDbEntity
  8
0
  6
BYBLOCK
 62
     0
100
AcDbTrace
 10
422.376199
 20
54.917081
 30
0.0
 11
422.376199
 21
53.393081
 31
0.0
 12
426.948199
 22
54.155081
 32
0.0
 13
426.948199
 23
54.155081
 33
0.0
  0
MTEXT
  5
FF0
100
AcDbEntity
  8
0
  6
BYBLOCK
 62
     0
100
AcDbMText
 10
363.321199
 20
54.155081
 30
0.0
 40
4.572
 41
0.0
 71
     5
 72
     1
  1
\A1;38.91mm±0.03mm[1.532"±0.001"]
  0
POINT
  5
FF1
100
AcDbEntity
  8
DEFPOINTS
  6
BYBLOCK
 62
     0
100
AcDbPoint
 10
465.860533
 20
39.622604
 30
0.0
  0
POINT
  5
FF2
100
AcDbEntity
  8
DEFPOINTS
  6
BYBLOCK
 62
     0
100
AcDbPoint
 10
426.948199
 20
100.621855
 30
0.0
  0
POINT
  5
FF3
100
AcDbEntity
  8
DEFPOINTS
  6
BYBLOCK
 62
     0
100
AcDbPoint
 10
426.948199
 20
54.155081
 30
0.0
  0
ENDBLK
  5
FF4
100
AcDbEntity
  8
0
100
AcDbBlockEnd
  0
BLOCK
  5
102B
100
AcDbEntity
  8
0
100
AcDbBlockBegin
  2
*D12
 70
    65
 10
0.0
 20
0.0
 30
0.0
  3
*D12
  1
*TB
  0
LINE
  5
102C
100
AcDbEntity
  8
0
  6
BYBLOCK
 62
     0
100
AcDbLine
 10
456.382527
 20
109.912183
 30
0.0
 11
456.382527
 21
138.416552
 31
0.0
  0
LINE
  5
102D
100
AcDbEntity
  8
0
  6
BYBLOCK
 62
     0
100
AcDbLine
 10
470.432533
 20
133.844552
 30
0.0
 11
475.004533
 21
133.844552
 31
0.0
  0
LINE
  5
102E
100
AcDbEntity
  8
0
  6
BYBLOCK
 62
     0
100
AcDbLine
 10
451.810527
 20
133.844552
 30
0.0
 11
447.238527
 21
133.844552
 31
0.0
  0
SOLID
  5
102F
100
AcDbEntity
  8
0
  6
BYBLOCK
 62
     0
100
AcDbTrace
 10
470.432533
 20
134.606552
 30
0.0
 11
470.432533
 21
133.082552
 31
0.0
 12
465.860533
 22
133.844552
 32
0.0
 13
465.860533
 23
133.844552
 33
0.0
  0
SOLID
  5
1030
100
AcDbEntity
  8
0
  6
BYBLOCK
 62
     0
100
AcDbTrace
 10
451.810527
 20
134.606552
 30
0.0
 11
451.810527
 21
133.082552
 31
0.0
 12
456.382527
 22
133.844552
 32
0.0
 13
456.382527
 23
133.844552
 33
0.0
  0
MTEXT
  5
1031
100
AcDbEntity
  8
0
  6
BYBLOCK
 62
     0
100
AcDbMText
 10
419.425527
 20
133.844552
 30
0.0
 40
4.572
 41
0.0
 71
     5
 72
     1
  1
\A1;9.48mm[0.373"]
  0
POINT
  5
1032
100
AcDbEntity
  8
DEFPOINTS
  6
BYBLOCK
 62
     0
100
AcDbPoint
 10
465.860533
 20
39.622604
 30
0.0
  0
POINT
  5
1033
100
AcDbEntity
  8
DEFPOINTS
  6
BYBLOCK
 62
     0
100
AcDbPoint
 10
456.382527
 20
108.324683
 30
0.0
  0
POINT
  5
1034
100
AcDbEntity
  8
DEFPOINTS
  6
BYBLOCK
 62
     0
100
AcDbPoint
 10
456.382527
 20
133.844552
 30
0.0
  0
ENDBLK
  5
1035
100
AcDbEntity
  8
0
100
AcDbBlockEnd
  0
BLOCK
  5
1011
100
AcDbEntity
  8
0
100
AcDbBlockBegin
  2
*D13
 70
    65
 10
0.0
 20
0.0
 30
0.0
  3
*D13
  1
*TB
  0
LINE
  5
1012
100
AcDbEntity
  8
0
  6
BYBLOCK
 62
     0
100
AcDbLine
 10
423.072171
 20
103.424693
 30
0.0
 11
225.793163
 21
103.424693
 31
0.0
  0
LINE
  5
1013
100
AcDbEntity
  8
0
  6
BYBLOCK
 62
     0
100
AcDbLine
 10
230.365163
 20
98.852693
 30
0.0
 11
230.365163
 21
94.280693
 31
0.0
  0
LINE
  5
1014
100
AcDbEntity
  8
0
  6
BYBLOCK
 62
     0
100
AcDbLine
 10
230.365163
 20
114.182863
 30
0.0
 11
230.365163
 21
118.754863
 31
0.0
  0
LINE
  5
1015
100
AcDbEntity
  8
0
  6
BYBLOCK
 62
     0
100
AcDbLine
 10
230.365163
 20
118.754863
 30
0.0
 11
234.937163
 21
118.754863
 31
0.0
  0
SOLID
  5
1016
100
AcDbEntity
  8
0
  6
BYBLOCK
 62
     0
100
AcDbTrace
 10
229.603163
 20
98.852693
 30
0.0
 11
231.127163
 21
98.852693
 31
0.0
 12
230.365163
 22
103.424693
 32
0.0
 13
230.365163
 23
103.424693
 33
0.0
  0
SOLID
  5
1017
100
AcDbEntity
  8
0
  6
BYBLOCK
 62
     0
100
AcDbTrace
 10
229.603163
 20
114.182863
 30
0.0
 11
231.127163
 21
114.182863
 31
0.0
 12
230.365163
 22
109.610863
 32
0.0
 13
230.365163
 23
109.610863
 33
0.0
  0
MTEXT
  5
1018
100
AcDbEntity
  8
0
  6
BYBLOCK
 62
     0
100
AcDbMText
 10
287.515163
 20
118.754863
 30
0.0
 40
4.572
 41
0.0
 71
     5
 72
     1
  1
\A1;6.19mm±0.03mm[0.244"±0.001"]
  0
POINT
  5
1019
100
AcDbEntity
  8
DEFPOINTS
  6
BYBLOCK
 62
     0
100
AcDbPoint
 10
424.659671
 20
103.424693
 30
0.0
  0
POINT
  5
101A
100
AcDbEntity
  8
DEFPOINTS
  6
BYBLOCK
 62
     0
100
AcDbPoint
 10
48.032312
 20
109.610863
 30
0.0
  0
POINT
  5
101B
100
AcDbEntity
  8
DEFPOINTS
  6
BYBLOCK
 62
     0
100
AcDbPoint
 10
230.365163
 20
109.610863
 30
0.0
  0
ENDBLK
  5
101C
100
AcDbEntity
  8
0
100
AcDbBlockEnd
  0
BLOCK
  5
101E
100
AcDbEntity
  8
0
100
AcDbBlockBegin
  2
*D14
 70
    65
 10
0.0
 20
0.0
 30
0.0
  3
*D14
  1
*TB
  0
LINE
  5
101F
100
AcDbEntity
  8
0
  6
BYBLOCK
 62
     0
100
AcDbLine
 10
407.897143
 20
108.324683
 30
0.0
 11
341.606164
 21
108.324683
 31
0.0
  0
LINE
  5
1020
100
AcDbEntity
  8
0
  6
BYBLOCK
 62
     0
100
AcDbLine
 10
346.178164
 20
103.752683
 30
0.0
 11
346.178164
 21
99.180683
 31
0.0
  0
LINE
  5
1021
100
AcDbEntity
  8
0
  6
BYBLOCK
 62
     0
100
AcDbLine
 10
346.178164
 20
114.182863
 30
0.0
 11
346.178164
 21
118.754863
 31
0.0
  0
LINE
  5
1022
100
AcDbEntity
  8
0
  6
BYBLOCK
 62
     0
100
AcDbLine
 10
346.178164
 20
118.754863
 30
0.0
 11
350.750164
 21
118.754863
 31
0.0
  0
SOLID
  5
1023
100
AcDbEntity
  8
0
  6
BYBLOCK
 62
     0
100
AcDbTrace
 10
345.416164
 20
103.752683
 30
0.0
 11
346.940164
 21
103.752683
 31
0.0
 12
346.178164
 22
108.324683
 32
0.0
 13
346.178164
 23
108.324683
 33
0.0
  0
SOLID
  5
1024
100
AcDbEntity
  8
0
  6
BYBLOCK
 62
     0
100
AcDbTrace
 10
345.416164
 20
114.182863
 30
0.0
 11
346.940164
 21
114.182863
 31
0.0
 12
346.178164
 22
109.610863
 32
0.0
 13
346.178164
 23
109.610863
 33
0.0
  0
MTEXT
  5
1025
100
AcDbEntity
  8
0
  6
BYBLOCK
 62
     0
100
AcDbMText
 10
376.658164
 20
118.754863
 30
0.0
 40
4.572
 41
0.0
 71
     5
 72
     1
  1
\A1;1.29mm[0.051"]
  0
POINT
  5
1026
100
AcDbEntity
  8
DEFPOINTS
  6
BYBLOCK
 62
     0
100
AcDbPoint
 10
409.484643
 20
108.324683
 30
0.0
  0
POINT
  5
1027
100
AcDbEntity
  8
DEFPOINTS
  6
BYBLOCK
 62
     0
100
AcDbPoint
 10
717.06236
 20
109.610863
 30
0.0
  0
POINT
  5
1028
100
AcDbEntity
  8
DEFPOINTS
  6
BYBLOCK
 62
     0
100
AcDbPoint
 10
346.178164
 20
109.610863
 30
0.0
  0
ENDBLK
  5
1029
100
AcDbEntity
  8
0
100
AcDbBlockEnd
  0
BLOCK
  5
1037
100
AcDbEntity
  8
0
100
AcDbBlockBegin
  2
*D15
 70
    65
 10
0.0
 20
0.0
 30
0.0
  3
*D15
  1
*TB
  0
LINE
  5
1038
100
AcDbEntity
  8
0
  6
BYBLOCK
 62
     0
100
AcDbLine
 10
406.309643
 20
98.324703
 30
0.0
 11
96.359889
 21
98.324703
 31
0.0
  0
LINE
  5
1039
100
AcDbEntity
  8
0
  6
BYBLOCK
 62
     0
100
AcDbLine
 10
100.931889
 20
93.752703
 30
0.0
 11
100.931889
 21
89.180703
 31
0.0
  0
LINE
  5
103A
100
AcDbEntity
  8
0
  6
BYBLOCK
 62
     0
100
AcDbLine
 10
100.931889
 20
114.182863
 30
0.0
 11
100.931889
 21
118.754863
 31
0.0
  0
LINE
  5
103B
100
AcDbEntity
  8
0
  6
BYBLOCK
 62
     0
100
AcDbLine
 10
100.931889
 20
118.754863
 30
0.0
 11
105.503889
 21
118.754863
 31
0.0
  0
SOLID
  5
103C
100
AcDbEntity
  8
0
  6
BYBLOCK
 62
     0
100
AcDbTrace
 10
100.169889
 20
93.752703
 30
0.0
 11
101.693889
 21
93.752703
 31
0.0
 12
100.931889
 22
98.324703
 32
0.0
 13
100.931889
 23
98.324703
 33
0.0
  0
SOLID
  5
103D
100
AcDbEntity
  8
0
  6
BYBLOCK
 62
     0
100
AcDbTrace
 10
100.169889
 20
114.182863
 30
0.0
 11
101.693889
 21
114.182863
 31
0.0
 12
100.931889
 22
109.610863
 32
0.0
 13
100.931889
 23
109.610863
 33
0.0
  0
MTEXT
  5
103E
100
AcDbEntity
  8
0
  6
BYBLOCK
 62
     0
100
AcDbMText
 10
165.092289
 20
118.754863
 30
0.0
 40
4.572
 41
0.0
 71
     5
 72
     1
  1
\A1;11.29mm\S 0.00mm^ -0.05mm;{\o\l\H10.972800;[}0.444"\S 0.000"^ -0.002";{\o\l\H10.972800;]}
  0
POINT
  5
103F
100
AcDbEntity
  8
DEFPOINTS
  6
BYBLOCK
 62
     0
100
AcDbPoint
 10
407.897143
 20
98.324703
 30
0.0
  0
POINT
  5
1040
100
AcDbEntity
  8
DEFPOINTS
  6
BYBLOCK
 62
     0
100
AcDbPoint
 10
717.06236
 20
109.610863
 30
0.0
  0
POINT
  5
1041
100
AcDbEntity
  8
DEFPOINTS
  6
BYBLOCK
 62
     0
100
AcDbPoint
 10
100.931889
 20
109.610863
 30
0.0
  0
ENDBLK
  5
1042
100
AcDbEntity
  8
0
100
AcDbBlockEnd
  0
BLOCK
  5
11E6
100
AcDbEntity
  8
0
100
AcDbBlockBegin
  2
*D16
 70
    65
 10
0.0
 20
0.0
 30
0.0
  3
*D16
  1
*TB
  0
LINE
  5
11E7
100
AcDbEntity
  8
0
  6
BYBLOCK
 62
     0
100
AcDbLine
 10
433.320291
 20
180.468223
 30
0.0
 11
422.528357
 21
201.648585
 31
0.0
  0
LINE
  5
11E8
100
AcDbEntity
  8
0
  6
BYBLOCK
 62
     0
100
AcDbLine
 10
428.677683
 20
199.650548
 30
0.0
 11
432.751365
 21
201.726193
 31
0.0
  0
LINE
  5
11E9
100
AcDbEntity
  8
0
  6
BYBLOCK
 62
     0
100
AcDbLine
 10
417.701374
 20
194.057839
 30
0.0
 11
413.627692
 21
191.982195
 31
0.0
  0
SOLID
  5
11EA
100
AcDbEntity
  8
0
  6
BYBLOCK
 62
     0
100
AcDbTrace
 10
428.331742
 20
200.329495
 30
0.0
 11
429.023624
 21
198.971601
 31
0.0
 12
424.604001
 22
197.574904
 32
0.0
 13
424.604001
 23
197.574904
 33
0.0
  0
SOLID
  5
11EB
100
AcDbEntity
  8
0
  6
BYBLOCK
 62
     0
100
AcDbTrace
 10
417.355433
 20
194.736786
 30
0.0
 11
418.047314
 21
193.378892
 31
0.0
 12
421.775056
 22
196.133484
 32
0.0
 13
421.775056
 23
196.133484
 33
0.0
  0
MTEXT
  5
11EC
100
AcDbEntity
  8
0
  6
BYBLOCK
 62
     0
100
AcDbMText
 10
367.459298
 20
168.458223
 30
0.0
 40
4.572
 41
0.0
 71
     5
 72
     1
  1
\A1;3.17mm±0.03mm[0.125"±0.001"]
 11
0.891007
 21
0.45399
 31
0.0
  0
POINT
  5
11ED
100
AcDbEntity
  8
DEFPOINTS
  6
BYBLOCK
 62
     0
100
AcDbPoint
 10
434.041
 20
179.05375
 30
0.0
 50
333.0
  0
POINT
  5
11EE
100
AcDbEntity
  8
DEFPOINTS
  6
BYBLOCK
 62
     0
100
AcDbPoint
 10
411.558594
 20
216.184418
 30
0.0
 50
333.0
  0
POINT
  5
11EF
100
AcDbEntity
  8
DEFPOINTS
  6
BYBLOCK
 62
     0
100
AcDbPoint
 10
421.775056
 20
196.133484
 30
0.0
 50
333.0
  0
ENDBLK
  5
11F0
100
AcDbEntity
  8
0
100
AcDbBlockEnd
  0
BLOCK
  5
1079
100
AcDbEntity
  8
0
100
AcDbBlockBegin
  2
*D17
 70
    65
 10
0.0
 20
0.0
 30
0.0
  3
*D17
  1
*TB
  0
LINE
  5
107A
100
AcDbEntity
  8
0
  6
BYBLOCK
 62
     0
100
AcDbLine
 10
472.472106
 20
116.522733
 30
0.0
 11
489.591592
 21
125.245547
 31
0.0
  0
LINE
  5
107B
100
AcDbEntity
  8
0
  6
BYBLOCK
 62
     0
100
AcDbLine
 10
489.026771
 20
116.283375
 30
0.0
 11
491.102415
 21
112.209694
 31
0.0
  0
LINE
  5
107C
100
AcDbEntity
  8
0
  6
BYBLOCK
 62
     0
100
AcDbLine
 10
483.442265
 20
127.243584
 30
0.0
 11
481.366621
 21
131.317266
 31
0.0
  0
LINE
  5
107D
100
AcDbEntity
  8
0
  6
BYBLOCK
 62
     0
100
AcDbLine
 10
481.366621
 20
131.317266
 30
0.0
 11
485.440303
 21
133.392911
 31
0.0
  0
SOLID
  5
107E
100
AcDbEntity
  8
0
  6
BYBLOCK
 62
     0
100
AcDbTrace
 10
488.347824
 20
115.937435
 30
0.0
 11
489.705718
 21
116.629316
 31
0.0
 12
486.951126
 22
120.357057
 32
0.0
 13
486.951126
 23
120.357057
 33
0.0
  0
SOLID
  5
107F
100
AcDbEntity
  8
0
  6
BYBLOCK
 62
     0
100
AcDbTrace
 10
482.763318
 20
126.897644
 30
0.0
 11
484.121212
 21
127.589525
 31
0.0
 12
485.51791
 22
123.169903
 32
0.0
 13
485.51791
 23
123.169903
 33
0.0
  0
MTEXT
  5
1080
100
AcDbEntity
  8
0
  6
BYBLOCK
 62
     0
100
AcDbMText
 10
508.863973
 20
145.327867
 30
0.0
 40
4.572
 41
0.0
 71
     5
 72
     1
  1
\A1;3.16mm[0.124"]
 11
0.891007
 21
0.45399
 31
0.0
  0
POINT
  5
1081
100
AcDbEntity
  8
DEFPOINTS
  6
BYBLOCK
 62
     0
100
AcDbPoint
 10
606.723146
 20
181.38395
 30
0.0
 50
333.0
  0
POINT
  5
1082
100
AcDbEntity
  8
DEFPOINTS
  6
BYBLOCK
 62
     0
100
AcDbPoint
 10
471.057633
 20
115.802023
 30
0.0
 50
333.0
  0
POINT
  5
1083
100
AcDbEntity
  8
DEFPOINTS
  6
BYBLOCK
 62
     0
100
AcDbPoint
 10
485.51791
 20
123.169903
 30
0.0
 50
333.0
  0
ENDBLK
  5
1084
100
AcDbEntity
  8
0
100
AcDbBlockEnd
  0
BLOCK
  5
106D
100
AcDbEntity
  8
0
100
AcDbBlockBegin
  2
*D18
 70
    65
 10
0.0
 20
0.0
 30
0.0
  3
*D18
  1
*TB
  0
LINE
  5
106E
100
AcDbEntity
  8
0
  6
BYBLOCK
 62
     0
100
AcDbLine
 10
477.098952
 20
110.938806
 30
0.0
 11
549.930203
 21
148.048182
 31
0.0
  0
LINE
  5
106F
100
AcDbEntity
  8
0
  6
BYBLOCK
 62
     0
100
AcDbLine
 10
547.932166
 20
141.898855
 30
0.0
 11
550.00781
 21
137.825174
 31
0.0
  0
LINE
  5
1070
100
AcDbEntity
  8
0
  6
BYBLOCK
 62
     0
100
AcDbLine
 10
542.00172
 20
153.538011
 30
0.0
 11
539.926075
 21
157.611693
 31
0.0
  0
LINE
  5
1071
100
AcDbEntity
  8
0
  6
BYBLOCK
 62
     0
100
AcDbLine
 10
539.926075
 20
157.611693
 30
0.0
 11
543.999757
 21
159.687338
 31
0.0
  0
SOLID
  5
1072
100
AcDbEntity
  8
0
  6
BYBLOCK
 62
     0
100
AcDbTrace
 10
547.253219
 20
141.552915
 30
0.0
 11
548.611113
 21
142.244796
 31
0.0
 12
545.856521
 22
145.972537
 32
0.0
 13
545.856521
 23
145.972537
 33
0.0
  0
SOLID
  5
1073
100
AcDbEntity
  8
0
  6
BYBLOCK
 62
     0
100
AcDbTrace
 10
541.322773
 20
153.192071
 30
0.0
 11
542.680667
 21
153.883952
 31
0.0
 12
544.077364
 22
149.464329
 32
0.0
 13
544.077364
 23
149.464329
 33
0.0
  0
MTEXT
  5
1074
100
AcDbEntity
  8
0
  6
BYBLOCK
 62
     0
100
AcDbMText
 10
568.102374
 20
171.968235
 30
0.0
 40
4.572
 41
0.0
 71
     5
 72
     1
  1
\A1;3.92mm[0.154"]
 11
0.891007
 21
0.45399
 31
0.0
  0
POINT
  5
1075
100
AcDbEntity
  8
DEFPOINTS
  6
BYBLOCK
 62
     0
100
AcDbPoint
 10
475.684479
 20
110.218096
 30
0.0
 50
333.0
  0
POINT
  5
1076
100
AcDbEntity
  8
DEFPOINTS
  6
BYBLOCK
 62
     0
100
AcDbPoint
 10
606.723146
 20
181.38395
 30
0.0
 50
333.0
  0
POINT
  5
1077
100
AcDbEntity
  8
DEFPOINTS
  6
BYBLOCK
 62
     0
100
AcDbPoint
 10
544.077364
 20
149.464329
 30
0.0
 50
333.0
  0
ENDBLK
  5
1078
100
AcDbEntity
  8
0
100
AcDbBlockEnd
  0
BLOCK
  5
1086
100
AcDbEntity
  8
0
100
AcDbBlockBegin
  2
*D19
 70
    65
 10
0.0
 20
0.0
 30
0.0
  3
*D19
  1
*TB
  0
LINE
  5
1087
100
AcDbEntity
  8
0
  6
BYBLOCK
 62
     0
100
AcDbLine
 10
411.097506
 20
304.454747
 30
0.0
 11
411.097506
 21
338.995416
 31
0.0
  0
LINE
  5
1088
100
AcDbEntity
  8
0
  6
BYBLOCK
 62
     0
100
AcDbLine
 10
470.432533
 20
334.423416
 30
0.0
 11
475.004533
 21
334.423416
 31
0.0
  0
LINE
  5
1089
100
AcDbEntity
  8
0
  6
BYBLOCK
 62
     0
100
AcDbLine
 10
406.525506
 20
334.423416
 30
0.0
 11
401.953506
 21
334.423416
 31
0.0
  0
SOLID
  5
108A
100
AcDbEntity
  8
0
  6
BYBLOCK
 62
     0
100
AcDbTrace
 10
470.432533
 20
335.185416
 30
0.0
 11
470.432533
 21
333.661416
 31
0.0
 12
465.860533
 22
334.423416
 32
0.0
 13
465.860533
 23
334.423416
 33
0.0
  0
SOLID
  5
108B
100
AcDbEntity
  8
0
  6
BYBLOCK
 62
     0
100
AcDbTrace
 10
406.525506
 20
335.185416
 30
0.0
 11
406.525506
 21
333.661416
 31
0.0
 12
411.097506
 22
334.423416
 32
0.0
 13
411.097506
 23
334.423416
 33
0.0
  0
MTEXT
  5
108C
100
AcDbEntity
  8
0
  6
BYBLOCK
 62
     0
100
AcDbMText
 10
372.235506
 20
334.423416
 30
0.0
 40
4.572
 41
0.0
 71
     5
 72
     1
  1
\A1;54.76mm[2.156"]
  0
POINT
  5
108D
100
AcDbEntity
  8
DEFPOINTS
  6
BYBLOCK
 62
     0
100
AcDbPoint
 10
465.860533
 20
484.277863
 30
0.0
  0
POINT
  5
108E
100
AcDbEntity
  8
DEFPOINTS
  6
BYBLOCK
 62
     0
100
AcDbPoint
 10
411.097506
 20
302.867247
 30
0.0
  0
POINT
  5
108F
100
AcDbEntity
  8
DEFPOINTS
  6
BYBLOCK
 62
     0
100
AcDbPoint
 10
411.097506
 20
334.423416
 30
0.0
  0
ENDBLK
  5
1090
100
AcDbEntity
  8
0
100
AcDbBlockEnd
  0
BLOCK
  5
10D3
100
AcDbEntity
  8
0
100
AcDbBlockBegin
  2
*D20
 70
    65
 10
0.0
 20
0.0
 30
0.0
  3
*D20
  1
*TB
  0
LINE
  5
10D4
100
AcDbEntity
  8
0
  6
BYBLOCK
 62
     0
100
AcDbLine
 10
412.757583
 20
296.043499
 30
0.0
 11
412.757583
 21
349.951336
 31
0.0
  0
LINE
  5
10D5
100
AcDbEntity
  8
0
  6
BYBLOCK
 62
     0
100
AcDbLine
 10
470.432533
 20
345.379336
 30
0.0
 11
475.004533
 21
345.379336
 31
0.0
  0
LINE
  5
10D6
100
AcDbEntity
  8
0
  6
BYBLOCK
 62
     0
100
AcDbLine
 10
408.185583
 20
345.379336
 30
0.0
 11
403.613583
 21
345.379336
 31
0.0
  0
SOLID
  5
10D7
100
AcDbEntity
  8
0
  6
BYBLOCK
 62
     0
100
AcDbTrace
 10
470.432533
 20
346.141336
 30
0.0
 11
470.432533
 21
344.617336
 31
0.0
 12
465.860533
 22
345.379336
 32
0.0
 13
465.860533
 23
345.379336
 33
0.0
  0
SOLID
  5
10D8
100
AcDbEntity
  8
0
  6
BYBLOCK
 62
     0
100
AcDbTrace
 10
408.185583
 20
346.141336
 30
0.0
 11
408.185583
 21
344.617336
 31
0.0
 12
412.757583
 22
345.379336
 32
0.0
 13
412.757583
 23
345.379336
 33
0.0
  0
MTEXT
  5
10D9
100
AcDbEntity
  8
0
  6
BYBLOCK
 62
     0
100
AcDbMText
 10
349.892583
 20
345.379336
 30
0.0
 40
4.572
 41
0.0
 71
     5
 72
     1
  1
\A1;53.10mm±0.03mm[2.091"±0.001"]
  0
POINT
  5
10DA
100
AcDbEntity
  8
DEFPOINTS
  6
BYBLOCK
 62
     0
100
AcDbPoint
 10
465.860533
 20
484.277863
 30
0.0
  0
POINT
  5
10DB
100
AcDbEntity
  8
DEFPOINTS
  6
BYBLOCK
 62
     0
100
AcDbPoint
 10
412.757583
 20
294.455999
 30
0.0
  0
POINT
  5
10DC
100
AcDbEntity
  8
DEFPOINTS
  6
BYBLOCK
 62
     0
100
AcDbPoint
 10
412.757583
 20
345.379336
 30
0.0
  0
ENDBLK
  5
10DD
100
AcDbEntity
  8
0
100
AcDbBlockEnd
  0
BLOCK
  5
10A0
100
AcDbEntity
  8
0
100
AcDbBlockBegin
  2
*D21
 70
    65
 10
0.0
 20
0.0
 30
0.0
  3
*D21
  1
*TB
  0
LINE
  5
10A1
100
AcDbEntity
  8
0
  6
BYBLOCK
 62
     0
100
AcDbLine
 10
415.567906
 20
304.454747
 30
0.0
 11
415.567906
 21
360.907256
 31
0.0
  0
LINE
  5
10A2
100
AcDbEntity
  8
0
  6
BYBLOCK
 62
     0
100
AcDbLine
 10
470.432533
 20
356.335256
 30
0.0
 11
475.004533
 21
356.335256
 31
0.0
  0
LINE
  5
10A3
100
AcDbEntity
  8
0
  6
BYBLOCK
 62
     0
100
AcDbLine
 10
410.995906
 20
356.335256
 30
0.0
 11
406.423906
 21
356.335256
 31
0.0
  0
SOLID
  5
10A4
100
AcDbEntity
  8
0
  6
BYBLOCK
 62
     0
100
AcDbTrace
 10
470.432533
 20
357.097256
 30
0.0
 11
470.432533
 21
355.573256
 31
0.0
 12
465.860533
 22
356.335256
 32
0.0
 13
465.860533
 23
356.335256
 33
0.0
  0
SOLID
  5
10A5
100
AcDbEntity
  8
0
  6
BYBLOCK
 62
     0
100
AcDbTrace
 10
410.995906
 20
357.097256
 30
0.0
 11
410.995906
 21
355.573256
 31
0.0
 12
415.567906
 22
356.335256
 32
0.0
 13
415.567906
 23
356.335256
 33
0.0
  0
MTEXT
  5
10A6
100
AcDbEntity
  8
0
  6
BYBLOCK
 62
     0
100
AcDbMText
 10
377.467906
 20
356.335256
 30
0.0
 40
4.572
 41
0.0
 71
     5
 72
     1
  1
\A1;50.29mm[1.980"]
  0
POINT
  5
10A7
100
AcDbEntity
  8
DEFPOINTS
  6
BYBLOCK
 62
     0
100
AcDbPoint
 10
465.860533
 20
484.277863
 30
0.0
  0
POINT
  5
10A8
100
AcDbEntity
  8
DEFPOINTS
  6
BYBLOCK
 62
     0
100
AcDbPoint
 10
415.567906
 20
302.867247
 30
0.0
  0
POINT
  5
10A9
100
AcDbEntity
  8
DEFPOINTS
  6
BYBLOCK
 62
     0
100
AcDbPoint
 10
415.567906
 20
356.335256
 30
0.0
  0
ENDBLK
  5
10AA
100
AcDbEntity
  8
0
100
AcDbBlockEnd
  0
BLOCK
  5
10AD
100
AcDbEntity
  8
0
100
AcDbBlockBegin
  2
*D22
 70
    65
 10
0.0
 20
0.0
 30
0.0
  3
*D22
  1
*TB
  0
LINE
  5
10AE
100
AcDbEntity
  8
0
  6
BYBLOCK
 62
     0
100
AcDbLine
 10
417.77283
 20
300.680307
 30
0.0
 11
417.77283
 21
370.924923
 31
0.0
  0
LINE
  5
10AF
100
AcDbEntity
  8
0
  6
BYBLOCK
 62
     0
100
AcDbLine
 10
470.432533
 20
366.352923
 30
0.0
 11
475.004533
 21
366.352923
 31
0.0
  0
LINE
  5
10B0
100
AcDbEntity
  8
0
  6
BYBLOCK
 62
     0
100
AcDbLine
 10
413.20083
 20
366.352923
 30
0.0
 11
408.62883
 21
366.352923
 31
0.0
  0
SOLID
  5
10B1
100
AcDbEntity
  8
0
  6
BYBLOCK
 62
     0
100
AcDbTrace
 10
470.432533
 20
367.114923
 30
0.0
 11
470.432533
 21
365.590923
 31
0.0
 12
465.860533
 22
366.352923
 32
0.0
 13
465.860533
 23
366.352923
 33
0.0
  0
SOLID
  5
10B2
100
AcDbEntity
  8
0
  6
BYBLOCK
 62
     0
100
AcDbTrace
 10
413.20083
 20
367.114923
 30
0.0
 11
413.20083
 21
365.590923
 31
0.0
 12
417.77283
 22
366.352923
 32
0.0
 13
417.77283
 23
366.352923
 33
0.0
  0
MTEXT
  5
10B3
100
AcDbEntity
  8
0
  6
BYBLOCK
 62
     0
100
AcDbMText
 10
379.29183
 20
366.352923
 30
0.0
 40
4.572
 41
0.0
 71
     5
 72
     1
  1
\A1;48.09mm[1.893"]
  0
POINT
  5
10B4
100
AcDbEntity
  8
DEFPOINTS
  6
BYBLOCK
 62
     0
100
AcDbPoint
 10
465.860533
 20
484.277863
 30
0.0
  0
POINT
  5
10B5
100
AcDbEntity
  8
DEFPOINTS
  6
BYBLOCK
 62
     0
100
AcDbPoint
 10
417.77283
 20
299.092807
 30
0.0
  0
POINT
  5
10B6
100
AcDbEntity
  8
DEFPOINTS
  6
BYBLOCK
 62
     0
100
AcDbPoint
 10
417.77283
 20
366.352923
 30
0.0
  0
ENDBLK
  5
10B7
100
AcDbEntity
  8
0
100
AcDbBlockEnd
  0
BLOCK
  5
10BA
100
AcDbEntity
  8
0
100
AcDbBlockBegin
  2
*D23
 70
    65
 10
0.0
 20
0.0
 30
0.0
  3
*D23
  1
*TB
  0
LINE
  5
10BB
100
AcDbEntity
  8
0
  6
BYBLOCK
 62
     0
100
AcDbLine
 10
421.27295
 20
300.680307
 30
0.0
 11
421.27295
 21
380.697687
 31
0.0
  0
LINE
  5
10BC
100
AcDbEntity
  8
0
  6
BYBLOCK
 62
     0
100
AcDbLine
 10
470.432533
 20
376.125687
 30
0.0
 11
475.004533
 21
376.125687
 31
0.0
  0
LINE
  5
10BD
100
AcDbEntity
  8
0
  6
BYBLOCK
 62
     0
100
AcDbLine
 10
416.70095
 20
376.125687
 30
0.0
 11
412.12895
 21
376.125687
 31
0.0
  0
SOLID
  5
10BE
100
AcDbEntity
  8
0
  6
BYBLOCK
 62
     0
100
AcDbTrace
 10
470.432533
 20
376.887687
 30
0.0
 11
470.432533
 21
375.363687
 31
0.0
 12
465.860533
 22
376.125687
 32
0.0
 13
465.860533
 23
376.125687
 33
0.0
  0
SOLID
  5
10BF
100
AcDbEntity
  8
0
  6
BYBLOCK
 62
     0
100
AcDbTrace
 10
416.70095
 20
376.887687
 30
0.0
 11
416.70095
 21
375.363687
 31
0.0
 12
421.27295
 22
376.125687
 32
0.0
 13
421.27295
 23
376.125687
 33
0.0
  0
MTEXT
  5
10C0
100
AcDbEntity
  8
0
  6
BYBLOCK
 62
     0
100
AcDbMText
 10
382.41095
 20
376.125687
 30
0.0
 40
4.572
 41
0.0
 71
     5
 72
     1
  1
\A1;44.59mm[1.755"]
  0
POINT
  5
10C1
100
AcDbEntity
  8
DEFPOINTS
  6
BYBLOCK
 62
     0
100
AcDbPoint
 10
465.860533
 20
484.277863
 30
0.0
  0
POINT
  5
10C2
100
AcDbEntity
  8
DEFPOINTS
  6
BYBLOCK
 62
     0
100
AcDbPoint
 10
421.27295
 20
299.092807
 30
0.0
  0
POINT
  5
10C3
100
AcDbEntity
  8
DEFPOINTS
  6
BYBLOCK
 62
     0
100
AcDbPoint
 10
421.27295
 20
376.125687
 30
0.0
  0
ENDBLK
  5
10C4
100
AcDbEntity
  8
0
100
AcDbBlockEnd
  0
BLOCK
  5
10C7
100
AcDbEntity
  8
0
100
AcDbBlockBegin
  2
*D24
 70
    65
 10
0.0
 20
0.0
 30
0.0
  3
*D24
  1
*TB
  0
LINE
  5
10C8
100
AcDbEntity
  8
0
  6
BYBLOCK
 62
     0
100
AcDbLine
 10
445.078935
 20
296.326074
 30
0.0
 11
445.078935
 21
391.834856
 31
0.0
  0
LINE
  5
10C9
100
AcDbEntity
  8
0
  6
BYBLOCK
 62
     0
100
AcDbLine
 10
470.432533
 20
387.262856
 30
0.0
 11
475.004533
 21
387.262856
 31
0.0
  0
LINE
  5
10CA
100
AcDbEntity
  8
0
  6
BYBLOCK
 62
     0
100
AcDbLine
 10
440.506935
 20
387.262856
 30
0.0
 11
435.934935
 21
387.262856
 31
0.0
  0
SOLID
  5
10CB
100
AcDbEntity
  8
0
  6
BYBLOCK
 62
     0
100
AcDbTrace
 10
470.432533
 20
388.024856
 30
0.0
 11
470.432533
 21
386.500856
 31
0.0
 12
465.860533
 22
387.262856
 32
0.0
 13
465.860533
 23
387.262856
 33
0.0
  0
SOLID
  5
10CC
100
AcDbEntity
  8
0
  6
BYBLOCK
 62
     0
100
AcDbTrace
 10
440.506935
 20
388.024856
 30
0.0
 11
440.506935
 21
386.500856
 31
0.0
 12
445.078935
 22
387.262856
 32
0.0
 13
445.078935
 23
387.262856
 33
0.0
  0
MTEXT
  5
10CD
100
AcDbEntity
  8
0
  6
BYBLOCK
 62
     0
100
AcDbMText
 10
406.978935
 20
387.262856
 30
0.0
 40
4.572
 41
0.0
 71
     5
 72
     1
  1
\A1;20.78mm[0.818"]
  0
POINT
  5
10CE
100
AcDbEntity
  8
DEFPOINTS
  6
BYBLOCK
 62
     0
100
AcDbPoint
 10
465.860533
 20
484.277863
 30
0.0
  0
POINT
  5
10CF
100
AcDbEntity
  8
DEFPOINTS
  6
BYBLOCK
 62
     0
100
AcDbPoint
 10
445.078935
 20
294.738574
 30
0.0
  0
POINT
  5
10D0
100
AcDbEntity
  8
DEFPOINTS
  6
BYBLOCK
 62
     0
100
AcDbPoint
 10
445.078935
 20
387.262856
 30
0.0
  0
ENDBLK
  5
10D1
100
AcDbEntity
  8
0
100
AcDbBlockEnd
  0
BLOCK
  5
10DF
100
AcDbEntity
  8
0
100
AcDbBlockBegin
  2
*D25
 70
    65
 10
0.0
 20
0.0
 30
0.0
  3
*D25
  1
*TB
  0
LINE
  5
10E0
100
AcDbEntity
  8
0
  6
BYBLOCK
 62
     0
100
AcDbLine
 10
404.734806
 20
298.092047
 30
0.0
 11
327.449199
 21
298.092047
 31
0.0
  0
LINE
  5
10E1
100
AcDbEntity
  8
0
  6
BYBLOCK
 62
     0
100
AcDbLine
 10
406.309643
 20
303.803745
 30
0.0
 11
327.449199
 21
303.803745
 31
0.0
  0
LINE
  5
10E2
100
AcDbEntity
  8
0
  6
BYBLOCK
 62
     0
100
AcDbLine
 10
332.021199
 20
293.520047
 30
0.0
 11
332.021199
 21
288.948047
 31
0.0
  0
LINE
  5
10E3
100
AcDbEntity
  8
0
  6
BYBLOCK
 62
     0
100
AcDbLine
 10
332.021199
 20
308.375745
 30
0.0
 11
332.021199
 21
312.947745
 31
0.0
  0
LINE
  5
10E4
100
AcDbEntity
  8
0
  6
BYBLOCK
 62
     0
100
AcDbLine
 10
332.021199
 20
312.947745
 30
0.0
 11
336.593199
 21
312.947745
 31
0.0
  0
SOLID
  5
10E5
100
AcDbEntity
  8
0
  6
BYBLOCK
 62
     0
100
AcDbTrace
 10
331.259199
 20
293.520047
 30
0.0
 11
332.783199
 21
293.520047
 31
0.0
 12
332.021199
 22
298.092047
 32
0.0
 13
332.021199
 23
298.092047
 33
0.0
  0
SOLID
  5
10E6
100
AcDbEntity
  8
0
  6
BYBLOCK
 62
     0
100
AcDbTrace
 10
331.259199
 20
308.375745
 30
0.0
 11
332.783199
 21
308.375745
 31
0.0
 12
332.021199
 22
303.803745
 32
0.0
 13
332.021199
 23
303.803745
 33
0.0
  0
MTEXT
  5
10E7
100
AcDbEntity
  8
0
  6
BYBLOCK
 62
     0
100
AcDbMText
 10
363.644199
 20
312.947745
 30
0.0
 40
4.572
 41
0.0
 71
     5
 72
     1
  1
\A1;5.71mm[0.225"]
  0
POINT
  5
10E8
100
AcDbEntity
  8
DEFPOINTS
  6
BYBLOCK
 62
     0
100
AcDbPoint
 10
406.322306
 20
298.092047
 30
0.0
  0
POINT
  5
10E9
100
AcDbEntity
  8
DEFPOINTS
  6
BYBLOCK
 62
     0
100
AcDbPoint
 10
407.897143
 20
303.803745
 30
0.0
  0
POINT
  5
10EA
100
AcDbEntity
  8
DEFPOINTS
  6
BYBLOCK
 62
     0
100
AcDbPoint
 10
332.021199
 20
303.803745
 30
0.0
  0
ENDBLK
  5
10EB
100
AcDbEntity
  8
0
100
AcDbBlockEnd
  0
BLOCK
  5
10EE
100
AcDbEntity
  8
0
100
AcDbBlockBegin
  2
*D26
 70
    65
 10
0.0
 20
0.0
 30
0.0
  3
*D26
  1
*TB
  0
LINE
  5
10EF
100
AcDbEntity
  8
0
  6
BYBLOCK
 62
     0
100
AcDbLine
 10
406.804458
 20
290.090374
 30
0.0
 11
207.1875
 21
290.090374
 31
0.0
  0
LINE
  5
10F0
100
AcDbEntity
  8
0
  6
BYBLOCK
 62
     0
100
AcDbLine
 10
406.309643
 20
303.803745
 30
0.0
 11
207.1875
 21
303.803745
 31
0.0
  0
LINE
  5
10F1
100
AcDbEntity
  8
0
  6
BYBLOCK
 62
     0
100
AcDbLine
 10
211.7595
 20
285.518374
 30
0.0
 11
211.7595
 21
280.946374
 31
0.0
  0
LINE
  5
10F2
100
AcDbEntity
  8
0
  6
BYBLOCK
 62
     0
100
AcDbLine
 10
211.7595
 20
308.375745
 30
0.0
 11
211.7595
 21
312.947745
 31
0.0
  0
LINE
  5
10F3
100
AcDbEntity
  8
0
  6
BYBLOCK
 62
     0
100
AcDbLine
 10
211.7595
 20
312.947745
 30
0.0
 11
216.3315
 21
312.947745
 31
0.0
  0
SOLID
  5
10F4
100
AcDbEntity
  8
0
  6
BYBLOCK
 62
     0
100
AcDbTrace
 10
210.9975
 20
285.518374
 30
0.0
 11
212.5215
 21
285.518374
 31
0.0
 12
211.7595
 22
290.090374
 32
0.0
 13
211.7595
 23
290.090374
 33
0.0
  0
SOLID
  5
10F5
100
AcDbEntity
  8
0
  6
BYBLOCK
 62
     0
100
AcDbTrace
 10
210.9975
 20
308.375745
 30
0.0
 11
212.5215
 21
308.375745
 31
0.0
 12
211.7595
 22
303.803745
 32
0.0
 13
211.7595
 23
303.803745
 33
0.0
  0
MTEXT
  5
10F6
100
AcDbEntity
  8
0
  6
BYBLOCK
 62
     0
100
AcDbMText
 10
270.0525
 20
312.947745
 30
0.0
 40
4.572
 41
0.0
 71
     5
 72
     1
  1
\A1;13.71mm±0.03mm[0.540"±0.001"]
  0
POINT
  5
10F7
100
AcDbEntity
  8
DEFPOINTS
  6
BYBLOCK
 62
     0
100
AcDbPoint
 10
408.391958
 20
290.090374
 30
0.0
  0
POINT
  5
10F8
100
AcDbEntity
  8
DEFPOINTS
  6
BYBLOCK
 62
     0
100
AcDbPoint
 10
407.897143
 20
303.803745
 30
0.0
  0
POINT
  5
10F9
100
AcDbEntity
  8
DEFPOINTS
  6
BYBLOCK
 62
     0
100
AcDbPoint
 10
211.7595
 20
303.803745
 30
0.0
  0
ENDBLK
  5
10FA
100
AcDbEntity
  8
0
100
AcDbBlockEnd
  0
BLOCK
  5
10FD
100
AcDbEntity
  8
0
100
AcDbBlockBegin
  2
*D27
 70
    65
 10
0.0
 20
0.0
 30
0.0
  3
*D27
  1
*TB
  0
LINE
  5
10FE
100
AcDbEntity
  8
0
  6
BYBLOCK
 62
     0
100
AcDbLine
 10
404.734806
 20
282.0887
 30
0.0
 11
139.422429
 21
282.0887
 31
0.0
  0
LINE
  5
10FF
100
AcDbEntity
  8
0
  6
BYBLOCK
 62
     0
100
AcDbLine
 10
406.309643
 20
303.803745
 30
0.0
 11
139.422429
 21
303.803745
 31
0.0
  0
LINE
  5
1100
100
AcDbEntity
  8
0
  6
BYBLOCK
 62
     0
100
AcDbLine
 10
143.994429
 20
277.5167
 30
0.0
 11
143.994429
 21
272.9447
 31
0.0
  0
LINE
  5
1101
100
AcDbEntity
  8
0
  6
BYBLOCK
 62
     0
100
AcDbLine
 10
143.994429
 20
308.375745
 30
0.0
 11
143.994429
 21
312.947745
 31
0.0
  0
LINE
  5
1102
100
AcDbEntity
  8
0
  6
BYBLOCK
 62
     0
100
AcDbLine
 10
143.994429
 20
312.947745
 30
0.0
 11
148.566429
 21
312.947745
 31
0.0
  0
SOLID
  5
1103
100
AcDbEntity
  8
0
  6
BYBLOCK
 62
     0
100
AcDbTrace
 10
143.232429
 20
277.5167
 30
0.0
 11
144.756429
 21
277.5167
 31
0.0
 12
143.994429
 22
282.0887
 32
0.0
 13
143.994429
 23
282.0887
 33
0.0
  0
SOLID
  5
1104
100
AcDbEntity
  8
0
  6
BYBLOCK
 62
     0
100
AcDbTrace
 10
143.232429
 20
308.375745
 30
0.0
 11
144.756429
 21
308.375745
 31
0.0
 12
143.994429
 22
303.803745
 32
0.0
 13
143.994429
 23
303.803745
 33
0.0
  0
MTEXT
  5
1105
100
AcDbEntity
  8
0
  6
BYBLOCK
 62
     0
100
AcDbMText
 10
177.903429
 20
312.947745
 30
0.0
 40
4.572
 41
0.0
 71
     5
 72
     1
  1
\A1;21.72mm[0.855"]
  0
POINT
  5
1106
100
AcDbEntity
  8
DEFPOINTS
  6
BYBLOCK
 62
     0
100
AcDbPoint
 10
406.322306
 20
282.0887
 30
0.0
  0
POINT
  5
1107
100
AcDbEntity
  8
DEFPOINTS
  6
BYBLOCK
 62
     0
100
AcDbPoint
 10
407.897143
 20
303.803745
 30
0.0
  0
POINT
  5
1108
100
AcDbEntity
  8
DEFPOINTS
  6
BYBLOCK
 62
     0
100
AcDbPoint
 10
143.994429
 20
303.803745
 30
0.0
  0
ENDBLK
  5
1109
100
AcDbEntity
  8
0
100
AcDbBlockEnd
  0
BLOCK
  5
110C
100
AcDbEntity
  8
0
100
AcDbBlockBegin
  2
*D28
 70
    65
 10
0.0
 20
0.0
 30
0.0
  3
*D28
  1
*TB
  0
LINE
  5
110D
100
AcDbEntity
  8
0
  6
BYBLOCK
 62
     0
100
AcDbLine
 10
406.309643
 20
276.377002
 30
0.0
 11
74.148583
 21
276.377002
 31
0.0
  0
LINE
  5
110E
100
AcDbEntity
  8
0
  6
BYBLOCK
 62
     0
100
AcDbLine
 10
406.309643
 20
303.803745
 30
0.0
 11
74.148583
 21
303.803745
 31
0.0
  0
LINE
  5
110F
100
AcDbEntity
  8
0
  6
BYBLOCK
 62
     0
100
AcDbLine
 10
78.720583
 20
280.949002
 30
0.0
 11
78.720583
 21
285.518374
 31
0.0
  0
LINE
  5
1110
100
AcDbEntity
  8
0
  6
BYBLOCK
 62
     0
100
AcDbLine
 10
78.720583
 20
299.231745
 30
0.0
 11
78.720583
 21
294.662374
 31
0.0
  0
SOLID
  5
1111
100
AcDbEntity
  8
0
  6
BYBLOCK
 62
     0
100
AcDbTrace
 10
77.958583
 20
280.949002
 30
0.0
 11
79.482583
 21
280.949002
 31
0.0
 12
78.720583
 22
276.377002
 32
0.0
 13
78.720583
 23
276.377002
 33
0.0
  0
SOLID
  5
1112
100
AcDbEntity
  8
0
  6
BYBLOCK
 62
     0
100
AcDbTrace
 10
77.958583
 20
299.231745
 30
0.0
 11
79.482583
 21
299.231745
 31
0.0
 12
78.720583
 22
303.803745
 32
0.0
 13
78.720583
 23
303.803745
 33
0.0
  0
MTEXT
  5
1113
100
AcDbEntity
  8
0
  6
BYBLOCK
 62
     0
100
AcDbMText
 10
78.720583
 20
290.090374
 30
0.0
 40
4.572
 41
0.0
 71
     5
 72
     1
  1
\A1;27.43mm±0.03mm[1.080"±0.001"]
  0
POINT
  5
1114
100
AcDbEntity
  8
DEFPOINTS
  6
BYBLOCK
 62
     0
100
AcDbPoint
 10
407.897143
 20
276.377002
 30
0.0
  0
POINT
  5
1115
100
AcDbEntity
  8
DEFPOINTS
  6
BYBLOCK
 62
     0
100
AcDbPoint
 10
407.897143
 20
303.803745
 30
0.0
  0
POINT
  5
1116
100
AcDbEntity
  8
DEFPOINTS
  6
BYBLOCK
 62
     0
100
AcDbPoint
 10
78.720583
 20
303.803745
 30
0.0
  0
ENDBLK
  5
1117
100
AcDbEntity
  8
0
100
AcDbBlockEnd
  0
BLOCK
  5
1128
100
AcDbEntity
  8
0
100
AcDbBlockBegin
  2
*D29
 70
    65
 10
0.0
 20
0.0
 30
0.0
  3
*D29
  1
*TB
  0
LINE
  5
1129
100
AcDbEntity
  8
0
  6
BYBLOCK
 62
     0
100
AcDbLine
 10
406.309643
 20
277.139002
 30
0.0
 11
391.365671
 21
277.139002
 31
0.0
  0
LINE
  5
112A
100
AcDbEntity
  8
0
  6
BYBLOCK
 62
     0
100
AcDbLine
 10
406.309643
 20
276.377002
 30
0.0
 11
391.365671
 21
276.377002
 31
0.0
  0
LINE
  5
112B
100
AcDbEntity
  8
0
  6
BYBLOCK
 62
     0
100
AcDbLine
 10
395.937671
 20
281.711002
 30
0.0
 11
395.937671
 21
286.283002
 31
0.0
  0
LINE
  5
112C
100
AcDbEntity
  8
0
  6
BYBLOCK
 62
     0
100
AcDbLine
 10
395.937671
 20
271.805002
 30
0.0
 11
395.937671
 21
267.233002
 31
0.0
  0
LINE
  5
112D
100
AcDbEntity
  8
0
  6
BYBLOCK
 62
     0
100
AcDbLine
 10
395.937671
 20
267.233002
 30
0.0
 11
391.365671
 21
267.233002
 31
0.0
  0
SOLID
  5
112E
100
AcDbEntity
  8
0
  6
BYBLOCK
 62
     0
100
AcDbTrace
 10
395.175671
 20
281.711002
 30
0.0
 11
396.699671
 21
281.711002
 31
0.0
 12
395.937671
 22
277.139002
 32
0.0
 13
395.937671
 23
277.139002
 33
0.0
  0
SOLID
  5
112F
100
AcDbEntity
  8
0
  6
BYBLOCK
 62
     0
100
AcDbTrace
 10
395.175671
 20
271.805002
 30
0.0
 11
396.699671
 21
271.805002
 31
0.0
 12
395.937671
 22
276.377002
 32
0.0
 13
395.937671
 23
276.377002
 33
0.0
  0
MTEXT
  5
1130
100
AcDbEntity
  8
0
  6
BYBLOCK
 62
     0
100
AcDbMText
 10
339.168671
 20
267.233002
 30
0.0
 40
4.572
 41
0.0
 71
     5
 72
     1
  1
\A1;{0.76mm±0.03mm[0.030"±0.001"]}\P{WALL THICKNESS}
  0
POINT
  5
1131
100
AcDbEntity
  8
DEFPOINTS
  6
BYBLOCK
 62
     0
100
AcDbPoint
 10
407.897143
 20
277.139002
 30
0.0
  0
POINT
  5
1132
100
AcDbEntity
  8
DEFPOINTS
  6
BYBLOCK
 62
     0
100
AcDbPoint
 10
407.897143
 20
276.377002
 30
0.0
  0
POINT
  5
1133
100
AcDbEntity
  8
DEFPOINTS
  6
BYBLOCK
 62
     0
100
AcDbPoint
 10
395.937671
 20
276.377002
 30
0.0
  0
ENDBLK
  5
1134
100
AcDbEntity
  8
0
100
AcDbBlockEnd
  0
BLOCK
  5
1136
100
AcDbEntity
  8
0
100
AcDbBlockBegin
  2
*D30
 70
    65
 10
0.0
 20
0.0
 30
0.0
  3
*D30
  1
*TB
  0
LINE
  5
1137
100
AcDbEntity
  8
0
  6
BYBLOCK
 62
     0
100
AcDbLine
 10
422.36007
 20
299.593187
 30
0.0
 11
501.071148
 21
299.593187
 31
0.0
  0
LINE
  5
1138
100
AcDbEntity
  8
0
  6
BYBLOCK
 62
     0
100
AcDbLine
 10
477.271979
 20
303.803745
 30
0.0
 11
501.071148
 21
303.803745
 31
0.0
  0
LINE
  5
1139
100
AcDbEntity
  8
0
  6
BYBLOCK
 62
     0
100
AcDbLine
 10
496.499148
 20
295.021187
 30
0.0
 11
496.499148
 21
290.449187
 31
0.0
  0
LINE
  5
113A
100
AcDbEntity
  8
0
  6
BYBLOCK
 62
     0
100
AcDbLine
 10
496.499148
 20
308.375745
 30
0.0
 11
496.499148
 21
312.947745
 31
0.0
  0
LINE
  5
113B
100
AcDbEntity
  8
0
  6
BYBLOCK
 62
     0
100
AcDbLine
 10
496.499148
 20
312.947745
 30
0.0
 11
501.071148
 21
312.947745
 31
0.0
  0
SOLID
  5
113C
100
AcDbEntity
  8
0
  6
BYBLOCK
 62
     0
100
AcDbTrace
 10
495.737148
 20
295.021187
 30
0.0
 11
497.261148
 21
295.021187
 31
0.0
 12
496.499148
 22
299.593187
 32
0.0
 13
496.499148
 23
299.593187
 33
0.0
  0
SOLID
  5
113D
100
AcDbEntity
  8
0
  6
BYBLOCK
 62
     0
100
AcDbTrace
 10
495.737148
 20
308.375745
 30
0.0
 11
497.261148
 21
308.375745
 31
0.0
 12
496.499148
 22
303.803745
 32
0.0
 13
496.499148
 23
303.803745
 33
0.0
  0
MTEXT
  5
113E
100
AcDbEntity
  8
0
  6
BYBLOCK
 62
     0
100
AcDbMText
 10
527.360148
 20
312.947745
 30
0.0
 40
4.572
 41
0.0
 71
     5
 72
     1
  1
\A1;4.21mm[0.166"]
  0
POINT
  5
113F
100
AcDbEntity
  8
DEFPOINTS
  6
BYBLOCK
 62
     0
100
AcDbPoint
 10
420.77257
 20
299.593187
 30
0.0
  0
POINT
  5
1140
100
AcDbEntity
  8
DEFPOINTS
  6
BYBLOCK
 62
     0
100
AcDbPoint
 10
475.684479
 20
303.803745
 30
0.0
  0
POINT
  5
1141
100
AcDbEntity
  8
DEFPOINTS
  6
BYBLOCK
 62
     0
100
AcDbPoint
 10
496.499148
 20
303.803745
 30
0.0
  0
ENDBLK
  5
1142
100
AcDbEntity
  8
0
100
AcDbBlockEnd
  0
BLOCK
  5
1145
100
AcDbEntity
  8
0
100
AcDbBlockBegin
  2
*D31
 70
    65
 10
0.0
 20
0.0
 30
0.0
  3
*D31
  1
*TB
  0
LINE
  5
1146
100
AcDbEntity
  8
0
  6
BYBLOCK
 62
     0
100
AcDbLine
 10
422.36007
 20
296.590907
 30
0.0
 11
561.386879
 21
296.590907
 31
0.0
  0
LINE
  5
1147
100
AcDbEntity
  8
0
  6
BYBLOCK
 62
     0
100
AcDbLine
 10
477.271979
 20
303.803745
 30
0.0
 11
561.386879
 21
303.803745
 31
0.0
  0
LINE
  5
1148
100
AcDbEntity
  8
0
  6
BYBLOCK
 62
     0
100
AcDbLine
 10
556.814879
 20
292.018907
 30
0.0
 11
556.814879
 21
287.446907
 31
0.0
  0
LINE
  5
1149
100
AcDbEntity
  8
0
  6
BYBLOCK
 62
     0
100
AcDbLine
 10
556.814879
 20
308.375745
 30
0.0
 11
556.814879
 21
312.947745
 31
0.0
  0
LINE
  5
114A
100
AcDbEntity
  8
0
  6
BYBLOCK
 62
     0
100
AcDbLine
 10
556.814879
 20
312.947745
 30
0.0
 11
561.386879
 21
312.947745
 31
0.0
  0
SOLID
  5
114B
100
AcDbEntity
  8
0
  6
BYBLOCK
 62
     0
100
AcDbTrace
 10
556.052879
 20
292.018907
 30
0.0
 11
557.576879
 21
292.018907
 31
0.0
 12
556.814879
 22
296.590907
 32
0.0
 13
556.814879
 23
296.590907
 33
0.0
  0
SOLID
  5
114C
100
AcDbEntity
  8
0
  6
BYBLOCK
 62
     0
100
AcDbTrace
 10
556.052879
 20
308.375745
 30
0.0
 11
557.576879
 21
308.375745
 31
0.0
 12
556.814879
 22
303.803745
 32
0.0
 13
556.814879
 23
303.803745
 33
0.0
  0
MTEXT
  5
114D
100
AcDbEntity
  8
0
  6
BYBLOCK
 62
     0
100
AcDbMText
 10
588.437879
 20
312.947745
 30
0.0
 40
4.572
 41
0.0
 71
     5
 72
     1
  1
\A1;7.21mm[0.284"]
  0
POINT
  5
114E
100
AcDbEntity
  8
DEFPOINTS
  6
BYBLOCK
 62
     0
100
AcDbPoint
 10
420.77257
 20
296.590907
 30
0.0
  0
POINT
  5
114F
100
AcDbEntity
  8
DEFPOINTS
  6
BYBLOCK
 62
     0
100
AcDbPoint
 10
475.684479
 20
303.803745
 30
0.0
  0
POINT
  5
1150
100
AcDbEntity
  8
DEFPOINTS
  6
BYBLOCK
 62
     0
100
AcDbPoint
 10
556.814879
 20
303.803745
 30
0.0
  0
ENDBLK
  5
1151
100
AcDbEntity
  8
0
100
AcDbBlockEnd
  0
BLOCK
  5
1154
100
AcDbEntity
  8
0
100
AcDbBlockBegin
  2
*D32
 70
    65
 10
0.0
 20
0.0
 30
0.0
  3
*D32
  1
*TB
  0
LINE
  5
1155
100
AcDbEntity
  8
0
  6
BYBLOCK
 62
     0
100
AcDbLine
 10
422.36007
 20
283.58984
 30
0.0
 11
623.366494
 21
283.58984
 31
0.0
  0
LINE
  5
1156
100
AcDbEntity
  8
0
  6
BYBLOCK
 62
     0
100
AcDbLine
 10
477.271979
 20
303.803745
 30
0.0
 11
623.366494
 21
303.803745
 31
0.0
  0
LINE
  5
1157
100
AcDbEntity
  8
0
  6
BYBLOCK
 62
     0
100
AcDbLine
 10
618.794494
 20
279.01784
 30
0.0
 11
618.794494
 21
274.44584
 31
0.0
  0
LINE
  5
1158
100
AcDbEntity
  8
0
  6
BYBLOCK
 62
     0
100
AcDbLine
 10
618.794494
 20
308.375745
 30
0.0
 11
618.794494
 21
312.947745
 31
0.0
  0
LINE
  5
1159
100
AcDbEntity
  8
0
  6
BYBLOCK
 62
     0
100
AcDbLine
 10
618.794494
 20
312.947745
 30
0.0
 11
623.366494
 21
312.947745
 31
0.0
  0
SOLID
  5
115A
100
AcDbEntity
  8
0
  6
BYBLOCK
 62
     0
100
AcDbTrace
 10
618.032494
 20
279.01784
 30
0.0
 11
619.556494
 21
279.01784
 31
0.0
 12
618.794494
 22
283.58984
 32
0.0
 13
618.794494
 23
283.58984
 33
0.0
  0
SOLID
  5
115B
100
AcDbEntity
  8
0
  6
BYBLOCK
 62
     0
100
AcDbTrace
 10
618.032494
 20
308.375745
 30
0.0
 11
619.556494
 21
308.375745
 31
0.0
 12
618.794494
 22
303.803745
 32
0.0
 13
618.794494
 23
303.803745
 33
0.0
  0
MTEXT
  5
115C
100
AcDbEntity
  8
0
  6
BYBLOCK
 62
     0
100
AcDbMText
 10
652.322494
 20
312.947745
 30
0.0
 40
4.572
 41
0.0
 71
     5
 72
     1
  1
\A1;20.21mm[0.796"]
  0
POINT
  5
115D
100
AcDbEntity
  8
DEFPOINTS
  6
BYBLOCK
 62
     0
100
AcDbPoint
 10
420.77257
 20
283.58984
 30
0.0
  0
POINT
  5
115E
100
AcDbEntity
  8
DEFPOINTS
  6
BYBLOCK
 62
     0
100
AcDbPoint
 10
475.684479
 20
303.803745
 30
0.0
  0
POINT
  5
115F
100
AcDbEntity
  8
DEFPOINTS
  6
BYBLOCK
 62
     0
100
AcDbPoint
 10
618.794494
 20
303.803745
 30
0.0
  0
ENDBLK
  5
1160
100
AcDbEntity
  8
0
100
AcDbBlockEnd
  0
BLOCK
  5
1163
100
AcDbEntity
  8
0
100
AcDbBlockBegin
  2
*D33
 70
    65
 10
0.0
 20
0.0
 30
0.0
  3
*D33
  1
*TB
  0
LINE
  5
1164
100
AcDbEntity
  8
0
  6
BYBLOCK
 62
     0
100
AcDbLine
 10
422.36007
 20
280.58756
 30
0.0
 11
712.378762
 21
280.58756
 31
0.0
  0
LINE
  5
1165
100
AcDbEntity
  8
0
  6
BYBLOCK
 62
     0
100
AcDbLine
 10
477.271979
 20
303.803745
 30
0.0
 11
712.378762
 21
303.803745
 31
0.0
  0
LINE
  5
1166
100
AcDbEntity
  8
0
  6
BYBLOCK
 62
     0
100
AcDbLine
 10
707.806762
 20
285.15956
 30
0.0
 11
707.806762
 21
287.623652
 31
0.0
  0
LINE
  5
1167
100
AcDbEntity
  8
0
  6
BYBLOCK
 62
     0
100
AcDbLine
 10
707.806762
 20
299.231745
 30
0.0
 11
707.806762
 21
296.767652
 31
0.0
  0
SOLID
  5
1168
100
AcDbEntity
  8
0
  6
BYBLOCK
 62
     0
100
AcDbTrace
 10
707.044762
 20
285.15956
 30
0.0
 11
708.568762
 21
285.15956
 31
0.0
 12
707.806762
 22
280.58756
 32
0.0
 13
707.806762
 23
280.58756
 33
0.0
  0
SOLID
  5
1169
100
AcDbEntity
  8
0
  6
BYBLOCK
 62
     0
100
AcDbTrace
 10
707.044762
 20
299.231745
 30
0.0
 11
708.568762
 21
299.231745
 31
0.0
 12
707.806762
 22
303.803745
 32
0.0
 13
707.806762
 23
303.803745
 33
0.0
  0
MTEXT
  5
116A
100
AcDbEntity
  8
0
  6
BYBLOCK
 62
     0
100
AcDbMText
 10
707.806762
 20
292.195652
 30
0.0
 40
4.572
 41
0.0
 71
     5
 72
     1
  1
\A1;23.22mm[0.914"]
  0
POINT
  5
116B
100
AcDbEntity
  8
DEFPOINTS
  6
BYBLOCK
 62
     0
100
AcDbPoint
 10
420.77257
 20
280.58756
 30
0.0
  0
POINT
  5
116C
100
AcDbEntity
  8
DEFPOINTS
  6
BYBLOCK
 62
     0
100
AcDbPoint
 10
475.684479
 20
303.803745
 30
0.0
  0
POINT
  5
116D
100
AcDbEntity
  8
DEFPOINTS
  6
BYBLOCK
 62
     0
100
AcDbPoint
 10
707.806762
 20
303.803745
 30
0.0
  0
ENDBLK
  5
116E
100
AcDbEntity
  8
0
100
AcDbBlockEnd
  0
BLOCK
  5
1219
100
AcDbEntity
  8
0
100
AcDbBlockBegin
  2
*D34
 70
    65
 10
0.0
 20
0.0
 30
0.0
  3
*D34
  1
*TB
  0
LINE
  5
121A
100
AcDbEntity
  8
0
  6
BYBLOCK
 62
     0
100
AcDbLine
 10
409.667118
 20
285.226541
 30
0.0
 11
383.862825
 21
244.615253
 31
0.0
  0
LINE
  5
121B
100
AcDbEntity
  8
0
  6
BYBLOCK
 62
     0
100
AcDbLine
 10
383.862825
 20
244.615253
 30
0.0
 11
379.290825
 21
244.615253
 31
0.0
  0
SOLID
  5
121C
100
AcDbEntity
  8
0
  6
BYBLOCK
 62
     0
100
AcDbTrace
 10
409.023966
 20
285.635197
 30
0.0
 11
410.310269
 21
284.817884
 31
0.0
 12
412.119057
 22
289.085449
 32
0.0
 13
412.119057
 23
289.085449
 33
0.0
  0
MTEXT
  5
121D
100
AcDbEntity
  8
0
  6
BYBLOCK
 62
     0
100
AcDbMText
 10
321.759825
 20
244.615253
 30
0.0
 40
4.572
 41
0.0
 71
     5
 72
     1
  1
\A1;{\U+22052.38mm±0.03mm[\U+22050.094"±0.001"]}\P{2X}
  0
LINE
  5
121E
100
AcDbEntity
  8
0
  6
BYBLOCK
 62
     0
100
AcDbLine
 10
410.471583
 20
290.090374
 30
0.0
 11
415.043583
 21
290.090374
 31
0.0
  0
LINE
  5
121F
100
AcDbEntity
  8
0
  6
BYBLOCK
 62
     0
100
AcDbLine
 10
412.757583
 20
287.804374
 30
0.0
 11
412.757583
 21
292.376374
 31
0.0
  0
POINT
  5
1220
100
AcDbEntity
  8
DEFPOINTS
  6
BYBLOCK
 62
     0
100
AcDbPoint
 10
412.119057
 20
289.085449
 30
0.0
  0
POINT
  5
1221
100
AcDbEntity
  8
DEFPOINTS
  6
BYBLOCK
 62
     0
100
AcDbPoint
 10
413.396109
 20
291.095298
 30
0.0
  0
ENDBLK
  5
1222
100
AcDbEntity
  8
0
100
AcDbBlockEnd
  0
BLOCK
  5
120F
100
AcDbEntity
  8
0
100
AcDbBlockBegin
  2
*D35
 70
    65
 10
0.0
 20
0.0
 30
0.0
  3
*D35
  1
*TB
  0
LINE
  5
1210
100
AcDbEntity
  8
0
  6
BYBLOCK
 62
     0
100
AcDbLine
 10
407.848735
 20
276.840696
 30
0.0
 11
374.769197
 21
223.404625
 31
0.0
  0
LINE
  5
1211
100
AcDbEntity
  8
0
  6
BYBLOCK
 62
     0
100
AcDbLine
 10
374.769197
 20
223.404625
 30
0.0
 11
370.197197
 21
223.404625
 31
0.0
  0
SOLID
  5
1212
100
AcDbEntity
  8
0
  6
BYBLOCK
 62
     0
100
AcDbTrace
 10
407.200834
 20
277.241779
 30
0.0
 11
408.496637
 21
276.439613
 31
0.0
 12
410.255232
 22
280.728106
 32
0.0
 13
410.255232
 23
280.728106
 33
0.0
  0
MTEXT
  5
1213
100
AcDbEntity
  8
0
  6
BYBLOCK
 62
     0
100
AcDbMText
 10
338.955197
 20
223.404625
 30
0.0
 40
4.572
 41
0.0
 71
     5
 72
     1
  1
\A1;{\U+22053.20mm[\U+22050.126"]}\P{4X}
  0
LINE
  5
1214
100
AcDbEntity
  8
0
  6
BYBLOCK
 62
     0
100
AcDbLine
 10
408.811506
 20
282.0887
 30
0.0
 11
413.383506
 21
282.0887
 31
0.0
  0
LINE
  5
1215
100
AcDbEntity
  8
0
  6
BYBLOCK
 62
     0
100
AcDbLine
 10
411.097506
 20
279.8027
 30
0.0
 11
411.097506
 21
284.3747
 31
0.0
  0
POINT
  5
1216
100
AcDbEntity
  8
DEFPOINTS
  6
BYBLOCK
 62
     0
100
AcDbPoint
 10
410.255232
 20
280.728106
 30
0.0
  0
POINT
  5
1217
100
AcDbEntity
  8
DEFPOINTS
  6
BYBLOCK
 62
     0
100
AcDbPoint
 10
411.93978
 20
283.449293
 30
0.0
  0
ENDBLK
  5
1218
100
AcDbEntity
  8
0
100
AcDbBlockEnd
  0
BLOCK
  5
11C5
100
AcDbEntity
  8
0
100
AcDbBlockBegin
  2
*D36
 70
    65
 10
0.0
 20
0.0
 30
0.0
  3
*D36
  1
*TB
  0
LINE
  5
11C6
100
AcDbEntity
  8
0
  6
BYBLOCK
 62
     0
100
AcDbLine
 10
449.340388
 20
285.802663
 30
0.0
 11
474.061394
 21
260.92933
 31
0.0
  0
LINE
  5
11C7
100
AcDbEntity
  8
0
  6
BYBLOCK
 62
     0
100
AcDbLine
 10
474.061394
 20
260.92933
 30
0.0
 11
478.633394
 21
260.92933
 31
0.0
  0
SOLID
  5
11C8
100
AcDbEntity
  8
0
  6
BYBLOCK
 62
     0
100
AcDbTrace
 10
449.880856
 20
286.33982
 30
0.0
 11
448.79992
 21
285.265505
 31
0.0
 12
446.117441
 22
289.045469
 32
0.0
 13
446.117441
 23
289.045469
 33
0.0
  0
MTEXT
  5
11C9
100
AcDbEntity
  8
0
  6
BYBLOCK
 62
     0
100
AcDbMText
 10
509.494394
 20
260.92933
 30
0.0
 40
4.572
 41
0.0
 71
     5
 72
     1
  1
\A1;\U+22052.95mm[\U+22050.116"]
  0
LINE
  5
11CA
100
AcDbEntity
  8
0
  6
BYBLOCK
 62
     0
100
AcDbLine
 10
442.792935
 20
290.090374
 30
0.0
 11
447.364935
 21
290.090374
 31
0.0
  0
LINE
  5
11CB
100
AcDbEntity
  8
0
  6
BYBLOCK
 62
     0
100
AcDbLine
 10
445.078935
 20
287.804374
 30
0.0
 11
445.078935
 21
292.376374
 31
0.0
  0
POINT
  5
11CC
100
AcDbEntity
  8
DEFPOINTS
  6
BYBLOCK
 62
     0
100
AcDbPoint
 10
446.117441
 20
289.045469
 30
0.0
  0
POINT
  5
11CD
100
AcDbEntity
  8
DEFPOINTS
  6
BYBLOCK
 62
     0
100
AcDbPoint
 10
444.04043
 20
291.135278
 30
0.0
  0
ENDBLK
  5
11CE
100
AcDbEntity
  8
0
100
AcDbBlockEnd
  0
BLOCK
  5
1205
100
AcDbEntity
  8
0
100
AcDbBlockBegin
  2
*D37
 70
    65
 10
0.0
 20
0.0
 30
0.0
  3
*D37
  1
*TB
  0
LINE
  5
1206
100
AcDbEntity
  8
0
  6
BYBLOCK
 62
     0
100
AcDbLine
 10
415.597618
 20
276.778618
 30
0.0
 11
370.764649
 21
204.570402
 31
0.0
  0
LINE
  5
1207
100
AcDbEntity
  8
0
  6
BYBLOCK
 62
     0
100
AcDbLine
 10
370.764649
 20
204.570402
 30
0.0
 11
366.192649
 21
204.570402
 31
0.0
  0
SOLID
  5
1208
100
AcDbEntity
  8
0
  6
BYBLOCK
 62
     0
100
AcDbTrace
 10
414.950249
 20
277.18056
 30
0.0
 11
416.244988
 21
276.376677
 31
0.0
 12
418.009268
 22
280.662834
 32
0.0
 13
418.009268
 23
280.662834
 33
0.0
  0
MTEXT
  5
1209
100
AcDbEntity
  8
0
  6
BYBLOCK
 62
     0
100
AcDbMText
 10
335.712649
 20
204.570402
 30
0.0
 40
4.572
 41
0.0
 71
     5
 72
     1
  1
\A1;{\U+22051.00mm[\U+22050.039"]}\P{8X}
  0
LINE
  5
120A
100
AcDbEntity
  8
0
  6
BYBLOCK
 62
     0
100
AcDbLine
 10
415.98721
 20
281.08794
 30
0.0
 11
420.55921
 21
281.08794
 31
0.0
  0
LINE
  5
120B
100
AcDbEntity
  8
0
  6
BYBLOCK
 62
     0
100
AcDbLine
 10
418.27321
 20
278.80194
 30
0.0
 11
418.27321
 21
283.37394
 31
0.0
  0
POINT
  5
120C
100
AcDbEntity
  8
DEFPOINTS
  6
BYBLOCK
 62
     0
100
AcDbPoint
 10
418.009268
 20
280.662834
 30
0.0
  0
POINT
  5
120D
100
AcDbEntity
  8
DEFPOINTS
  6
BYBLOCK
 62
     0
100
AcDbPoint
 10
418.537151
 20
281.513046
 30
0.0
  0
ENDBLK
  5
120E
100
AcDbEntity
  8
0
100
AcDbBlockEnd
  0
BLOCK
  5
1224
100
AcDbEntity
  8
0
100
AcDbBlockBegin
  2
*D38
 70
    65
 10
0.0
 20
0.0
 30
0.0
  3
*D38
  1
*TB
  0
ARC
  5
1225
100
AcDbEntity
  8
0
  6
BYBLOCK
 62
     0
100
AcDbCircle
 10
465.860533
 20
109.610863
 30
0.0
 40
115.200093
100
AcDbArc
 50
92.274074
 51
97.331627
  0
ARC
  5
1226
100
AcDbEntity
  8
0
  6
BYBLOCK
 62
     0
100
AcDbCircle
 10
465.860533
 20
109.610863
 30
0.0
 40
115.200093
100
AcDbArc
 50
109.832929
 51
114.725926
  0
SOLID
  5
1227
100
AcDbEntity
  8
0
  6
BYBLOCK
 62
     0
100
AcDbTrace
 10
461.274312
 20
225.48208
 30
0.0
 11
461.304554
 21
223.958381
 31
0.0
 12
465.860533
 22
224.810956
 32
0.0
 13
465.860533
 23
224.810956
 33
0.0
  0
SOLID
  5
1228
100
AcDbEntity
  8
0
  6
BYBLOCK
 62
     0
100
AcDbTrace
 10
418.007253
 20
213.563618
 30
0.0
 11
417.342453
 21
214.934974
 31
0.0
 12
413.560785
 22
212.254898
 32
0.0
 13
413.560785
 23
212.254898
 33
0.0
  0
MTEXT
  5
1229
100
AcDbEntity
  8
0
  6
BYBLOCK
 62
     0
100
AcDbMText
 10
438.967605
 20
221.627968
 30
0.0
 40
4.572
 41
0.0
 71
     5
 72
     1
  1
\A1;27.00°
  0
POINT
  5
122A
100
AcDbEntity
  8
DEFPOINTS
  6
BYBLOCK
 62
     0
100
AcDbPoint
 10
447.839268
 20
223.392652
 30
0.0
  0
POINT
  5
122B
100
AcDbEntity
  8
DEFPOINTS
  6
BYBLOCK
 62
     0
100
AcDbPoint
 10
493.773843
 20
54.827906
 30
0.0
  0
POINT
  5
122C
100
AcDbEntity
  8
DEFPOINTS
  6
BYBLOCK
 62
     0
100
AcDbPoint
 10
465.860533
 20
39.622604
 30
0.0
  0
POINT
  5
122D
100
AcDbEntity
  8
DEFPOINTS
  6
BYBLOCK
 62
     0
100
AcDbPoint
 10
465.860533
 20
484.277863
 30
0.0
  0
POINT
  5
122E
100
AcDbEntity
  8
DEFPOINTS
  6
BYBLOCK
 62
     0
100
AcDbPoint
 10
411.558594
 20
216.184418
 30
0.0
  0
ENDBLK
  5
122F
100
AcDbEntity
  8
0
100
AcDbBlockEnd
  0
ENDSEC
  0
SECTION
  2
ENTITIES
  0
ACAD_ZOMBIE_ENTITY
  5
3D
100
AcDbEntity
  8
0
100
AcDbZombieEntity
 90
      498
 91
      515
 92
        8
310
0800000000000000
 93
       97
310
D28000000020290400007802EC
330
3E
330
3F
330
40
330
41
330
3E
 94
        0
  0
INSERT
  5
E4
100
AcDbEntity
  8
0
100
AcDbBlockReference
  2
D-BORDER
 10
0.0
 20
0.0
 30
0.0
 41
25.4
 42
25.4
 43
25.4
  0
TEXT
  5
F1
100
AcDbEntity
  8
TEXT
100
AcDbText
 10
671.183782
 20
21.563091
 30
0.0
 40
1.5
  1
01-24-97
100
AcDbText
  0
TEXT
  5
F2
100
AcDbEntity
  8
TEXT
100
AcDbText
 10
646.433782
 20
21.563091
 30
0.0
 40
3.0
  1
S. KYRE
100
AcDbText
  0
TEXT
  5
F3
100
AcDbEntity
  8
TEXT
100
AcDbText
 10
746.183782
 20
13.188091
 30
0.0
 40
3.0
  1
L4-END04
100
AcDbText
  0
TEXT
  5
F4
100
AcDbEntity
  8
TEXT
100
AcDbText
 10
697.808782
 20
12.063091
 30
0.0
 40
3.0
  1
B-PARTS
100
AcDbText
  0
TEXT
  5
F5
100
AcDbEntity
  8
TEXT
100
AcDbText
 10
694.933782
 20
5.063091
 30
0.0
 40
3.0
  1
1=1
100
AcDbText
  0
TEXT
  5
F6
100
AcDbEntity
  8
TEXT
100
AcDbText
 10
783.924418
 20
12.061996
 30
0.0
 40
3.0
  1
02
100
AcDbText
  0
MTEXT
  5
F7
100
AcDbEntity
  8
TEXT
100
AcDbMText
 10
736.994556
 20
27.994029
 30
0.0
 40
3.0
 41
100.0
 71
     5
 72
     1
  1
{LAYER 4B BACKWARD ENDPIECE}
  0
TEXT
  5
10A
100
AcDbEntity
  8
TEXT
100
AcDbText
 10
678.0
 20
460.011785
 30
0.0
 40
2.5
  1
FIBER
100
AcDbText
  0
TEXT
  5
10B
100
AcDbEntity
  8
TEXT
100
AcDbText
 10
678.0
 20
464.297305
 30
0.0
 40
2.5
  1
CHANGE MATERIAL TO CARBON-
100
AcDbText
  0
TEXT
  5
10C
100
AcDbEntity
  8
TEXT
100
AcDbText
 10
678.0
 20
472.498146
 30
0.0
 40
2.5
  1
ABOVE SILICON
100
AcDbText
  0
TEXT
  5
10D
100
AcDbEntity
  8
TEXT
100
AcDbText
 10
678.0
 20
476.664812
 30
0.0
 40
2.5
  1
MOVE FRONT END UP TO 3mm
100
AcDbText
  0
TEXT
  5
10E
100
AcDbEntity
  8
TEXT
100
AcDbText
 10
678.0
 20
482.833333
 30
0.0
 40
2.5
  1
ADDED HOLES AND SLOTS
100
AcDbText
  0
TEXT
  5
10F
100
AcDbEntity
  8
TEXT
100
AcDbText
 10
678.0
 20
487.0
 30
0.0
 40
2.5
  1
UPDATED DESIGN,
100
AcDbText
  0
LINE
  5
110
100
AcDbEntity
  8
TEXT
100
AcDbLine
 10
673.056868
 20
492.122347
 30
0.0
 11
673.056868
 21
460.0
 31
0.0
  0
LINE
  5
111
100
AcDbEntity
  8
TEXT
100
AcDbLine
 10
663.144457
 20
492.122347
 30
0.0
 11
663.144457
 21
460.0
 31
0.0
  0
TEXT
  5
112
100
AcDbEntity
  8
TEXT
100
AcDbText
 10
665.0
 20
476.664812
 30
0.0
 40
2.5
  1
02
100
AcDbText
  0
TEXT
  5
113
100
AcDbEntity
  8
TEXT
100
AcDbText
 10
665.0
 20
487.0
 30
0.0
 40
2.5
  1
01
100
AcDbText
  0
TEXT
  5
114
100
AcDbEntity
  8
TEXT
100
AcDbText
 10
744.0
 20
476.664812
 30
0.0
 40
2.5
  1
01-06-97
100
AcDbText
  0
TEXT
  5
115
100
AcDbEntity
  8
TEXT
100
AcDbText
 10
744.0
 20
487.0
 30
0.0
 40
2.5
  1
05-06-96
100
AcDbText
  0
LINE
  5
116
100
AcDbEntity
  8
TEXT
100
AcDbLine
 10
742.652868
 20
492.122347
 30
0.0
 11
742.652868
 21
460.0
 31
0.0
  0
LINE
  5
117
100
AcDbEntity
  8
TEXT
100
AcDbLine
 10
765.004868
 20
492.122347
 30
0.0
 11
765.004868
 21
460.0
 31
0.0
  0
TEXT
  5
118
100
AcDbEntity
  8
TEXT
100
AcDbText
 10
678.0
 20
468.331479
 30
0.0
 40
2.5
  1
REDUCE WIDTH BY 5mm
100
AcDbText
  0
LINE
  5
1CF
100
AcDbEntity
  8
CENTER
100
AcDbLine
 10
48.032312
 20
109.610863
 30
0.0
 11
717.06236
 21
109.610863
 31
0.0
  0
LINE
  5
1D0
100
AcDbEntity
  8
CENTER
100
AcDbLine
 10
465.860533
 20
39.622604
 30
0.0
 11
465.860533
 21
484.277863
 31
0.0
  0
LINE
  5
246
100
AcDbEntity
  8
CENTER
100
AcDbLine
 10
230.848175
 20
464.444354
 30
0.0
 11
617.857803
 21
464.444354
 31
0.0
  0
DIMENSION
  5
482
100
AcDbEntity
  8
DIM
100
AcDbDimension
  2
*D2
 10
409.484643
 20
467.318034
 30
0.0
 11
361.223945
 21
451.009015
 31
0.0
 70
   164
  1
{<>}\P{4X}
  3
SU1$4
100
AcDbRadialDimension
 15
408.521532
 25
466.056062
 35
0.0
 40
0.0
1001
ACAD
1000
DSTYLE
1002
{
1070
    47
1040
0.03
1070
    48
1040
0.03
1070
   272
1070
     2
1070
    40
1040
25.4
1070
     3
1000
mm
1070
   271
1070
     2
1070
     4
1000
"
1070
   274
1070
     3
1070
   143
1040
0.03937
1070
   171
1070
     3
1070
   170
1070
     1
1002
}
  0
DIMENSION
  5
498
100
AcDbEntity
  8
DIM
100
AcDbDimension
  2
*D3
 10
427.697108
 20
471.556934
 30
0.0
 11
331.451443
 21
429.322054
 31
0.0
 70
   163
  1
{<>}\P{4X}
  3
SU1$3
100
AcDbDiametricDimension
 15
426.199289
 25
469.704114
 35
0.0
 40
0.0
1001
ACAD
1000
DSTYLE
1002
{
1070
    47
1040
0.03
1070
    71
1070
     1
1070
    48
1040
0.03
1070
   272
1070
     2
1070
    40
1040
25.4
1070
     3
1000
mm
1070
   271
1070
     2
1070
     4
1000
"
1070
   274
1070
     3
1070
   143
1040
0.03937
1070
   171
1070
     3
1070
   170
1070
     1
1002
}
  0
MTEXT
  5
5A3
100
AcDbEntity
  8
TEXT
100
AcDbMText
 10
12.536603
 20
477.279836
 30
0.0
 40
4.0
 41
209.16366
 71
     1
 72
     1
  3
{MATERIAL: }\P{0.76mm [0.030"] thick carbon-fiber-epoxy-composite}\P\P{LAMINATE SCHEDULE:}\P{cloth:  - 1 layer Carbon-fiber (0.006" thick ea.)}\P{ xx oz/sq. yd. plain weave @ 90°}\P{ - 1 layer Carbon-fiber (0.001" thick ea.)}\P{ 0.4 oz/sq. yd. mat}\P
  3
{ - 1 layer Carbon-fiber (0.006" thick ea.)}\P{ xx oz/sq. yd. plain weave @ 45°}\P{ 1 layer Carbon-fiber (0.001" thick ea.)}\P{ 0.4 oz/sq. yd. mat}\P{ - 1 layer Carbon-fiber (0.006" thick ea.)}\P{ xx oz/sq. yd. plain weave @ 90°}\P{epoxy: heat resist
  1
ant laminating epoxy}\P{ Ciba-Geigy RP4005R/RP1500H}\P{cure: 24 hrs at room temp. @ 20psi}\P{ 2 hrs postcure at 66°C}\P\P{MACHINING:}\P{use fixture L4-END14}\P
  0
TEXT
  5
5F5
100
AcDbEntity
  8
TEXT
100
AcDbText
 10
451.655035
 20
18.550995
 30
0.0
 40
6.0
  1
A-A
100
AcDbText
  0
TEXT
  5
5F6
100
AcDbEntity
  8
TEXT
100
AcDbText
 10
417.655035
 20
18.550995
 30
0.0
 40
4.5
  1
SECTION
100
AcDbText
  0
LEADER
  5
A39
100
AcDbEntity
  8
TEXT
100
AcDbLeader
  3
SU1$7
 76
     3
 10
394.759678
 20
319.614967
 30
0.0
 10
394.759678
 20
294.516918
 30
0.0
 10
404.053782
 20
294.516918
 30
0.0
 77
   256
1001
ACAD
1000
DSTYLE
1002
{
1070
    47
1040
0.03
1070
    71
1070
     1
1070
    48
1040
0.03
1070
   272
1070
     2
1070
    40
1040
25.4
1070
     3
1000
mm
1070
   271
1070
     2
1070
     4
1000
"
1070
   274
1070
     3
1070
   143
1040
0.03937
1070
   171
1070
     3
1070
   170
1070
     1
1002
}
  0
TEXT
  5
A3A
100
AcDbEntity
  8
TEXT
100
AcDbText
 10
392.803025
 20
321.407684
 30
0.0
 40
6.0
  1
A
100
AcDbText
  0
LEADER
  5
A3B
100
AcDbEntity
  8
TEXT
100
AcDbLeader
  3
SU1$7
 76
     3
 10
489.218164
 20
319.614967
 30
0.0
 10
489.218164
 20
294.516918
 30
0.0
 10
479.924061
 20
294.516918
 30
0.0
 77
   256
211
-1.0
221
0.0
231
0.0
1001
ACAD
1000
DSTYLE
1002
{
1070
    47
1040
0.03
1070
    71
1070
     1
1070
    48
1040
0.03
1070
   272
1070
     2
1070
    40
1040
25.4
1070
     3
1000
mm
1070
   271
1070
     2
1070
     4
1000
"
1070
   274
1070
     3
1070
   143
1040
0.03937
1070
   171
1070
     3
1070
   170
1070
     1
1002
}
  0
TEXT
  5
A3C
100
AcDbEntity
  8
TEXT
100
AcDbText
 10
491.174817
 20
321.407684
 30
0.0
 40
6.0
  1
A
 71
     2
100
AcDbText
  0
LINE
  5
F36
100
AcDbEntity
  8
FOOT-B
100
AcDbLine
 10
407.897143
 20
99.086703
 30
0.0
 11
452.159442
 21
99.086703
 31
0.0
1001
ACAD
1000
ASC_BOUNDS
1002
{
1070
    19
1005
0
1005
FAF
1002
}
  0
LINE
  5
F37
100
AcDbEntity
  8
FOOT-B
100
AcDbLine
 10
407.897143
 20
98.324703
 30
0.0
 11
407.897143
 21
106.737183
 31
0.0
1001
ACAD
1000
ASC_BOUNDS
1002
{
1070
    19
1005
0
1005
FAF
1002
}
  0
ARC
  5
F38
100
AcDbEntity
  8
FOOT-B
100
AcDbCircle
 10
409.484643
 20
106.737183
 30
0.0
 40
1.5875
100
AcDbArc
 50
90.0
 51
180.0
  0
LINE
  5
F39
100
AcDbEntity
  8
FOOT-B
100
AcDbLine
 10
409.484643
 20
108.324683
 30
0.0
 11
456.382527
 21
108.324683
 31
0.0
  0
LINE
  5
F3A
100
AcDbEntity
  8
CENTER
100
AcDbLine
 10
426.948199
 20
100.621855
 30
0.0
 11
426.948199
 21
106.552383
 31
0.0
  0
CIRCLE
  5
F3B
100
AcDbEntity
  8
FOOT-B
100
AcDbCircle
 10
426.948199
 20
103.424693
 30
0.0
 40
1.19126
  0
LINE
  5
F3C
100
AcDbEntity
  8
CENTER
100
AcDbLine
 10
424.659671
 20
103.424693
 30
0.0
 11
429.518576
 21
103.424693
 31
0.0
  0
LINE
  5
F3D
100
AcDbEntity
  8
FOOT-B
100
AcDbLine
 10
407.897143
 20
98.324703
 30
0.0
 11
452.342382
 21
98.324703
 31
0.0
1001
ACAD
1000
ASC_BOUNDS
1002
{
1070
    19
1005
0
1005
FAF
1002
}
  0
LINE
  5
F3E
100
AcDbEntity
  8
FOOT-B
100
AcDbLine
 10
475.338538
 20
110.897043
 30
0.0
 11
452.159442
 21
99.086703
 31
0.0
1001
ACAD
1000
ASC_BOUNDS
1002
{
1070
    19
1005
0
1005
FAF
1002
}
  0
LINE
  5
F3F
100
AcDbEntity
  8
FOOT-B
100
AcDbLine
 10
475.684479
 20
110.218096
 30
0.0
 11
452.342382
 21
98.324703
 31
0.0
1001
ACAD
1000
ASC_BOUNDS
1002
{
1070
    19
1005
0
1005
FAF
1002
}
  0
LINE
  5
F40
100
AcDbEntity
  8
FOOT-B
100
AcDbLine
 10
471.057633
 20
115.802023
 30
0.0
 11
456.382527
 21
108.324683
 31
0.0
1001
ACAD
1000
ASC_BOUNDS
1002
{
1070
    19
1002
}
  0
CIRCLE
  5
F41
100
AcDbEntity
  8
FOOT-B
100
AcDbCircle
 10
465.860533
 20
109.610863
 30
0.0
 40
1.19126
  0
LINE
  5
F42
100
AcDbEntity
  8
FOOT-B
100
AcDbLine
 10
475.684479
 20
110.218096
 30
0.0
 11
473.192816
 21
115.10826
 31
0.0
1001
ACAD
1000
ASC_BOUNDS
1002
{
1070
    19
1005
0
1005
FAF
1002
}
  0
ARC
  5
F43
100
AcDbEntity
  8
FOOT-B
100
AcDbCircle
 10
471.778343
 20
114.387551
 30
0.0
 40
1.5875
100
AcDbArc
 50
27.0
 51
117.0
1001
ACAD
1000
ASC_BOUNDS
1002
{
1070
    19
1002
}
  0
POLYLINE
  5
F44
100
AcDbEntity
  8
FOOT-2
100
AcDb2dPolyline
 66
     1
 10
0.0
 20
0.0
 30
0.0
 70
     1
  0
VERTEX
  5
F45
100
AcDbEntity
  8
FOOT-2
100
AcDbVertex
100
AcDb2dVertex
 10
407.897143
 20
276.377002
 30
0.0
  0
VERTEX
  5
F46
100
AcDbEntity
  8
FOOT-2
100
AcDbVertex
100
AcDb2dVertex
 10
407.897143
 20
303.803745
 30
0.0
  0
VERTEX
  5
F47
100
AcDbEntity
  8
FOOT-2
100
AcDbVertex
100
AcDb2dVertex
 10
475.684479
 20
303.803745
 30
0.0
  0
VERTEX
  5
F48
100
AcDbEntity
  8
FOOT-2
100
AcDbVertex
100
AcDb2dVertex
 10
475.684479
 20
276.377002
 30
0.0
  0
SEQEND
  5
F49
100
AcDbEntity
  8
FOOT-2
  0
LINE
  5
F4A
100
AcDbEntity
  8
FOOT-2
100
AcDbLine
 10
475.684479
 20
277.139002
 30
0.0
 11
407.897143
 21
277.139002
 31
0.0
  0
LINE
  5
F4B
100
AcDbEntity
  8
FOOT-2
100
AcDbLine
 10
475.684479
 20
303.041745
 30
0.0
 11
407.897143
 21
303.041745
 31
0.0
  0
LINE
  5
F4C
100
AcDbEntity
  8
FOOT-2
100
AcDbLine
 10
474.32251
 20
303.803745
 30
0.0
 11
474.32251
 21
303.041745
 31
0.0
  0
LINE
  5
F4D
100
AcDbEntity
  8
FOOT-2
100
AcDbLine
 10
452.159442
 20
277.139002
 30
0.0
 11
452.159442
 21
303.041745
 31
0.0
  0
LINE
  5
F4F
100
AcDbEntity
  8
FOOT-2
100
AcDbLine
 10
474.32251
 20
276.377002
 30
0.0
 11
474.32251
 21
277.139002
 31
0.0
  0
LINE
  5
F50
100
AcDbEntity
  8
FOOT-2
100
AcDbLine
 10
456.382527
 20
276.377002
 30
0.0
 11
456.382527
 21
277.139002
 31
0.0
  0
LINE
  5
F51
100
AcDbEntity
  8
FOOT-2
100
AcDbLine
 10
456.382527
 20
303.803745
 30
0.0
 11
456.382527
 21
303.041745
 31
0.0
  0
INSERT
  5
F52
100
AcDbEntity
  8
FOOT-2
100
AcDbBlockReference
  2
*U5
 10
412.757583
 20
290.090374
 30
0.0
 41
25.4
 42
25.4
 43
25.4
1001
TB_S_MPD
1070
   100
1000
HOLE
1070
   101
1000
TOOLBOX 13.0 HOLE 2.0
1070
   112
1000
3/32 (.0938) DIAMETER HOLE
1070
   102
1000
Near side
1070
   103
1000
ANSI-Fraction
1070
   104
1000
hole
1070
   105
1000
_usf
1070
   304
1040
0.0
1070
   305
1040
0.0
1070
   306
1040
0.09375
1070
   302
1040
0.0
1070
   303
1040
0.0
1070
   307
1040
0.03
1070
   300
1040
0.125
1070
   110
1000
1
1070
   111
1000
3/32
1070
   116
1000
T
1070
   308
1040
0.03
  0
INSERT
  5
F53
100
AcDbEntity
  8
FOOT-2
100
AcDbBlockReference
  2
*U6
 10
445.078935
 20
290.090374
 30
0.0
 41
25.4
 42
25.4
 43
25.4
1001
TB_S_MPD
1070
   100
1000
HOLE
1070
   101
1000
TOOLBOX 13.0 HOLE 2.0
1070
   112
1000
#32 (.116) DIAMETER HOLE
1070
   102
1000
Near side
1070
   103
1000
ANSI-Number
1070
   104
1000
hole
1070
   105
1000
_usn
1070
   304
1040
0.0
1070
   305
1040
0.0
1070
   306
1040
0.116
1070
   302
1040
0.0
1070
   303
1040
0.0
1070
   307
1040
0.03
1070
   300
1040
0.125
1070
   110
1000
1
1070
   111
1000
#32
1070
   116
1000
T
1070
   308
1040
0.03
  0
LINE
  5
F54
100
AcDbEntity
  8
CENTER
100
AcDbLine
 10
465.409047
 20
290.090374
 30
0.0
 11
474.800975
 21
290.090374
 31
0.0
  0
LINE
  5
F55
100
AcDbEntity
  8
CENTER
100
AcDbLine
 10
470.122695
 20
285.42682
 30
0.0
 11
470.122695
 21
294.748173
 31
0.0
  0
INSERT
  5
F58
100
AcDbEntity
  8
FOOT-2
100
AcDbBlockReference
  2
*U7
 10
411.097506
 20
298.092047
 30
0.0
 41
25.4
 42
25.4
 43
25.4
1001
TB_S_MPD
1070
   100
1000
SLOT
1070
   101
1000
TOOLBOX 13.0 SLOT 2.0
1070
   103
1000
STD
1070
   306
1040
0.126
1070
   307
1040
0.03
1070
   112
1000
SLOT
1070
   102
1000
Near side
1070
   116
1000
T
1070
   308
1040
0.03
1070
   309
1040
0.063
1070
   310
1040
0.176
1070
   311
1040
0.0
  0
INSERT
  5
F59
100
AcDbEntity
  8
FOOT-2
100
AcDbBlockReference
  2
*U7
 10
411.097506
 20
282.0887
 30
0.0
 41
25.4
 42
25.4
 43
25.4
1001
TB_S_MPD
1070
   100
1000
SLOT
1070
   101
1000
TOOLBOX 13.0 SLOT 2.0
1070
   103
1000
STD
1070
   306
1040
0.126
1070
   307
1040
0.03
1070
   112
1000
SLOT
1070
   102
1000
Near side
1070
   116
1000
T
1070
   308
1040
0.03
1070
   309
1040
0.063
1070
   310
1040
0.176
1070
   311
1040
0.0
  0
POLYLINE
  5
F5A
100
AcDbEntity
  8
FOOT-2
100
AcDb2dPolyline
 66
     1
 10
0.0
 20
0.0
 30
0.0
 70
     1
  0
VERTEX
  5
F5B
100
AcDbEntity
  8
FOOT-2
100
AcDbVertex
100
AcDb2dVertex
 10
417.77283
 20
297.091287
 30
0.0
  0
VERTEX
  5
F5C
100
AcDbEntity
  8
FOOT-2
100
AcDbVertex
100
AcDb2dVertex
 10
417.77283
 20
299.092807
 30
0.0
 42
-0.414214
  0
VERTEX
  5
F5D
100
AcDbEntity
  8
FOOT-2
100
AcDbVertex
100
AcDb2dVertex
 10
418.27321
 20
299.593187
 30
0.0
  0
VERTEX
  5
F5E
100
AcDbEntity
  8
FOOT-2
100
AcDbVertex
100
AcDb2dVertex
 10
420.77257
 20
299.593187
 30
0.0
 42
-0.414214
  0
VERTEX
  5
F5F
100
AcDbEntity
  8
FOOT-2
100
AcDbVertex
100
AcDb2dVertex
 10
421.27295
 20
299.092807
 30
0.0
  0
VERTEX
  5
F60
100
AcDbEntity
  8
FOOT-2
100
AcDbVertex
100
AcDb2dVertex
 10
421.27295
 20
297.091287
 30
0.0
 42
-0.414214
  0
VERTEX
  5
F61
100
AcDbEntity
  8
FOOT-2
100
AcDbVertex
100
AcDb2dVertex
 10
420.77257
 20
296.590907
 30
0.0
  0
VERTEX
  5
F62
100
AcDbEntity
  8
FOOT-2
100
AcDbVertex
100
AcDb2dVertex
 10
418.27321
 20
296.590907
 30
0.0
 42
-0.414214
  0
SEQEND
  5
F63
100
AcDbEntity
  8
FOOT-2
  0
POLYLINE
  5
F64
100
AcDbEntity
  8
FOOT-2
100
AcDb2dPolyline
 66
     1
 10
0.0
 20
0.0
 30
0.0
 70
     1
  0
VERTEX
  5
F65
100
AcDbEntity
  8
FOOT-2
100
AcDbVertex
100
AcDb2dVertex
 10
417.77283
 20
281.08794
 30
0.0
  0
VERTEX
  5
F66
100
AcDbEntity
  8
FOOT-2
100
AcDbVertex
100
AcDb2dVertex
 10
417.77283
 20
283.08946
 30
0.0
 42
-0.414214
  0
VERTEX
  5
F67
100
AcDbEntity
  8
FOOT-2
100
AcDbVertex
100
AcDb2dVertex
 10
418.27321
 20
283.58984
 30
0.0
  0
VERTEX
  5
F68
100
AcDbEntity
  8
FOOT-2
100
AcDbVertex
100
AcDb2dVertex
 10
420.77257
 20
283.58984
 30
0.0
 42
-0.414214
  0
VERTEX
  5
F69
100
AcDbEntity
  8
FOOT-2
100
AcDbVertex
100
AcDb2dVertex
 10
421.27295
 20
283.08946
 30
0.0
  0
VERTEX
  5
F6A
100
AcDbEntity
  8
FOOT-2
100
AcDbVertex
100
AcDb2dVertex
 10
421.27295
 20
281.08794
 30
0.0
 42
-0.414214
  0
VERTEX
  5
F6B
100
AcDbEntity
  8
FOOT-2
100
AcDbVertex
100
AcDb2dVertex
 10
420.77257
 20
280.58756
 30
0.0
  0
VERTEX
  5
F6C
100
AcDbEntity
  8
FOOT-2
100
AcDbVertex
100
AcDb2dVertex
 10
418.27321
 20
280.58756
 30
0.0
 42
-0.414214
  0
SEQEND
  5
F6D
100
AcDbEntity
  8
FOOT-2
  0
LINE
  5
F6E
100
AcDbEntity
  8
FOOT-2
100
AcDbLine
 10
475.338538
 20
277.139002
 30
0.0
 11
475.338538
 21
303.041745
 31
0.0
  0
LINE
  5
F6F
100
AcDbEntity
  8
FOOT-B
100
AcDbLine
 10
475.684479
 20
463.837122
 30
0.0
 11
452.342382
 21
475.730514
 31
0.0
1001
ACAD
1000
ASC_BOUNDS
1002
{
1070
    19
1005
0
1002
}
  0
LINE
  5
F71
100
AcDbEntity
  8
FOOT-B
100
AcDbLine
 10
407.897143
 20
475.730514
 30
0.0
 11
407.897143
 21
467.318034
 31
0.0
1001
ACAD
1000
ASC_BOUNDS
1002
{
1070
    19
1005
0
1002
}
  0
LINE
  5
F72
100
AcDbEntity
  8
FOOT-B
100
AcDbLine
 10
407.897143
 20
475.730514
 30
0.0
 11
452.342382
 21
475.730514
 31
0.0
1001
ACAD
1000
ASC_BOUNDS
1002
{
1070
    19
1005
0
1002
}
  0
LINE
  5
F74
100
AcDbEntity
  8
FOOT-B
100
AcDbLine
 10
409.484643
 20
465.730534
 30
0.0
 11
456.382527
 21
465.730534
 31
0.0
  0
ARC
  5
F75
100
AcDbEntity
  8
FOOT-B
100
AcDbCircle
 10
409.484643
 20
467.318034
 30
0.0
 40
1.5875
100
AcDbArc
 50
180.0
 51
270.0
  0
LINE
  5
F76
100
AcDbEntity
  8
CENTER
100
AcDbLine
 10
424.659671
 20
470.630524
 30
0.0
 11
429.518576
 21
470.630524
 31
0.0
  0
CIRCLE
  5
F77
100
AcDbEntity
  8
FOOT-B
100
AcDbCircle
 10
426.948199
 20
470.630524
 30
0.0
 40
1.19126
  0
LINE
  5
F78
100
AcDbEntity
  8
CENTER
100
AcDbLine
 10
426.948199
 20
473.433362
 30
0.0
 11
426.948199
 21
467.502834
 31
0.0
  0
LINE
  5
F79
100
AcDbEntity
  8
FOOT-B
100
AcDbLine
 10
471.057633
 20
458.253194
 30
0.0
 11
456.382527
 21
465.730534
 31
0.0
1001
ACAD
1000
ASC_BOUNDS
1002
{
1070
    19
1002
}
  0
CIRCLE
  5
F7A
100
AcDbEntity
  8
FOOT-B
100
AcDbCircle
 10
465.860533
 20
464.444354
 30
0.0
 40
1.19126
  0
LINE
  5
F7B
100
AcDbEntity
  8
FOOT-B
100
AcDbLine
 10
475.684479
 20
463.837122
 30
0.0
 11
473.192816
 21
458.946957
 31
0.0
1001
ACAD
1000
ASC_BOUNDS
1002
{
1070
    19
1005
0
1002
}
  0
ARC
  5
F7C
100
AcDbEntity
  8
FOOT-B
100
AcDbCircle
 10
471.778343
 20
459.667667
 30
0.0
 40
1.5875
100
AcDbArc
 50
243.0
 51
333.0
1001
ACAD
1000
ASC_BOUNDS
1002
{
1070
    19
1002
}
  0
LINE
  5
F7D
100
AcDbEntity
  8
CENTER
100
AcDbLine
 10
493.773843
 20
54.827906
 30
0.0
 11
411.558594
 21
216.184418
 31
0.0
  0
LINE
  5
F7E
100
AcDbEntity
  8
CENTER
100
AcDbLine
 10
430.233708
 20
91.458089
 30
0.0
 11
606.723146
 21
181.38395
 31
0.0
  0
LINE
  5
F85
100
AcDbEntity
  8
FOOT-B
100
AcDbLine
 10
446.741824
 20
167.021255
 30
0.0
 11
434.290363
 21
191.458624
 31
0.0
  0
LINE
  5
F86
100
AcDbEntity
  8
FOOT-B
100
AcDbLine
 10
434.290363
 20
191.458624
 30
0.0
 11
402.098094
 21
175.055844
 31
0.0
  0
LINE
  5
F88
100
AcDbEntity
  8
FOOT-B
100
AcDbLine
 10
416.078403
 20
151.397462
 30
0.0
 11
446.741824
 21
167.021255
 31
0.0
  0
LINE
  5
F89
100
AcDbEntity
  8
FOOT-B
100
AcDbLine
 10
434.636303
 20
190.779677
 30
0.0
 11
402.8032
 21
174.559901
 31
0.0
  0
LINE
  5
F8A
100
AcDbEntity
  8
FOOT-B
100
AcDbLine
 10
416.026577
 20
152.226268
 30
0.0
 11
446.395883
 21
167.700202
 31
0.0
  0
LINE
  5
F8B
100
AcDbEntity
  8
FOOT-B
100
AcDbLine
 10
423.216787
 20
155.889863
 30
0.0
 11
411.457207
 21
178.969338
 31
0.0
  0
LINE
  5
F8C
100
AcDbEntity
  8
FOOT-B
100
AcDbLine
 10
430.652245
 20
158.823205
 30
0.0
 11
430.306304
 21
159.502152
 31
0.0
  0
LINE
  5
F8D
100
AcDbEntity
  8
FOOT-B
100
AcDbLine
 10
418.200784
 20
183.260574
 30
0.0
 11
418.546725
 21
182.581627
 31
0.0
  0
LINE
  5
F8E
100
AcDbEntity
  8
FOOT-B
100
AcDbLine
 10
402.098094
 20
175.055844
 30
0.0
 11
406.725366
 21
171.801214
 31
0.0
  0
LINE
  5
F8F
100
AcDbEntity
  8
FOOT-B
100
AcDbLine
 10
406.725366
 20
171.801214
 30
0.0
 11
407.904515
 21
166.851219
 31
0.0
  0
LINE
  5
F90
100
AcDbEntity
  8
FOOT-B
100
AcDbLine
 10
407.904515
 20
166.851219
 30
0.0
 11
411.206134
 21
161.901223
 31
0.0
  0
LINE
  5
F91
100
AcDbEntity
  8
FOOT-B
100
AcDbLine
 10
411.206134
 20
161.901223
 30
0.0
 11
411.441964
 21
157.65837
 31
0.0
  0
LINE
  5
F92
100
AcDbEntity
  8
FOOT-B
100
AcDbLine
 10
411.441964
 20
157.65837
 30
0.0
 11
415.922734
 21
153.886945
 31
0.0
  0
LINE
  5
F93
100
AcDbEntity
  8
FOOT-B
100
AcDbLine
 10
415.922734
 20
153.886945
 30
0.0
 11
416.078403
 21
151.397462
 31
0.0
  0
CIRCLE
  5
F94
100
AcDbEntity
  8
FOOT-B
100
AcDbCircle
 10
435.300249
 20
176.582334
 30
0.0
 40
1.19065
  0
LINE
  5
F95
100
AcDbEntity
  8
CENTER
100
AcDbLine
 10
436.429755
 20
174.365555
 30
0.0
 11
434.041
 21
179.05375
 31
0.0
  0
LINE
  5
F96
100
AcDbEntity
  8
CENTER
100
AcDbLine
 10
437.555341
 20
177.731361
 30
0.0
 11
433.002934
 21
175.411794
 31
0.0
  0
ELLIPSE
  5
F9C
100
AcDbEntity
  8
FOOT-B
100
AcDbEllipse
 10
470.122695
 20
290.090374
 30
0.0
 11
0.0
 21
1.190625000000011
 31
0.0
210
0.0
220
0.0
230
1.0
 40
0.891025
 41
0.0
 42
6.2831853071796
  0
ELLIPSE
  5
F9E
100
AcDbEntity
  8
FOOT-B
100
AcDbEllipse
 10
470.468635
 20
290.090374
 30
0.0
 11
0.0
 21
1.190625000000011
 31
0.0
210
0.0
220
0.0
230
1.0
 40
0.891025
 41
0.1637758866244626
 42
2.977816766965497
  0
INSERT
  5
FAF
100
AcDbEntity
  8
HATCH
100
AcDbBlockReference
  2
*X9
 10
146.695667
 20
0.0
 30
0.0
1001
ACAD
1000
HATCH
1002
{
1070
    19
1000
ANSI31
1040
10.0
1040
0.0
1000
ASC_BOUNDS
1070
     1
1070
     1
1070
     6
1005
F42
1005
F3E
1005
F36
1005
F37
1005
F3D
1005
F3F
1000
ASC_SEEDPOINT
1011
454.818093
1021
99.937787
1031
0.0
1002
}
  0
DIMENSION
  5
FDD
100
AcDbEntity
  8
DIM
100
AcDbDimension
  2
*D10
 10
407.897143
 20
65.188132
 30
0.0
 11
368.273143
 21
65.188132
 31
0.0
 70
    32
  3
SU1
100
AcDbAlignedDimension
 13
465.860533
 23
39.622604
 33
0.0
 14
407.897143
 24
98.324703
 34
0.0
100
AcDbRotatedDimension
1001
ACAD
1000
DSTYLE
1002
{
1070
    47
1040
0.03
1070
    48
1040
0.03
1070
   272
1070
     2
1070
    75
1070
     1
1070
    40
1040
25.4
1070
     3
1000
mm
1070
   271
1070
     2
1070
     4
1000
"
1070
   274
1070
     3
1070
   143
1040
0.03937
1070
   171
1070
     3
1070
   170
1070
     1
1002
}
  0
DIMENSION
  5
FF5
100
AcDbEntity
  8
DIM
100
AcDbDimension
  2
*D11
 10
426.948199
 20
54.155081
 30
0.0
 11
363.321199
 21
54.155081
 31
0.0
 70
    32
  3
SU1
100
AcDbAlignedDimension
 13
465.860533
 23
39.622604
 33
0.0
 14
426.948199
 24
100.621855
 34
0.0
100
AcDbRotatedDimension
1001
ACAD
1000
DSTYLE
1002
{
1070
    47
1040
0.03
1070
    71
1070
     1
1070
    48
1040
0.03
1070
   272
1070
     2
1070
    75
1070
     1
1070
    40
1040
25.4
1070
     3
1000
mm
1070
   271
1070
     2
1070
     4
1000
"
1070
   274
1070
     3
1070
   143
1040
0.03937
1070
   171
1070
     3
1070
   170
1070
     1
1002
}
  0
DIMENSION
  5
1002
100
AcDbEntity
  8
DIM
100
AcDbDimension
  2
*D12
 10
456.382527
 20
133.844552
 30
0.0
 11
419.425527
 21
133.844552
 31
0.0
 70
    32
  3
SU1
100
AcDbAlignedDimension
 13
465.860533
 23
39.622604
 33
0.0
 14
456.382527
 24
108.324683
 34
0.0
100
AcDbRotatedDimension
1001
ACAD
1000
DSTYLE
1002
{
1070
    47
1040
0.03
1070
    48
1040
0.03
1070
   272
1070
     2
1070
    75
1070
     1
1070
    40
1040
25.4
1070
     3
1000
mm
1070
   271
1070
     2
1070
     4
1000
"
1070
   274
1070
     3
1070
   143
1040
0.03937
1070
   171
1070
     3
1070
   170
1070
     1
1002
}
  0
DIMENSION
  5
1010
100
AcDbEntity
  8
DIM
100
AcDbDimension
  2
*D13
 10
230.365163
 20
109.610863
 30
0.0
 11
287.515163
 21
118.754863
 31
0.0
 70
    32
  3
SU1
100
AcDbAlignedDimension
 13
424.659671
 23
103.424693
 33
0.0
 14
48.032312
 24
109.610863
 34
0.0
 50
90.0
100
AcDbRotatedDimension
1001
ACAD
1000
DSTYLE
1002
{
1070
    47
1040
0.03
1070
    71
1070
     1
1070
    48
1040
0.03
1070
   272
1070
     2
1070
    76
1070
     1
1070
    40
1040
25.4
1070
     3
1000
mm
1070
   271
1070
     2
1070
     4
1000
"
1070
   274
1070
     3
1070
   143
1040
0.03937
1070
   171
1070
     3
1070
   170
1070
     1
1002
}
  0
DIMENSION
  5
102A
100
AcDbEntity
  8
DIM
100
AcDbDimension
  2
*D14
 10
346.178164
 20
109.610863
 30
0.0
 11
376.658164
 21
118.754863
 31
0.0
 70
    32
  3
SU1
100
AcDbAlignedDimension
 13
409.484643
 23
108.324683
 33
0.0
 14
717.06236
 24
109.610863
 34
0.0
 50
90.0
100
AcDbRotatedDimension
1001
ACAD
1000
DSTYLE
1002
{
1070
    47
1040
0.03
1070
    48
1040
0.03
1070
   272
1070
     2
1070
    76
1070
     1
1070
    40
1040
25.4
1070
     3
1000
mm
1070
   271
1070
     2
1070
     4
1000
"
1070
   274
1070
     3
1070
   143
1040
0.03937
1070
   171
1070
     3
1070
   170
1070
     1
1002
}
  0
DIMENSION
  5
1043
100
AcDbEntity
  8
DIM
100
AcDbDimension
  2
*D15
 10
100.931889
 20
109.610863
 30
0.0
 11
165.092289
 21
118.754863
 31
0.0
 70
    32
  3
SU1
100
AcDbAlignedDimension
 13
407.897143
 23
98.324703
 33
0.0
 14
717.06236
 24
109.610863
 34
0.0
 50
90.0
100
AcDbRotatedDimension
1001
ACAD
1000
DSTYLE
1002
{
1070
    47
1040
0.0
1070
    71
1070
     1
1070
    48
1040
0.05
1070
   272
1070
     2
1070
    76
1070
     1
1070
    40
1040
25.4
1070
     3
1000
mm
1070
   271
1070
     2
1070
     4
1000
"
1070
   274
1070
     3
1070
   143
1040
0.03937
1070
   171
1070
     3
1070
   170
1070
     1
1002
}
  0
DIMENSION
  5
1050
100
AcDbEntity
  8
DIM
100
AcDbDimension
  2
*D16
 10
421.775056
 20
196.133484
 30
0.0
 11
367.459298
 21
168.458223
 31
0.0
 70
    32
 51
333.0
  3
SU1
100
AcDbAlignedDimension
 13
434.041
 23
179.05375
 33
0.0
 14
411.558594
 24
216.184418
 34
0.0
 50
27.0
100
AcDbRotatedDimension
1001
ACAD
1000
DSTYLE
1002
{
1070
    47
1040
0.03
1070
    71
1070
     1
1070
    48
1040
0.03
1070
   272
1070
     2
1070
    76
1070
     1
1070
    40
1040
25.4
1070
     3
1000
mm
1070
   271
1070
     2
1070
     4
1000
"
1070
   274
1070
     3
1070
   143
1040
0.03937
1070
   171
1070
     3
1070
   170
1070
     1
1002
}
  0
DIMENSION
  5
105E
100
AcDbEntity
  8
DIM
100
AcDbDimension
  2
*D17
 10
485.51791
 20
123.169903
 30
0.0
 11
508.863973
 21
145.327867
 31
0.0
 70
    32
 51
333.0
  3
SU1
100
AcDbAlignedDimension
 13
606.723146
 23
181.38395
 33
0.0
 14
471.057633
 24
115.802023
 34
0.0
 50
117.0
100
AcDbRotatedDimension
1001
ACAD
1000
DSTYLE
1002
{
1070
    47
1040
0.03
1070
    48
1040
0.03
1070
   272
1070
     2
1070
    75
1070
     1
1070
    40
1040
25.4
1070
     3
1000
mm
1070
   271
1070
     2
1070
     4
1000
"
1070
   274
1070
     3
1070
   143
1040
0.03937
1070
   171
1070
     3
1070
   170
1070
     1
1002
}
  0
DIMENSION
  5
106C
100
AcDbEntity
  8
DIM
100
AcDbDimension
  2
*D18
 10
544.077364
 20
149.464329
 30
0.0
 11
568.102374
 21
171.968235
 31
0.0
 70
    32
 51
333.0
  3
SU1
100
AcDbAlignedDimension
 13
475.684479
 23
110.218096
 33
0.0
 14
606.723146
 24
181.38395
 34
0.0
 50
117.0
100
AcDbRotatedDimension
1001
ACAD
1000
DSTYLE
1002
{
1070
    47
1040
0.03
1070
    48
1040
0.03
1070
   272
1070
     2
1070
    76
1070
     1
1070
    40
1040
25.4
1070
     3
1000
mm
1070
   271
1070
     2
1070
     4
1000
"
1070
   274
1070
     3
1070
   143
1040
0.03937
1070
   171
1070
     3
1070
   170
1070
     1
1002
}
  0
DIMENSION
  5
1091
100
AcDbEntity
  8
DIM
100
AcDbDimension
  2
*D19
 10
411.097506
 20
334.423416
 30
0.0
 11
372.235506
 21
334.423416
 31
0.0
 70
    32
  3
SU1
100
AcDbAlignedDimension
 13
465.860533
 23
484.277863
 33
0.0
 14
411.097506
 24
302.867247
 34
0.0
100
AcDbRotatedDimension
1001
ACAD
1000
DSTYLE
1002
{
1070
    47
1040
0.03
1070
    48
1040
0.03
1070
   272
1070
     2
1070
    75
1070
     1
1070
    40
1040
25.4
1070
     3
1000
mm
1070
   271
1070
     2
1070
     4
1000
"
1070
   274
1070
     3
1070
   143
1040
0.03937
1070
   171
1070
     3
1070
   170
1070
     1
1002
}
  0
DIMENSION
  5
109E
100
AcDbEntity
  8
DIM
100
AcDbDimension
  2
*D20
 10
412.757583
 20
345.379336
 30
0.0
 11
349.892583
 21
345.379336
 31
0.0
 70
    32
  3
SU1
100
AcDbAlignedDimension
 13
465.860533
 23
484.277863
 33
0.0
 14
412.757583
 24
294.455999
 34
0.0
100
AcDbRotatedDimension
1001
ACAD
1000
DSTYLE
1002
{
1070
    47
1040
0.03
1070
    71
1070
     1
1070
    48
1040
0.03
1070
   272
1070
     2
1070
    75
1070
     1
1070
    40
1040
25.4
1070
     3
1000
mm
1070
   271
1070
     2
1070
     4
1000
"
1070
   274
1070
     3
1070
   143
1040
0.03937
1070
   171
1070
     3
1070
   170
1070
     1
1002
}
  0
DIMENSION
  5
10AB
100
AcDbEntity
  8
DIM
100
AcDbDimension
  2
*D21
 10
415.567906
 20
356.335256
 30
0.0
 11
377.467906
 21
356.335256
 31
0.0
 70
    32
  3
SU1
100
AcDbAlignedDimension
 13
465.860533
 23
484.277863
 33
0.0
 14
415.567906
 24
302.867247
 34
0.0
100
AcDbRotatedDimension
1001
ACAD
1000
DSTYLE
1002
{
1070
    47
1040
0.03
1070
    48
1040
0.03
1070
   272
1070
     2
1070
    75
1070
     1
1070
    40
1040
25.4
1070
     3
1000
mm
1070
   271
1070
     2
1070
     4
1000
"
1070
   274
1070
     3
1070
   143
1040
0.03937
1070
   171
1070
     3
1070
   170
1070
     1
1002
}
  0
DIMENSION
  5
10B8
100
AcDbEntity
  8
DIM
100
AcDbDimension
  2
*D22
 10
417.77283
 20
366.352923
 30
0.0
 11
379.29183
 21
366.352923
 31
0.0
 70
    32
  3
SU1
100
AcDbAlignedDimension
 13
465.860533
 23
484.277863
 33
0.0
 14
417.77283
 24
299.092807
 34
0.0
100
AcDbRotatedDimension
1001
ACAD
1000
DSTYLE
1002
{
1070
    47
1040
0.03
1070
    48
1040
0.03
1070
   272
1070
     2
1070
    75
1070
     1
1070
    40
1040
25.4
1070
     3
1000
mm
1070
   271
1070
     2
1070
     4
1000
"
1070
   274
1070
     3
1070
   143
1040
0.03937
1070
   171
1070
     3
1070
   170
1070
     1
1002
}
  0
DIMENSION
  5
10C5
100
AcDbEntity
  8
DIM
100
AcDbDimension
  2
*D23
 10
421.27295
 20
376.125687
 30
0.0
 11
382.41095
 21
376.125687
 31
0.0
 70
    32
  3
SU1
100
AcDbAlignedDimension
 13
465.860533
 23
484.277863
 33
0.0
 14
421.27295
 24
299.092807
 34
0.0
100
AcDbRotatedDimension
1001
ACAD
1000
DSTYLE
1002
{
1070
    47
1040
0.03
1070
    48
1040
0.03
1070
   272
1070
     2
1070
    75
1070
     1
1070
    40
1040
25.4
1070
     3
1000
mm
1070
   271
1070
     2
1070
     4
1000
"
1070
   274
1070
     3
1070
   143
1040
0.03937
1070
   171
1070
     3
1070
   170
1070
     1
1002
}
  0
DIMENSION
  5
10D2
100
AcDbEntity
  8
DIM
100
AcDbDimension
  2
*D24
 10
445.078935
 20
387.262856
 30
0.0
 11
406.978935
 21
387.262856
 31
0.0
 70
    32
  3
SU1
100
AcDbAlignedDimension
 13
465.860533
 23
484.277863
 33
0.0
 14
445.078935
 24
294.738574
 34
0.0
100
AcDbRotatedDimension
1001
ACAD
1000
DSTYLE
1002
{
1070
    47
1040
0.03
1070
    48
1040
0.03
1070
   272
1070
     2
1070
    75
1070
     1
1070
    40
1040
25.4
1070
     3
1000
mm
1070
   271
1070
     2
1070
     4
1000
"
1070
   274
1070
     3
1070
   143
1040
0.03937
1070
   171
1070
     3
1070
   170
1070
     1
1002
}
  0
DIMENSION
  5
10EC
100
AcDbEntity
  8
DIM
100
AcDbDimension
  2
*D25
 10
332.021199
 20
303.803745
 30
0.0
 11
363.644199
 21
312.947745
 31
0.0
 70
    32
  3
SU1
100
AcDbAlignedDimension
 13
406.322306
 23
298.092047
 33
0.0
 14
407.897143
 24
303.803745
 34
0.0
 50
90.0
100
AcDbRotatedDimension
1001
ACAD
1000
DSTYLE
1002
{
1070
    47
1040
0.03
1070
    48
1040
0.03
1070
   272
1070
     2
1070
    40
1040
25.4
1070
     3
1000
mm
1070
   271
1070
     2
1070
     4
1000
"
1070
   274
1070
     3
1070
   143
1040
0.03937
1070
   171
1070
     3
1070
   170
1070
     1
1002
}
  0
DIMENSION
  5
10FB
100
AcDbEntity
  8
DIM
100
AcDbDimension
  2
*D26
 10
211.7595
 20
303.803745
 30
0.0
 11
270.0525
 21
312.947745
 31
0.0
 70
    32
  3
SU1
100
AcDbAlignedDimension
 13
408.391958
 23
290.090374
 33
0.0
 14
407.897143
 24
303.803745
 34
0.0
 50
90.0
100
AcDbRotatedDimension
1001
ACAD
1000
DSTYLE
1002
{
1070
    47
1040
0.03
1070
    71
1070
     1
1070
    48
1040
0.03
1070
   272
1070
     2
1070
    40
1040
25.4
1070
     3
1000
mm
1070
   271
1070
     2
1070
     4
1000
"
1070
   274
1070
     3
1070
   143
1040
0.03937
1070
   171
1070
     3
1070
   170
1070
     1
1002
}
  0
DIMENSION
  5
110A
100
AcDbEntity
  8
DIM
100
AcDbDimension
  2
*D27
 10
143.994429
 20
303.803745
 30
0.0
 11
177.903429
 21
312.947745
 31
0.0
 70
    32
  3
SU1
100
AcDbAlignedDimension
 13
406.322306
 23
282.0887
 33
0.0
 14
407.897143
 24
303.803745
 34
0.0
 50
90.0
100
AcDbRotatedDimension
1001
ACAD
1000
DSTYLE
1002
{
1070
    47
1040
0.03
1070
    48
1040
0.03
1070
   272
1070
     2
1070
    40
1040
25.4
1070
     3
1000
mm
1070
   271
1070
     2
1070
     4
1000
"
1070
   274
1070
     3
1070
   143
1040
0.03937
1070
   171
1070
     3
1070
   170
1070
     1
1002
}
  0
DIMENSION
  5
1118
100
AcDbEntity
  8
DIM
100
AcDbDimension
  2
*D28
 10
78.720583
 20
303.803745
 30
0.0
 11
78.720583
 21
290.090374
 31
0.0
 70
    32
  3
SU1
100
AcDbAlignedDimension
 13
407.897143
 23
276.377002
 33
0.0
 14
407.897143
 24
303.803745
 34
0.0
 50
90.0
100
AcDbRotatedDimension
1001
ACAD
1000
DSTYLE
1002
{
1070
    47
1040
0.03
1070
    71
1070
     1
1070
    48
1040
0.03
1070
   272
1070
     2
1070
    40
1040
25.4
1070
     3
1000
mm
1070
   271
1070
     2
1070
     4
1000
"
1070
   274
1070
     3
1070
   143
1040
0.03937
1070
   171
1070
     3
1070
   170
1070
     1
1002
}
  0
DIMENSION
  5
1127
100
AcDbEntity
  8
DIM
100
AcDbDimension
  2
*D29
 10
395.937671
 20
276.377002
 30
0.0
 11
339.168671
 21
267.233002
 31
0.0
 70
    32
  1
{<>}\P{WALL THICKNESS}
  3
SU1
100
AcDbAlignedDimension
 13
407.897143
 23
277.139002
 33
0.0
 14
407.897143
 24
276.377002
 34
0.0
 50
90.0
100
AcDbRotatedDimension
1001
ACAD
1000
DSTYLE
1002
{
1070
    47
1040
0.03
1070
    71
1070
     1
1070
    48
1040
0.03
1070
   272
1070
     2
1070
    40
1040
25.4
1070
     3
1000
mm
1070
   271
1070
     2
1070
     4
1000
"
1070
   274
1070
     3
1070
   143
1040
0.03937
1070
   171
1070
     3
1070
   170
1070
     1
1002
}
  0
DIMENSION
  5
1143
100
AcDbEntity
  8
DIM
100
AcDbDimension
  2
*D30
 10
496.499148
 20
303.803745
 30
0.0
 11
527.360148
 21
312.947745
 31
0.0
 70
    32
  3
SU1
100
AcDbAlignedDimension
 13
420.77257
 23
299.593187
 33
0.0
 14
475.684479
 24
303.803745
 34
0.0
 50
90.0
100
AcDbRotatedDimension
1001
ACAD
1000
DSTYLE
1002
{
1070
    47
1040
0.03
1070
    48
1040
0.03
1070
   272
1070
     2
1070
    40
1040
25.4
1070
     3
1000
mm
1070
   271
1070
     2
1070
     4
1000
"
1070
   274
1070
     3
1070
   143
1040
0.03937
1070
   171
1070
     3
1070
   170
1070
     1
1002
}
  0
DIMENSION
  5
1152
100
AcDbEntity
  8
DIM
100
AcDbDimension
  2
*D31
 10
556.814879
 20
303.803745
 30
0.0
 11
588.437879
 21
312.947745
 31
0.0
 70
    32
  3
SU1
100
AcDbAlignedDimension
 13
420.77257
 23
296.590907
 33
0.0
 14
475.684479
 24
303.803745
 34
0.0
 50
90.0
100
AcDbRotatedDimension
1001
ACAD
1000
DSTYLE
1002
{
1070
    47
1040
0.03
1070
    48
1040
0.03
1070
   272
1070
     2
1070
    40
1040
25.4
1070
     3
1000
mm
1070
   271
1070
     2
1070
     4
1000
"
1070
   274
1070
     3
1070
   143
1040
0.03937
1070
   171
1070
     3
1070
   170
1070
     1
1002
}
  0
DIMENSION
  5
1161
100
AcDbEntity
  8
DIM
100
AcDbDimension
  2
*D32
 10
618.794494
 20
303.803745
 30
0.0
 11
652.322494
 21
312.947745
 31
0.0
 70
    32
  3
SU1
100
AcDbAlignedDimension
 13
420.77257
 23
283.58984
 33
0.0
 14
475.684479
 24
303.803745
 34
0.0
 50
90.0
100
AcDbRotatedDimension
1001
ACAD
1000
DSTYLE
1002
{
1070
    47
1040
0.03
1070
    48
1040
0.03
1070
   272
1070
     2
1070
    40
1040
25.4
1070
     3
1000
mm
1070
   271
1070
     2
1070
     4
1000
"
1070
   274
1070
     3
1070
   143
1040
0.03937
1070
   171
1070
     3
1070
   170
1070
     1
1002
}
  0
DIMENSION
  5
116F
100
AcDbEntity
  8
DIM
100
AcDbDimension
  2
*D33
 10
707.806762
 20
303.803745
 30
0.0
 11
707.806762
 21
292.195652
 31
0.0
 70
    32
  3
SU1
100
AcDbAlignedDimension
 13
420.77257
 23
280.58756
 33
0.0
 14
475.684479
 24
303.803745
 34
0.0
 50
90.0
100
AcDbRotatedDimension
1001
ACAD
1000
DSTYLE
1002
{
1070
    47
1040
0.03
1070
    48
1040
0.03
1070
   272
1070
     2
1070
    40
1040
25.4
1070
     3
1000
mm
1070
   271
1070
     2
1070
     4
1000
"
1070
   274
1070
     3
1070
   143
1040
0.03937
1070
   171
1070
     3
1070
   170
1070
     1
1002
}
  0
DIMENSION
  5
11A3
100
AcDbEntity
  8
DIM
100
AcDbDimension
  2
*D34
 10
413.396109
 20
291.095298
 30
0.0
 11
321.759825
 21
244.615253
 31
0.0
 70
   163
  1
{<>}\P{2X}
  3
SU1$3
100
AcDbDiametricDimension
 15
412.119057
 25
289.085449
 35
0.0
 40
0.0
1001
ACAD
1000
DSTYLE
1002
{
1070
    47
1040
0.03
1070
    71
1070
     1
1070
    48
1040
0.03
1070
   272
1070
     2
1070
    40
1040
25.4
1070
     3
1000
mm
1070
   271
1070
     2
1070
     4
1000
"
1070
   274
1070
     3
1070
   143
1040
0.03937
1070
   171
1070
     3
1070
   170
1070
     1
1002
}
  0
DIMENSION
  5
11B9
100
AcDbEntity
  8
DIM
100
AcDbDimension
  2
*D35
 10
411.93978
 20
283.449293
 30
0.0
 11
338.955197
 21
223.404625
 31
0.0
 70
   163
  1
{<>}\P{4X}
  3
SU1$3
100
AcDbDiametricDimension
 15
410.255232
 25
280.728106
 35
0.0
 40
0.0
1001
ACAD
1000
DSTYLE
1002
{
1070
    47
1040
0.03
1070
    48
1040
0.03
1070
   272
1070
     2
1070
    40
1040
25.4
1070
     3
1000
mm
1070
   271
1070
     2
1070
     4
1000
"
1070
   274
1070
     3
1070
   143
1040
0.03937
1070
   171
1070
     3
1070
   170
1070
     1
1002
}
  0
DIMENSION
  5
11CF
100
AcDbEntity
  8
DIM
100
AcDbDimension
  2
*D36
 10
444.04043
 20
291.135278
 30
0.0
 11
509.494394
 21
260.92933
 31
0.0
 70
   163
  3
SU1$3
100
AcDbDiametricDimension
 15
446.117441
 25
289.045469
 35
0.0
 40
0.0
1001
ACAD
1000
DSTYLE
1002
{
1070
    47
1040
0.03
1070
    48
1040
0.03
1070
   272
1070
     2
1070
    40
1040
25.4
1070
     3
1000
mm
1070
   271
1070
     2
1070
     4
1000
"
1070
   274
1070
     3
1070
   143
1040
0.03937
1070
   171
1070
     3
1070
   170
1070
     1
1002
}
  0
DIMENSION
  5
11DB
100
AcDbEntity
  8
DIM
100
AcDbDimension
  2
*D37
 10
418.537151
 20
281.513046
 30
0.0
 11
335.712649
 21
204.570402
 31
0.0
 70
   163
  1
{<>}\P{8X}
  3
SU1$3
100
AcDbDiametricDimension
 15
418.009268
 25
280.662834
 35
0.0
 40
0.0
1001
ACAD
1000
DSTYLE
1002
{
1070
    47
1040
0.03
1070
    48
1040
0.03
1070
   272
1070
     2
1070
    40
1040
25.4
1070
     3
1000
mm
1070
   271
1070
     2
1070
     4
1000
"
1070
   274
1070
     3
1070
   143
1040
0.03937
1070
   171
1070
     3
1070
   170
1070
     1
1002
}
  0
DIMENSION
  5
1230
100
AcDbEntity
  8
DIM
100
AcDbDimension
  2
*D38
 10
411.558594
 20
216.184418
 30
0.0
 11
438.967605
 21
221.627968
 31
0.0
 70
    34
  3
SU1$2
100
AcDb2LineAngularDimension
 13
465.860533
 23
39.622604
 33
0.0
 14
465.860533
 24
484.277863
 34
0.0
 15
493.773843
 25
54.827906
 35
0.0
 16
448.693986
 26
223.524739
 36
0.0
1001
ACAD
1000
DSTYLE
1002
{
1070
    47
1040
0.03
1070
    48
1040
0.03
1070
   272
1070
     2
1070
    40
1040
25.4
1070
   271
1070
     2
1070
     4
1000
"
1070
   274
1070
     3
1070
   143
1040
0.03937
1070
   171
1070
     3
1070
   170
1070
     1
1002
}
  0
ENDSEC
  0
SECTION
  2
OBJECTS
  0
DICTIONARY
  5
C
100
AcDbDictionary
  3
ACAD_GROUP
350
D
  3
ACAD_MLINESTYLE
350
E
  3
ACASAPPOBJECT
350
7B
  3
ACASGREF_MASTER
350
2D
  3
ACCELVIEW
350
86
  3
ACDMSYSVARMGR
350
49
  3
ACGREF_MASTER
350
2B
  3
ACME_COMMAND_HISTORY
350
29
  3
ACME_SCOPE_NAME
350
28
  3
AD_APPL
350
3C
  3
AD_DRAWMGR_NAME
350
5E
  3
AD_GREF_MODULE
350
44
  3
AD_HOLENOTE_REPOSITORY
350
43
  3
ADSYSVARMGR
350
32
  3
AMI_MASTER
350
2C
  3
AUTOCAD_ASSEMBLIES_PROJECT
350
6A
  3
DESIGNER_ASSEMBLIES_SYSVARS
350
65
  0
DICTIONARY
  5
D
102
{ACAD_REACTORS
330
C
102
}
100
AcDbDictionary
  0
DICTIONARY
  5
E
102
{ACAD_REACTORS
330
C
102
}
100
AcDbDictionary
  3
STANDARD
350
13
  0
ACAD_ZOMBIE_OBJECT
  5
7B
102
{ACAD_REACTORS
330
C
102
}
100
AcDbZombieObject
 90
      499
 91
      536
 93
        2
310
AA
360
79
 94
        0
  0
ACAD_ZOMBIE_OBJECT
  5
2D
102
{ACAD_REACTORS
330
C
102
}
100
AcDbZombieObject
 90
      499
 91
      505
 93
       34
310
0100004040
 94
        0
  0
ACAD_ZOMBIE_OBJECT
  5
86
102
{ACAD_REACTORS
330
C
102
}
100
AcDbZombieObject
 90
      499
 91
      537
 93
       12
310
9018
330
3D
 94
        0
  0
ACAD_ZOMBIE_OBJECT
  5
49
102
{ACAD_REACTORS
330
C
102
}
100
AcDbZombieObject
 90
      499
 91
      510
 93
      176
310
4C5114810100000000000000000000000000000000004F
330
4A
330
4B
330
4C
330
4D
330
4E
330
50
330
52
330
53
330
54
330
55
330
56
330
57
330
58
330
59
330
5A
330
5B
330
5D
 94
        0
  0
ACAD_ZOMBIE_OBJECT
  5
2B
102
{ACAD_REACTORS
330
C
102
}
100
AcDbZombieObject
 90
      499
 91
      503
 93
      114
310
01000040C000000000000000000002
 94
        0
  0
ACAD_ZOMBIE_OBJECT
  5
29
102
{ACAD_REACTORS
330
C
102
}
100
AcDbZombieObject
 90
      499
 91
      501
 93
     3940
310
478050444494D3140405084E202D205341564501411112534C501014293880B4814D1551590548050444494D31404050A4E202D2053455456415201411112534C501014293880B4814D1551590548050444494D31404050A4E202D2053455456415201411112534C501014293880B4814D1551590548050444494D31404050
310
A4E202D2053455456415201411112534C501014213880B4814D055914050444494D31404050A4E202D2053455456415201411112534C501014293880B4814D1551590548050444494D31404050A4E202D2053455456415201411112534C501014293880B4814D1551590548050444494D31404050A4E202D20534554564152
310
01411112534C501014293880B4814D1551590548050444494D3140405084E202D205341564501411112534C5010142D3880B48149154D513D49140504554E444F80504554E444F805034E455780508554E444546494E4580508554E444546494E458050A4D454E55554E4C4F4144805084D454E554C4F41448050C41445F43
310
4F4E56455254523140805084E202D20554E444F014213880B4815539113C050C414D4C54595045434845434B40C05084E202D20554E444F014253880B481310565154805084E202D20554E444F01415310565154A01415310565154A014115539113E014115539113E014113D41153A0
 94
        0
  0
ACAD_ZOMBIE_OBJECT
  5
28
102
{ACAD_REACTORS
330
C
102
}
100
AcDbZombieObject
 90
      499
 91
      500
 93
      456
310
0101004093100000000000000000000000000000000000000000000000000000000000000000000000000000000000000000000000000901006D
360
2E
360
2F
360
30
360
31
360
33
360
34
360
35
360
36
360
37
360
38
360
39
360
3A
360
3B
360
3E
360
3F
360
40
360
41
360
42
360
45
360
46
360
47
360
48
360
4A
360
4B
360
4C
360
4D
360
4E
360
50
360
52
360
53
360
54
360
55
360
56
360
57
360
58
360
59
360
5A
360
5B
360
5D
360
66
360
67
360
68
360
69
360
6E
360
6F
360
70
360
71
360
72
360
76
330
3D
 94
        0
  0
ACAD_ZOMBIE_OBJECT
  5
3C
102
{ACAD_REACTORS
330
C
102
}
100
AcDbZombieObject
 90
      499
 91
      514
 93
       42
310
000100004353
330
2E
 94
        0
  0
ACAD_ZOMBIE_OBJECT
  5
5E
102
{ACAD_REACTORS
330
C
102
}
100
AcDbZombieObject
 90
      499
 91
      526
 93
       42
310
000100004413
330
45
 94
        0
  0
ACAD_ZOMBIE_OBJECT
  5
44
102
{ACAD_REACTORS
330
C
102
}
100
AcDbZombieObject
 90
      499
 91
      521
 93
      114
310
000000428000000000000000000004
 94
        0
  0
ACAD_ZOMBIE_OBJECT
  5
43
102
{ACAD_REACTORS
330
C
102
}
100
AcDbZombieObject
 90
      499
 91
      520
 93
        8
310
0018
330
42
 94
        0
  0
ACAD_ZOMBIE_OBJECT
  5
32
102
{ACAD_REACTORS
330
C
102
}
100
AcDbZombieObject
 90
      499
 91
      510
 93
      104
310
9094410100000000000000000000
330
33
330
34
330
35
330
36
330
37
330
38
330
39
330
3A
330
3B
 94
        0
  0
ACAD_ZOMBIE_OBJECT
  5
2C
102
{ACAD_REACTORS
330
C
102
}
100
AcDbZombieObject
 90
      499
 91
      504
 93
       34
310
0100004062
 94
        0
  0
ACAD_ZOMBIE_OBJECT
  5
6A
102
{ACAD_REACTORS
330
C
102
}
100
AcDbZombieObject
 90
      499
 91
      527
 93
       58
310
010000418000001A
330
70
330
76
330
71
 94
        0
  0
ACAD_ZOMBIE_OBJECT
  5
65
102
{ACAD_REACTORS
330
C
102
}
100
AcDbZombieObject
 90
      499
 91
      510
 93
       64
310
904441010000000070
330
66
330
67
330
68
330
69
 94
        0
  0
MLINESTYLE
  5
13
102
{ACAD_REACTORS
330
E
102
}
100
AcDbMlineStyle
  2
STANDARD
 70
     0
  3

 62
     0
 51
90.0
 52
90.0
 71
     2
 49
0.5
 62
   256
  6
BYLAYER
 49
-0.5
 62
   256
  6
BYLAYER
  0
ACAD_ZOMBIE_OBJECT
  5
79
100
AcDbZombieObject
 90
      499
 91
      534
 93
      720
310
9064D2E312E313607014B7269BC41100000000000000E03F1EC52B91F85EA10FE1EC52B91F85EA10FD034153471EC52B91F85EA10FC000000FC83D797414650540C000000000000E03F3F2A7C749358940FC000000FC83D797414F
 94
        0
  0
ACAD_ZOMBIE_OBJECT
  5
2E
100
AcDbZombieObject
 90
      499
 91
      506
 93
      280
310
000000000000014119185D1940506462E312E3136014119185D1940506462E312E3136AA
330
28
330
2F
330
30
330
32
330
3D
 94
        0
  0
ACAD_ZOMBIE_OBJECT
  5
2F
100
AcDbZombieObject
 90
      499
 91
      507
 93
      120
310
00009024410100000092080002A6A600
330
28
330
3F
330
3E
330
0
 94
        0
  0
ACAD_ZOMBIE_OBJECT
  5
30
100
AcDbZombieObject
 90
      499
 91
      508
 93
       46
310
000000009208
330
28
330
0
330
31
 94
        0
  0
ACAD_ZOMBIE_OBJECT
  5
31
100
AcDbZombieObject
 90
      499
 91
      509
 93
       22
310
0000A9
330
28
 94
        0
  0
ACAD_ZOMBIE_OBJECT
  5
33
100
AcDbZombieObject
 90
      499
 91
      511
 93
      124
310
00000142905350D3D39114D414D69050
330
28
 94
        0
  0
ACAD_ZOMBIE_OBJECT
  5
34
100
AcDbZombieObject
 90
      499
 91
      511
 93
      124
310
000001429053549553115353D1115010
330
28
 94
        0
  0
ACAD_ZOMBIE_OBJECT
  5
35
100
AcDbZombieObject
 90
      499
 91
      511
 93
      108
310
00000142105354D2D353D1115019
330
28
 94
        0
  0
ACAD_ZOMBIE_OBJECT
  5
36
100
AcDbZombieObject
 90
      499
 91
      511
 93
      140
310
000001435053511253511254D41353D11162
330
28
 94
        0
  0
ACAD_ZOMBIE_OBJECT
  5
37
100
AcDbZombieObject
 90
      499
 91
      512
 93
      180
310
00000142905354D2D05391D513D3000000000000010405
330
28
 94
        0
  0
ACAD_ZOMBIE_OBJECT
  5
38
100
AcDbZombieObject
 90
      499
 91
      513
 93
      164
310
00000142505354D2D4D516531140505434F4E542A0
330
28
 94
        0
  0
ACAD_ZOMBIE_OBJECT
  5
39
100
AcDbZombieObject
 90
      499
 91
      511
 93
      108
310
00000142105350D3511112535019
330
28
 94
        0
  0
ACAD_ZOMBIE_OBJECT
  5
3A
100
AcDbZombieObject
 90
      499
 91
      513
 93
      116
310
000001425053541054919253114063
330
28
 94
        0
  0
ACAD_ZOMBIE_OBJECT
  5
3B
100
AcDbZombieObject
 90
      499
 91
      511
 93
      100
310
00000142105350D3D35414D5A3
330
28
 94
        0
  0
ACAD_ZOMBIE_OBJECT
  5
3E
100
AcDbZombieObject
 90
      499
 91
      516
 93
      164
310
000092090148200A00000440000FFFFFFFF000000E
330
28
330
3F
330
2F
330
3D
 94
        0
  0
ACAD_ZOMBIE_OBJECT
  5
3F
100
AcDbZombieObject
 90
      499
 91
      517
 93
       82
310
000040520802482A800000
330
28
330
3E
330
2F
330
3D
 94
        0
  0
ACAD_ZOMBIE_OBJECT
  5
40
100
AcDbZombieObject
 90
      499
 91
      509
 93
       22
310
0000A9
330
28
 94
        0
  0
ACAD_ZOMBIE_OBJECT
  5
41
100
AcDbZombieObject
 90
      499
 91
      518
 93
       38
310
0000009208
330
28
330
0
 94
        0
  0
ACAD_ZOMBIE_OBJECT
  5
42
100
AcDbZombieObject
 90
      499
 91
      519
 93
     3196
310
0000419208050A544852555F4452494C4C0142D09312539117D1149253130050A544852555F43424F52450142D09312539117D0D093D4914050A544852555F4353494E4B0142D09312539117D0D4D25392D0648201459EC94958C8094950535112504815121493D551D20B9F4051C7B252563202525414D444941205820252
310
5414D44455020444545507D014F5EC94958C8094950535112504815121493D551D20B9F57141ED0D093D49148094958C80949505350D112504816080949505350D091115408111151541F405437B252563202525414D4449412058202525414D44455020444545507D5C507B43424F524520252563202525414D4344494120
310
58202525414D434244455020444545507D014EDEC94958C8094950535112504815121493D551D20B9F57141ED0D4D25392C8094958C80949505350D112504816080949505350D4D05391C949591F405417B252563202525414D4449412058202525414D44455020444545507D5C507B4353494E4B20252563202525414D434
310
449412058202525414D4353414E472525647D8
330
28
 94
        0
  0
ACAD_ZOMBIE_OBJECT
  5
45
100
AcDbZombieObject
 90
      499
 91
      522
 93
      308
310
0000014119185D1940507442E312E313663014119185D1940507442E312E313663405010000004
330
28
330
46
330
48
330
49
 94
        0
  0
ACAD_ZOMBIE_OBJECT
  5
46
100
AcDbZombieObject
 90
      499
 91
      523
 93
       56
310
0000901441010000
330
28
330
47
 94
        0
  0
ACAD_ZOMBIE_OBJECT
  5
47
100
AcDbZombieObject
 90
      499
 91
      524
 93
       40
310
0000A441014F
330
28
 94
        0
  0
ACAD_ZOMBIE_OBJECT
  5
48
100
AcDbZombieObject
 90
      499
 91
      525
 93
       68
310
0000A44101920A4820
330
28
 94
        0
  0
ACAD_ZOMBIE_OBJECT
  5
4A
100
AcDbZombieObject
 90
      499
 91
      511
 93
      108
310
000001421053521310D05310D019
330
28
 94
        0
  0
ACAD_ZOMBIE_OBJECT
  5
4B
100
AcDbZombieObject
 90
      499
 91
      511
 93
      124
310
000001429053541493D2951654115013
330
28
 94
        0
  0
ACAD_ZOMBIE_OBJECT
  5
4C
100
AcDbZombieObject
 90
      499
 91
      511
 93
      124
310
00000142905354915554D15112535010
330
28
 94
        0
  0
ACAD_ZOMBIE_OBJECT
  5
4D
100
AcDbZombieObject
 90
      499
 91
      511
 93
      132
310
00000143105354D150D51253D391125368
330
28
 94
        0
  0
ACAD_ZOMBIE_OBJECT
  5
4E
100
AcDbZombieObject
 90
      499
 91
      511
 93
      124
310
00000142905355941093D49111549013
330
28
 94
        0
  0
ACAD_ZOMBIE_OBJECT
  5
50
100
AcDbZombieObject
 90
      499
 91
      513
 93
      180
310
00000142905352125113151654114050648494444454E1
330
28
 94
        0
  0
ACAD_ZOMBIE_OBJECT
  5
52
100
AcDbZombieObject
 90
      499
 91
      513
 93
      196
310
00000142905354D150D315165411405085048414E544F4D324
330
28
 94
        0
  0
ACAD_ZOMBIE_OBJECT
  5
53
100
AcDbZombieObject
 90
      499
 91
      511
 93
      108
310
00000142105354D51114D0D51024
330
28
 94
        0
  0
ACAD_ZOMBIE_OBJECT
  5
54
100
AcDbZombieObject
 90
      499
 91
      511
 93
      108
310
00000142105354D5111510541021
330
28
 94
        0
  0
ACAD_ZOMBIE_OBJECT
  5
55
100
AcDbZombieObject
 90
      499
 91
      511
 93
      108
310
00000142105354D5111115131021
330
28
 94
        0
  0
ACAD_ZOMBIE_OBJECT
  5
56
100
AcDbZombieObject
 90
      499
 91
      512
 93
      148
310
00000141905350D310D34295C8FC2F528BC3F4
330
28
 94
        0
  0
ACAD_ZOMBIE_OBJECT
  5
57
100
AcDbZombieObject
 90
      499
 91
      512
 93
      156
310
00000141D05350D311D05402B8716D9CEF7C33F4
330
28
 94
        0
  0
ACAD_ZOMBIE_OBJECT
  5
58
100
AcDbZombieObject
 90
      499
 91
      512
 93
      164
310
00000142105350D313D4D2150295C8FC2F528BC3F5
330
28
 94
        0
  0
ACAD_ZOMBIE_OBJECT
  5
59
100
AcDbZombieObject
 90
      499
 91
      511
 93
      100
310
00000141D05350D31410549018
330
28
 94
        0
  0
ACAD_ZOMBIE_OBJECT
  5
5A
100
AcDbZombieObject
 90
      499
 91
      511
 93
      100
310
0000014210535590539254D228
330
28
 94
        0
  0
ACAD_ZOMBIE_OBJECT
  5
5B
100
AcDbZombieObject
 90
      499
 91
      512
 93
      188
310
00000142D0535312539155121250D2C295C8FC2F5289C3F3
330
28
 94
        0
  0
ACAD_ZOMBIE_OBJECT
  5
5D
100
AcDbZombieObject
 90
      499
 91
      513
 93
      164
310
00000142105350D3151654114050643454E5445521
330
28
 94
        0
  0
ACAD_ZOMBIE_OBJECT
  5
66
100
AcDbZombieObject
 90
      499
 91
      511
 93
      132
310
00000142D05050555513D4D3D315915018
330
28
 94
        0
  0
ACAD_ZOMBIE_OBJECT
  5
67
100
AcDbZombieObject
 90
      499
 91
      511
 93
      156
310
00000143905050555513D054D4D1535093115014
330
28
 94
        0
  0
ACAD_ZOMBIE_OBJECT
  5
68
100
AcDbZombieObject
 90
      499
 91
      511
 93
      148
310
00000143505055925155D49154D513D491501C
330
28
 94
        0
  0
ACAD_ZOMBIE_OBJECT
  5
69
100
AcDbZombieObject
 90
      499
 91
      511
 93
      124
310
00000142D050525394D15495105094E0
330
28
 94
        0
  0
ACAD_ZOMBIE_OBJECT
  5
6E
100
AcDbZombieObject
 90
      499
 91
      528
 93
       32
310
0000000065
330
28
340
6B
330
6F
330
6B
 94
        0
  0
ACAD_ZOMBIE_OBJECT
  5
6F
100
AcDbZombieObject
 90
      499
 91
      529
 93
      111
310
000001411050D05110400522080D
330
28
330
6E
 94
        0
  0
ACAD_ZOMBIE_OBJECT
  5
70
100
AcDbZombieObject
 90
      499
 91
      530
 93
       72
310
000000A44101A4410122
330
28
330
6F
 94
        0
  0
ACAD_ZOMBIE_OBJECT
  5
71
100
AcDbZombieObject
 90
      499
 91
      531
 93
       80
310
0000901441010000000000
330
28
330
72
330
72
330
72
330
72
 94
        0
  0
ACAD_ZOMBIE_OBJECT
  5
72
100
AcDbZombieObject
 90
      499
 91
      532
 93
      173
310
00000000406AAAAAAAAAAAAAAAAA806A44101A441010
330
28
330
71
330
6F
 94
        0
  0
ACAD_ZOMBIE_OBJECT
  5
76
100
AcDbZombieObject
 90
      499
 91
      533
 93
       26
310
0000800F
330
28
330
0
 94
        0
  0
ENDSEC
  0
EOF
