  0
SECTION
  2
HEADER
  9
$ACADVER
  1
AC1012
  9
$DWGCODEPAGE
  3
ansi_1252
  9
$INSBASE
 10
0.0
 20
0.0
 30
0.0
  9
$EXTMIN
 10
3.175
 20
3.175
 30
0.0
  9
$EXTMAX
 10
791.75407
 20
506.668925
 30
0.0
  9
$LIMMIN
 10
0.0
 20
0.0
  9
$LIMMAX
 10
838.0
 20
533.0
  9
$ORTHOMODE
 70
     0
  9
$REGENMODE
 70
     1
  9
$FILLMODE
 70
     1
  9
$QTEXTMODE
 70
     0
  9
$MIRRTEXT
 70
     1
  9
$DRAGMODE
 70
     2
  9
$LTSCALE
 40
10.0
  9
$OSMODE
 70
     0
  9
$ATTMODE
 70
     1
  9
$TEXTSIZE
 40
6.0
  9
$TRACEWID
 40
0.05
  9
$TEXTSTYLE
  7
STANDARD
  9
$CLAYER
  8
FOOT-B
  9
$CELTYPE
  6
BYLAYER
  9
$CECOLOR
 62
   256
  9
$CELTSCALE
 40
1.0
  9
$DELOBJ
 70
     1
  9
$DISPSILH
 70
     0
  9
$DIMSCALE
 40
25.4
  9
$DIMASZ
 40
0.18
  9
$DIMEXO
 40
0.0625
  9
$DIMDLI
 40
0.38
  9
$DIMRND
 40
0.0
  9
$DIMDLE
 40
0.0
  9
$DIMEXE
 40
0.18
  9
$DIMTP
 40
0.03
  9
$DIMTM
 40
0.03
  9
$DIMTXT
 40
0.18
  9
$DIMCEN
 40
0.09
  9
$DIMTSZ
 40
0.0
  9
$DIMTOL
 70
     0
  9
$DIMLIM
 70
     0
  9
$DIMTIH
 70
     1
  9
$DIMTOH
 70
     1
  9
$DIMSE1
 70
     0
  9
$DIMSE2
 70
     0
  9
$DIMTAD
 70
     0
  9
$DIMZIN
 70
     0
  9
$DIMBLK
  1

  9
$DIMASO
 70
     1
  9
$DIMSHO
 70
     1
  9
$DIMPOST
  1

  9
$DIMAPOST
  1
"
  9
$DIMALT
 70
     1
  9
$DIMALTD
 70
     3
  9
$DIMALTF
 40
0.03937
  9
$DIMLFAC
 40
1.0
  9
$DIMTOFL
 70
     0
  9
$DIMTVP
 40
0.0
  9
$DIMTIX
 70
     0
  9
$DIMSOXD
 70
     0
  9
$DIMSAH
 70
     0
  9
$DIMBLK1
  1

  9
$DIMBLK2
  1

  9
$DIMSTYLE
  2
SU1
  9
$DIMCLRD
 70
     0
  9
$DIMCLRE
 70
     0
  9
$DIMCLRT
 70
     0
  9
$DIMTFAC
 40
1.0
  9
$DIMGAP
 40
0.09
  9
$DIMJUST
 70
     0
  9
$DIMSD1
 70
     0
  9
$DIMSD2
 70
     0
  9
$DIMTOLJ
 70
     1
  9
$DIMTZIN
 70
     0
  9
$DIMALTZ
 70
     0
  9
$DIMALTTZ
 70
     0
  9
$DIMFIT
 70
     0
  9
$DIMUPT
 70
     0
  9
$DIMUNIT
 70
     2
  9
$DIMDEC
 70
     2
  9
$DIMTDEC
 70
     2
  9
$DIMALTU
 70
     2
  9
$DIMALTTD
 70
     3
  9
$DIMTXSTY
  7
STANDARD
  9
$DIMAUNIT
 70
     0
  9
$LUNITS
 70
     2
  9
$LUPREC
 70
     4
  9
$SKETCHINC
 40
0.1
  9
$FILLETRAD
 40
1.5875
  9
$AUNITS
 70
     0
  9
$AUPREC
 70
     0
  9
$MENU
  1
acad
  9
$ELEVATION
 40
0.0
  9
$PELEVATION
 40
0.0
  9
$THICKNESS
 40
0.0
  9
$LIMCHECK
 70
     0
  9
$BLIPMODE
 70
     1
  9
$CHAMFERA
 40
0.0
  9
$CHAMFERB
 40
0.0
  9
$CHAMFERC
 40
0.0
  9
$CHAMFERD
 40
0.0
  9
$SKPOLY
 70
     0
  9
$TDCREATE
 40
2450480.640983657
  9
$TDUPDATE
 40
2450487.622693807
  9
$TDINDWG
 40
0.3017913657
  9
$TDUSRTIMER
 40
0.3017913657
  9
$USRTIMER
 70
     1
  9
$ANGBASE
 50
0.0
  9
$ANGDIR
 70
     0
  9
$PDMODE
 70
     0
  9
$PDSIZE
 40
0.0
  9
$PLINEWID
 40
0.0
  9
$COORDS
 70
     1
  9
$SPLFRAME
 70
     0
  9
$SPLINETYPE
 70
     6
  9
$SPLINESEGS
 70
     8
  9
$ATTDIA
 70
     0
  9
$ATTREQ
 70
     1
  9
$HANDLING
 70
     1
  9
$HANDSEED
  5
ED3
  9
$SURFTAB1
 70
     6
  9
$SURFTAB2
 70
     6
  9
$SURFTYPE
 70
     6
  9
$SURFU
 70
     6
  9
$SURFV
 70
     6
  9
$UCSNAME
  2

  9
$UCSORG
 10
0.0
 20
0.0
 30
0.0
  9
$UCSXDIR
 10
1.0
 20
0.0
 30
0.0
  9
$UCSYDIR
 10
0.0
 20
1.0
 30
0.0
  9
$PUCSNAME
  2

  9
$PUCSORG
 10
0.0
 20
0.0
 30
0.0
  9
$PUCSXDIR
 10
1.0
 20
0.0
 30
0.0
  9
$PUCSYDIR
 10
0.0
 20
1.0
 30
0.0
  9
$USERI1
 70
     0
  9
$USERI2
 70
     0
  9
$USERI3
 70
     0
  9
$USERI4
 70
     0
  9
$USERI5
 70
     0
  9
$USERR1
 40
0.0
  9
$USERR2
 40
0.0
  9
$USERR3
 40
0.0
  9
$USERR4
 40
0.0
  9
$USERR5
 40
0.0
  9
$WORLDVIEW
 70
     1
  9
$SHADEDGE
 70
     3
  9
$SHADEDIF
 70
    70
  9
$TILEMODE
 70
     1
  9
$MAXACTVP
 70
    16
  9
$PINSBASE
 10
0.0
 20
0.0
 30
0.0
  9
$PLIMCHECK
 70
     0
  9
$PEXTMIN
 10
1.000000E+20
 20
1.000000E+20
 30
1.000000E+20
  9
$PEXTMAX
 10
-1.000000E+20
 20
-1.000000E+20
 30
-1.000000E+20
  9
$PLIMMIN
 10
0.0
 20
0.0
  9
$PLIMMAX
 10
12.0
 20
9.0
  9
$UNITMODE
 70
     0
  9
$VISRETAIN
 70
     0
  9
$PLINEGEN
 70
     0
  9
$PSLTSCALE
 70
     1
  9
$TREEDEPTH
 70
  3020
  9
$PICKSTYLE
 70
     1
  9
$CMLSTYLE
  2
STANDARD
  9
$CMLJUST
 70
     0
  9
$CMLSCALE
 40
1.0
  9
$SAVEIMAGES
 70
     0
  0
ENDSEC
  0
SECTION
  2
CLASSES
  0
CLASS
  1
ACMESCOPE
  2
AcMeScope
  3
ACME_MODULE_NAME
 90
        0
280
     0
281
     0
  0
CLASS
  1
ACMECOMMANDHISTORY
  2
AcMeCommandHistory
  3
ACME_MODULE_NAME
 90
        0
280
     0
281
     0
  0
CLASS
  1
AcRfInsAdjusterMgr
  2
AcRfInsAdjusterMgr
  3
ACME_MODULE_NAME
 90
        0
280
     0
281
     0
  0
CLASS
  1
ACGREFMASTER
  2
AcGrefMaster
  3
"AcadRfServer"
 90
        0
280
     0
281
     0
  0
CLASS
  1
AmiMaster
  2
AmiMaster
  3
"AmiServices"
 90
        0
280
     0
281
     0
  0
CLASS
  1
ACASGREFMASTER
  2
AcAsGrefMaster
  3
"AutoSurfResolver"
 90
        0
280
     0
281
     0
  0
CLASS
  1
ADAPPL
  2
AcAdAppl
  3
"DesignerServices"
 90
        0
280
     0
281
     0
  0
CLASS
  1
DEPMGR
  2
AcAdDepMgr
  3
"DesignerServices"
 90
        0
280
     0
281
     0
  0
CLASS
  1
PARAMMGR
  2
AcAdParamMgr
  3
"DesignerServices"
 90
        0
280
     0
281
     0
  0
CLASS
  1
PARAMSCOPE
  2
AcAdParamScope
  3
"DesignerServices"
 90
        0
280
     0
281
     0
  0
CLASS
  1
"IM_SYSVAR_MAN"
  2
AcImSysVarManager
  3
"ADAM"
 90
        0
280
     0
281
     0
  0
CLASS
  1
SYSTEM_VAR_INT
  2
AcImIntSysVar
  3
"ADAM"
 90
        0
280
     0
281
     0
  0
CLASS
  1
SYSTEM_VAR_REAL
  2
AcImRealSysVar
  3
"ADAM"
 90
        0
280
     0
281
     0
  0
CLASS
  1
SYSTEM_VAR_STR
  2
AcImStrSysVar
  3
"ADAM"
 90
        0
280
     0
281
     0
  0
CLASS
  1
NAMEDAPPL
  2
AcAdNamedAppl
  3
"DesignerServices"
 90
        0
280
     0
281
     0
  0
CLASS
  1
ADPART
  2
AcAdPart
  3
"DesignerServices"
 90
        0
280
     0
281
     1
  0
CLASS
  1
ADBASE
  2
AcAdBase
  3
"DesignerServices"
 90
        0
280
     0
281
     0
  0
CLASS
  1
BODYID
  2
AcAdBodyId
  3
"DesignerServices"
 90
        0
280
     0
281
     0
  0
CLASS
  1
WORKPLANEDISPLAYMGR
  2
AcAdDisplayMgr
  3
"DesignerServices"
 90
        0
280
     0
281
     0
  0
CLASS
  1
ADHNTMPLT
  2
AdHoleNoteTemplateMgr
  3
"DesignerServices"
 90
        0
280
     0
281
     0
  0
CLASS
  1
AM_HNTEMPLATE_MGR_NAME
  2
AdHoleNoteTemplateMgrName
  3
"DesignerServices"
 90
        0
280
     0
281
     0
  0
CLASS
  1
AcAdGrefModule
  2
AcAdGrefModule
  3
AD_GREF_SERVICES_NSTR
 90
        0
280
     0
281
     0
  0
CLASS
  1
AM_DRAWING_MGR
  2
AcDmDwgMgr
  3
"Designer_Drawing_Mgmt"
 90
        0
280
     0
281
     0
  0
CLASS
  1
AM_DWG_DOCUMENT
  2
AcDmDwgDocument
  3
"Designer_Drawing_Mgmt"
 90
        0
280
     0
281
     0
  0
CLASS
  1
AM_DWG_SHEET
  2
AcDmSheet
  3
"Designer_Drawing_Mgmt"
 90
        0
280
     0
281
     0
  0
CLASS
  1
AM_VIEWDIMPARMAP
  2
AcDmViewDimParMap
  3
"Designer_Drawing_Mgmt"
 90
        0
280
     0
281
     0
  0
CLASS
  1
AM_DWGMGR_NAME
  2
AcDmDwgMgrName
  3
"Designer_Drawing_Mgmt"
 90
        0
280
     0
281
     0
  0
CLASS
  1
ACAMPROJECT
  2
AcAmProject
  3
"DesignerAssemblies"
 90
        0
280
     0
281
     0
  0
CLASS
  1
ACAMGRCOMPDEF
  2
AcAmGrCompDef
  3
"DesignerAssemblies"
 90
        0
280
     0
281
     0
  0
CLASS
  1
ACAMCOMPDEF
  2
AcAmCompDef
  3
"DesignerAssemblies"
 90
        0
280
     0
281
     0
  0
CLASS
  1
ACAMCOMPDEFMGR
  2
AcAmCompDefMgr
  3
"DesignerAssemblies"
 90
        0
280
     0
281
     0
  0
CLASS
  1
AMCONTEXTMGR
  2
AcAmContextMgr
  3
"DesignerAssemblies"
 90
        0
280
     0
281
     0
  0
CLASS
  1
AcAmContextModeler
  2
AcAmContextModeler
  3
"DesignerAssemblies"
 90
        0
280
     0
281
     0
  0
CLASS
  1
ACAMDRAWINGMAN
  2
AcAmDrawingMan
  3
"DesignerAssemblies"
 90
        0
280
     0
281
     0
  0
CLASS
  1
ASSYSVARS
  2
AcAsSysVars
  3
"AutoSurf"
 90
        0
280
     0
281
     0
  0
CLASS
  1
ASSTATICVARS
  2
AcAsStaticVars
  3
"AutoSurf"
 90
        0
280
     0
281
     0
  0
CLASS
  1
ASAPP
  2
AcAsAppObject
  3
"AutoSurf"
 90
        0
280
     0
281
     0
  0
CLASS
  1
AGDICTIONARY
  2
AgDictionary
  3
"AccelView"
 90
        1
280
     0
281
     0
  0
ENDSEC
  0
SECTION
  2
TABLES
  0
TABLE
  2
VPORT
  5
8
100
AcDbSymbolTable
 70
     3
  0
VPORT
  5
ED2
100
AcDbSymbolTableRecord
100
AcDbViewportTableRecord
  2
*ACTIVE
 70
     0
 10
0.0
 20
0.0
 11
1.0
 21
1.0
 12
406.497359
 22
254.921963
 13
0.0
 23
0.0
 14
0.125
 24
0.125
 15
10.0
 25
10.0
 16
0.0
 26
0.0
 36
1.0
 17
0.0
 27
0.0
 37
0.0
 40
503.493925
 41
1.602094
 42
50.0
 43
0.0
 44
0.0
 50
0.0
 51
0.0
 71
     0
 72
   100
 73
     1
 74
     0
 75
     0
 76
     1
 77
     0
 78
     0
  0
ENDTAB
  0
TABLE
  2
LTYPE
  5
5
100
AcDbSymbolTable
 70
     6
  0
LTYPE
  5
14
100
AcDbSymbolTableRecord
100
AcDbLinetypeTableRecord
  2
BYBLOCK
 70
     0
  3

 72
    65
 73
     0
 40
0.0
  0
LTYPE
  5
15
100
AcDbSymbolTableRecord
100
AcDbLinetypeTableRecord
  2
BYLAYER
 70
     0
  3

 72
    65
 73
     0
 40
0.0
  0
LTYPE
  5
16
100
AcDbSymbolTableRecord
100
AcDbLinetypeTableRecord
  2
CONTINUOUS
 70
    64
  3
Solid line
 72
    65
 73
     0
 40
0.0
  0
LTYPE
  5
4F
100
AcDbSymbolTableRecord
100
AcDbLinetypeTableRecord
  2
HIDDEN
 70
    64
  3
__ __ __ __ __ __ __ __ __ __ __ __ __ __ __ __
 72
    65
 73
     2
 40
0.375
 49
0.25
 74
     0
 49
-0.125
 74
     0
  0
LTYPE
  5
51
100
AcDbSymbolTableRecord
100
AcDbLinetypeTableRecord
  2
PHANTOM2
 70
     0
  3
___ _ _ ___ _ _ ___ _ _ ___ _ _ ___ _ _ ___ _ _
 72
    65
 73
     6
 40
1.25
 49
0.625
 74
     0
 49
-0.125
 74
     0
 49
0.125
 74
     0
 49
-0.125
 74
     0
 49
0.125
 74
     0
 49
-0.125
 74
     0
  0
LTYPE
  5
5C
100
AcDbSymbolTableRecord
100
AcDbLinetypeTableRecord
  2
CENTER
 70
    64
  3
____ _ ____ _ ____ _ ____ _ ____ _ ____ _ ____ 
 72
    65
 73
     4
 40
2.0
 49
1.25
 74
     0
 49
-0.25
 74
     0
 49
0.25
 74
     0
 49
-0.25
 74
     0
  0
LTYPE
  5
7C
100
AcDbSymbolTableRecord
100
AcDbLinetypeTableRecord
  2
ASULTYPE
 70
     0
  3
Solid line
 72
    65
 73
     2
 40
3.0
 49
2.5
 74
     0
 49
0.5
 74
     0
  0
LTYPE
  5
7D
100
AcDbSymbolTableRecord
100
AcDbLinetypeTableRecord
  2
ASVLTYPE
 70
     0
  3
__ __ __ __ __ __ __ __ __ __ __ __ __ __ __ __ __ __ __ __ __
 72
    65
 73
     2
 40
0.75
 49
0.5
 74
     0
 49
-0.25
 74
     0
  0
ENDTAB
  0
TABLE
  2
LAYER
  5
2
100
AcDbSymbolTable
 70
    10
  0
LAYER
  5
F
100
AcDbSymbolTableRecord
100
AcDbLayerTableRecord
  2
0
 70
     0
 62
     7
  6
CONTINUOUS
  0
LAYER
  5
7F
100
AcDbSymbolTableRecord
100
AcDbLayerTableRecord
  2
CENTER
 70
    64
 62
     1
  6
CENTER
  0
LAYER
  5
80
100
AcDbSymbolTableRecord
100
AcDbLayerTableRecord
  2
DIM
 70
    64
 62
     3
  6
CONTINUOUS
  0
LAYER
  5
81
100
AcDbSymbolTableRecord
100
AcDbLayerTableRecord
  2
TEXT
 70
    64
 62
     7
  6
CONTINUOUS
  0
LAYER
  5
9C
100
AcDbSymbolTableRecord
100
AcDbLayerTableRecord
  2
BORDER
 70
    64
 62
     6
  6
CONTINUOUS
  0
LAYER
  5
E5
100
AcDbSymbolTableRecord
100
AcDbLayerTableRecord
  2
FOOT-B
 70
    64
 62
     7
  6
CONTINUOUS
  0
LAYER
  5
165
100
AcDbSymbolTableRecord
100
AcDbLayerTableRecord
  2
FOOT-2
 70
    64
 62
     7
  6
CONTINUOUS
  0
LAYER
  5
1E5
100
AcDbSymbolTableRecord
100
AcDbLayerTableRecord
  2
HATCH
 70
    64
 62
     7
  6
CONTINUOUS
  0
LAYER
  5
24F
100
AcDbSymbolTableRecord
100
AcDbLayerTableRecord
  2
DEFPOINTS
 70
    64
 62
     7
  6
CONTINUOUS
  0
ENDTAB
  0
TABLE
  2
STYLE
  5
3
100
AcDbSymbolTable
 70
     3
  0
STYLE
  5
10
100
AcDbSymbolTableRecord
100
AcDbTextStyleTableRecord
  2
STANDARD
 70
    64
 40
0.0
 41
1.0
 50
0.0
 71
     0
 42
6.0
  3
txt
  4

  0
STYLE
  5
85
100
AcDbSymbolTableRecord
100
AcDbTextStyleTableRecord
  2
CIM_TB
 70
    64
 40
0.0
 41
1.0
 50
0.0
 71
     0
 42
0.2
  3
romans
  4

  0
STYLE
  5
9D
100
AcDbSymbolTableRecord
100
AcDbTextStyleTableRecord
  2
ADESK2
 70
    64
 40
0.0
 41
1.0
 50
0.0
 71
     0
 42
0.065
  3
romans
  4

  0
ENDTAB
  0
TABLE
  2
VIEW
  5
6
100
AcDbSymbolTable
 70
     0
  0
ENDTAB
  0
TABLE
  2
UCS
  5
7
100
AcDbSymbolTable
 70
     0
  0
ENDTAB
  0
TABLE
  2
APPID
  5
9
100
AcDbSymbolTable
 70
     6
  0
APPID
  5
11
100
AcDbSymbolTableRecord
100
AcDbRegAppTableRecord
  2
ACAD
 70
     0
  0
APPID
  5
5F
100
AcDbSymbolTableRecord
100
AcDbRegAppTableRecord
  2
AD_DRAW
 70
     0
  0
APPID
  5
77
100
AcDbSymbolTableRecord
100
AcDbRegAppTableRecord
  2
DESIGNERASSEMBLIES
 70
     0
  0
APPID
  5
78
100
AcDbSymbolTableRecord
100
AcDbRegAppTableRecord
  2
MCAD_NO_VIS
 70
     0
  0
APPID
  5
7E
100
AcDbSymbolTableRecord
100
AcDbRegAppTableRecord
  2
ASURF_PCURVE_APPNAME
 70
     0
  0
APPID
  5
82
100
AcDbSymbolTableRecord
100
AcDbRegAppTableRecord
  2
TB_S_MPD
 70
     0
  0
ENDTAB
  0
TABLE
  2
DIMSTYLE
  5
A
100
AcDbSymbolTable
 70
     6
  0
DIMSTYLE
105
1D
100
AcDbSymbolTableRecord
100
AcDbDimStyleTableRecord
  2
STANDARD
 70
     0
  3

  4

  5

  6

  7

 40
1.0
 41
0.18
 42
0.0625
 43
0.38
 44
0.18
 45
0.0
 46
0.0
 47
0.0
 48
0.0
140
0.18
141
0.09
142
0.0
143
25.4
144
1.0
145
0.0
146
1.0
147
0.09
 71
     0
 72
     0
 73
     1
 74
     1
 75
     0
 76
     0
 77
     0
 78
     0
170
     0
171
     2
172
     0
173
     0
174
     0
175
     0
176
     0
177
     0
178
     0
270
     2
271
     4
272
     4
273
     2
274
     2
340
10
275
     0
280
     0
281
     0
282
     0
283
     1
284
     0
285
     0
286
     0
287
     3
288
     0
  0
DIMSTYLE
105
8D
100
AcDbSymbolTableRecord
100
AcDbDimStyleTableRecord
  2
SU1
 70
     0
  3

  4

  5

  6

  7

 40
1.0
 41
0.18
 42
0.0625
 43
0.38
 44
0.18
 45
0.0
 46
0.0
 47
0.001
 48
0.0
140
0.18
141
0.09
142
0.0
143
25.4
144
1.0
145
0.0
146
1.0
147
0.09
 71
     0
 72
     0
 73
     1
 74
     1
 75
     0
 76
     0
 77
     0
 78
     0
170
     0
171
     2
172
     0
173
     0
174
     0
175
     0
176
     0
177
     0
178
     0
270
     2
271
     3
272
     3
273
     2
274
     2
340
10
275
     0
280
     0
281
     0
282
     0
283
     1
284
     0
285
     0
286
     0
287
     0
288
     0
  0
DIMSTYLE
105
8E
100
AcDbSymbolTableRecord
100
AcDbDimStyleTableRecord
  2
SU1$4
 70
     0
  3

  4

  5

  6

  7

 40
1.0
 41
0.18
 42
0.0625
 43
0.38
 44
0.18
 45
0.0
 46
0.0
 47
0.001
 48
0.0
140
0.18
141
0.09
142
0.0
143
25.4
144
1.0
145
0.0
146
1.0
147
0.09
 71
     0
 72
     0
 73
     1
 74
     1
 75
     0
 76
     0
 77
     0
 78
     0
170
     0
171
     2
172
     0
173
     0
174
     0
175
     0
176
     0
177
     0
178
     0
270
     2
271
     3
272
     3
273
     2
274
     2
340
10
275
     0
280
     0
281
     0
282
     0
283
     1
284
     0
285
     0
286
     0
287
     0
288
     1
  0
DIMSTYLE
105
8F
100
AcDbSymbolTableRecord
100
AcDbDimStyleTableRecord
  2
SU1$2
 70
     0
  3

  4

  5

  6

  7

 40
1.0
 41
0.18
 42
0.0625
 43
0.38
 44
0.18
 45
0.0
 46
0.0
 47
0.001
 48
0.0
140
0.18
141
0.09
142
0.0
143
25.4
144
1.0
145
0.0
146
1.0
147
0.09
 71
     0
 72
     0
 73
     1
 74
     1
 75
     0
 76
     0
 77
     0
 78
     0
170
     0
171
     2
172
     0
173
     0
174
     0
175
     0
176
     0
177
     0
178
     0
270
     2
271
     1
272
     3
273
     2
274
     2
340
10
275
     0
280
     0
281
     0
282
     0
283
     1
284
     0
285
     0
286
     0
287
     0
288
     0
  0
DIMSTYLE
105
90
100
AcDbSymbolTableRecord
100
AcDbDimStyleTableRecord
  2
SU1$3
 70
     0
  3

  4

  5

  6

  7

 40
1.0
 41
0.18
 42
0.0625
 43
0.38
 44
0.18
 45
0.0
 46
0.0
 47
0.001
 48
0.0
140
0.18
141
0.09
142
0.0
143
25.4
144
1.0
145
0.0
146
1.0
147
0.09
 71
     0
 72
     0
 73
     1
 74
     1
 75
     0
 76
     0
 77
     0
 78
     0
170
     0
171
     2
172
     0
173
     0
174
     0
175
     0
176
     0
177
     0
178
     0
270
     2
271
     3
272
     3
273
     2
274
     2
340
10
275
     0
280
     0
281
     0
282
     0
283
     1
284
     0
285
     0
286
     0
287
     0
288
     1
  0
DIMSTYLE
105
91
100
AcDbSymbolTableRecord
100
AcDbDimStyleTableRecord
  2
SU1$7
 70
     0
  3

  4

  5

  6

  7

 40
1.0
 41
0.18
 42
0.0625
 43
0.38
 44
0.18
 45
0.0
 46
0.0
 47
0.001
 48
0.0
140
0.18
141
0.09
142
0.0
143
25.4
144
1.0
145
0.0
146
1.0
147
0.09
 71
     0
 72
     0
 73
     1
 74
     1
 75
     0
 76
     0
 77
     0
 78
     0
170
     0
171
     2
172
     0
173
     0
174
     0
175
     0
176
     0
177
     0
178
     0
270
     2
271
     3
272
     3
273
     2
274
     2
340
10
275
     0
280
     0
281
     0
282
     0
283
     1
284
     0
285
     0
286
     0
287
     0
288
     1
  0
ENDTAB
  0
TABLE
  2
BLOCK_RECORD
  5
1
100
AcDbSymbolTable
 70
    39
  0
BLOCK_RECORD
  5
1A
100
AcDbSymbolTableRecord
100
AcDbBlockTableRecord
  2
*MODEL_SPACE
  0
BLOCK_RECORD
  5
17
100
AcDbSymbolTableRecord
100
AcDbBlockTableRecord
  2
*PAPER_SPACE
  0
BLOCK_RECORD
  5
6B
100
AcDbSymbolTableRecord
100
AcDbBlockTableRecord
  2
*U0
  0
BLOCK_RECORD
  5
9E
100
AcDbSymbolTableRecord
100
AcDbBlockTableRecord
  2
D-BORDER
  0
BLOCK_RECORD
  5
477
100
AcDbSymbolTableRecord
100
AcDbBlockTableRecord
  2
*D2
  0
BLOCK_RECORD
  5
48D
100
AcDbSymbolTableRecord
100
AcDbBlockTableRecord
  2
*D3
  0
BLOCK_RECORD
  5
A8B
100
AcDbSymbolTableRecord
100
AcDbBlockTableRecord
  2
*U4
  0
BLOCK_RECORD
  5
A95
100
AcDbSymbolTableRecord
100
AcDbBlockTableRecord
  2
*U5
  0
BLOCK_RECORD
  5
A9F
100
AcDbSymbolTableRecord
100
AcDbBlockTableRecord
  2
*U6
  0
BLOCK_RECORD
  5
B59
100
AcDbSymbolTableRecord
100
AcDbBlockTableRecord
  2
*D7
  0
BLOCK_RECORD
  5
B66
100
AcDbSymbolTableRecord
100
AcDbBlockTableRecord
  2
*D8
  0
BLOCK_RECORD
  5
B73
100
AcDbSymbolTableRecord
100
AcDbBlockTableRecord
  2
*D9
  0
BLOCK_RECORD
  5
B81
100
AcDbSymbolTableRecord
100
AcDbBlockTableRecord
  2
*D10
  0
BLOCK_RECORD
  5
B9B
100
AcDbSymbolTableRecord
100
AcDbBlockTableRecord
  2
*D11
  0
BLOCK_RECORD
  5
BC1
100
AcDbSymbolTableRecord
100
AcDbBlockTableRecord
  2
*D12
  0
BLOCK_RECORD
  5
BCE
100
AcDbSymbolTableRecord
100
AcDbBlockTableRecord
  2
*D13
  0
BLOCK_RECORD
  5
BDB
100
AcDbSymbolTableRecord
100
AcDbBlockTableRecord
  2
*D14
  0
BLOCK_RECORD
  5
BE8
100
AcDbSymbolTableRecord
100
AcDbBlockTableRecord
  2
*D15
  0
BLOCK_RECORD
  5
C16
100
AcDbSymbolTableRecord
100
AcDbBlockTableRecord
  2
*D16
  0
BLOCK_RECORD
  5
C24
100
AcDbSymbolTableRecord
100
AcDbBlockTableRecord
  2
*D17
  0
BLOCK_RECORD
  5
C32
100
AcDbSymbolTableRecord
100
AcDbBlockTableRecord
  2
*D18
  0
BLOCK_RECORD
  5
C3F
100
AcDbSymbolTableRecord
100
AcDbBlockTableRecord
  2
*D19
  0
BLOCK_RECORD
  5
C4C
100
AcDbSymbolTableRecord
100
AcDbBlockTableRecord
  2
*D20
  0
BLOCK_RECORD
  5
C59
100
AcDbSymbolTableRecord
100
AcDbBlockTableRecord
  2
*D21
  0
BLOCK_RECORD
  5
C66
100
AcDbSymbolTableRecord
100
AcDbBlockTableRecord
  2
*D22
  0
BLOCK_RECORD
  5
C73
100
AcDbSymbolTableRecord
100
AcDbBlockTableRecord
  2
*D23
  0
BLOCK_RECORD
  5
C80
100
AcDbSymbolTableRecord
100
AcDbBlockTableRecord
  2
*D24
  0
BLOCK_RECORD
  5
C8F
100
AcDbSymbolTableRecord
100
AcDbBlockTableRecord
  2
*D25
  0
BLOCK_RECORD
  5
C9E
100
AcDbSymbolTableRecord
100
AcDbBlockTableRecord
  2
*D26
  0
BLOCK_RECORD
  5
CAD
100
AcDbSymbolTableRecord
100
AcDbBlockTableRecord
  2
*D27
  0
BLOCK_RECORD
  5
CBB
100
AcDbSymbolTableRecord
100
AcDbBlockTableRecord
  2
*D28
  0
BLOCK_RECORD
  5
CCA
100
AcDbSymbolTableRecord
100
AcDbBlockTableRecord
  2
*D29
  0
BLOCK_RECORD
  5
CD9
100
AcDbSymbolTableRecord
100
AcDbBlockTableRecord
  2
*D30
  0
BLOCK_RECORD
  5
CE8
100
AcDbSymbolTableRecord
100
AcDbBlockTableRecord
  2
*D31
  0
BLOCK_RECORD
  5
D01
100
AcDbSymbolTableRecord
100
AcDbBlockTableRecord
  2
*D32
  0
BLOCK_RECORD
  5
DA1
100
AcDbSymbolTableRecord
100
AcDbBlockTableRecord
  2
*D33
  0
BLOCK_RECORD
  5
DAD
100
AcDbSymbolTableRecord
100
AcDbBlockTableRecord
  2
*D34
  0
BLOCK_RECORD
  5
DC3
100
AcDbSymbolTableRecord
100
AcDbBlockTableRecord
  2
*D35
  0
BLOCK_RECORD
  5
DE5
100
AcDbSymbolTableRecord
100
AcDbBlockTableRecord
  2
*D36
  0
BLOCK_RECORD
  5
E7C
100
AcDbSymbolTableRecord
100
AcDbBlockTableRecord
  2
*D37
  0
BLOCK_RECORD
  5
E98
100
AcDbSymbolTableRecord
100
AcDbBlockTableRecord
  2
*X38
  0
ENDTAB
  0
ENDSEC
  0
SECTION
  2
BLOCKS
  0
BLOCK
  5
1B
100
AcDbEntity
  8
0
100
AcDbBlockBegin
  2
*MODEL_SPACE
 70
     0
 10
0.0
 20
0.0
 30
0.0
  3
*MODEL_SPACE
  1

  0
ENDBLK
  5
1C
100
AcDbEntity
  8
0
100
AcDbBlockEnd
  0
BLOCK
  5
18
100
AcDbEntity
 67
     1
  8
0
100
AcDbBlockBegin
  2
*PAPER_SPACE
 70
     0
 10
0.0
 20
0.0
 30
0.0
  3
*PAPER_SPACE
  1

  0
ENDBLK
  5
19
100
AcDbEntity
 67
     1
  8
0
100
AcDbBlockEnd
  0
BLOCK
  5
6C
100
AcDbEntity
  8
0
100
AcDbBlockBegin
  2
*U0
 70
     1
 10
0.0
 20
0.0
 30
0.0
  3
*U0
  1

  0
ENDBLK
  5
6D
100
AcDbEntity
  8
0
100
AcDbBlockEnd
  0
BLOCK
  5
E1
100
AcDbEntity
  8
0
100
AcDbBlockBegin
  2
D-BORDER
 70
     0
 10
0.0
 20
0.0
 30
0.0
  3
D-BORDER
  1

  0
LINE
  5
9F
100
AcDbEntity
  8
TEXT
100
AcDbLine
 10
0.125
 20
19.447595
 30
0.0
 11
2.6875
 21
19.447595
 31
0.0
  0
LINE
  5
A0
100
AcDbEntity
  8
TEXT
100
AcDbLine
 10
2.6875
 20
19.447595
 30
0.0
 11
2.6875
 21
19.947595
 31
0.0
  0
CIRCLE
  5
A1
100
AcDbEntity
  8
TEXT
100
AcDbCircle
 10
0.802871
 20
19.684056
 30
0.0
 40
0.1875
  0
CIRCLE
  5
A2
100
AcDbEntity
  8
TEXT
100
AcDbCircle
 10
0.802871
 20
19.684056
 30
0.0
 40
0.09375
  0
LINE
  5
A3
100
AcDbEntity
  8
TEXT
  6
CENTER
100
AcDbLine
 10
0.568951
 20
19.684056
 30
0.0
 11
2.021621
 21
19.684056
 31
0.0
  0
LINE
  5
A4
100
AcDbEntity
  8
TEXT
  6
CENTER
100
AcDbLine
 10
0.802871
 20
19.455375
 30
0.0
 11
0.802871
 21
19.923251
 31
0.0
  0
LINE
  5
A5
100
AcDbEntity
  8
TEXT
100
AcDbLine
 10
1.271621
 20
19.777806
 30
0.0
 11
1.756263
 21
19.871556
 31
0.0
  0
LINE
  5
A6
100
AcDbEntity
  8
TEXT
100
AcDbLine
 10
1.271621
 20
19.590306
 30
0.0
 11
1.756263
 21
19.496556
 31
0.0
  0
LINE
  5
A7
100
AcDbEntity
  8
TEXT
100
AcDbLine
 10
1.271621
 20
19.590306
 30
0.0
 11
1.271621
 21
19.777806
 31
0.0
  0
LINE
  5
A8
100
AcDbEntity
  8
TEXT
100
AcDbLine
 10
1.756263
 20
19.871556
 30
0.0
 11
1.756263
 21
19.496556
 31
0.0
  0
TEXT
  5
A9
100
AcDbEntity
  8
TEXT
100
AcDbText
 10
0.3125
 20
19.262423
 30
0.0
 40
0.1
  1
THIRD ANGLE PROJECTION
100
AcDbText
  0
LINE
  5
AA
100
AcDbEntity
  8
TEXT
100
AcDbLine
 10
2.6875
 20
19.447595
 30
0.0
 11
2.6875
 21
19.197595
 31
0.0
  0
LINE
  5
AB
100
AcDbEntity
  8
TEXT
100
AcDbLine
 10
2.6875
 20
19.197595
 30
0.0
 11
0.125
 21
19.197595
 31
0.0
  0
TEXT
  5
AC
100
AcDbEntity
  8
TEXT
100
AcDbText
 10
30.260292
 20
0.244377
 30
0.0
 40
0.065
  1
OF
  7
ADESK2
100
AcDbText
  0
TEXT
  5
AD
100
AcDbEntity
  8
TEXT
100
AcDbText
 10
26.500724
 20
0.974951
 30
0.0
 40
0.065
  1
DATE
  7
ADESK2
100
AcDbText
  0
LINE
  5
AE
100
AcDbEntity
  8
TEXT
100
AcDbLine
 10
26.377305
 20
1.091501
 30
0.0
 11
26.377305
 21
0.125
 31
0.0
  0
TEXT
  5
AF
100
AcDbEntity
  8
TEXT
100
AcDbText
 10
24.957321
 20
0.356501
 30
0.0
 40
0.065
  1
DESIGN
  7
ADESK2
100
AcDbText
  0
TEXT
  5
B0
100
AcDbEntity
  8
TEXT
100
AcDbText
 10
24.957321
 20
0.671501
 30
0.0
 40
0.065
  1
CHECKED
  7
ADESK2
100
AcDbText
  0
LINE
  5
B1
100
AcDbEntity
  8
TEXT
100
AcDbLine
 10
24.877321
 20
1.091501
 30
0.0
 11
26.877321
 21
1.091501
 31
0.0
  0
TEXT
  5
B2
100
AcDbEntity
  8
TEXT
100
AcDbText
 10
30.359702
 20
19.465196
 30
0.0
 40
0.065
  1
APPROVED
  7
ADESK2
100
AcDbText
  0
TEXT
  5
B3
100
AcDbEntity
  8
TEXT
100
AcDbText
 10
29.566002
 20
19.465196
 30
0.0
 40
0.065
  1
DATE
  7
ADESK2
100
AcDbText
  0
TEXT
  5
B4
100
AcDbEntity
  8
TEXT
100
AcDbText
 10
27.500302
 20
19.465196
 30
0.0
 40
0.065
  1
DESCRIPTION
  7
ADESK2
100
AcDbText
  0
TEXT
  5
B5
100
AcDbEntity
  8
TEXT
100
AcDbText
 10
26.198402
 20
19.465196
 30
0.0
 40
0.065
  1
REV
  7
ADESK2
100
AcDbText
  0
TEXT
  5
B6
100
AcDbEntity
  8
TEXT
100
AcDbText
 10
28.328502
 20
19.707396
 30
0.0
 40
0.065
  1
REVISIONS
  7
ADESK2
100
AcDbText
  0
LINE
  5
B7
100
AcDbEntity
  8
TEXT
100
AcDbLine
 10
30.118302
 20
19.374896
 30
0.0
 11
30.118302
 21
19.624896
 31
0.0
  0
LINE
  5
B8
100
AcDbEntity
  8
TEXT
100
AcDbLine
 10
29.238302
 20
19.374896
 30
0.0
 11
29.238302
 21
19.624896
 31
0.0
  0
LINE
  5
B9
100
AcDbEntity
  8
TEXT
100
AcDbLine
 10
26.498302
 20
19.374896
 30
0.0
 11
26.498302
 21
19.624896
 31
0.0
  0
LINE
  5
BA
100
AcDbEntity
  8
TEXT
100
AcDbLine
 10
26.108049
 20
19.934959
 30
0.0
 11
26.108049
 21
19.374896
 31
0.0
  0
LINE
  5
BB
100
AcDbEntity
  8
TEXT
100
AcDbLine
 10
26.108049
 20
19.374896
 30
0.0
 11
31.162356
 21
19.374896
 31
0.0
  0
LINE
  5
BC
100
AcDbEntity
  8
TEXT
100
AcDbLine
 10
26.108049
 20
19.624896
 30
0.0
 11
31.162356
 21
19.624896
 31
0.0
  0
TEXT
  5
BD
100
AcDbEntity
  8
TEXT
100
AcDbText
 10
30.827821
 20
0.667401
 30
0.0
 40
0.065
  1
REV
  7
ADESK2
100
AcDbText
  0
TEXT
  5
BE
100
AcDbEntity
  8
TEXT
100
AcDbText
 10
28.448321
 20
0.667401
 30
0.0
 40
0.065
  1
DWG NO.
  7
ADESK2
100
AcDbText
  0
TEXT
  5
BF
100
AcDbEntity
  8
TEXT
100
AcDbText
 10
26.965221
 20
0.667401
 30
0.0
 40
0.065
  1
SIZE
  7
ADESK2
100
AcDbText
  0
TEXT
  5
C0
100
AcDbEntity
  8
TEXT
100
AcDbText
 10
29.430121
 20
0.244001
 30
0.0
 40
0.065
  1
SHEET
  7
ADESK2
100
AcDbText
  0
TEXT
  5
C1
100
AcDbEntity
  8
TEXT
100
AcDbText
 10
26.929621
 20
0.244001
 30
0.0
 40
0.065
  1
SCALE
  7
ADESK2
100
AcDbText
  0
LINE
  5
C2
100
AcDbEntity
  8
TEXT
100
AcDbLine
 10
30.747321
 20
0.401501
 30
0.0
 11
30.747321
 21
0.781501
 31
0.0
  0
LINE
  5
C3
100
AcDbEntity
  8
TEXT
100
AcDbLine
 10
28.377321
 20
0.401501
 30
0.0
 11
28.377321
 21
0.781501
 31
0.0
  0
LINE
  5
C4
100
AcDbEntity
  8
TEXT
100
AcDbLine
 10
27.257321
 20
0.401501
 30
0.0
 11
27.257321
 21
0.781501
 31
0.0
  0
LINE
  5
C5
100
AcDbEntity
  8
TEXT
100
AcDbLine
 10
29.377321
 20
0.125
 30
0.0
 11
29.377321
 21
0.401501
 31
0.0
  0
LINE
  5
C6
100
AcDbEntity
  8
TEXT
100
AcDbLine
 10
27.877321
 20
0.125
 30
0.0
 11
27.877321
 21
0.401501
 31
0.0
  0
LINE
  5
C7
100
AcDbEntity
  8
BORDER
100
AcDbLine
 10
26.877321
 20
0.125
 30
0.0
 11
26.877321
 21
1.901501
 31
0.0
  0
LINE
  5
C8
100
AcDbEntity
  8
BORDER
100
AcDbLine
 10
26.877321
 20
1.401501
 30
0.0
 11
31.149118
 21
1.401501
 31
0.0
  0
LINE
  5
C9
100
AcDbEntity
  8
TEXT
100
AcDbLine
 10
26.877321
 20
0.401501
 30
0.0
 11
31.149118
 21
0.401501
 31
0.0
  0
LINE
  5
CA
100
AcDbEntity
  8
TEXT
100
AcDbLine
 10
24.877321
 20
0.781501
 30
0.0
 11
31.149118
 21
0.781501
 31
0.0
  0
LINE
  5
CB
100
AcDbEntity
  8
TEXT
100
AcDbLine
 10
24.877321
 20
0.466501
 30
0.0
 11
26.877321
 21
0.466501
 31
0.0
  0
LINE
  5
CC
100
AcDbEntity
  8
BORDER
100
AcDbLine
 10
24.877321
 20
1.901501
 30
0.0
 11
31.149118
 21
1.901501
 31
0.0
  0
LINE
  5
CD
100
AcDbEntity
  8
BORDER
100
AcDbLine
 10
24.877321
 20
0.125
 30
0.0
 11
24.877321
 21
2.324147
 31
0.0
  0
TEXT
  5
CE
100
AcDbEntity
  8
TEXT
100
AcDbText
 10
24.945631
 20
0.979964
 30
0.0
 40
0.065
  1
DRAWN
  7
ADESK2
100
AcDbText
  0
TEXT
  5
CF
100
AcDbEntity
  8
BORDER
100
AcDbText
 10
25.055285
 20
2.049228
 30
0.0
 40
0.15
  1
UNIVERSITY OF CALIFORNIA @ SANTA BARBARA
100
AcDbText
  0
LINE
  5
D0
100
AcDbEntity
  8
BORDER
100
AcDbLine
 10
24.87628
 20
2.324147
 30
0.0
 11
31.149118
 21
2.324147
 31
0.0
  0
LINE
  5
D1
100
AcDbEntity
  8
BORDER
100
AcDbLine
 10
31.17142
 20
0.125
 30
0.0
 11
31.17142
 21
19.947595
 31
0.0
  0
LINE
  5
D2
100
AcDbEntity
  8
BORDER
100
AcDbLine
 10
0.125
 20
19.947595
 30
0.0
 11
0.125
 21
0.125
 31
0.0
  0
LINE
  5
D3
100
AcDbEntity
  8
BORDER
100
AcDbLine
 10
0.125
 20
0.125
 30
0.0
 11
31.17142
 21
0.125
 31
0.0
  0
TEXT
  5
D4
100
AcDbEntity
  8
TEXT
100
AcDbText
 10
27.328393
 20
0.665354
 30
0.0
 40
0.075
  1
DIRECTORY
100
AcDbText
  0
LINE
  5
D5
100
AcDbEntity
  8
BORDER
100
AcDbLine
 10
0.125
 20
19.947595
 30
0.0
 11
31.17142
 21
19.947595
 31
0.0
  0
TEXT
  5
D6
100
AcDbEntity
  8
BORDER
100
AcDbText
 10
27.564864
 20
1.575566
 30
0.0
 40
0.15
  1
HIGH ENERGY PHYSICS
100
AcDbText
  0
TEXT
  5
D7
100
AcDbEntity
  8
BORDER
100
AcDbText
 10
27.001167
 20
0.434778
 30
0.0
 40
0.2
  1
D
100
AcDbText
  0
TEXT
  5
D8
100
AcDbEntity
  8
TEXT
100
AcDbText
 10
25.106606
 20
1.785089
 30
0.0
 40
0.065
  1
UNLESS OTHERWISE SPECIFIED:
  7
ADESK2
 72
     1
 11
25.877321
 21
1.785089
 31
0.0
100
AcDbText
  0
TEXT
  5
D9
100
AcDbEntity
  8
TEXT
100
AcDbText
 10
25.180892
 20
1.679851
 30
0.0
 40
0.065
  1
DIMENSIONS ARE IN INCHES
  7
ADESK2
 72
     1
 11
25.877321
 21
1.679851
 31
0.0
100
AcDbText
  0
TEXT
  5
DA
100
AcDbEntity
  8
TEXT
100
AcDbText
 10
25.57863
 20
1.574613
 30
0.0
 40
0.065
  1
TOLERANCES
  7
ADESK2
 72
     1
 11
25.877321
 21
1.574613
 31
0.0
100
AcDbText
  0
TEXT
  5
DB
100
AcDbEntity
  8
TEXT
100
AcDbText
 10
25.192279
 20
1.466743
 30
0.0
 40
0.065
  1
DECIMALS
  7
ADESK2
100
AcDbText
  0
TEXT
  5
DC
100
AcDbEntity
  8
TEXT
100
AcDbText
 10
25.192279
 20
1.361505
 30
0.0
 40
0.065
  1
.XX  %%P .05
  7
ADESK2
100
AcDbText
  0
TEXT
  5
DD
100
AcDbEntity
  8
TEXT
100
AcDbText
 10
25.192279
 20
1.256267
 30
0.0
 40
0.065
  1
.XXX %%P .005
  7
ADESK2
100
AcDbText
  0
TEXT
  5
DE
100
AcDbEntity
  8
TEXT
100
AcDbText
 10
25.262916
 20
1.153744
 30
0.0
 40
0.065
  1
DO NOT SCALE DRAWING
  7
ADESK2
 72
     1
 11
25.877321
 21
1.153744
 31
0.0
100
AcDbText
  0
TEXT
  5
DF
100
AcDbEntity
  8
TEXT
100
AcDbText
 10
26.056176
 20
1.466743
 30
0.0
 40
0.065
  1
ANGULAR
  7
ADESK2
100
AcDbText
  0
TEXT
  5
E0
100
AcDbEntity
  8
TEXT
100
AcDbText
 10
26.056176
 20
1.361505
 30
0.0
 40
0.065
  1
  %%P 0.5%%D
  7
ADESK2
100
AcDbText
  0
ENDBLK
  5
E2
100
AcDbEntity
  8
0
100
AcDbBlockEnd
  0
BLOCK
  5
6D9
100
AcDbEntity
  8
0
100
AcDbBlockBegin
  2
*D2
 70
    65
 10
0.0
 20
0.0
 30
0.0
  3
*D2
  1
*TB
  0
LINE
  5
6DA
100
AcDbEntity
  8
0
  6
BYBLOCK
 62
     0
100
AcDbLine
 10
374.529979
 20
440.826153
 30
0.0
 11
386.838914
 21
424.325211
 31
0.0
  0
LINE
  5
6DB
100
AcDbEntity
  8
0
  6
BYBLOCK
 62
     0
100
AcDbLine
 10
386.838914
 20
424.325211
 30
0.0
 11
391.410914
 21
424.325211
 31
0.0
  0
SOLID
  5
6DC
100
AcDbEntity
  8
0
  6
BYBLOCK
 62
     0
100
AcDbTrace
 10
375.140764
 20
441.281769
 30
0.0
 11
373.919195
 21
440.370536
 31
0.0
 12
371.796279
 22
444.490858
 32
0.0
 13
371.796279
 23
444.490858
 33
0.0
  0
MTEXT
  5
6DD
100
AcDbEntity
  8
0
  6
BYBLOCK
 62
     0
100
AcDbMText
 10
422.652914
 20
424.325211
 30
0.0
 40
4.572
 41
0.0
 71
     5
 72
     1
  1
\A1;{R1.59mm[R0.062"]}\P{2X}
  0
LINE
  5
6DE
100
AcDbEntity
  8
0
  6
BYBLOCK
 62
     0
100
AcDbLine
 10
368.561078
 20
445.763326
 30
0.0
 11
373.133078
 21
445.763326
 31
0.0
  0
LINE
  5
6DF
100
AcDbEntity
  8
0
  6
BYBLOCK
 62
     0
100
AcDbLine
 10
370.847078
 20
443.477326
 30
0.0
 11
370.847078
 21
448.049326
 31
0.0
  0
POINT
  5
6E0
100
AcDbEntity
  8
DEFPOINTS
  6
BYBLOCK
 62
     0
100
AcDbPoint
 10
371.796279
 20
444.490858
 30
0.0
  0
POINT
  5
6E1
100
AcDbEntity
  8
DEFPOINTS
  6
BYBLOCK
 62
     0
100
AcDbPoint
 10
370.847078
 20
445.763326
 30
0.0
  0
ENDBLK
  5
6E2
100
AcDbEntity
  8
0
100
AcDbBlockEnd
  0
BLOCK
  5
DFB
100
AcDbEntity
  8
0
100
AcDbBlockBegin
  2
*D3
 70
    65
 10
0.0
 20
0.0
 30
0.0
  3
*D3
  1
*TB
  0
LINE
  5
DFC
100
AcDbEntity
  8
0
  6
BYBLOCK
 62
     0
100
AcDbLine
 10
350.444675
 20
456.044438
 30
0.0
 11
376.707535
 21
417.44807
 31
0.0
  0
LINE
  5
DFD
100
AcDbEntity
  8
0
  6
BYBLOCK
 62
     0
100
AcDbLine
 10
376.707535
 20
417.44807
 30
0.0
 11
381.279535
 21
417.44807
 31
0.0
  0
SOLID
  5
DFE
100
AcDbEntity
  8
0
  6
BYBLOCK
 62
     0
100
AcDbTrace
 10
351.074661
 20
456.473112
 30
0.0
 11
349.814689
 21
455.615764
 31
0.0
 12
347.872633
 22
459.824356
 32
0.0
 13
347.872633
 23
459.824356
 33
0.0
  0
MTEXT
  5
DFF
100
AcDbEntity
  8
0
  6
BYBLOCK
 62
     0
100
AcDbMText
 10
438.810535
 20
417.44807
 30
0.0
 40
4.572
 41
0.0
 71
     5
 72
     1
  1
\A1;{\U+22052.38mm±0.03mm[\U+22050.094"±0.001"]}\P{4X}
  0
LINE
  5
E00
100
AcDbEntity
  8
0
  6
BYBLOCK
 62
     0
100
AcDbLine
 10
344.916473
 20
460.809235
 30
0.0
 11
349.488473
 21
460.809235
 31
0.0
  0
LINE
  5
E01
100
AcDbEntity
  8
0
  6
BYBLOCK
 62
     0
100
AcDbLine
 10
347.202473
 20
458.523235
 30
0.0
 11
347.202473
 21
463.095235
 31
0.0
  0
POINT
  5
E02
100
AcDbEntity
  8
DEFPOINTS
  6
BYBLOCK
 62
     0
100
AcDbPoint
 10
347.872633
 20
459.824356
 30
0.0
  0
POINT
  5
E03
100
AcDbEntity
  8
DEFPOINTS
  6
BYBLOCK
 62
     0
100
AcDbPoint
 10
346.532314
 20
461.794114
 30
0.0
  0
ENDBLK
  5
E04
100
AcDbEntity
  8
0
100
AcDbBlockEnd
  0
BLOCK
  5
A93
100
AcDbEntity
  8
0
100
AcDbBlockBegin
  2
*U4
 70
    65
 10
0.0
 20
0.0
 30
0.0
  3
*U4
  1
*TB
  0
CIRCLE
  5
A8C
100
AcDbEntity
  8
FOOT-2
100
AcDbCircle
 10
0.0
 20
0.0
 30
0.0
 40
0.058
  0
LINE
  5
A8D
100
AcDbEntity
  8
CENTER
100
AcDbLine
 10
-0.019333
 20
0.0
 30
0.0
 11
0.019333
 21
0.0
 31
0.0
  0
LINE
  5
A8E
100
AcDbEntity
  8
CENTER
100
AcDbLine
 10
0.0
 20
-0.019333
 30
0.0
 11
0.0
 21
0.019333
 31
0.0
  0
LINE
  5
A8F
100
AcDbEntity
  8
CENTER
100
AcDbLine
 10
0.038667
 20
0.0
 30
0.0
 11
0.183
 21
0.0
 31
0.0
  0
LINE
  5
A90
100
AcDbEntity
  8
CENTER
100
AcDbLine
 10
0.0
 20
0.038667
 30
0.0
 11
0.0
 21
0.183
 31
0.0
  0
LINE
  5
A91
100
AcDbEntity
  8
CENTER
100
AcDbLine
 10
-0.038667
 20
0.0
 30
0.0
 11
-0.183
 21
0.0
 31
0.0
  0
LINE
  5
A92
100
AcDbEntity
  8
CENTER
100
AcDbLine
 10
0.0
 20
-0.038667
 30
0.0
 11
0.0
 21
-0.183
 31
0.0
  0
ENDBLK
  5
A94
100
AcDbEntity
  8
0
100
AcDbBlockEnd
  0
BLOCK
  5
A9D
100
AcDbEntity
  8
0
100
AcDbBlockBegin
  2
*U5
 70
    65
 10
0.0
 20
0.0
 30
0.0
  3
*U5
  1
*TB
  0
CIRCLE
  5
A96
100
AcDbEntity
  8
FOOT-2
100
AcDbCircle
 10
0.0
 20
0.0
 30
0.0
 40
0.046875
  0
LINE
  5
A97
100
AcDbEntity
  8
CENTER
100
AcDbLine
 10
-0.015625
 20
0.0
 30
0.0
 11
0.015625
 21
0.0
 31
0.0
  0
LINE
  5
A98
100
AcDbEntity
  8
CENTER
100
AcDbLine
 10
0.0
 20
-0.015625
 30
0.0
 11
0.0
 21
0.015625
 31
0.0
  0
LINE
  5
A99
100
AcDbEntity
  8
CENTER
100
AcDbLine
 10
0.03125
 20
0.0
 30
0.0
 11
0.171875
 21
0.0
 31
0.0
  0
LINE
  5
A9A
100
AcDbEntity
  8
CENTER
100
AcDbLine
 10
0.0
 20
0.03125
 30
0.0
 11
0.0
 21
0.171875
 31
0.0
  0
LINE
  5
A9B
100
AcDbEntity
  8
CENTER
100
AcDbLine
 10
-0.03125
 20
0.0
 30
0.0
 11
-0.171875
 21
0.0
 31
0.0
  0
LINE
  5
A9C
100
AcDbEntity
  8
CENTER
100
AcDbLine
 10
0.0
 20
-0.03125
 30
0.0
 11
0.0
 21
-0.171875
 31
0.0
  0
ENDBLK
  5
A9E
100
AcDbEntity
  8
0
100
AcDbBlockEnd
  0
BLOCK
  5
AB2
100
AcDbEntity
  8
0
100
AcDbBlockBegin
  2
*U6
 70
    65
 10
0.0
 20
0.0
 30
0.0
  3
*U6
  1
*TB
  0
POLYLINE
  5
AA0
100
AcDbEntity
  8
FOOT-2
100
AcDb2dPolyline
 66
     1
 10
0.0
 20
0.0
 30
0.0
 70
     1
  0
VERTEX
  5
AA1
100
AcDbEntity
  8
FOOT-2
100
AcDbVertex
100
AcDb2dVertex
 10
-0.176
 20
0.063
 30
0.0
 42
1.0
  0
VERTEX
  5
AA2
100
AcDbEntity
  8
FOOT-2
100
AcDbVertex
100
AcDb2dVertex
 10
-0.176
 20
-0.063
 30
0.0
  0
VERTEX
  5
AA3
100
AcDbEntity
  8
FOOT-2
100
AcDbVertex
100
AcDb2dVertex
 10
0.0
 20
-0.063
 30
0.0
 42
1.0
  0
VERTEX
  5
AA4
100
AcDbEntity
  8
FOOT-2
100
AcDbVertex
100
AcDb2dVertex
 10
0.0
 20
0.063
 30
0.0
  0
SEQEND
  5
AA5
100
AcDbEntity
  8
FOOT-2
  0
LINE
  5
AA6
100
AcDbEntity
  8
CENTER
100
AcDbLine
 10
-0.197
 20
0.0
 30
0.0
 11
-0.155
 21
0.0
 31
0.0
  0
LINE
  5
AA7
100
AcDbEntity
  8
CENTER
100
AcDbLine
 10
-0.176
 20
-0.021
 30
0.0
 11
-0.176
 21
0.021
 31
0.0
  0
LINE
  5
AA8
100
AcDbEntity
  8
CENTER
100
AcDbLine
 10
-0.134
 20
0.0
 30
0.0
 11
0.012
 21
0.0
 31
0.0
  0
LINE
  5
AA9
100
AcDbEntity
  8
CENTER
100
AcDbLine
 10
-0.176
 20
0.042
 30
0.0
 11
-0.176
 21
0.188
 31
0.0
  0
LINE
  5
AAA
100
AcDbEntity
  8
CENTER
100
AcDbLine
 10
-0.218
 20
0.0
 30
0.0
 11
-0.364
 21
0.0
 31
0.0
  0
LINE
  5
AAB
100
AcDbEntity
  8
CENTER
100
AcDbLine
 10
-0.176
 20
-0.042
 30
0.0
 11
-0.176
 21
-0.188
 31
0.0
  0
LINE
  5
AAC
100
AcDbEntity
  8
CENTER
100
AcDbLine
 10
-0.021
 20
0.0
 30
0.0
 11
0.021
 21
0.0
 31
0.0
  0
LINE
  5
AAD
100
AcDbEntity
  8
CENTER
100
AcDbLine
 10
0.0
 20
-0.021
 30
0.0
 11
0.0
 21
0.021
 31
0.0
  0
LINE
  5
AAE
100
AcDbEntity
  8
CENTER
100
AcDbLine
 10
0.042
 20
0.0
 30
0.0
 11
0.188
 21
0.0
 31
0.0
  0
LINE
  5
AAF
100
AcDbEntity
  8
CENTER
100
AcDbLine
 10
0.0
 20
0.042
 30
0.0
 11
0.0
 21
0.188
 31
0.0
  0
LINE
  5
AB0
100
AcDbEntity
  8
CENTER
100
AcDbLine
 10
-0.042
 20
0.0
 30
0.0
 11
-0.188
 21
0.0
 31
0.0
  0
LINE
  5
AB1
100
AcDbEntity
  8
CENTER
100
AcDbLine
 10
0.0
 20
-0.042
 30
0.0
 11
0.0
 21
-0.188
 31
0.0
  0
ENDBLK
  5
AB3
100
AcDbEntity
  8
0
100
AcDbBlockEnd
  0
BLOCK
  5
BF5
100
AcDbEntity
  8
0
100
AcDbBlockBegin
  2
*D7
 70
    65
 10
0.0
 20
0.0
 30
0.0
  3
*D7
  1
*TB
  0
LINE
  5
BF6
100
AcDbEntity
  8
0
  6
BYBLOCK
 62
     0
100
AcDbLine
 10
347.202473
 20
94.378814
 30
0.0
 11
347.202473
 21
62.699281
 31
0.0
  0
LINE
  5
BF7
100
AcDbEntity
  8
0
  6
BYBLOCK
 62
     0
100
AcDbLine
 10
314.592866
 20
67.271281
 30
0.0
 11
310.020866
 21
67.271281
 31
0.0
  0
LINE
  5
BF8
100
AcDbEntity
  8
0
  6
BYBLOCK
 62
     0
100
AcDbLine
 10
351.774473
 20
67.271281
 30
0.0
 11
356.346473
 21
67.271281
 31
0.0
  0
SOLID
  5
BF9
100
AcDbEntity
  8
0
  6
BYBLOCK
 62
     0
100
AcDbTrace
 10
314.592866
 20
68.033281
 30
0.0
 11
314.592866
 21
66.509281
 31
0.0
 12
319.164866
 22
67.271281
 32
0.0
 13
319.164866
 23
67.271281
 33
0.0
  0
SOLID
  5
BFA
100
AcDbEntity
  8
0
  6
BYBLOCK
 62
     0
100
AcDbTrace
 10
351.774473
 20
68.033281
 30
0.0
 11
351.774473
 21
66.509281
 31
0.0
 12
347.202473
 22
67.271281
 32
0.0
 13
347.202473
 23
67.271281
 33
0.0
  0
MTEXT
  5
BFB
100
AcDbEntity
  8
0
  6
BYBLOCK
 62
     0
100
AcDbMText
 10
410.067473
 20
67.271281
 30
0.0
 40
4.572
 41
0.0
 71
     5
 72
     1
  1
\A1;28.04mm±0.03mm[1.104"±0.001"]
  0
POINT
  5
BFC
100
AcDbEntity
  8
DEFPOINTS
  6
BYBLOCK
 62
     0
100
AcDbPoint
 10
319.164866
 20
60.1927
 30
0.0
  0
POINT
  5
BFD
100
AcDbEntity
  8
DEFPOINTS
  6
BYBLOCK
 62
     0
100
AcDbPoint
 10
347.202473
 20
95.966314
 30
0.0
  0
POINT
  5
BFE
100
AcDbEntity
  8
DEFPOINTS
  6
BYBLOCK
 62
     0
100
AcDbPoint
 10
347.202473
 20
67.271281
 30
0.0
  0
ENDBLK
  5
BFF
100
AcDbEntity
  8
0
100
AcDbBlockEnd
  0
BLOCK
  5
C00
100
AcDbEntity
  8
0
100
AcDbBlockBegin
  2
*D8
 70
    65
 10
0.0
 20
0.0
 30
0.0
  3
*D8
  1
*TB
  0
LINE
  5
C01
100
AcDbEntity
  8
0
  6
BYBLOCK
 62
     0
100
AcDbLine
 10
368.1526
 20
93.100073
 30
0.0
 11
368.1526
 21
72.992747
 31
0.0
  0
LINE
  5
C02
100
AcDbEntity
  8
0
  6
BYBLOCK
 62
     0
100
AcDbLine
 10
314.592866
 20
77.564747
 30
0.0
 11
310.020866
 21
77.564747
 31
0.0
  0
LINE
  5
C03
100
AcDbEntity
  8
0
  6
BYBLOCK
 62
     0
100
AcDbLine
 10
372.7246
 20
77.564747
 30
0.0
 11
377.2966
 21
77.564747
 31
0.0
  0
SOLID
  5
C04
100
AcDbEntity
  8
0
  6
BYBLOCK
 62
     0
100
AcDbTrace
 10
314.592866
 20
78.326747
 30
0.0
 11
314.592866
 21
76.802747
 31
0.0
 12
319.164866
 22
77.564747
 32
0.0
 13
319.164866
 23
77.564747
 33
0.0
  0
SOLID
  5
C05
100
AcDbEntity
  8
0
  6
BYBLOCK
 62
     0
100
AcDbTrace
 10
372.7246
 20
78.326747
 30
0.0
 11
372.7246
 21
76.802747
 31
0.0
 12
368.1526
 22
77.564747
 32
0.0
 13
368.1526
 23
77.564747
 33
0.0
  0
MTEXT
  5
C06
100
AcDbEntity
  8
0
  6
BYBLOCK
 62
     0
100
AcDbMText
 10
407.0146
 20
77.564747
 30
0.0
 40
4.572
 41
0.0
 71
     5
 72
     1
  1
\A1;48.99mm[1.929"]
  0
POINT
  5
C07
100
AcDbEntity
  8
DEFPOINTS
  6
BYBLOCK
 62
     0
100
AcDbPoint
 10
319.164866
 20
60.1927
 30
0.0
  0
POINT
  5
C08
100
AcDbEntity
  8
DEFPOINTS
  6
BYBLOCK
 62
     0
100
AcDbPoint
 10
368.1526
 20
94.687573
 30
0.0
  0
POINT
  5
C09
100
AcDbEntity
  8
DEFPOINTS
  6
BYBLOCK
 62
     0
100
AcDbPoint
 10
368.1526
 20
77.564747
 30
0.0
  0
ENDBLK
  5
C0A
100
AcDbEntity
  8
0
100
AcDbBlockEnd
  0
BLOCK
  5
B74
100
AcDbEntity
  8
0
100
AcDbBlockBegin
  2
*D9
 70
    65
 10
0.0
 20
0.0
 30
0.0
  3
*D9
  1
*TB
  0
LINE
  5
B75
100
AcDbEntity
  8
0
  6
BYBLOCK
 62
     0
100
AcDbLine
 10
368.1526
 20
104.687553
 30
0.0
 11
386.458523
 21
104.687553
 31
0.0
  0
LINE
  5
B76
100
AcDbEntity
  8
0
  6
BYBLOCK
 62
     0
100
AcDbLine
 10
381.886523
 20
100.115553
 30
0.0
 11
381.886523
 21
95.543553
 31
0.0
  0
LINE
  5
B77
100
AcDbEntity
  8
0
  6
BYBLOCK
 62
     0
100
AcDbLine
 10
381.886523
 20
114.182863
 30
0.0
 11
381.886523
 21
118.754863
 31
0.0
  0
LINE
  5
B78
100
AcDbEntity
  8
0
  6
BYBLOCK
 62
     0
100
AcDbLine
 10
381.886523
 20
118.754863
 30
0.0
 11
386.458523
 21
118.754863
 31
0.0
  0
SOLID
  5
B79
100
AcDbEntity
  8
0
  6
BYBLOCK
 62
     0
100
AcDbTrace
 10
381.124523
 20
100.115553
 30
0.0
 11
382.648523
 21
100.115553
 31
0.0
 12
381.886523
 22
104.687553
 32
0.0
 13
381.886523
 23
104.687553
 33
0.0
  0
SOLID
  5
B7A
100
AcDbEntity
  8
0
  6
BYBLOCK
 62
     0
100
AcDbTrace
 10
381.124523
 20
114.182863
 30
0.0
 11
382.648523
 21
114.182863
 31
0.0
 12
381.886523
 22
109.610863
 32
0.0
 13
381.886523
 23
109.610863
 33
0.0
  0
MTEXT
  5
B7B
100
AcDbEntity
  8
0
  6
BYBLOCK
 62
     0
100
AcDbMText
 10
413.509523
 20
118.754863
 30
0.0
 40
4.572
 41
0.0
 71
     5
 72
     1
  1
\A1;4.92mm[0.194"]
  0
POINT
  5
B7C
100
AcDbEntity
  8
DEFPOINTS
  6
BYBLOCK
 62
     0
100
AcDbPoint
 10
366.5651
 20
104.687553
 30
0.0
  0
POINT
  5
B7D
100
AcDbEntity
  8
DEFPOINTS
  6
BYBLOCK
 62
     0
100
AcDbPoint
 10
195.18522
 20
109.610863
 30
0.0
  0
POINT
  5
B7E
100
AcDbEntity
  8
DEFPOINTS
  6
BYBLOCK
 62
     0
100
AcDbPoint
 10
381.886523
 20
109.610863
 30
0.0
  0
ENDBLK
  5
B7F
100
AcDbEntity
  8
0
100
AcDbBlockEnd
  0
BLOCK
  5
BB5
100
AcDbEntity
  8
0
100
AcDbBlockBegin
  2
*D10
 70
    65
 10
0.0
 20
0.0
 30
0.0
  3
*D10
  1
*TB
  0
LINE
  5
BB6
100
AcDbEntity
  8
0
  6
BYBLOCK
 62
     0
100
AcDbLine
 10
351.99688
 20
99.190803
 30
0.0
 11
453.650643
 21
99.190803
 31
0.0
  0
LINE
  5
BB7
100
AcDbEntity
  8
0
  6
BYBLOCK
 62
     0
100
AcDbLine
 10
449.078643
 20
94.618803
 30
0.0
 11
449.078643
 21
90.046803
 31
0.0
  0
LINE
  5
BB8
100
AcDbEntity
  8
0
  6
BYBLOCK
 62
     0
100
AcDbLine
 10
449.078643
 20
114.182863
 30
0.0
 11
449.078643
 21
118.754863
 31
0.0
  0
LINE
  5
BB9
100
AcDbEntity
  8
0
  6
BYBLOCK
 62
     0
100
AcDbLine
 10
449.078643
 20
118.754863
 30
0.0
 11
453.650643
 21
118.754863
 31
0.0
  0
SOLID
  5
BBA
100
AcDbEntity
  8
0
  6
BYBLOCK
 62
     0
100
AcDbTrace
 10
448.316643
 20
94.618803
 30
0.0
 11
449.840643
 21
94.618803
 31
0.0
 12
449.078643
 22
99.190803
 32
0.0
 13
449.078643
 23
99.190803
 33
0.0
  0
SOLID
  5
BBB
100
AcDbEntity
  8
0
  6
BYBLOCK
 62
     0
100
AcDbTrace
 10
448.316643
 20
114.182863
 30
0.0
 11
449.840643
 21
114.182863
 31
0.0
 12
449.078643
 22
109.610863
 32
0.0
 13
449.078643
 23
109.610863
 33
0.0
  0
MTEXT
  5
BBC
100
AcDbEntity
  8
0
  6
BYBLOCK
 62
     0
100
AcDbMText
 10
506.990643
 20
118.754863
 30
0.0
 40
4.572
 41
0.0
 71
     5
 72
     1
  1
\A1;10.42mm±0.03mm[0.410"±0.001"]
  0
POINT
  5
BBD
100
AcDbEntity
  8
DEFPOINTS
  6
BYBLOCK
 62
     0
100
AcDbPoint
 10
350.40938
 20
99.190803
 30
0.0
  0
POINT
  5
BBE
100
AcDbEntity
  8
DEFPOINTS
  6
BYBLOCK
 62
     0
100
AcDbPoint
 10
716.33253
 20
109.610863
 30
0.0
  0
POINT
  5
BBF
100
AcDbEntity
  8
DEFPOINTS
  6
BYBLOCK
 62
     0
100
AcDbPoint
 10
449.078643
 20
109.610863
 30
0.0
  0
ENDBLK
  5
BC0
100
AcDbEntity
  8
0
100
AcDbBlockEnd
  0
BLOCK
  5
BA9
100
AcDbEntity
  8
0
100
AcDbBlockBegin
  2
*D11
 70
    65
 10
0.0
 20
0.0
 30
0.0
  3
*D11
  1
*TB
  0
LINE
  5
BAA
100
AcDbEntity
  8
0
  6
BYBLOCK
 62
     0
100
AcDbLine
 10
369.7401
 20
94.687573
 30
0.0
 11
575.52841
 21
94.687573
 31
0.0
  0
LINE
  5
BAB
100
AcDbEntity
  8
0
  6
BYBLOCK
 62
     0
100
AcDbLine
 10
570.95641
 20
90.115573
 30
0.0
 11
570.95641
 21
85.543573
 31
0.0
  0
LINE
  5
BAC
100
AcDbEntity
  8
0
  6
BYBLOCK
 62
     0
100
AcDbLine
 10
570.95641
 20
114.182863
 30
0.0
 11
570.95641
 21
118.754863
 31
0.0
  0
LINE
  5
BAD
100
AcDbEntity
  8
0
  6
BYBLOCK
 62
     0
100
AcDbLine
 10
570.95641
 20
118.754863
 30
0.0
 11
575.52841
 21
118.754863
 31
0.0
  0
SOLID
  5
BAE
100
AcDbEntity
  8
0
  6
BYBLOCK
 62
     0
100
AcDbTrace
 10
570.19441
 20
90.115573
 30
0.0
 11
571.71841
 21
90.115573
 31
0.0
 12
570.95641
 22
94.687573
 32
0.0
 13
570.95641
 23
94.687573
 33
0.0
  0
SOLID
  5
BAF
100
AcDbEntity
  8
0
  6
BYBLOCK
 62
     0
100
AcDbTrace
 10
570.19441
 20
114.182863
 30
0.0
 11
571.71841
 21
114.182863
 31
0.0
 12
570.95641
 22
109.610863
 32
0.0
 13
570.95641
 23
109.610863
 33
0.0
  0
MTEXT
  5
BB0
100
AcDbEntity
  8
0
  6
BYBLOCK
 62
     0
100
AcDbMText
 10
635.87881
 20
118.754863
 30
0.0
 40
4.572
 41
0.0
 71
     5
 72
     1
  1
\A1;14.92mm\S 0.00mm^ -0.05mm;{\o\l\H10.972800;[}0.588"\S 0.000"^ -0.002";{\o\l\H10.972800;]}
  0
POINT
  5
BB1
100
AcDbEntity
  8
DEFPOINTS
  6
BYBLOCK
 62
     0
100
AcDbPoint
 10
368.1526
 20
94.687573
 30
0.0
  0
POINT
  5
BB2
100
AcDbEntity
  8
DEFPOINTS
  6
BYBLOCK
 62
     0
100
AcDbPoint
 10
716.33253
 20
109.610863
 30
0.0
  0
POINT
  5
BB3
100
AcDbEntity
  8
DEFPOINTS
  6
BYBLOCK
 62
     0
100
AcDbPoint
 10
570.95641
 20
109.610863
 30
0.0
  0
ENDBLK
  5
BB4
100
AcDbEntity
  8
0
100
AcDbBlockEnd
  0
BLOCK
  5
C0B
100
AcDbEntity
  8
0
100
AcDbBlockBegin
  2
*D12
 70
    65
 10
0.0
 20
0.0
 30
0.0
  3
*D12
  1
*TB
  0
LINE
  5
C0C
100
AcDbEntity
  8
0
  6
BYBLOCK
 62
     0
100
AcDbLine
 10
333.688509
 20
106.275053
 30
0.0
 11
333.688509
 21
135.76346
 31
0.0
  0
LINE
  5
C0D
100
AcDbEntity
  8
0
  6
BYBLOCK
 62
     0
100
AcDbLine
 10
314.592866
 20
131.19146
 30
0.0
 11
310.020866
 21
131.19146
 31
0.0
  0
LINE
  5
C0E
100
AcDbEntity
  8
0
  6
BYBLOCK
 62
     0
100
AcDbLine
 10
338.260509
 20
131.19146
 30
0.0
 11
342.832509
 21
131.19146
 31
0.0
  0
SOLID
  5
C0F
100
AcDbEntity
  8
0
  6
BYBLOCK
 62
     0
100
AcDbTrace
 10
314.592866
 20
131.95346
 30
0.0
 11
314.592866
 21
130.42946
 31
0.0
 12
319.164866
 22
131.19146
 32
0.0
 13
319.164866
 23
131.19146
 33
0.0
  0
SOLID
  5
C10
100
AcDbEntity
  8
0
  6
BYBLOCK
 62
     0
100
AcDbTrace
 10
338.260509
 20
131.95346
 30
0.0
 11
338.260509
 21
130.42946
 31
0.0
 12
333.688509
 22
131.19146
 32
0.0
 13
333.688509
 23
131.19146
 33
0.0
  0
MTEXT
  5
C11
100
AcDbEntity
  8
0
  6
BYBLOCK
 62
     0
100
AcDbMText
 10
372.169509
 20
131.19146
 30
0.0
 40
4.572
 41
0.0
 71
     5
 72
     1
  1
\A1;14.52mm[0.572"]
  0
POINT
  5
C12
100
AcDbEntity
  8
DEFPOINTS
  6
BYBLOCK
 62
     0
100
AcDbPoint
 10
319.164866
 20
60.1927
 30
0.0
  0
POINT
  5
C13
100
AcDbEntity
  8
DEFPOINTS
  6
BYBLOCK
 62
     0
100
AcDbPoint
 10
333.688509
 20
104.687553
 30
0.0
  0
POINT
  5
C14
100
AcDbEntity
  8
DEFPOINTS
  6
BYBLOCK
 62
     0
100
AcDbPoint
 10
333.688509
 20
131.19146
 30
0.0
  0
ENDBLK
  5
C15
100
AcDbEntity
  8
0
100
AcDbBlockEnd
  0
BLOCK
  5
BCF
100
AcDbEntity
  8
0
100
AcDbBlockBegin
  2
*D13
 70
    65
 10
0.0
 20
0.0
 30
0.0
  3
*D13
  1
*TB
  0
LINE
  5
BD0
100
AcDbEntity
  8
0
  6
BYBLOCK
 62
     0
100
AcDbLine
 10
417.247211
 20
202.038771
 30
0.0
 11
435.189667
 21
218.165901
 31
0.0
  0
LINE
  5
BD1
100
AcDbEntity
  8
0
  6
BYBLOCK
 62
     0
100
AcDbLine
 10
428.733041
 20
218.509929
 30
0.0
 11
425.676742
 21
221.910255
 31
0.0
  0
LINE
  5
BD2
100
AcDbEntity
  8
0
  6
BYBLOCK
 62
     0
100
AcDbLine
 10
436.968069
 20
209.347938
 30
0.0
 11
440.024368
 21
205.947611
 31
0.0
  0
SOLID
  5
BD3
100
AcDbEntity
  8
0
  6
BYBLOCK
 62
     0
100
AcDbTrace
 10
429.299762
 20
219.019312
 30
0.0
 11
428.16632
 21
218.000545
 31
0.0
 12
431.78934
 22
215.109602
 32
0.0
 13
431.78934
 23
215.109602
 33
0.0
  0
SOLID
  5
BD4
100
AcDbEntity
  8
0
  6
BYBLOCK
 62
     0
100
AcDbTrace
 10
437.53479
 20
209.857321
 30
0.0
 11
436.401348
 21
208.838554
 31
0.0
 12
433.91177
 22
212.748264
 32
0.0
 13
433.91177
 23
212.748264
 33
0.0
  0
MTEXT
  5
BD5
100
AcDbEntity
  8
0
  6
BYBLOCK
 62
     0
100
AcDbMText
 10
474.662423
 20
167.410577
 30
0.0
 40
4.572
 41
0.0
 71
     5
 72
     1
  1
\A1;3.18mm±0.03mm[0.125"±0.001"]
 11
0.668482
 21
-0.743728
 31
0.0
  0
POINT
  5
BD6
100
AcDbEntity
  8
DEFPOINTS
  6
BYBLOCK
 62
     0
100
AcDbPoint
 10
416.066542
 20
200.977556
 30
0.0
 50
48.05
  0
POINT
  5
BD7
100
AcDbEntity
  8
DEFPOINTS
  6
BYBLOCK
 62
     0
100
AcDbPoint
 10
439.408275
 20
217.688661
 30
0.0
 50
48.05
  0
POINT
  5
BD8
100
AcDbEntity
  8
DEFPOINTS
  6
BYBLOCK
 62
     0
100
AcDbPoint
 10
433.91177
 20
212.748264
 30
0.0
 50
48.05
  0
ENDBLK
  5
BD9
100
AcDbEntity
  8
0
100
AcDbBlockEnd
  0
BLOCK
  5
BDC
100
AcDbEntity
  8
0
100
AcDbBlockBegin
  2
*D14
 70
    65
 10
0.0
 20
0.0
 30
0.0
  3
*D14
  1
*TB
  0
LINE
  5
BDD
100
AcDbEntity
  8
0
  6
BYBLOCK
 62
     0
100
AcDbLine
 10
326.338836
 20
93.626358
 30
0.0
 11
291.359814
 21
62.186334
 31
0.0
  0
LINE
  5
BDE
100
AcDbEntity
  8
0
  6
BYBLOCK
 62
     0
100
AcDbLine
 10
280.551024
 20
81.051177
 30
0.0
 11
277.494725
 21
84.451503
 31
0.0
  0
LINE
  5
BDF
100
AcDbEntity
  8
0
  6
BYBLOCK
 62
     0
100
AcDbLine
 10
297.816439
 20
61.842306
 30
0.0
 11
300.872738
 21
58.44198
 31
0.0
  0
SOLID
  5
BE0
100
AcDbEntity
  8
0
  6
BYBLOCK
 62
     0
100
AcDbTrace
 10
281.117745
 20
81.56056
 30
0.0
 11
279.984303
 21
80.541794
 31
0.0
 12
283.607323
 22
77.65085
 32
0.0
 13
283.607323
 23
77.65085
 33
0.0
  0
SOLID
  5
BE1
100
AcDbEntity
  8
0
  6
BYBLOCK
 62
     0
100
AcDbTrace
 10
298.38316
 20
62.35169
 30
0.0
 11
297.249718
 21
61.332923
 31
0.0
 12
294.76014
 22
65.242633
 32
0.0
 13
294.76014
 23
65.242633
 33
0.0
  0
MTEXT
  5
BE2
100
AcDbEntity
  8
0
  6
BYBLOCK
 62
     0
100
AcDbMText
 10
320.48399
 20
36.623218
 30
0.0
 40
4.572
 41
0.0
 71
     5
 72
     1
  1
\A1;16.68mm[0.657"]
 11
0.668482
 21
-0.743728
 31
0.0
  0
POINT
  5
BE3
100
AcDbEntity
  8
DEFPOINTS
  6
BYBLOCK
 62
     0
100
AcDbPoint
 10
252.131126
 20
49.359253
 30
0.0
 50
48.05
  0
POINT
  5
BE4
100
AcDbEntity
  8
DEFPOINTS
  6
BYBLOCK
 62
     0
100
AcDbPoint
 10
327.519505
 20
94.687573
 30
0.0
 50
48.05
  0
POINT
  5
BE5
100
AcDbEntity
  8
DEFPOINTS
  6
BYBLOCK
 62
     0
100
AcDbPoint
 10
294.76014
 20
65.242633
 30
0.0
 50
48.05
  0
ENDBLK
  5
BE6
100
AcDbEntity
  8
0
100
AcDbBlockEnd
  0
BLOCK
  5
BE9
100
AcDbEntity
  8
0
100
AcDbBlockBegin
  2
*D15
 70
    65
 10
0.0
 20
0.0
 30
0.0
  3
*D15
  1
*TB
  0
LINE
  5
BEA
100
AcDbEntity
  8
0
  6
BYBLOCK
 62
     0
100
AcDbLine
 10
307.731569
 20
114.328123
 30
0.0
 11
262.959829
 21
74.086158
 31
0.0
  0
LINE
  5
BEB
100
AcDbEntity
  8
0
  6
BYBLOCK
 62
     0
100
AcDbLine
 10
263.303856
 20
80.542784
 30
0.0
 11
260.247557
 21
83.94311
 31
0.0
  0
LINE
  5
BEC
100
AcDbEntity
  8
0
  6
BYBLOCK
 62
     0
100
AcDbLine
 10
276.870903
 20
65.448583
 30
0.0
 11
279.927202
 21
62.048256
 31
0.0
  0
SOLID
  5
BED
100
AcDbEntity
  8
0
  6
BYBLOCK
 62
     0
100
AcDbTrace
 10
263.870577
 20
81.052167
 30
0.0
 11
262.737135
 21
80.033401
 31
0.0
 12
266.360155
 22
77.142457
 32
0.0
 13
266.360155
 23
77.142457
 33
0.0
  0
SOLID
  5
BEE
100
AcDbEntity
  8
0
  6
BYBLOCK
 62
     0
100
AcDbTrace
 10
277.437625
 20
65.957966
 30
0.0
 11
276.304182
 21
64.939199
 31
0.0
 12
273.814605
 22
68.848909
 32
0.0
 13
273.814605
 23
68.848909
 33
0.0
  0
MTEXT
  5
BEF
100
AcDbEntity
  8
0
  6
BYBLOCK
 62
     0
100
AcDbMText
 10
298.519688
 20
41.362936
 30
0.0
 40
4.572
 41
0.0
 71
     5
 72
     1
  1
\A1;11.15mm[0.439"]
 11
0.668482
 21
-0.743728
 31
0.0
  0
POINT
  5
BF0
100
AcDbEntity
  8
DEFPOINTS
  6
BYBLOCK
 62
     0
100
AcDbPoint
 10
308.912238
 20
115.389338
 30
0.0
 50
48.05
  0
POINT
  5
BF1
100
AcDbEntity
  8
DEFPOINTS
  6
BYBLOCK
 62
     0
100
AcDbPoint
 10
252.131126
 20
49.359253
 30
0.0
 50
48.05
  0
POINT
  5
BF2
100
AcDbEntity
  8
DEFPOINTS
  6
BYBLOCK
 62
     0
100
AcDbPoint
 10
273.814605
 20
68.848909
 30
0.0
 50
48.05
  0
ENDBLK
  5
BF3
100
AcDbEntity
  8
0
100
AcDbBlockEnd
  0
BLOCK
  5
C17
100
AcDbEntity
  8
0
100
AcDbBlockBegin
  2
*D16
 70
    65
 10
0.0
 20
0.0
 30
0.0
  3
*D16
  1
*TB
  0
LINE
  5
C18
100
AcDbEntity
  8
0
  6
BYBLOCK
 62
     0
100
AcDbLine
 10
307.851023
 20
116.570007
 30
0.0
 11
296.054743
 21
129.694118
 31
0.0
  0
LINE
  5
C19
100
AcDbEntity
  8
0
  6
BYBLOCK
 62
     0
100
AcDbLine
 10
305.309547
 20
131.865163
 30
0.0
 11
308.709873
 21
134.921462
 31
0.0
  0
LINE
  5
C1A
100
AcDbEntity
  8
0
  6
BYBLOCK
 62
     0
100
AcDbLine
 10
295.710715
 20
123.237492
 30
0.0
 11
292.310389
 21
120.181193
 31
0.0
  0
LINE
  5
C1B
100
AcDbEntity
  8
0
  6
BYBLOCK
 62
     0
100
AcDbLine
 10
292.310389
 20
120.181193
 30
0.0
 11
289.25409
 21
123.58152
 31
0.0
  0
SOLID
  5
C1C
100
AcDbEntity
  8
0
  6
BYBLOCK
 62
     0
100
AcDbTrace
 10
304.800163
 20
132.431884
 30
0.0
 11
305.81893
 21
131.298442
 31
0.0
 12
301.90922
 22
128.808864
 32
0.0
 13
301.90922
 23
128.808864
 33
0.0
  0
SOLID
  5
C1D
100
AcDbEntity
  8
0
  6
BYBLOCK
 62
     0
100
AcDbTrace
 10
295.201332
 20
123.804213
 30
0.0
 11
296.220098
 21
122.670771
 31
0.0
 12
299.111042
 22
126.293791
 32
0.0
 13
299.111042
 23
126.293791
 33
0.0
  0
MTEXT
  5
C1E
100
AcDbEntity
  8
0
  6
BYBLOCK
 62
     0
100
AcDbMText
 10
271.170987
 20
143.700118
 30
0.0
 40
4.572
 41
0.0
 71
     5
 72
     1
  1
\A1;3.76mm[0.148"]
 11
0.668482
 21
-0.743728
 31
0.0
  0
POINT
  5
C1F
100
AcDbEntity
  8
DEFPOINTS
  6
BYBLOCK
 62
     0
100
AcDbPoint
 10
343.313956
 20
82.743467
 30
0.0
 50
48.05
  0
POINT
  5
C20
100
AcDbEntity
  8
DEFPOINTS
  6
BYBLOCK
 62
     0
100
AcDbPoint
 10
308.912238
 20
115.389338
 30
0.0
 50
48.05
  0
POINT
  5
C21
100
AcDbEntity
  8
DEFPOINTS
  6
BYBLOCK
 62
     0
100
AcDbPoint
 10
299.111042
 20
126.293791
 30
0.0
 50
48.05
  0
ENDBLK
  5
C22
100
AcDbEntity
  8
0
100
AcDbBlockEnd
  0
BLOCK
  5
C25
100
AcDbEntity
  8
0
100
AcDbBlockBegin
  2
*D17
 70
    65
 10
0.0
 20
0.0
 30
0.0
  3
*D17
  1
*TB
  0
LINE
  5
C26
100
AcDbEntity
  8
0
  6
BYBLOCK
 62
     0
100
AcDbLine
 10
310.082204
 20
118.575449
 30
0.0
 11
256.078045
 21
178.658502
 31
0.0
  0
LINE
  5
C27
100
AcDbEntity
  8
0
  6
BYBLOCK
 62
     0
100
AcDbLine
 10
263.101668
 20
178.824106
 30
0.0
 11
266.501995
 21
181.880405
 31
0.0
  0
LINE
  5
C28
100
AcDbEntity
  8
0
  6
BYBLOCK
 62
     0
100
AcDbLine
 10
255.734018
 20
172.201877
 30
0.0
 11
252.333691
 21
169.145578
 31
0.0
  0
LINE
  5
C29
100
AcDbEntity
  8
0
  6
BYBLOCK
 62
     0
100
AcDbLine
 10
252.333691
 20
169.145578
 30
0.0
 11
249.277392
 21
172.545904
 31
0.0
  0
SOLID
  5
C2A
100
AcDbEntity
  8
0
  6
BYBLOCK
 62
     0
100
AcDbTrace
 10
262.592285
 20
179.390827
 30
0.0
 11
263.611052
 21
178.257385
 31
0.0
 12
259.701342
 22
175.767807
 32
0.0
 13
259.701342
 23
175.767807
 33
0.0
  0
SOLID
  5
C2B
100
AcDbEntity
  8
0
  6
BYBLOCK
 62
     0
100
AcDbTrace
 10
255.224635
 20
172.768598
 30
0.0
 11
256.243401
 21
171.635156
 31
0.0
 12
259.134344
 22
175.258176
 32
0.0
 13
259.134344
 23
175.258176
 33
0.0
  0
MTEXT
  5
C2C
100
AcDbEntity
  8
0
  6
BYBLOCK
 62
     0
100
AcDbMText
 10
231.448982
 20
192.381143
 30
0.0
 40
4.572
 41
0.0
 71
     5
 72
     1
  1
\A1;0.76mm[0.030"]
 11
0.668482
 21
-0.743728
 31
0.0
  0
POINT
  5
C2D
100
AcDbEntity
  8
DEFPOINTS
  6
BYBLOCK
 62
     0
100
AcDbPoint
 10
343.313956
 20
82.743467
 30
0.0
 50
48.05
  0
POINT
  5
C2E
100
AcDbEntity
  8
DEFPOINTS
  6
BYBLOCK
 62
     0
100
AcDbPoint
 10
311.143419
 20
117.39478
 30
0.0
 50
48.05
  0
POINT
  5
C2F
100
AcDbEntity
  8
DEFPOINTS
  6
BYBLOCK
 62
     0
100
AcDbPoint
 10
259.134344
 20
175.258176
 30
0.0
 50
48.05
  0
ENDBLK
  5
C30
100
AcDbEntity
  8
0
100
AcDbBlockEnd
  0
BLOCK
  5
E05
100
AcDbEntity
  8
0
100
AcDbBlockBegin
  2
*D18
 70
    65
 10
0.0
 20
0.0
 30
0.0
  3
*D18
  1
*TB
  0
LINE
  5
E06
100
AcDbEntity
  8
0
  6
BYBLOCK
 62
     0
100
AcDbLine
 10
364.95194
 20
323.364641
 30
0.0
 11
364.95194
 21
359.730208
 31
0.0
  0
LINE
  5
E07
100
AcDbEntity
  8
0
  6
BYBLOCK
 62
     0
100
AcDbLine
 10
314.592866
 20
355.158208
 30
0.0
 11
310.020866
 21
355.158208
 31
0.0
  0
LINE
  5
E08
100
AcDbEntity
  8
0
  6
BYBLOCK
 62
     0
100
AcDbLine
 10
369.52394
 20
355.158208
 30
0.0
 11
374.09594
 21
355.158208
 31
0.0
  0
SOLID
  5
E09
100
AcDbEntity
  8
0
  6
BYBLOCK
 62
     0
100
AcDbTrace
 10
314.592866
 20
355.920208
 30
0.0
 11
314.592866
 21
354.396208
 31
0.0
 12
319.164866
 22
355.158208
 32
0.0
 13
319.164866
 23
355.158208
 33
0.0
  0
SOLID
  5
E0A
100
AcDbEntity
  8
0
  6
BYBLOCK
 62
     0
100
AcDbTrace
 10
369.52394
 20
355.920208
 30
0.0
 11
369.52394
 21
354.396208
 31
0.0
 12
364.95194
 22
355.158208
 32
0.0
 13
364.95194
 23
355.158208
 33
0.0
  0
MTEXT
  5
E0B
100
AcDbEntity
  8
0
  6
BYBLOCK
 62
     0
100
AcDbMText
 10
403.43294
 20
355.158208
 30
0.0
 40
4.572
 41
0.0
 71
     5
 72
     1
  1
\A1;45.79mm[1.803"]
  0
POINT
  5
E0C
100
AcDbEntity
  8
DEFPOINTS
  6
BYBLOCK
 62
     0
100
AcDbPoint
 10
319.164866
 20
484.277863
 30
0.0
  0
POINT
  5
E0D
100
AcDbEntity
  8
DEFPOINTS
  6
BYBLOCK
 62
     0
100
AcDbPoint
 10
364.95194
 20
321.777141
 30
0.0
  0
POINT
  5
E0E
100
AcDbEntity
  8
DEFPOINTS
  6
BYBLOCK
 62
     0
100
AcDbPoint
 10
364.95194
 20
355.158208
 30
0.0
  0
ENDBLK
  5
E0F
100
AcDbEntity
  8
0
100
AcDbBlockEnd
  0
BLOCK
  5
E10
100
AcDbEntity
  8
0
100
AcDbBlockBegin
  2
*D19
 70
    65
 10
0.0
 20
0.0
 30
0.0
  3
*D19
  1
*TB
  0
LINE
  5
E11
100
AcDbEntity
  8
0
  6
BYBLOCK
 62
     0
100
AcDbLine
 10
362.254681
 20
314.954066
 30
0.0
 11
362.254681
 21
369.484968
 31
0.0
  0
LINE
  5
E12
100
AcDbEntity
  8
0
  6
BYBLOCK
 62
     0
100
AcDbLine
 10
314.592866
 20
364.912968
 30
0.0
 11
310.020866
 21
364.912968
 31
0.0
  0
LINE
  5
E13
100
AcDbEntity
  8
0
  6
BYBLOCK
 62
     0
100
AcDbLine
 10
366.826681
 20
364.912968
 30
0.0
 11
371.398681
 21
364.912968
 31
0.0
  0
SOLID
  5
E14
100
AcDbEntity
  8
0
  6
BYBLOCK
 62
     0
100
AcDbTrace
 10
314.592866
 20
365.674968
 30
0.0
 11
314.592866
 21
364.150968
 31
0.0
 12
319.164866
 22
364.912968
 32
0.0
 13
319.164866
 23
364.912968
 33
0.0
  0
SOLID
  5
E15
100
AcDbEntity
  8
0
  6
BYBLOCK
 62
     0
100
AcDbTrace
 10
366.826681
 20
365.674968
 30
0.0
 11
366.826681
 21
364.150968
 31
0.0
 12
362.254681
 22
364.912968
 32
0.0
 13
362.254681
 23
364.912968
 33
0.0
  0
MTEXT
  5
E16
100
AcDbEntity
  8
0
  6
BYBLOCK
 62
     0
100
AcDbMText
 10
426.262681
 20
364.912968
 30
0.0
 40
4.572
 41
0.0
 71
     5
 72
     1
  1
\A1;43.09mm±0.03mm[1.696"±0.001"]
  0
POINT
  5
E17
100
AcDbEntity
  8
DEFPOINTS
  6
BYBLOCK
 62
     0
100
AcDbPoint
 10
319.164866
 20
484.277863
 30
0.0
  0
POINT
  5
E18
100
AcDbEntity
  8
DEFPOINTS
  6
BYBLOCK
 62
     0
100
AcDbPoint
 10
362.254681
 20
313.366566
 30
0.0
  0
POINT
  5
E19
100
AcDbEntity
  8
DEFPOINTS
  6
BYBLOCK
 62
     0
100
AcDbPoint
 10
362.254681
 20
364.912968
 30
0.0
  0
ENDBLK
  5
E1A
100
AcDbEntity
  8
0
100
AcDbBlockEnd
  0
BLOCK
  5
E1B
100
AcDbEntity
  8
0
100
AcDbBlockBegin
  2
*D20
 70
    65
 10
0.0
 20
0.0
 30
0.0
  3
*D20
  1
*TB
  0
LINE
  5
E1C
100
AcDbEntity
  8
0
  6
BYBLOCK
 62
     0
100
AcDbLine
 10
360.48154
 20
323.364641
 30
0.0
 11
360.48154
 21
380.32359
 31
0.0
  0
LINE
  5
E1D
100
AcDbEntity
  8
0
  6
BYBLOCK
 62
     0
100
AcDbLine
 10
314.592866
 20
375.75159
 30
0.0
 11
310.020866
 21
375.75159
 31
0.0
  0
LINE
  5
E1E
100
AcDbEntity
  8
0
  6
BYBLOCK
 62
     0
100
AcDbLine
 10
365.05354
 20
375.75159
 30
0.0
 11
369.62554
 21
375.75159
 31
0.0
  0
SOLID
  5
E1F
100
AcDbEntity
  8
0
  6
BYBLOCK
 62
     0
100
AcDbTrace
 10
314.592866
 20
376.51359
 30
0.0
 11
314.592866
 21
374.98959
 31
0.0
 12
319.164866
 22
375.75159
 32
0.0
 13
319.164866
 23
375.75159
 33
0.0
  0
SOLID
  5
E20
100
AcDbEntity
  8
0
  6
BYBLOCK
 62
     0
100
AcDbTrace
 10
365.05354
 20
376.51359
 30
0.0
 11
365.05354
 21
374.98959
 31
0.0
 12
360.48154
 22
375.75159
 32
0.0
 13
360.48154
 23
375.75159
 33
0.0
  0
MTEXT
  5
E21
100
AcDbEntity
  8
0
  6
BYBLOCK
 62
     0
100
AcDbMText
 10
398.58154
 20
375.75159
 30
0.0
 40
4.572
 41
0.0
 71
     5
 72
     1
  1
\A1;41.32mm[1.627"]
  0
POINT
  5
E22
100
AcDbEntity
  8
DEFPOINTS
  6
BYBLOCK
 62
     0
100
AcDbPoint
 10
319.164866
 20
484.277863
 30
0.0
  0
POINT
  5
E23
100
AcDbEntity
  8
DEFPOINTS
  6
BYBLOCK
 62
     0
100
AcDbPoint
 10
360.48154
 20
321.777141
 30
0.0
  0
POINT
  5
E24
100
AcDbEntity
  8
DEFPOINTS
  6
BYBLOCK
 62
     0
100
AcDbPoint
 10
360.48154
 20
375.75159
 30
0.0
  0
ENDBLK
  5
E25
100
AcDbEntity
  8
0
100
AcDbBlockEnd
  0
BLOCK
  5
E26
100
AcDbEntity
  8
0
100
AcDbBlockBegin
  2
*D21
 70
    65
 10
0.0
 20
0.0
 30
0.0
  3
*D21
  1
*TB
  0
LINE
  5
E27
100
AcDbEntity
  8
0
  6
BYBLOCK
 62
     0
100
AcDbLine
 10
358.276663
 20
319.590201
 30
0.0
 11
358.276663
 21
390.728504
 31
0.0
  0
LINE
  5
E28
100
AcDbEntity
  8
0
  6
BYBLOCK
 62
     0
100
AcDbLine
 10
314.592866
 20
386.156504
 30
0.0
 11
310.020866
 21
386.156504
 31
0.0
  0
LINE
  5
E29
100
AcDbEntity
  8
0
  6
BYBLOCK
 62
     0
100
AcDbLine
 10
362.848663
 20
386.156504
 30
0.0
 11
367.420663
 21
386.156504
 31
0.0
  0
SOLID
  5
E2A
100
AcDbEntity
  8
0
  6
BYBLOCK
 62
     0
100
AcDbTrace
 10
314.592866
 20
386.918504
 30
0.0
 11
314.592866
 21
385.394504
 31
0.0
 12
319.164866
 22
386.156504
 32
0.0
 13
319.164866
 23
386.156504
 33
0.0
  0
SOLID
  5
E2B
100
AcDbEntity
  8
0
  6
BYBLOCK
 62
     0
100
AcDbTrace
 10
362.848663
 20
386.918504
 30
0.0
 11
362.848663
 21
385.394504
 31
0.0
 12
358.276663
 22
386.156504
 32
0.0
 13
358.276663
 23
386.156504
 33
0.0
  0
MTEXT
  5
E2C
100
AcDbEntity
  8
0
  6
BYBLOCK
 62
     0
100
AcDbMText
 10
395.233663
 20
386.156504
 30
0.0
 40
4.572
 41
0.0
 71
     5
 72
     1
  1
\A1;39.11mm[1.540"]
  0
POINT
  5
E2D
100
AcDbEntity
  8
DEFPOINTS
  6
BYBLOCK
 62
     0
100
AcDbPoint
 10
319.164866
 20
484.277863
 30
0.0
  0
POINT
  5
E2E
100
AcDbEntity
  8
DEFPOINTS
  6
BYBLOCK
 62
     0
100
AcDbPoint
 10
358.276663
 20
318.002701
 30
0.0
  0
POINT
  5
E2F
100
AcDbEntity
  8
DEFPOINTS
  6
BYBLOCK
 62
     0
100
AcDbPoint
 10
358.276663
 20
386.156504
 30
0.0
  0
ENDBLK
  5
E30
100
AcDbEntity
  8
0
100
AcDbBlockEnd
  0
BLOCK
  5
E31
100
AcDbEntity
  8
0
100
AcDbBlockBegin
  2
*D22
 70
    65
 10
0.0
 20
0.0
 30
0.0
  3
*D22
  1
*TB
  0
LINE
  5
E32
100
AcDbEntity
  8
0
  6
BYBLOCK
 62
     0
100
AcDbLine
 10
354.776543
 20
319.590201
 30
0.0
 11
354.776543
 21
400.173589
 31
0.0
  0
LINE
  5
E33
100
AcDbEntity
  8
0
  6
BYBLOCK
 62
     0
100
AcDbLine
 10
314.592866
 20
395.601589
 30
0.0
 11
310.020866
 21
395.601589
 31
0.0
  0
LINE
  5
E34
100
AcDbEntity
  8
0
  6
BYBLOCK
 62
     0
100
AcDbLine
 10
359.348543
 20
395.601589
 30
0.0
 11
363.920543
 21
395.601589
 31
0.0
  0
SOLID
  5
E35
100
AcDbEntity
  8
0
  6
BYBLOCK
 62
     0
100
AcDbTrace
 10
314.592866
 20
396.363589
 30
0.0
 11
314.592866
 21
394.839589
 31
0.0
 12
319.164866
 22
395.601589
 32
0.0
 13
319.164866
 23
395.601589
 33
0.0
  0
SOLID
  5
E36
100
AcDbEntity
  8
0
  6
BYBLOCK
 62
     0
100
AcDbTrace
 10
359.348543
 20
396.363589
 30
0.0
 11
359.348543
 21
394.839589
 31
0.0
 12
354.776543
 22
395.601589
 32
0.0
 13
354.776543
 23
395.601589
 33
0.0
  0
MTEXT
  5
E37
100
AcDbEntity
  8
0
  6
BYBLOCK
 62
     0
100
AcDbMText
 10
392.495543
 20
395.601589
 30
0.0
 40
4.572
 41
0.0
 71
     5
 72
     1
  1
\A1;35.61mm[1.402"]
  0
POINT
  5
E38
100
AcDbEntity
  8
DEFPOINTS
  6
BYBLOCK
 62
     0
100
AcDbPoint
 10
319.164866
 20
484.277863
 30
0.0
  0
POINT
  5
E39
100
AcDbEntity
  8
DEFPOINTS
  6
BYBLOCK
 62
     0
100
AcDbPoint
 10
354.776543
 20
318.002701
 30
0.0
  0
POINT
  5
E3A
100
AcDbEntity
  8
DEFPOINTS
  6
BYBLOCK
 62
     0
100
AcDbPoint
 10
354.776543
 20
395.601589
 30
0.0
  0
ENDBLK
  5
E3B
100
AcDbEntity
  8
0
100
AcDbBlockEnd
  0
BLOCK
  5
E3C
100
AcDbEntity
  8
0
100
AcDbBlockBegin
  2
*D23
 70
    65
 10
0.0
 20
0.0
 30
0.0
  3
*D23
  1
*TB
  0
LINE
  5
E3D
100
AcDbEntity
  8
0
  6
BYBLOCK
 62
     0
100
AcDbLine
 10
337.760267
 20
315.236641
 30
0.0
 11
337.760267
 21
410.702536
 31
0.0
  0
LINE
  5
E3E
100
AcDbEntity
  8
0
  6
BYBLOCK
 62
     0
100
AcDbLine
 10
314.592866
 20
406.130536
 30
0.0
 11
310.020866
 21
406.130536
 31
0.0
  0
LINE
  5
E3F
100
AcDbEntity
  8
0
  6
BYBLOCK
 62
     0
100
AcDbLine
 10
342.332267
 20
406.130536
 30
0.0
 11
346.904267
 21
406.130536
 31
0.0
  0
SOLID
  5
E40
100
AcDbEntity
  8
0
  6
BYBLOCK
 62
     0
100
AcDbTrace
 10
314.592866
 20
406.892536
 30
0.0
 11
314.592866
 21
405.368536
 31
0.0
 12
319.164866
 22
406.130536
 32
0.0
 13
319.164866
 23
406.130536
 33
0.0
  0
SOLID
  5
E41
100
AcDbEntity
  8
0
  6
BYBLOCK
 62
     0
100
AcDbTrace
 10
342.332267
 20
406.892536
 30
0.0
 11
342.332267
 21
405.368536
 31
0.0
 12
337.760267
 22
406.130536
 32
0.0
 13
337.760267
 23
406.130536
 33
0.0
  0
MTEXT
  5
E42
100
AcDbEntity
  8
0
  6
BYBLOCK
 62
     0
100
AcDbMText
 10
375.860267
 20
406.130536
 30
0.0
 40
4.572
 41
0.0
 71
     5
 72
     1
  1
\A1;18.60mm[0.732"]
  0
POINT
  5
E43
100
AcDbEntity
  8
DEFPOINTS
  6
BYBLOCK
 62
     0
100
AcDbPoint
 10
319.164866
 20
484.277863
 30
0.0
  0
POINT
  5
E44
100
AcDbEntity
  8
DEFPOINTS
  6
BYBLOCK
 62
     0
100
AcDbPoint
 10
337.760267
 20
313.649141
 30
0.0
  0
POINT
  5
E45
100
AcDbEntity
  8
DEFPOINTS
  6
BYBLOCK
 62
     0
100
AcDbPoint
 10
337.760267
 20
406.130536
 30
0.0
  0
ENDBLK
  5
E46
100
AcDbEntity
  8
0
100
AcDbBlockEnd
  0
BLOCK
  5
C81
100
AcDbEntity
  8
0
100
AcDbBlockBegin
  2
*D24
 70
    65
 10
0.0
 20
0.0
 30
0.0
  3
*D24
  1
*TB
  0
LINE
  5
C82
100
AcDbEntity
  8
0
  6
BYBLOCK
 62
     0
100
AcDbLine
 10
371.31464
 20
260.914846
 30
0.0
 11
392.495393
 21
260.914846
 31
0.0
  0
LINE
  5
C83
100
AcDbEntity
  8
0
  6
BYBLOCK
 62
     0
100
AcDbLine
 10
369.7401
 20
266.627217
 30
0.0
 11
392.495393
 21
266.627217
 31
0.0
  0
LINE
  5
C84
100
AcDbEntity
  8
0
  6
BYBLOCK
 62
     0
100
AcDbLine
 10
387.923393
 20
256.342846
 30
0.0
 11
387.923393
 21
251.770846
 31
0.0
  0
LINE
  5
C85
100
AcDbEntity
  8
0
  6
BYBLOCK
 62
     0
100
AcDbLine
 10
387.923393
 20
271.199217
 30
0.0
 11
387.923393
 21
275.771217
 31
0.0
  0
LINE
  5
C86
100
AcDbEntity
  8
0
  6
BYBLOCK
 62
     0
100
AcDbLine
 10
387.923393
 20
275.771217
 30
0.0
 11
392.495393
 21
275.771217
 31
0.0
  0
SOLID
  5
C87
100
AcDbEntity
  8
0
  6
BYBLOCK
 62
     0
100
AcDbTrace
 10
387.161393
 20
256.342846
 30
0.0
 11
388.685393
 21
256.342846
 31
0.0
 12
387.923393
 22
260.914846
 32
0.0
 13
387.923393
 23
260.914846
 33
0.0
  0
SOLID
  5
C88
100
AcDbEntity
  8
0
  6
BYBLOCK
 62
     0
100
AcDbTrace
 10
387.161393
 20
271.199217
 30
0.0
 11
388.685393
 21
271.199217
 31
0.0
 12
387.923393
 22
266.627217
 32
0.0
 13
387.923393
 23
266.627217
 33
0.0
  0
MTEXT
  5
C89
100
AcDbEntity
  8
0
  6
BYBLOCK
 62
     0
100
AcDbMText
 10
419.546393
 20
275.771217
 30
0.0
 40
4.572
 41
0.0
 71
     5
 72
     1
  1
\A1;5.71mm[0.225"]
  0
POINT
  5
C8A
100
AcDbEntity
  8
DEFPOINTS
  6
BYBLOCK
 62
     0
100
AcDbPoint
 10
369.72714
 20
260.914846
 30
0.0
  0
POINT
  5
C8B
100
AcDbEntity
  8
DEFPOINTS
  6
BYBLOCK
 62
     0
100
AcDbPoint
 10
368.1526
 20
266.627217
 30
0.0
  0
POINT
  5
C8C
100
AcDbEntity
  8
DEFPOINTS
  6
BYBLOCK
 62
     0
100
AcDbPoint
 10
387.923393
 20
266.627217
 30
0.0
  0
ENDBLK
  5
C8D
100
AcDbEntity
  8
0
100
AcDbBlockEnd
  0
BLOCK
  5
C90
100
AcDbEntity
  8
0
100
AcDbBlockBegin
  2
*D25
 70
    65
 10
0.0
 20
0.0
 30
0.0
  3
*D25
  1
*TB
  0
LINE
  5
C91
100
AcDbEntity
  8
0
  6
BYBLOCK
 62
     0
100
AcDbLine
 10
368.207806
 20
252.913846
 30
0.0
 11
456.629607
 21
252.913846
 31
0.0
  0
LINE
  5
C92
100
AcDbEntity
  8
0
  6
BYBLOCK
 62
     0
100
AcDbLine
 10
369.7401
 20
266.627217
 30
0.0
 11
456.629607
 21
266.627217
 31
0.0
  0
LINE
  5
C93
100
AcDbEntity
  8
0
  6
BYBLOCK
 62
     0
100
AcDbLine
 10
452.057607
 20
248.341846
 30
0.0
 11
452.057607
 21
243.769846
 31
0.0
  0
LINE
  5
C94
100
AcDbEntity
  8
0
  6
BYBLOCK
 62
     0
100
AcDbLine
 10
452.057607
 20
271.199217
 30
0.0
 11
452.057607
 21
275.771217
 31
0.0
  0
LINE
  5
C95
100
AcDbEntity
  8
0
  6
BYBLOCK
 62
     0
100
AcDbLine
 10
452.057607
 20
275.771217
 30
0.0
 11
456.629607
 21
275.771217
 31
0.0
  0
SOLID
  5
C96
100
AcDbEntity
  8
0
  6
BYBLOCK
 62
     0
100
AcDbTrace
 10
451.295607
 20
248.341846
 30
0.0
 11
452.819607
 21
248.341846
 31
0.0
 12
452.057607
 22
252.913846
 32
0.0
 13
452.057607
 23
252.913846
 33
0.0
  0
SOLID
  5
C97
100
AcDbEntity
  8
0
  6
BYBLOCK
 62
     0
100
AcDbTrace
 10
451.295607
 20
271.199217
 30
0.0
 11
452.819607
 21
271.199217
 31
0.0
 12
452.057607
 22
266.627217
 32
0.0
 13
452.057607
 23
266.627217
 33
0.0
  0
MTEXT
  5
C98
100
AcDbEntity
  8
0
  6
BYBLOCK
 62
     0
100
AcDbMText
 10
510.350607
 20
275.771217
 30
0.0
 40
4.572
 41
0.0
 71
     5
 72
     1
  1
\A1;13.71mm±0.03mm[0.540"±0.001"]
  0
POINT
  5
C99
100
AcDbEntity
  8
DEFPOINTS
  6
BYBLOCK
 62
     0
100
AcDbPoint
 10
366.620306
 20
252.913846
 30
0.0
  0
POINT
  5
C9A
100
AcDbEntity
  8
DEFPOINTS
  6
BYBLOCK
 62
     0
100
AcDbPoint
 10
368.1526
 20
266.627217
 30
0.0
  0
POINT
  5
C9B
100
AcDbEntity
  8
DEFPOINTS
  6
BYBLOCK
 62
     0
100
AcDbPoint
 10
452.057607
 20
266.627217
 30
0.0
  0
ENDBLK
  5
C9C
100
AcDbEntity
  8
0
100
AcDbBlockEnd
  0
BLOCK
  5
C9F
100
AcDbEntity
  8
0
100
AcDbBlockBegin
  2
*D26
 70
    65
 10
0.0
 20
0.0
 30
0.0
  3
*D26
  1
*TB
  0
LINE
  5
CA0
100
AcDbEntity
  8
0
  6
BYBLOCK
 62
     0
100
AcDbLine
 10
371.31464
 20
244.912846
 30
0.0
 11
573.014865
 21
244.912846
 31
0.0
  0
LINE
  5
CA1
100
AcDbEntity
  8
0
  6
BYBLOCK
 62
     0
100
AcDbLine
 10
369.7401
 20
266.627217
 30
0.0
 11
573.014865
 21
266.627217
 31
0.0
  0
LINE
  5
CA2
100
AcDbEntity
  8
0
  6
BYBLOCK
 62
     0
100
AcDbLine
 10
568.442865
 20
240.340846
 30
0.0
 11
568.442865
 21
235.768846
 31
0.0
  0
LINE
  5
CA3
100
AcDbEntity
  8
0
  6
BYBLOCK
 62
     0
100
AcDbLine
 10
568.442865
 20
271.199217
 30
0.0
 11
568.442865
 21
275.771217
 31
0.0
  0
LINE
  5
CA4
100
AcDbEntity
  8
0
  6
BYBLOCK
 62
     0
100
AcDbLine
 10
568.442865
 20
275.771217
 30
0.0
 11
573.014865
 21
275.771217
 31
0.0
  0
SOLID
  5
CA5
100
AcDbEntity
  8
0
  6
BYBLOCK
 62
     0
100
AcDbTrace
 10
567.680865
 20
240.340846
 30
0.0
 11
569.204865
 21
240.340846
 31
0.0
 12
568.442865
 22
244.912846
 32
0.0
 13
568.442865
 23
244.912846
 33
0.0
  0
SOLID
  5
CA6
100
AcDbEntity
  8
0
  6
BYBLOCK
 62
     0
100
AcDbTrace
 10
567.680865
 20
271.199217
 30
0.0
 11
569.204865
 21
271.199217
 31
0.0
 12
568.442865
 22
266.627217
 32
0.0
 13
568.442865
 23
266.627217
 33
0.0
  0
MTEXT
  5
CA7
100
AcDbEntity
  8
0
  6
BYBLOCK
 62
     0
100
AcDbMText
 10
601.589865
 20
275.771217
 30
0.0
 40
4.572
 41
0.0
 71
     5
 72
     1
  1
\A1;21.71mm[0.855"]
  0
POINT
  5
CA8
100
AcDbEntity
  8
DEFPOINTS
  6
BYBLOCK
 62
     0
100
AcDbPoint
 10
369.72714
 20
244.912846
 30
0.0
  0
POINT
  5
CA9
100
AcDbEntity
  8
DEFPOINTS
  6
BYBLOCK
 62
     0
100
AcDbPoint
 10
368.1526
 20
266.627217
 30
0.0
  0
POINT
  5
CAA
100
AcDbEntity
  8
DEFPOINTS
  6
BYBLOCK
 62
     0
100
AcDbPoint
 10
568.442865
 20
266.627217
 30
0.0
  0
ENDBLK
  5
CAB
100
AcDbEntity
  8
0
100
AcDbBlockEnd
  0
BLOCK
  5
CAE
100
AcDbEntity
  8
0
100
AcDbBlockBegin
  2
*D27
 70
    65
 10
0.0
 20
0.0
 30
0.0
  3
*D27
  1
*TB
  0
LINE
  5
CAF
100
AcDbEntity
  8
0
  6
BYBLOCK
 62
     0
100
AcDbLine
 10
369.7401
 20
239.200474
 30
0.0
 11
663.28416
 21
239.200474
 31
0.0
  0
LINE
  5
CB0
100
AcDbEntity
  8
0
  6
BYBLOCK
 62
     0
100
AcDbLine
 10
369.7401
 20
266.627217
 30
0.0
 11
663.28416
 21
266.627217
 31
0.0
  0
LINE
  5
CB1
100
AcDbEntity
  8
0
  6
BYBLOCK
 62
     0
100
AcDbLine
 10
658.71216
 20
243.772474
 30
0.0
 11
658.71216
 21
248.341846
 31
0.0
  0
LINE
  5
CB2
100
AcDbEntity
  8
0
  6
BYBLOCK
 62
     0
100
AcDbLine
 10
658.71216
 20
262.055217
 30
0.0
 11
658.71216
 21
257.485846
 31
0.0
  0
SOLID
  5
CB3
100
AcDbEntity
  8
0
  6
BYBLOCK
 62
     0
100
AcDbTrace
 10
657.95016
 20
243.772474
 30
0.0
 11
659.47416
 21
243.772474
 31
0.0
 12
658.71216
 22
239.200474
 32
0.0
 13
658.71216
 23
239.200474
 33
0.0
  0
SOLID
  5
CB4
100
AcDbEntity
  8
0
  6
BYBLOCK
 62
     0
100
AcDbTrace
 10
657.95016
 20
262.055217
 30
0.0
 11
659.47416
 21
262.055217
 31
0.0
 12
658.71216
 22
266.627217
 32
0.0
 13
658.71216
 23
266.627217
 33
0.0
  0
MTEXT
  5
CB5
100
AcDbEntity
  8
0
  6
BYBLOCK
 62
     0
100
AcDbMText
 10
658.71216
 20
252.913846
 30
0.0
 40
4.572
 41
0.0
 71
     5
 72
     1
  1
\A1;27.43mm±0.03mm[1.080"±0.001"]
  0
POINT
  5
CB6
100
AcDbEntity
  8
DEFPOINTS
  6
BYBLOCK
 62
     0
100
AcDbPoint
 10
368.1526
 20
239.200474
 30
0.0
  0
POINT
  5
CB7
100
AcDbEntity
  8
DEFPOINTS
  6
BYBLOCK
 62
     0
100
AcDbPoint
 10
368.1526
 20
266.627217
 30
0.0
  0
POINT
  5
CB8
100
AcDbEntity
  8
DEFPOINTS
  6
BYBLOCK
 62
     0
100
AcDbPoint
 10
658.71216
 20
266.627217
 30
0.0
  0
ENDBLK
  5
CB9
100
AcDbEntity
  8
0
100
AcDbBlockEnd
  0
BLOCK
  5
CBC
100
AcDbEntity
  8
0
100
AcDbBlockBegin
  2
*D28
 70
    65
 10
0.0
 20
0.0
 30
0.0
  3
*D28
  1
*TB
  0
LINE
  5
CBD
100
AcDbEntity
  8
0
  6
BYBLOCK
 62
     0
100
AcDbLine
 10
353.689423
 20
262.415986
 30
0.0
 11
229.60362
 21
262.415986
 31
0.0
  0
LINE
  5
CBE
100
AcDbEntity
  8
0
  6
BYBLOCK
 62
     0
100
AcDbLine
 10
307.324738
 20
266.627217
 30
0.0
 11
229.60362
 21
266.627217
 31
0.0
  0
LINE
  5
CBF
100
AcDbEntity
  8
0
  6
BYBLOCK
 62
     0
100
AcDbLine
 10
234.17562
 20
257.843986
 30
0.0
 11
234.17562
 21
253.271986
 31
0.0
  0
LINE
  5
CC0
100
AcDbEntity
  8
0
  6
BYBLOCK
 62
     0
100
AcDbLine
 10
234.17562
 20
271.199217
 30
0.0
 11
234.17562
 21
275.771217
 31
0.0
  0
LINE
  5
CC1
100
AcDbEntity
  8
0
  6
BYBLOCK
 62
     0
100
AcDbLine
 10
234.17562
 20
275.771217
 30
0.0
 11
238.74762
 21
275.771217
 31
0.0
  0
SOLID
  5
CC2
100
AcDbEntity
  8
0
  6
BYBLOCK
 62
     0
100
AcDbTrace
 10
233.41362
 20
257.843986
 30
0.0
 11
234.93762
 21
257.843986
 31
0.0
 12
234.17562
 22
262.415986
 32
0.0
 13
234.17562
 23
262.415986
 33
0.0
  0
SOLID
  5
CC3
100
AcDbEntity
  8
0
  6
BYBLOCK
 62
     0
100
AcDbTrace
 10
233.41362
 20
271.199217
 30
0.0
 11
234.93762
 21
271.199217
 31
0.0
 12
234.17562
 22
266.627217
 32
0.0
 13
234.17562
 23
266.627217
 33
0.0
  0
MTEXT
  5
CC4
100
AcDbEntity
  8
0
  6
BYBLOCK
 62
     0
100
AcDbMText
 10
265.03662
 20
275.771217
 30
0.0
 40
4.572
 41
0.0
 71
     5
 72
     1
  1
\A1;4.21mm[0.166"]
  0
POINT
  5
CC5
100
AcDbEntity
  8
DEFPOINTS
  6
BYBLOCK
 62
     0
100
AcDbPoint
 10
355.276923
 20
262.415986
 30
0.0
  0
POINT
  5
CC6
100
AcDbEntity
  8
DEFPOINTS
  6
BYBLOCK
 62
     0
100
AcDbPoint
 10
308.912238
 20
266.627217
 30
0.0
  0
POINT
  5
CC7
100
AcDbEntity
  8
DEFPOINTS
  6
BYBLOCK
 62
     0
100
AcDbPoint
 10
234.17562
 20
266.627217
 30
0.0
  0
ENDBLK
  5
CC8
100
AcDbEntity
  8
0
100
AcDbBlockEnd
  0
BLOCK
  5
CCB
100
AcDbEntity
  8
0
100
AcDbBlockBegin
  2
*D29
 70
    65
 10
0.0
 20
0.0
 30
0.0
  3
*D29
  1
*TB
  0
LINE
  5
CCC
100
AcDbEntity
  8
0
  6
BYBLOCK
 62
     0
100
AcDbLine
 10
353.689423
 20
259.413706
 30
0.0
 11
164.512951
 21
259.413706
 31
0.0
  0
LINE
  5
CCD
100
AcDbEntity
  8
0
  6
BYBLOCK
 62
     0
100
AcDbLine
 10
307.324738
 20
266.627217
 30
0.0
 11
164.512951
 21
266.627217
 31
0.0
  0
LINE
  5
CCE
100
AcDbEntity
  8
0
  6
BYBLOCK
 62
     0
100
AcDbLine
 10
169.084951
 20
254.841706
 30
0.0
 11
169.084951
 21
250.269706
 31
0.0
  0
LINE
  5
CCF
100
AcDbEntity
  8
0
  6
BYBLOCK
 62
     0
100
AcDbLine
 10
169.084951
 20
271.199217
 30
0.0
 11
169.084951
 21
275.771217
 31
0.0
  0
LINE
  5
CD0
100
AcDbEntity
  8
0
  6
BYBLOCK
 62
     0
100
AcDbLine
 10
169.084951
 20
275.771217
 30
0.0
 11
173.656951
 21
275.771217
 31
0.0
  0
SOLID
  5
CD1
100
AcDbEntity
  8
0
  6
BYBLOCK
 62
     0
100
AcDbTrace
 10
168.322951
 20
254.841706
 30
0.0
 11
169.846951
 21
254.841706
 31
0.0
 12
169.084951
 22
259.413706
 32
0.0
 13
169.084951
 23
259.413706
 33
0.0
  0
SOLID
  5
CD2
100
AcDbEntity
  8
0
  6
BYBLOCK
 62
     0
100
AcDbTrace
 10
168.322951
 20
271.199217
 30
0.0
 11
169.846951
 21
271.199217
 31
0.0
 12
169.084951
 22
266.627217
 32
0.0
 13
169.084951
 23
266.627217
 33
0.0
  0
MTEXT
  5
CD3
100
AcDbEntity
  8
0
  6
BYBLOCK
 62
     0
100
AcDbMText
 10
200.707951
 20
275.771217
 30
0.0
 40
4.572
 41
0.0
 71
     5
 72
     1
  1
\A1;7.21mm[0.284"]
  0
POINT
  5
CD4
100
AcDbEntity
  8
DEFPOINTS
  6
BYBLOCK
 62
     0
100
AcDbPoint
 10
355.276923
 20
259.413706
 30
0.0
  0
POINT
  5
CD5
100
AcDbEntity
  8
DEFPOINTS
  6
BYBLOCK
 62
     0
100
AcDbPoint
 10
308.912238
 20
266.627217
 30
0.0
  0
POINT
  5
CD6
100
AcDbEntity
  8
DEFPOINTS
  6
BYBLOCK
 62
     0
100
AcDbPoint
 10
169.084951
 20
266.627217
 30
0.0
  0
ENDBLK
  5
CD7
100
AcDbEntity
  8
0
100
AcDbBlockEnd
  0
BLOCK
  5
CDA
100
AcDbEntity
  8
0
100
AcDbBlockBegin
  2
*D30
 70
    65
 10
0.0
 20
0.0
 30
0.0
  3
*D30
  1
*TB
  0
LINE
  5
CDB
100
AcDbEntity
  8
0
  6
BYBLOCK
 62
     0
100
AcDbLine
 10
353.689423
 20
246.413986
 30
0.0
 11
95.949401
 21
246.413986
 31
0.0
  0
LINE
  5
CDC
100
AcDbEntity
  8
0
  6
BYBLOCK
 62
     0
100
AcDbLine
 10
307.324738
 20
266.627217
 30
0.0
 11
95.949401
 21
266.627217
 31
0.0
  0
LINE
  5
CDD
100
AcDbEntity
  8
0
  6
BYBLOCK
 62
     0
100
AcDbLine
 10
100.521401
 20
241.841986
 30
0.0
 11
100.521401
 21
237.269986
 31
0.0
  0
LINE
  5
CDE
100
AcDbEntity
  8
0
  6
BYBLOCK
 62
     0
100
AcDbLine
 10
100.521401
 20
271.199217
 30
0.0
 11
100.521401
 21
275.771217
 31
0.0
  0
LINE
  5
CDF
100
AcDbEntity
  8
0
  6
BYBLOCK
 62
     0
100
AcDbLine
 10
100.521401
 20
275.771217
 30
0.0
 11
105.093401
 21
275.771217
 31
0.0
  0
SOLID
  5
CE0
100
AcDbEntity
  8
0
  6
BYBLOCK
 62
     0
100
AcDbTrace
 10
99.759401
 20
241.841986
 30
0.0
 11
101.283401
 21
241.841986
 31
0.0
 12
100.521401
 22
246.413986
 32
0.0
 13
100.521401
 23
246.413986
 33
0.0
  0
SOLID
  5
CE1
100
AcDbEntity
  8
0
  6
BYBLOCK
 62
     0
100
AcDbTrace
 10
99.759401
 20
271.199217
 30
0.0
 11
101.283401
 21
271.199217
 31
0.0
 12
100.521401
 22
266.627217
 32
0.0
 13
100.521401
 23
266.627217
 33
0.0
  0
MTEXT
  5
CE2
100
AcDbEntity
  8
0
  6
BYBLOCK
 62
     0
100
AcDbMText
 10
134.049401
 20
275.771217
 30
0.0
 40
4.572
 41
0.0
 71
     5
 72
     1
  1
\A1;20.21mm[0.796"]
  0
POINT
  5
CE3
100
AcDbEntity
  8
DEFPOINTS
  6
BYBLOCK
 62
     0
100
AcDbPoint
 10
355.276923
 20
246.413986
 30
0.0
  0
POINT
  5
CE4
100
AcDbEntity
  8
DEFPOINTS
  6
BYBLOCK
 62
     0
100
AcDbPoint
 10
308.912238
 20
266.627217
 30
0.0
  0
POINT
  5
CE5
100
AcDbEntity
  8
DEFPOINTS
  6
BYBLOCK
 62
     0
100
AcDbPoint
 10
100.521401
 20
266.627217
 30
0.0
  0
ENDBLK
  5
CE6
100
AcDbEntity
  8
0
100
AcDbBlockEnd
  0
BLOCK
  5
CE9
100
AcDbEntity
  8
0
100
AcDbBlockBegin
  2
*D31
 70
    65
 10
0.0
 20
0.0
 30
0.0
  3
*D31
  1
*TB
  0
LINE
  5
CEA
100
AcDbEntity
  8
0
  6
BYBLOCK
 62
     0
100
AcDbLine
 10
353.689423
 20
243.411706
 30
0.0
 11
59.678406
 21
243.411706
 31
0.0
  0
LINE
  5
CEB
100
AcDbEntity
  8
0
  6
BYBLOCK
 62
     0
100
AcDbLine
 10
307.324738
 20
266.627217
 30
0.0
 11
59.678406
 21
266.627217
 31
0.0
  0
LINE
  5
CEC
100
AcDbEntity
  8
0
  6
BYBLOCK
 62
     0
100
AcDbLine
 10
64.250406
 20
247.983706
 30
0.0
 11
64.250406
 21
250.447461
 31
0.0
  0
LINE
  5
CED
100
AcDbEntity
  8
0
  6
BYBLOCK
 62
     0
100
AcDbLine
 10
64.250406
 20
262.055217
 30
0.0
 11
64.250406
 21
259.591461
 31
0.0
  0
SOLID
  5
CEE
100
AcDbEntity
  8
0
  6
BYBLOCK
 62
     0
100
AcDbTrace
 10
63.488406
 20
247.983706
 30
0.0
 11
65.012406
 21
247.983706
 31
0.0
 12
64.250406
 22
243.411706
 32
0.0
 13
64.250406
 23
243.411706
 33
0.0
  0
SOLID
  5
CEF
100
AcDbEntity
  8
0
  6
BYBLOCK
 62
     0
100
AcDbTrace
 10
63.488406
 20
262.055217
 30
0.0
 11
65.012406
 21
262.055217
 31
0.0
 12
64.250406
 22
266.627217
 32
0.0
 13
64.250406
 23
266.627217
 33
0.0
  0
MTEXT
  5
CF0
100
AcDbEntity
  8
0
  6
BYBLOCK
 62
     0
100
AcDbMText
 10
64.250406
 20
255.019461
 30
0.0
 40
4.572
 41
0.0
 71
     5
 72
     1
  1
\A1;23.22mm[0.914"]
  0
POINT
  5
CF1
100
AcDbEntity
  8
DEFPOINTS
  6
BYBLOCK
 62
     0
100
AcDbPoint
 10
355.276923
 20
243.411706
 30
0.0
  0
POINT
  5
CF2
100
AcDbEntity
  8
DEFPOINTS
  6
BYBLOCK
 62
     0
100
AcDbPoint
 10
308.912238
 20
266.627217
 30
0.0
  0
POINT
  5
CF3
100
AcDbEntity
  8
DEFPOINTS
  6
BYBLOCK
 62
     0
100
AcDbPoint
 10
64.250406
 20
266.627217
 30
0.0
  0
ENDBLK
  5
CF4
100
AcDbEntity
  8
0
100
AcDbBlockEnd
  0
BLOCK
  5
E6F
100
AcDbEntity
  8
0
100
AcDbBlockBegin
  2
*D32
 70
    65
 10
0.0
 20
0.0
 30
0.0
  3
*D32
  1
*TB
  0
LINE
  5
E70
100
AcDbEntity
  8
0
  6
BYBLOCK
 62
     0
100
AcDbLine
 10
369.7401
 20
296.049569
 30
0.0
 11
500.714773
 21
296.049569
 31
0.0
  0
LINE
  5
E71
100
AcDbEntity
  8
0
  6
BYBLOCK
 62
     0
100
AcDbLine
 10
369.7401
 20
295.287569
 30
0.0
 11
500.714773
 21
295.287569
 31
0.0
  0
LINE
  5
E72
100
AcDbEntity
  8
0
  6
BYBLOCK
 62
     0
100
AcDbLine
 10
496.142773
 20
300.621569
 30
0.0
 11
496.142773
 21
305.193569
 31
0.0
  0
LINE
  5
E73
100
AcDbEntity
  8
0
  6
BYBLOCK
 62
     0
100
AcDbLine
 10
496.142773
 20
290.715569
 30
0.0
 11
496.142773
 21
286.143569
 31
0.0
  0
LINE
  5
E74
100
AcDbEntity
  8
0
  6
BYBLOCK
 62
     0
100
AcDbLine
 10
496.142773
 20
286.143569
 30
0.0
 11
491.570773
 21
286.143569
 31
0.0
  0
SOLID
  5
E75
100
AcDbEntity
  8
0
  6
BYBLOCK
 62
     0
100
AcDbTrace
 10
495.380773
 20
300.621569
 30
0.0
 11
496.904773
 21
300.621569
 31
0.0
 12
496.142773
 22
296.049569
 32
0.0
 13
496.142773
 23
296.049569
 33
0.0
  0
SOLID
  5
E76
100
AcDbEntity
  8
0
  6
BYBLOCK
 62
     0
100
AcDbTrace
 10
495.380773
 20
290.715569
 30
0.0
 11
496.904773
 21
290.715569
 31
0.0
 12
496.142773
 22
295.287569
 32
0.0
 13
496.142773
 23
295.287569
 33
0.0
  0
MTEXT
  5
E77
100
AcDbEntity
  8
0
  6
BYBLOCK
 62
     0
100
AcDbMText
 10
439.373773
 20
286.143569
 30
0.0
 40
4.572
 41
0.0
 71
     5
 72
     1
  1
\A1;{0.76mm±0.03mm[0.030"±0.001"]}\P{WALL THICKNESS}
  0
POINT
  5
E78
100
AcDbEntity
  8
DEFPOINTS
  6
BYBLOCK
 62
     0
100
AcDbPoint
 10
368.1526
 20
296.049569
 30
0.0
  0
POINT
  5
E79
100
AcDbEntity
  8
DEFPOINTS
  6
BYBLOCK
 62
     0
100
AcDbPoint
 10
368.1526
 20
295.287569
 30
0.0
  0
POINT
  5
E7A
100
AcDbEntity
  8
DEFPOINTS
  6
BYBLOCK
 62
     0
100
AcDbPoint
 10
496.142773
 20
295.287569
 30
0.0
  0
ENDBLK
  5
E7B
100
AcDbEntity
  8
0
100
AcDbBlockEnd
  0
BLOCK
  5
DA2
100
AcDbEntity
  8
0
100
AcDbBlockBegin
  2
*D33
 70
    65
 10
0.0
 20
0.0
 30
0.0
  3
*D33
  1
*TB
  0
LINE
  5
DA3
100
AcDbEntity
  8
0
  6
BYBLOCK
 62
     0
100
AcDbLine
 10
333.921954
 20
281.133809
 30
0.0
 11
314.921894
 21
258.015271
 31
0.0
  0
LINE
  5
DA4
100
AcDbEntity
  8
0
  6
BYBLOCK
 62
     0
100
AcDbLine
 10
314.921894
 20
258.015271
 30
0.0
 11
310.349894
 21
258.015271
 31
0.0
  0
SOLID
  5
DA5
100
AcDbEntity
  8
0
  6
BYBLOCK
 62
     0
100
AcDbTrace
 10
333.33326
 20
281.617629
 30
0.0
 11
334.510649
 21
280.649988
 31
0.0
 12
336.82488
 22
284.665976
 32
0.0
 13
336.82488
 23
284.665976
 33
0.0
  0
MTEXT
  5
DA6
100
AcDbEntity
  8
0
  6
BYBLOCK
 62
     0
100
AcDbMText
 10
279.488894
 20
258.015271
 30
0.0
 40
4.572
 41
0.0
 71
     5
 72
     1
  1
\A1;\U+22052.95mm[\U+22050.116"]
  0
LINE
  5
DA7
100
AcDbEntity
  8
0
  6
BYBLOCK
 62
     0
100
AcDbLine
 10
335.474267
 20
285.804119
 30
0.0
 11
340.046267
 21
285.804119
 31
0.0
  0
LINE
  5
DA8
100
AcDbEntity
  8
0
  6
BYBLOCK
 62
     0
100
AcDbLine
 10
337.760267
 20
283.518119
 30
0.0
 11
337.760267
 21
288.090119
 31
0.0
  0
POINT
  5
DA9
100
AcDbEntity
  8
DEFPOINTS
  6
BYBLOCK
 62
     0
100
AcDbPoint
 10
336.82488
 20
284.665976
 30
0.0
  0
POINT
  5
DAA
100
AcDbEntity
  8
DEFPOINTS
  6
BYBLOCK
 62
     0
100
AcDbPoint
 10
338.695654
 20
286.942262
 30
0.0
  0
ENDBLK
  5
DAB
100
AcDbEntity
  8
0
100
AcDbBlockEnd
  0
BLOCK
  5
DB9
100
AcDbEntity
  8
0
100
AcDbBlockBegin
  2
*D34
 70
    65
 10
0.0
 20
0.0
 30
0.0
  3
*D34
  1
*TB
  0
LINE
  5
DBA
100
AcDbEntity
  8
0
  6
BYBLOCK
 62
     0
100
AcDbLine
 10
351.99738
 20
272.932781
 30
0.0
 11
314.565332
 21
228.766188
 31
0.0
  0
LINE
  5
DBB
100
AcDbEntity
  8
0
  6
BYBLOCK
 62
     0
100
AcDbLine
 10
314.565332
 20
228.766188
 30
0.0
 11
309.993332
 21
228.766188
 31
0.0
  0
SOLID
  5
DBC
100
AcDbEntity
  8
0
  6
BYBLOCK
 62
     0
100
AcDbTrace
 10
351.416071
 20
273.425451
 30
0.0
 11
352.578689
 21
272.44011
 31
0.0
 12
354.953403
 22
276.420633
 32
0.0
 13
354.953403
 23
276.420633
 33
0.0
  0
MTEXT
  5
DBD
100
AcDbEntity
  8
0
  6
BYBLOCK
 62
     0
100
AcDbMText
 10
279.513332
 20
228.766188
 30
0.0
 40
4.572
 41
0.0
 71
     5
 72
     1
  1
\A1;{\U+22051.00mm[\U+22050.039"]}\P{8X}
  0
LINE
  5
DBE
100
AcDbEntity
  8
0
  6
BYBLOCK
 62
     0
100
AcDbLine
 10
352.990923
 20
276.802359
 30
0.0
 11
357.562923
 21
276.802359
 31
0.0
  0
LINE
  5
DBF
100
AcDbEntity
  8
0
  6
BYBLOCK
 62
     0
100
AcDbLine
 10
355.276923
 20
274.516359
 30
0.0
 11
355.276923
 21
279.088359
 31
0.0
  0
POINT
  5
DC0
100
AcDbEntity
  8
DEFPOINTS
  6
BYBLOCK
 62
     0
100
AcDbPoint
 10
354.953403
 20
276.420633
 30
0.0
  0
POINT
  5
DC1
100
AcDbEntity
  8
DEFPOINTS
  6
BYBLOCK
 62
     0
100
AcDbPoint
 10
355.600443
 20
277.184085
 30
0.0
  0
ENDBLK
  5
DC2
100
AcDbEntity
  8
0
100
AcDbBlockEnd
  0
BLOCK
  5
E5B
100
AcDbEntity
  8
0
100
AcDbBlockBegin
  2
*D35
 70
    65
 10
0.0
 20
0.0
 30
0.0
  3
*D35
  1
*TB
  0
LINE
  5
E5C
100
AcDbEntity
  8
0
  6
BYBLOCK
 62
     0
100
AcDbLine
 10
365.686292
 20
304.371481
 30
0.0
 11
397.653178
 21
261.246128
 31
0.0
  0
LINE
  5
E5D
100
AcDbEntity
  8
0
  6
BYBLOCK
 62
     0
100
AcDbLine
 10
397.653178
 20
261.246128
 30
0.0
 11
402.225178
 21
261.246128
 31
0.0
  0
SOLID
  5
E5E
100
AcDbEntity
  8
0
  6
BYBLOCK
 62
     0
100
AcDbTrace
 10
366.298452
 20
304.825248
 30
0.0
 11
365.074132
 21
303.917714
 31
0.0
 12
362.963692
 22
308.044441
 32
0.0
 13
362.963692
 23
308.044441
 33
0.0
  0
MTEXT
  5
E5F
100
AcDbEntity
  8
0
  6
BYBLOCK
 62
     0
100
AcDbMText
 10
459.756178
 20
261.246128
 30
0.0
 40
4.572
 41
0.0
 71
     5
 72
     1
  1
\A1;{\U+22052.38mm±0.03mm[\U+22050.094"±0.001"]}\P{2X}
  0
LINE
  5
E60
100
AcDbEntity
  8
0
  6
BYBLOCK
 62
     0
100
AcDbLine
 10
359.968681
 20
309.000941
 30
0.0
 11
364.540681
 21
309.000941
 31
0.0
  0
LINE
  5
E61
100
AcDbEntity
  8
0
  6
BYBLOCK
 62
     0
100
AcDbLine
 10
362.254681
 20
306.714941
 30
0.0
 11
362.254681
 21
311.286941
 31
0.0
  0
POINT
  5
E62
100
AcDbEntity
  8
DEFPOINTS
  6
BYBLOCK
 62
     0
100
AcDbPoint
 10
362.963692
 20
308.044441
 30
0.0
  0
POINT
  5
E63
100
AcDbEntity
  8
DEFPOINTS
  6
BYBLOCK
 62
     0
100
AcDbPoint
 10
361.545671
 20
309.95744
 30
0.0
  0
ENDBLK
  5
E64
100
AcDbEntity
  8
0
100
AcDbBlockEnd
  0
BLOCK
  5
E65
100
AcDbEntity
  8
0
100
AcDbBlockBegin
  2
*D36
 70
    65
 10
0.0
 20
0.0
 30
0.0
  3
*D36
  1
*TB
  0
LINE
  5
E66
100
AcDbEntity
  8
0
  6
BYBLOCK
 62
     0
100
AcDbLine
 10
368.516846
 20
295.96134
 30
0.0
 11
409.171519
 21
238.50045
 31
0.0
  0
LINE
  5
E67
100
AcDbEntity
  8
0
  6
BYBLOCK
 62
     0
100
AcDbLine
 10
409.171519
 20
238.50045
 30
0.0
 11
413.743519
 21
238.50045
 31
0.0
  0
SOLID
  5
E68
100
AcDbEntity
  8
0
  6
BYBLOCK
 62
     0
100
AcDbTrace
 10
369.138896
 20
296.401452
 30
0.0
 11
367.894797
 21
295.521228
 31
0.0
 12
365.876175
 22
299.693637
 32
0.0
 13
365.876175
 23
299.693637
 33
0.0
  0
MTEXT
  5
E69
100
AcDbEntity
  8
0
  6
BYBLOCK
 62
     0
100
AcDbMText
 10
444.985519
 20
238.50045
 30
0.0
 40
4.572
 41
0.0
 71
     5
 72
     1
  1
\A1;{\U+22053.20mm[\U+22050.126"]}\P{4X}
  0
LINE
  5
E6A
100
AcDbEntity
  8
0
  6
BYBLOCK
 62
     0
100
AcDbLine
 10
362.66594
 20
300.999941
 30
0.0
 11
367.23794
 21
300.999941
 31
0.0
  0
LINE
  5
E6B
100
AcDbEntity
  8
0
  6
BYBLOCK
 62
     0
100
AcDbLine
 10
364.95194
 20
298.713941
 30
0.0
 11
364.95194
 21
303.285941
 31
0.0
  0
POINT
  5
E6C
100
AcDbEntity
  8
DEFPOINTS
  6
BYBLOCK
 62
     0
100
AcDbPoint
 10
365.876175
 20
299.693637
 30
0.0
  0
POINT
  5
E6D
100
AcDbEntity
  8
DEFPOINTS
  6
BYBLOCK
 62
     0
100
AcDbPoint
 10
364.027706
 20
302.306244
 30
0.0
  0
ENDBLK
  5
E6E
100
AcDbEntity
  8
0
100
AcDbBlockEnd
  0
BLOCK
  5
E7D
100
AcDbEntity
  8
0
100
AcDbBlockBegin
  2
*D37
 70
    65
 10
0.0
 20
0.0
 30
0.0
  3
*D37
  1
*TB
  0
ARC
  5
E7E
100
AcDbEntity
  8
0
  6
BYBLOCK
 62
     0
100
AcDbCircle
 10
319.164866
 20
109.610863
 30
0.0
 40
105.720366
100
AcDbArc
 50
92.478016
 51
104.042258
  0
ARC
  5
E7F
100
AcDbEntity
  8
0
  6
BYBLOCK
 62
     0
100
AcDbCircle
 10
319.164866
 20
109.610863
 30
0.0
 40
105.720366
100
AcDbArc
 50
117.065047
 51
129.471984
  0
SOLID
  5
E80
100
AcDbEntity
  8
0
  6
BYBLOCK
 62
     0
100
AcDbTrace
 10
314.577458
 20
215.99419
 30
0.0
 11
314.610411
 21
214.470547
 31
0.0
 12
319.164866
 22
215.331229
 32
0.0
 13
319.164866
 23
215.331229
 33
0.0
  0
SOLID
  5
E81
100
AcDbEntity
  8
0
  6
BYBLOCK
 62
     0
100
AcDbTrace
 10
252.455349
 20
190.642565
 30
0.0
 11
251.461329
 21
191.797771
 31
0.0
 12
248.492721
 22
188.238109
 32
0.0
 13
248.492721
 23
188.238109
 33
0.0
  0
MTEXT
  5
E82
100
AcDbEntity
  8
0
  6
BYBLOCK
 62
     0
100
AcDbMText
 10
281.321144
 20
208.32585
 30
0.0
 40
4.572
 41
0.0
 71
     5
 72
     1
  1
\A1;41.95°
  0
POINT
  5
E83
100
AcDbEntity
  8
DEFPOINTS
  6
BYBLOCK
 62
     0
100
AcDbPoint
 10
293.618635
 20
212.198318
 30
0.0
  0
POINT
  5
E84
100
AcDbEntity
  8
DEFPOINTS
  6
BYBLOCK
 62
     0
100
AcDbPoint
 10
343.313956
 20
82.743467
 30
0.0
  0
POINT
  5
E85
100
AcDbEntity
  8
DEFPOINTS
  6
BYBLOCK
 62
     0
100
AcDbPoint
 10
319.164866
 20
60.1927
 30
0.0
  0
POINT
  5
E86
100
AcDbEntity
  8
DEFPOINTS
  6
BYBLOCK
 62
     0
100
AcDbPoint
 10
319.164866
 20
484.277863
 30
0.0
  0
POINT
  5
E87
100
AcDbEntity
  8
DEFPOINTS
  6
BYBLOCK
 62
     0
100
AcDbPoint
 10
217.269128
 20
222.976338
 30
0.0
  0
ENDBLK
  5
E88
100
AcDbEntity
  8
0
100
AcDbBlockEnd
  0
BLOCK
  5
E99
100
AcDbEntity
  8
0
100
AcDbBlockBegin
  2
*X38
 70
    65
 10
0.0
 20
0.0
 30
0.0
  3
*X38
  1
*TB
  0
LINE
  5
E9B
100
AcDbEntity
  8
0
 62
     0
100
AcDbLine
 10
326.925695
 20
95.348224
 30
0.0
 11
327.465275
 21
95.887804
 31
0.0
  0
LINE
  5
E9C
100
AcDbEntity
  8
0
 62
     0
100
AcDbLine
 10
326.088907
 20
96.279203
 30
0.0
 11
326.628487
 21
96.818783
 31
0.0
  0
LINE
  5
E9D
100
AcDbEntity
  8
0
 62
     0
100
AcDbLine
 10
325.25212
 20
97.210183
 30
0.0
 11
325.791699
 21
97.749762
 31
0.0
  0
LINE
  5
E9E
100
AcDbEntity
  8
0
 62
     0
100
AcDbLine
 10
324.415332
 20
98.141162
 30
0.0
 11
324.954912
 21
98.680742
 31
0.0
  0
LINE
  5
E9F
100
AcDbEntity
  8
0
 62
     0
100
AcDbLine
 10
323.578544
 20
99.072141
 30
0.0
 11
324.118124
 21
99.611721
 31
0.0
  0
LINE
  5
EA0
100
AcDbEntity
  8
0
 62
     0
100
AcDbLine
 10
322.741757
 20
100.003121
 30
0.0
 11
323.281336
 21
100.5427
 31
0.0
  0
LINE
  5
EA1
100
AcDbEntity
  8
0
 62
     0
100
AcDbLine
 10
321.904969
 20
100.9341
 30
0.0
 11
322.444549
 21
101.47368
 31
0.0
  0
LINE
  5
EA2
100
AcDbEntity
  8
0
 62
     0
100
AcDbLine
 10
321.068181
 20
101.865079
 30
0.0
 11
321.607761
 21
102.404659
 31
0.0
  0
LINE
  5
EA3
100
AcDbEntity
  8
0
 62
     0
100
AcDbLine
 10
320.231394
 20
102.796059
 30
0.0
 11
320.770974
 21
103.335638
 31
0.0
  0
LINE
  5
EA4
100
AcDbEntity
  8
0
 62
     0
100
AcDbLine
 10
319.394606
 20
103.727038
 30
0.0
 11
319.934186
 21
104.266618
 31
0.0
  0
LINE
  5
EA5
100
AcDbEntity
  8
0
 62
     0
100
AcDbLine
 10
318.557819
 20
104.658017
 30
0.0
 11
319.097398
 21
105.197597
 31
0.0
  0
LINE
  5
EA6
100
AcDbEntity
  8
0
 62
     0
100
AcDbLine
 10
317.721031
 20
105.588997
 30
0.0
 11
318.260611
 21
106.128576
 31
0.0
  0
LINE
  5
EA7
100
AcDbEntity
  8
0
 62
     0
100
AcDbLine
 10
316.884243
 20
106.519976
 30
0.0
 11
317.423823
 21
107.059556
 31
0.0
  0
LINE
  5
EA8
100
AcDbEntity
  8
0
 62
     0
100
AcDbLine
 10
316.047456
 20
107.450955
 30
0.0
 11
316.587035
 21
107.990535
 31
0.0
  0
LINE
  5
EA9
100
AcDbEntity
  8
0
 62
     0
100
AcDbLine
 10
315.210668
 20
108.381935
 30
0.0
 11
315.750248
 21
108.921514
 31
0.0
  0
LINE
  5
EAA
100
AcDbEntity
  8
0
 62
     0
100
AcDbLine
 10
314.373881
 20
109.312914
 30
0.0
 11
314.91346
 21
109.852494
 31
0.0
  0
LINE
  5
EAB
100
AcDbEntity
  8
0
 62
     0
100
AcDbLine
 10
313.537093
 20
110.243893
 30
0.0
 11
314.076673
 21
110.783473
 31
0.0
  0
LINE
  5
EAC
100
AcDbEntity
  8
0
 62
     0
100
AcDbLine
 10
312.700305
 20
111.174873
 30
0.0
 11
313.239885
 21
111.714452
 31
0.0
  0
LINE
  5
EAD
100
AcDbEntity
  8
0
 62
     0
100
AcDbLine
 10
311.863518
 20
112.105852
 30
0.0
 11
312.403097
 21
112.645432
 31
0.0
  0
LINE
  5
EAE
100
AcDbEntity
  8
0
 62
     0
100
AcDbLine
 10
311.02673
 20
113.036831
 30
0.0
 11
311.56631
 21
113.576411
 31
0.0
  0
LINE
  5
EAF
100
AcDbEntity
  8
0
 62
     0
100
AcDbLine
 10
310.189942
 20
113.967811
 30
0.0
 11
310.729522
 21
114.50739
 31
0.0
  0
LINE
  5
EB0
100
AcDbEntity
  8
0
 62
     0
100
AcDbLine
 10
309.353155
 20
114.89879
 30
0.0
 11
309.892735
 21
115.43837
 31
0.0
  0
LINE
  5
EB1
100
AcDbEntity
  8
0
 62
     0
100
AcDbLine
 10
328.032811
 20
94.687573
 30
0.0
 11
328.794811
 21
95.449573
 31
0.0
  0
LINE
  5
EB2
100
AcDbEntity
  8
0
 62
     0
100
AcDbLine
 10
329.800578
 20
94.687573
 30
0.0
 11
330.562578
 21
95.449573
 31
0.0
  0
LINE
  5
EB3
100
AcDbEntity
  8
0
 62
     0
100
AcDbLine
 10
331.568345
 20
94.687573
 30
0.0
 11
332.330345
 21
95.449573
 31
0.0
  0
LINE
  5
EB4
100
AcDbEntity
  8
0
 62
     0
100
AcDbLine
 10
333.336111
 20
94.687573
 30
0.0
 11
334.098111
 21
95.449573
 31
0.0
  0
LINE
  5
EB5
100
AcDbEntity
  8
0
 62
     0
100
AcDbLine
 10
335.103878
 20
94.687573
 30
0.0
 11
335.865878
 21
95.449573
 31
0.0
  0
LINE
  5
EB6
100
AcDbEntity
  8
0
 62
     0
100
AcDbLine
 10
336.871645
 20
94.687573
 30
0.0
 11
337.633645
 21
95.449573
 31
0.0
  0
LINE
  5
EB7
100
AcDbEntity
  8
0
 62
     0
100
AcDbLine
 10
338.639412
 20
94.687573
 30
0.0
 11
339.401412
 21
95.449573
 31
0.0
  0
LINE
  5
EB8
100
AcDbEntity
  8
0
 62
     0
100
AcDbLine
 10
340.407179
 20
94.687573
 30
0.0
 11
341.169179
 21
95.449573
 31
0.0
  0
LINE
  5
EB9
100
AcDbEntity
  8
0
 62
     0
100
AcDbLine
 10
342.174946
 20
94.687573
 30
0.0
 11
342.936946
 21
95.449573
 31
0.0
  0
LINE
  5
EBA
100
AcDbEntity
  8
0
 62
     0
100
AcDbLine
 10
343.942713
 20
94.687573
 30
0.0
 11
344.704713
 21
95.449573
 31
0.0
  0
LINE
  5
EBB
100
AcDbEntity
  8
0
 62
     0
100
AcDbLine
 10
345.71048
 20
94.687573
 30
0.0
 11
346.47248
 21
95.449573
 31
0.0
  0
LINE
  5
EBC
100
AcDbEntity
  8
0
 62
     0
100
AcDbLine
 10
347.478247
 20
94.687573
 30
0.0
 11
348.240247
 21
95.449573
 31
0.0
  0
LINE
  5
EBD
100
AcDbEntity
  8
0
 62
     0
100
AcDbLine
 10
349.246014
 20
94.687573
 30
0.0
 11
350.008014
 21
95.449573
 31
0.0
  0
LINE
  5
EBE
100
AcDbEntity
  8
0
 62
     0
100
AcDbLine
 10
351.013781
 20
94.687573
 30
0.0
 11
351.775781
 21
95.449573
 31
0.0
  0
LINE
  5
EBF
100
AcDbEntity
  8
0
 62
     0
100
AcDbLine
 10
352.781548
 20
94.687573
 30
0.0
 11
353.543548
 21
95.449573
 31
0.0
  0
LINE
  5
EC0
100
AcDbEntity
  8
0
 62
     0
100
AcDbLine
 10
354.549315
 20
94.687573
 30
0.0
 11
355.311315
 21
95.449573
 31
0.0
  0
LINE
  5
EC1
100
AcDbEntity
  8
0
 62
     0
100
AcDbLine
 10
356.317082
 20
94.687573
 30
0.0
 11
357.079082
 21
95.449573
 31
0.0
  0
LINE
  5
EC2
100
AcDbEntity
  8
0
 62
     0
100
AcDbLine
 10
358.084849
 20
94.687573
 30
0.0
 11
358.846849
 21
95.449573
 31
0.0
  0
LINE
  5
EC3
100
AcDbEntity
  8
0
 62
     0
100
AcDbLine
 10
359.852616
 20
94.687573
 30
0.0
 11
360.614616
 21
95.449573
 31
0.0
  0
LINE
  5
EC4
100
AcDbEntity
  8
0
 62
     0
100
AcDbLine
 10
361.620383
 20
94.687573
 30
0.0
 11
362.382383
 21
95.449573
 31
0.0
  0
LINE
  5
EC5
100
AcDbEntity
  8
0
 62
     0
100
AcDbLine
 10
363.38815
 20
94.687573
 30
0.0
 11
364.15015
 21
95.449573
 31
0.0
  0
LINE
  5
EC6
100
AcDbEntity
  8
0
 62
     0
100
AcDbLine
 10
365.155917
 20
94.687573
 30
0.0
 11
365.917917
 21
95.449573
 31
0.0
  0
LINE
  5
EC7
100
AcDbEntity
  8
0
 62
     0
100
AcDbLine
 10
366.923684
 20
94.687573
 30
0.0
 11
367.685684
 21
95.449573
 31
0.0
  0
ENDBLK
  5
EC8
100
AcDbEntity
  8
0
100
AcDbBlockEnd
  0
ENDSEC
  0
SECTION
  2
ENTITIES
  0
ACAD_ZOMBIE_ENTITY
  5
3D
100
AcDbEntity
  8
0
100
AcDbZombieEntity
 90
      498
 91
      515
 92
        8
310
0800000000000000
 93
       97
310
D28000000020290400007802B1
330
3E
330
3F
330
40
330
41
330
3E
 94
        0
  0
INSERT
  5
E4
100
AcDbEntity
  8
0
100
AcDbBlockReference
  2
D-BORDER
 10
0.0
 20
0.0
 30
0.0
 41
25.4
 42
25.4
 43
25.4
  0
TEXT
  5
F1
100
AcDbEntity
  8
TEXT
100
AcDbText
 10
671.183782
 20
21.563091
 30
0.0
 40
1.5
  1
01-24-97
100
AcDbText
  0
TEXT
  5
F2
100
AcDbEntity
  8
TEXT
100
AcDbText
 10
646.433782
 20
21.563091
 30
0.0
 40
3.0
  1
S. KYRE
100
AcDbText
  0
TEXT
  5
F3
100
AcDbEntity
  8
TEXT
100
AcDbText
 10
746.183782
 20
13.188091
 30
0.0
 40
3.0
  1
L4-END03
100
AcDbText
  0
TEXT
  5
F4
100
AcDbEntity
  8
TEXT
100
AcDbText
 10
697.808782
 20
12.063091
 30
0.0
 40
3.0
  1
B-PARTS
100
AcDbText
  0
TEXT
  5
F5
100
AcDbEntity
  8
TEXT
100
AcDbText
 10
694.933782
 20
5.063091
 30
0.0
 40
3.0
  1
1=1
100
AcDbText
  0
TEXT
  5
F6
100
AcDbEntity
  8
TEXT
100
AcDbText
 10
783.924418
 20
12.061996
 30
0.0
 40
3.0
  1
02
100
AcDbText
  0
MTEXT
  5
F7
100
AcDbEntity
  8
TEXT
100
AcDbMText
 10
736.994556
 20
27.994029
 30
0.0
 40
3.0
 41
100.0
 71
     5
 72
     1
  1
{LAYER 4B FOR}{WARD ENDPIECE}
  0
TEXT
  5
10A
100
AcDbEntity
  8
TEXT
100
AcDbText
 10
678.0
 20
460.011785
 30
0.0
 40
2.5
  1
FIBER
100
AcDbText
  0
TEXT
  5
10B
100
AcDbEntity
  8
TEXT
100
AcDbText
 10
678.0
 20
464.297305
 30
0.0
 40
2.5
  1
CHANGE MATERIAL TO CARBON-
100
AcDbText
  0
TEXT
  5
10C
100
AcDbEntity
  8
TEXT
100
AcDbText
 10
678.0
 20
472.498146
 30
0.0
 40
2.5
  1
ABOVE SILICON
100
AcDbText
  0
TEXT
  5
10D
100
AcDbEntity
  8
TEXT
100
AcDbText
 10
678.0
 20
476.664812
 30
0.0
 40
2.5
  1
MOVE FRONT END UP TO 3mm
100
AcDbText
  0
TEXT
  5
10E
100
AcDbEntity
  8
TEXT
100
AcDbText
 10
678.0
 20
482.833333
 30
0.0
 40
2.5
  1
ADDED HOLES AND SLOTS
100
AcDbText
  0
TEXT
  5
10F
100
AcDbEntity
  8
TEXT
100
AcDbText
 10
678.0
 20
487.0
 30
0.0
 40
2.5
  1
UPDATED DESIGN,
100
AcDbText
  0
LINE
  5
110
100
AcDbEntity
  8
TEXT
100
AcDbLine
 10
673.056868
 20
492.122347
 30
0.0
 11
673.056868
 21
460.0
 31
0.0
  0
LINE
  5
111
100
AcDbEntity
  8
TEXT
100
AcDbLine
 10
663.144457
 20
492.122347
 30
0.0
 11
663.144457
 21
460.0
 31
0.0
  0
TEXT
  5
112
100
AcDbEntity
  8
TEXT
100
AcDbText
 10
665.0
 20
476.664812
 30
0.0
 40
2.5
  1
02
100
AcDbText
  0
TEXT
  5
113
100
AcDbEntity
  8
TEXT
100
AcDbText
 10
665.0
 20
487.0
 30
0.0
 40
2.5
  1
01
100
AcDbText
  0
TEXT
  5
114
100
AcDbEntity
  8
TEXT
100
AcDbText
 10
744.0
 20
476.664812
 30
0.0
 40
2.5
  1
01-06-97
100
AcDbText
  0
TEXT
  5
115
100
AcDbEntity
  8
TEXT
100
AcDbText
 10
744.0
 20
487.0
 30
0.0
 40
2.5
  1
05-06-96
100
AcDbText
  0
LINE
  5
116
100
AcDbEntity
  8
TEXT
100
AcDbLine
 10
742.652868
 20
492.122347
 30
0.0
 11
742.652868
 21
460.0
 31
0.0
  0
LINE
  5
117
100
AcDbEntity
  8
TEXT
100
AcDbLine
 10
765.004868
 20
492.122347
 30
0.0
 11
765.004868
 21
460.0
 31
0.0
  0
TEXT
  5
118
100
AcDbEntity
  8
TEXT
100
AcDbText
 10
678.0
 20
468.331479
 30
0.0
 40
2.5
  1
REDUCE WIDTH BY 5mm
100
AcDbText
  0
LINE
  5
1CF
100
AcDbEntity
  8
CENTER
100
AcDbLine
 10
195.18522
 20
109.610863
 30
0.0
 11
716.33253
 21
109.610863
 31
0.0
  0
LINE
  5
1D0
100
AcDbEntity
  8
CENTER
100
AcDbLine
 10
319.164866
 20
60.1927
 30
0.0
 11
319.164866
 21
484.277863
 31
0.0
  0
LINE
  5
246
100
AcDbEntity
  8
CENTER
100
AcDbLine
 10
226.469199
 20
464.444354
 30
0.0
 11
595.962926
 21
464.444354
 31
0.0
  0
DIMENSION
  5
482
100
AcDbEntity
  8
DIM
100
AcDbDimension
  2
*D2
 10
366.5651
 20
470.955165
 30
0.0
 11
418.370936
 21
449.51705
 31
0.0
 12
-4.281978
 22
25.191839
 32
0.0
 70
   164
  1
{<>}\P{2X}
  3
SU1$4
100
AcDbRadialDimension
 15
367.514301
 25
469.682697
 35
0.0
 40
0.0
1001
ACAD
1000
DSTYLE
1002
{
1070
    47
1040
0.03
1070
    48
1040
0.03
1070
   272
1070
     2
1070
    40
1040
25.4
1070
     3
1000
mm
1070
   271
1070
     2
1070
     4
1000
"
1070
   274
1070
     3
1070
   143
1040
0.03937
1070
   171
1070
     3
1070
   170
1070
     1
1002
}
  0
DIMENSION
  5
498
100
AcDbEntity
  8
DIM
100
AcDbDimension
  2
*D3
 10
346.532314
 20
475.849293
 30
0.0
 11
438.810535
 21
431.503249
 31
0.0
 12
0.0
 22
14.055179
 32
0.0
 70
   163
  1
{<>}\P{4X}
  3
SU1$3
100
AcDbDiametricDimension
 15
347.872633
 25
473.879536
 35
0.0
 40
0.0
1001
ACAD
1000
DSTYLE
1002
{
1070
    47
1040
0.03
1070
    71
1070
     1
1070
    48
1040
0.03
1070
   272
1070
     2
1070
    40
1040
25.4
1070
     3
1000
mm
1070
   271
1070
     2
1070
     4
1000
"
1070
   274
1070
     3
1070
   143
1040
0.03937
1070
   171
1070
     3
1070
   170
1070
     1
1002
}
  0
MTEXT
  5
5A3
100
AcDbEntity
  8
TEXT
100
AcDbMText
 10
12.536603
 20
177.286383
 30
0.0
 40
4.0
 41
209.16366
 71
     1
 72
     1
  3
{MATERIAL: }\P{0.76mm [0.030"] thick carbon-fiber-epoxy-composite}\P\P{LAMINATE SCHEDULE:}\P{cloth:  - 1 layer Carbon-fiber (0.006" thick ea.)}\P{ xx oz/sq. yd. plain weave @ 90°}\P{ - 1 layer Carbon-fiber (0.001" thick ea.)}\P{ 0.4 oz/sq. yd. mat}\P
  3
{ - 1 layer Carbon-fiber (0.006" thick ea.)}\P{ xx oz/sq. yd. plain weave @ 45°}\P{ 1 layer Carbon-fiber (0.001" thick ea.)}\P{ 0.4 oz/sq. yd. mat}\P{ - 1 layer Carbon-fiber (0.006" thick ea.)}\P{ xx oz/sq. yd. plain weave @ 90°}\P{epoxy: heat resist
  1
ant laminating epoxy}\P{ Ciba-Geigy RP4005R/RP1500H}\P{cure: 24 hrs at room temp. @ 20psi}\P{ 2 hrs postcure at 66°C}\P\P{MACHINING:}\P{use fixture L4-END13}\P
  0
TEXT
  5
5F5
100
AcDbEntity
  8
TEXT
100
AcDbText
 10
363.63622
 20
38.100337
 30
0.0
 40
6.0
  1
A-A
100
AcDbText
  0
TEXT
  5
5F6
100
AcDbEntity
  8
TEXT
100
AcDbText
 10
329.63622
 20
38.100337
 30
0.0
 40
4.5
  1
SECTION
100
AcDbText
  0
LEADER
  5
A39
100
AcDbEntity
  8
TEXT
100
AcDbLeader
  3
SU1$7
 76
     3
 10
294.209218
 20
338.875744
 30
0.0
 10
294.209218
 20
313.777694
 30
0.0
 10
303.503322
 20
313.777694
 30
0.0
 77
   256
1001
ACAD
1000
DSTYLE
1002
{
1070
    47
1040
0.03
1070
    71
1070
     1
1070
    48
1040
0.03
1070
   272
1070
     2
1070
    40
1040
25.4
1070
     3
1000
mm
1070
   271
1070
     2
1070
     4
1000
"
1070
   274
1070
     3
1070
   143
1040
0.03937
1070
   171
1070
     3
1070
   170
1070
     1
1002
}
  0
TEXT
  5
A3A
100
AcDbEntity
  8
TEXT
100
AcDbText
 10
292.252565
 20
340.668461
 30
0.0
 40
6.0
  1
A
100
AcDbText
  0
LEADER
  5
A3B
100
AcDbEntity
  8
TEXT
100
AcDbLeader
  3
SU1$7
 76
     3
 10
380.097881
 20
338.875744
 30
0.0
 10
380.097881
 20
313.777694
 30
0.0
 10
370.803778
 20
313.777694
 30
0.0
 77
   256
211
-1.0
221
0.0
231
0.0
1001
ACAD
1000
DSTYLE
1002
{
1070
    47
1040
0.03
1070
    71
1070
     1
1070
    48
1040
0.03
1070
   272
1070
     2
1070
    40
1040
25.4
1070
     3
1000
mm
1070
   271
1070
     2
1070
     4
1000
"
1070
   274
1070
     3
1070
   143
1040
0.03937
1070
   171
1070
     3
1070
   170
1070
     1
1002
}
  0
TEXT
  5
A3C
100
AcDbEntity
  8
TEXT
100
AcDbText
 10
382.054534
 20
340.668461
 30
0.0
 40
6.0
  1
A
 71
     2
100
AcDbText
  0
LINE
  5
A89
100
AcDbEntity
  8
CENTER
100
AcDbLine
 10
319.164866
 20
106.8204
 30
0.0
 11
319.164866
 21
112.123053
 31
0.0
  0
LINE
  5
A8A
100
AcDbEntity
  8
CENTER
100
AcDbLine
 10
321.7956
 20
109.610863
 30
0.0
 11
316.357708
 21
109.610863
 31
0.0
  0
POLYLINE
  5
AE3
100
AcDbEntity
  8
FOOT-2
100
AcDb2dPolyline
 66
     1
 10
0.0
 20
0.0
 30
0.0
 70
     1
  0
VERTEX
  5
AE4
100
AcDbEntity
  8
FOOT-2
100
AcDbVertex
100
AcDb2dVertex
 10
368.1526
 20
295.287569
 30
0.0
  0
VERTEX
  5
AE5
100
AcDbEntity
  8
FOOT-2
100
AcDbVertex
100
AcDb2dVertex
 10
368.1526
 20
322.714312
 30
0.0
  0
VERTEX
  5
AE6
100
AcDbEntity
  8
FOOT-2
100
AcDbVertex
100
AcDb2dVertex
 10
308.912238
 20
322.714312
 30
0.0
  0
VERTEX
  5
AE7
100
AcDbEntity
  8
FOOT-2
100
AcDbVertex
100
AcDb2dVertex
 10
308.912238
 20
295.287569
 30
0.0
  0
SEQEND
  5
AE8
100
AcDbEntity
  8
FOOT-2
  0
LINE
  5
AE9
100
AcDbEntity
  8
FOOT-2
100
AcDbLine
 10
308.912238
 20
296.049569
 30
0.0
 11
368.1526
 21
296.049569
 31
0.0
  0
LINE
  5
AEA
100
AcDbEntity
  8
FOOT-2
100
AcDbLine
 10
308.912238
 20
321.952312
 30
0.0
 11
368.1526
 21
321.952312
 31
0.0
  0
LINE
  5
AEB
100
AcDbEntity
  8
FOOT-2
100
AcDbLine
 10
311.143419
 20
295.287569
 30
0.0
 11
311.143419
 21
296.049569
 31
0.0
  0
LINE
  5
AEC
100
AcDbEntity
  8
FOOT-2
100
AcDbLine
 10
333.688509
 20
295.287569
 30
0.0
 11
333.688509
 21
296.049569
 31
0.0
  0
LINE
  5
AED
100
AcDbEntity
  8
FOOT-2
100
AcDbLine
 10
311.143419
 20
322.714312
 30
0.0
 11
311.143419
 21
321.952312
 31
0.0
  0
LINE
  5
AEE
100
AcDbEntity
  8
FOOT-2
100
AcDbLine
 10
333.688509
 20
322.714312
 30
0.0
 11
333.688509
 21
321.952312
 31
0.0
  0
LINE
  5
AEF
100
AcDbEntity
  8
FOOT-2
100
AcDbLine
 10
327.859167
 20
296.049569
 30
0.0
 11
327.859167
 21
321.952312
 31
0.0
  0
INSERT
  5
AF1
100
AcDbEntity
  8
FOOT-2
100
AcDbBlockReference
  2
*U4
 10
337.760267
 20
309.000941
 30
0.0
 41
25.4
 42
25.4
 43
25.4
1001
TB_S_MPD
1070
   100
1000
HOLE
1070
   101
1000
TOOLBOX 13.0 HOLE 2.0
1070
   112
1000
#32 (.116) DIAMETER HOLE
1070
   102
1000
Near side
1070
   103
1000
ANSI-Number
1070
   104
1000
hole
1070
   105
1000
_usn
1070
   304
1040
0.0
1070
   305
1040
0.0
1070
   306
1040
0.116
1070
   302
1040
0.0
1070
   303
1040
0.0
1070
   307
1040
0.03
1070
   300
1040
0.125
1070
   110
1000
1
1070
   111
1000
#32
1070
   116
1000
T
1070
   308
1040
0.03
  0
INSERT
  5
AF2
100
AcDbEntity
  8
FOOT-2
100
AcDbBlockReference
  2
*U5
 10
362.254681
 20
309.000941
 30
0.0
 41
25.4
 42
25.4
 43
25.4
1001
TB_S_MPD
1070
   100
1000
HOLE
1070
   101
1000
TOOLBOX 13.0 HOLE 2.0
1070
   112
1000
3/32 (.0938) DIAMETER HOLE
1070
   102
1000
Near side
1070
   103
1000
ANSI-Fraction
1070
   104
1000
hole
1070
   105
1000
_usf
1070
   304
1040
0.0
1070
   305
1040
0.0
1070
   306
1040
0.09375
1070
   302
1040
0.0
1070
   303
1040
0.0
1070
   307
1040
0.03
1070
   300
1040
0.125
1070
   110
1000
1
1070
   111
1000
3/32
1070
   116
1000
T
1070
   308
1040
0.03
  0
LINE
  5
AF3
100
AcDbEntity
  8
CENTER
100
AcDbLine
 10
317.34889
 20
309.000941
 30
0.0
 11
311.787742
 21
309.000941
 31
0.0
  0
LINE
  5
AF4
100
AcDbEntity
  8
CENTER
100
AcDbLine
 10
314.810978
 20
304.332852
 30
0.0
 11
314.810978
 21
313.615857
 31
0.0
  0
INSERT
  5
AF7
100
AcDbEntity
  8
FOOT-2
100
AcDbBlockReference
  2
*U6
 10
364.95194
 20
300.999941
 30
0.0
 41
25.4
 42
25.4
 43
25.4
1001
TB_S_MPD
1070
   100
1000
SLOT
1070
   101
1000
TOOLBOX 13.0 SLOT 2.0
1070
   103
1000
STD
1070
   306
1040
0.126
1070
   307
1040
0.03
1070
   112
1000
SLOT
1070
   102
1000
Near side
1070
   116
1000
T
1070
   308
1040
0.03
1070
   309
1040
0.063
1070
   310
1040
0.176
1070
   311
1040
0.0
  0
INSERT
  5
AF8
100
AcDbEntity
  8
FOOT-2
100
AcDbBlockReference
  2
*U6
 10
364.95194
 20
317.001941
 30
0.0
 41
25.4
 42
25.4
 43
25.4
1001
TB_S_MPD
1070
   100
1000
SLOT
1070
   101
1000
TOOLBOX 13.0 SLOT 2.0
1070
   103
1000
STD
1070
   306
1040
0.126
1070
   307
1040
0.03
1070
   112
1000
SLOT
1070
   102
1000
Near side
1070
   116
1000
T
1070
   308
1040
0.03
1070
   309
1040
0.063
1070
   310
1040
0.176
1070
   311
1040
0.0
  0
POLYLINE
  5
AF9
100
AcDbEntity
  8
FOOT-2
100
AcDb2dPolyline
 66
     1
 10
0.0
 20
0.0
 30
0.0
 70
     1
  0
VERTEX
  5
AFA
100
AcDbEntity
  8
FOOT-2
100
AcDbVertex
100
AcDb2dVertex
 10
354.776543
 20
316.001181
 30
0.0
  0
VERTEX
  5
AFB
100
AcDbEntity
  8
FOOT-2
100
AcDbVertex
100
AcDb2dVertex
 10
354.776543
 20
318.002701
 30
0.0
 42
-0.414214
  0
VERTEX
  5
AFC
100
AcDbEntity
  8
FOOT-2
100
AcDbVertex
100
AcDb2dVertex
 10
355.276923
 20
318.503081
 30
0.0
  0
VERTEX
  5
AFD
100
AcDbEntity
  8
FOOT-2
100
AcDbVertex
100
AcDb2dVertex
 10
357.776283
 20
318.503081
 30
0.0
 42
-0.414214
  0
VERTEX
  5
AFE
100
AcDbEntity
  8
FOOT-2
100
AcDbVertex
100
AcDb2dVertex
 10
358.276663
 20
318.002701
 30
0.0
  0
VERTEX
  5
AFF
100
AcDbEntity
  8
FOOT-2
100
AcDbVertex
100
AcDb2dVertex
 10
358.276663
 20
316.001181
 30
0.0
 42
-0.414214
  0
VERTEX
  5
B00
100
AcDbEntity
  8
FOOT-2
100
AcDbVertex
100
AcDb2dVertex
 10
357.776283
 20
315.500801
 30
0.0
  0
VERTEX
  5
B01
100
AcDbEntity
  8
FOOT-2
100
AcDbVertex
100
AcDb2dVertex
 10
355.276923
 20
315.500801
 30
0.0
 42
-0.414214
  0
SEQEND
  5
B02
100
AcDbEntity
  8
FOOT-2
  0
POLYLINE
  5
B03
100
AcDbEntity
  8
FOOT-2
100
AcDb2dPolyline
 66
     1
 10
0.0
 20
0.0
 30
0.0
 70
     1
  0
VERTEX
  5
B04
100
AcDbEntity
  8
FOOT-2
100
AcDbVertex
100
AcDb2dVertex
 10
354.776543
 20
299.999181
 30
0.0
  0
VERTEX
  5
B05
100
AcDbEntity
  8
FOOT-2
100
AcDbVertex
100
AcDb2dVertex
 10
354.776543
 20
302.000701
 30
0.0
 42
-0.414214
  0
VERTEX
  5
B06
100
AcDbEntity
  8
FOOT-2
100
AcDbVertex
100
AcDb2dVertex
 10
355.276923
 20
302.501081
 30
0.0
  0
VERTEX
  5
B07
100
AcDbEntity
  8
FOOT-2
100
AcDbVertex
100
AcDb2dVertex
 10
357.776283
 20
302.501081
 30
0.0
 42
-0.414214
  0
VERTEX
  5
B08
100
AcDbEntity
  8
FOOT-2
100
AcDbVertex
100
AcDb2dVertex
 10
358.276663
 20
302.000701
 30
0.0
  0
VERTEX
  5
B09
100
AcDbEntity
  8
FOOT-2
100
AcDbVertex
100
AcDb2dVertex
 10
358.276663
 20
299.999181
 30
0.0
 42
-0.414214
  0
VERTEX
  5
B0A
100
AcDbEntity
  8
FOOT-2
100
AcDbVertex
100
AcDb2dVertex
 10
357.776283
 20
299.498801
 30
0.0
  0
VERTEX
  5
B0B
100
AcDbEntity
  8
FOOT-2
100
AcDbVertex
100
AcDb2dVertex
 10
355.276923
 20
299.498801
 30
0.0
 42
-0.414214
  0
SEQEND
  5
B0C
100
AcDbEntity
  8
FOOT-2
  0
LINE
  5
B0D
100
AcDbEntity
  8
FOOT-2
100
AcDbLine
 10
309.478959
 20
296.049569
 30
0.0
 11
309.478959
 21
321.952312
 31
0.0
  0
LINE
  5
B14
100
AcDbEntity
  8
FOOT-B
100
AcDbLine
 10
366.5651
 20
104.687553
 30
0.0
 11
333.688509
 21
104.687553
 31
0.0
  0
LINE
  5
B15
100
AcDbEntity
  8
FOOT-B
100
AcDbLine
 10
368.1526
 20
94.687573
 30
0.0
 11
368.1526
 21
103.100053
 31
0.0
1001
ACAD
1000
ASC_BOUNDS
1002
{
1070
    19
1005
0
1005
E9A
1002
}
  0
CIRCLE
  5
B16
100
AcDbEntity
  8
FOOT-B
100
AcDbCircle
 10
347.202473
 20
99.190803
 30
0.0
 40
1.19126
  0
LINE
  5
B17
100
AcDbEntity
  8
CENTER
100
AcDbLine
 10
347.202473
 20
95.966314
 30
0.0
 11
347.202473
 21
102.300013
 31
0.0
  0
LINE
  5
B18
100
AcDbEntity
  8
CENTER
100
AcDbLine
 10
344.263935
 20
99.190803
 30
0.0
 11
350.40938
 21
99.190803
 31
0.0
  0
LINE
  5
B19
100
AcDbEntity
  8
FOOT-B
100
AcDbLine
 10
368.1526
 20
95.449573
 30
0.0
 11
327.859167
 21
95.449573
 31
0.0
1001
ACAD
1000
ASC_BOUNDS
1002
{
1070
    19
1005
0
1005
E9A
1002
}
  0
LINE
  5
B1A
100
AcDbEntity
  8
FOOT-B
100
AcDbLine
 10
368.1526
 20
94.687573
 30
0.0
 11
327.519505
 21
94.687573
 31
0.0
1001
ACAD
1000
ASC_BOUNDS
1002
{
1070
    19
1005
0
1005
E9A
1002
}
  0
LINE
  5
B1B
100
AcDbEntity
  8
FOOT-B
100
AcDbLine
 10
333.688509
 20
104.687553
 30
0.0
 11
311.143419
 21
117.39478
 31
0.0
  0
LINE
  5
B1C
100
AcDbEntity
  8
FOOT-B
100
AcDbLine
 10
309.478959
 20
115.898721
 30
0.0
 11
327.859167
 21
95.449573
 31
0.0
1001
ACAD
1000
ASC_BOUNDS
1002
{
1070
    19
1005
0
1005
E9A
1002
}
  0
LINE
  5
B1D
100
AcDbEntity
  8
FOOT-B
100
AcDbLine
 10
308.912238
 20
115.389338
 30
0.0
 11
327.519505
 21
94.687573
 31
0.0
1001
ACAD
1000
ASC_BOUNDS
1002
{
1070
    19
1005
0
1005
E9A
1002
}
  0
CIRCLE
  5
B1E
100
AcDbEntity
  8
FOOT-B
100
AcDbCircle
 10
319.164866
 20
109.610863
 30
0.0
 40
1.19126
  0
LINE
  5
B1F
100
AcDbEntity
  8
FOOT-B
100
AcDbLine
 10
308.912238
 20
115.389338
 30
0.0
 11
311.143419
 21
117.39478
 31
0.0
1001
ACAD
1000
ASC_BOUNDS
1002
{
1070
    19
1005
0
1005
E9A
1002
}
  0
LINE
  5
B20
100
AcDbEntity
  8
CENTER
100
AcDbLine
 10
252.131126
 20
49.359253
 30
0.0
 11
439.408275
 21
217.688661
 31
0.0
  0
LINE
  5
B21
100
AcDbEntity
  8
CENTER
100
AcDbLine
 10
343.313956
 20
82.743467
 30
0.0
 11
217.269128
 21
222.976338
 31
0.0
  0
LINE
  5
B2E
100
AcDbEntity
  8
FOOT-B
100
AcDbLine
 10
398.399251
 20
195.822515
 30
0.0
 11
418.797269
 21
214.156765
 31
0.0
  0
LINE
  5
B2F
100
AcDbEntity
  8
FOOT-B
100
AcDbLine
 10
418.797269
 20
214.156765
 30
0.0
 11
442.30832
 21
187.999229
 31
0.0
  0
LINE
  5
B31
100
AcDbEntity
  8
FOOT-B
100
AcDbLine
 10
422.958638
 20
168.498638
 30
0.0
 11
398.399251
 21
195.822515
 31
0.0
  0
LINE
  5
B32
100
AcDbEntity
  8
FOOT-B
100
AcDbLine
 10
423.318555
 20
169.238104
 30
0.0
 11
398.965972
 21
196.331898
 31
0.0
  0
LINE
  5
B33
100
AcDbEntity
  8
FOOT-B
100
AcDbLine
 10
418.230548
 20
213.647382
 30
0.0
 11
441.540097
 21
187.714029
 31
0.0
  0
LINE
  5
B34
100
AcDbEntity
  8
FOOT-B
100
AcDbLine
 10
414.791569
 20
177.585021
 30
0.0
 11
415.35829
 21
178.094404
 31
0.0
  0
LINE
  5
B35
100
AcDbEntity
  8
FOOT-B
100
AcDbLine
 10
435.189586
 20
195.919272
 30
0.0
 11
434.622865
 21
195.409889
 31
0.0
  0
LINE
  5
B36
100
AcDbEntity
  8
FOOT-B
100
AcDbLine
 10
417.346181
 20
175.882749
 30
0.0
 11
436.610756
 21
193.198234
 31
0.0
  0
LINE
  5
B37
100
AcDbEntity
  8
FOOT-B
100
AcDbLine
 10
422.958638
 20
168.498638
 30
0.0
 11
425.587648
 21
173.900057
 31
0.0
  0
LINE
  5
B38
100
AcDbEntity
  8
FOOT-B
100
AcDbLine
 10
425.587648
 20
173.900057
 30
0.0
 11
430.677219
 21
175.218927
 31
0.0
  0
LINE
  5
B39
100
AcDbEntity
  8
FOOT-B
100
AcDbLine
 10
430.677219
 20
175.218927
 30
0.0
 11
433.504758
 21
179.929177
 31
0.0
  0
LINE
  5
B3A
100
AcDbEntity
  8
FOOT-B
100
AcDbLine
 10
433.504758
 20
179.929177
 30
0.0
 11
437.840318
 21
182.943737
 31
0.0
  0
LINE
  5
B3B
100
AcDbEntity
  8
FOOT-B
100
AcDbLine
 10
437.840318
 20
182.943737
 30
0.0
 11
439.348338
 21
186.900347
 31
0.0
  0
LINE
  5
B3C
100
AcDbEntity
  8
FOOT-B
100
AcDbLine
 10
439.348338
 20
186.900347
 30
0.0
 11
442.30832
 21
187.999229
 31
0.0
  0
CIRCLE
  5
B3D
100
AcDbEntity
  8
FOOT-B
100
AcDbCircle
 10
413.93028
 20
199.05743
 30
0.0
 40
1.19065
  0
LINE
  5
B3E
100
AcDbEntity
  8
CENTER
100
AcDbLine
 10
412.014102
 20
197.335121
 30
0.0
 11
416.066542
 21
200.977556
 31
0.0
  0
LINE
  5
B3F
100
AcDbEntity
  8
CENTER
100
AcDbLine
 10
415.776512
 20
197.00338
 30
0.0
 11
412.293852
 21
200.87806
 31
0.0
  0
ELLIPSE
  5
B45
100
AcDbEntity
  8
FOOT-B
100
AcDbEllipse
 10
314.810978
 20
309.000941
 30
0.0
 11
0.0
 21
1.190625000000011
 31
0.0
210
0.0
220
0.0
230
1.0
 40
0.668496
 41
0.0
 42
6.2831853071796
  0
ELLIPSE
  5
B47
100
AcDbEntity
  8
FOOT-B
100
AcDbEllipse
 10
314.244257
 20
309.000941
 30
0.0
 11
0.0
 21
1.190624999999994
 31
0.0
210
0.0
220
0.0
230
1.0
 40
0.668496
 41
-2.777594962916252
 42
-0.3639976906735411
  0
LINE
  5
B48
100
AcDbEntity
  8
FOOT-B
100
AcDbLine
 10
308.912238
 20
458.665879
 30
0.0
 11
327.519505
 21
479.367645
 31
0.0
1001
ACAD
1000
ASC_BOUNDS
1002
{
1070
    19
1005
0
1002
}
  0
LINE
  5
B4A
100
AcDbEntity
  8
CENTER
100
AcDbLine
 10
347.202473
 20
478.088903
 30
0.0
 11
347.202473
 21
471.755205
 31
0.0
  0
CIRCLE
  5
B4B
100
AcDbEntity
  8
FOOT-B
100
AcDbCircle
 10
347.202473
 20
474.864415
 30
0.0
 40
1.19126
  0
LINE
  5
B4C
100
AcDbEntity
  8
FOOT-B
100
AcDbLine
 10
368.1526
 20
479.367645
 30
0.0
 11
368.1526
 21
470.955165
 31
0.0
1001
ACAD
1000
ASC_BOUNDS
1002
{
1070
    19
1005
0
1002
}
  0
LINE
  5
B4D
100
AcDbEntity
  8
FOOT-B
100
AcDbLine
 10
368.1526
 20
479.367645
 30
0.0
 11
327.519505
 21
479.367645
 31
0.0
1001
ACAD
1000
ASC_BOUNDS
1002
{
1070
    19
1005
0
1002
}
  0
LINE
  5
B4F
100
AcDbEntity
  8
CENTER
100
AcDbLine
 10
344.263935
 20
474.864415
 30
0.0
 11
350.40938
 21
474.864415
 31
0.0
  0
LINE
  5
B50
100
AcDbEntity
  8
FOOT-B
100
AcDbLine
 10
333.688509
 20
469.367665
 30
0.0
 11
311.143419
 21
456.660438
 31
0.0
  0
LINE
  5
B51
100
AcDbEntity
  8
CENTER
100
AcDbLine
 10
321.7956
 20
464.444354
 30
0.0
 11
316.357708
 21
464.444354
 31
0.0
  0
LINE
  5
B52
100
AcDbEntity
  8
FOOT-B
100
AcDbLine
 10
308.912238
 20
458.665879
 30
0.0
 11
311.143419
 21
456.660438
 31
0.0
1001
ACAD
1000
ASC_BOUNDS
1002
{
1070
    19
1005
0
1002
}
  0
CIRCLE
  5
B53
100
AcDbEntity
  8
FOOT-B
100
AcDbCircle
 10
319.164866
 20
464.444354
 30
0.0
 40
1.19126
  0
LINE
  5
B54
100
AcDbEntity
  8
CENTER
100
AcDbLine
 10
319.164866
 20
467.234818
 30
0.0
 11
319.164866
 21
461.932165
 31
0.0
  0
LINE
  5
B55
100
AcDbEntity
  8
FOOT-B
100
AcDbLine
 10
366.5651
 20
469.367665
 30
0.0
 11
333.688509
 21
469.367665
 31
0.0
  0
ARC
  5
B57
100
AcDbEntity
  8
FOOT-B
100
AcDbCircle
 10
366.5651
 20
470.955165
 30
0.0
 40
1.5875
100
AcDbArc
 50
270.0
 51
360.0
1001
ACAD
1000
ASC_BOUNDS
1002
{
1070
    19
1005
0
1002
}
  0
ARC
  5
B58
100
AcDbEntity
  8
FOOT-B
100
AcDbCircle
 10
366.5651
 20
103.100053
 30
0.0
 40
1.5875
100
AcDbArc
 50
0.0
 51
90.0
1001
ACAD
1000
ASC_BOUNDS
1002
{
1070
    19
1005
0
1002
}
  0
DIMENSION
  5
B65
100
AcDbEntity
  8
DIM
100
AcDbDimension
  2
*D7
 10
347.202473
 20
67.271281
 30
0.0
 11
410.067473
 21
67.271281
 31
0.0
 70
    32
  3
SU1
100
AcDbAlignedDimension
 13
319.164866
 23
60.1927
 33
0.0
 14
347.202473
 24
95.966314
 34
0.0
100
AcDbRotatedDimension
1001
ACAD
1000
DSTYLE
1002
{
1070
    47
1040
0.03
1070
    71
1070
     1
1070
    48
1040
0.03
1070
   272
1070
     2
1070
    75
1070
     1
1070
    40
1040
25.4
1070
     3
1000
mm
1070
   271
1070
     2
1070
     4
1000
"
1070
   274
1070
     3
1070
   143
1040
0.03937
1070
   171
1070
     3
1070
   170
1070
     1
1002
}
  0
DIMENSION
  5
B72
100
AcDbEntity
  8
DIM
100
AcDbDimension
  2
*D8
 10
368.1526
 20
77.564747
 30
0.0
 11
407.0146
 21
77.564747
 31
0.0
 70
    32
  3
SU1
100
AcDbAlignedDimension
 13
319.164866
 23
60.1927
 33
0.0
 14
368.1526
 24
94.687573
 34
0.0
100
AcDbRotatedDimension
1001
ACAD
1000
DSTYLE
1002
{
1070
    47
1040
0.03
1070
    48
1040
0.03
1070
   272
1070
     2
1070
    75
1070
     1
1070
    40
1040
25.4
1070
     3
1000
mm
1070
   271
1070
     2
1070
     4
1000
"
1070
   274
1070
     3
1070
   143
1040
0.03937
1070
   171
1070
     3
1070
   170
1070
     1
1002
}
  0
DIMENSION
  5
B80
100
AcDbEntity
  8
DIM
100
AcDbDimension
  2
*D9
 10
381.886523
 20
109.610863
 30
0.0
 11
413.509523
 21
118.754863
 31
0.0
 70
    32
  3
SU1
100
AcDbAlignedDimension
 13
366.5651
 23
104.687553
 33
0.0
 14
195.18522
 24
109.610863
 34
0.0
 50
90.0
100
AcDbRotatedDimension
1001
ACAD
1000
DSTYLE
1002
{
1070
    47
1040
0.03
1070
    48
1040
0.03
1070
   272
1070
     2
1070
    76
1070
     1
1070
    40
1040
25.4
1070
     3
1000
mm
1070
   271
1070
     2
1070
     4
1000
"
1070
   274
1070
     3
1070
   143
1040
0.03937
1070
   171
1070
     3
1070
   170
1070
     1
1002
}
  0
DIMENSION
  5
B8E
100
AcDbEntity
  8
DIM
100
AcDbDimension
  2
*D10
 10
449.078643
 20
109.610863
 30
0.0
 11
506.990643
 21
118.754863
 31
0.0
 70
    32
  3
SU1
100
AcDbAlignedDimension
 13
350.40938
 23
99.190803
 33
0.0
 14
716.33253
 24
109.610863
 34
0.0
 50
90.0
100
AcDbRotatedDimension
1001
ACAD
1000
DSTYLE
1002
{
1070
    47
1040
0.03
1070
    71
1070
     1
1070
    48
1040
0.03
1070
   272
1070
     2
1070
    76
1070
     1
1070
    40
1040
25.4
1070
     3
1000
mm
1070
   271
1070
     2
1070
     4
1000
"
1070
   274
1070
     3
1070
   143
1040
0.03937
1070
   171
1070
     3
1070
   170
1070
     1
1002
}
  0
DIMENSION
  5
BA8
100
AcDbEntity
  8
DIM
100
AcDbDimension
  2
*D11
 10
570.95641
 20
109.610863
 30
0.0
 11
635.87881
 21
118.754863
 31
0.0
 70
    32
  3
SU1
100
AcDbAlignedDimension
 13
368.1526
 23
94.687573
 33
0.0
 14
716.33253
 24
109.610863
 34
0.0
 50
90.0
100
AcDbRotatedDimension
1001
ACAD
1000
DSTYLE
1002
{
1070
    47
1040
0.0
1070
    71
1070
     1
1070
    48
1040
0.05
1070
   272
1070
     2
1070
    76
1070
     1
1070
    40
1040
25.4
1070
     3
1000
mm
1070
   271
1070
     2
1070
     4
1000
"
1070
   274
1070
     3
1070
   143
1040
0.03937
1070
   171
1070
     3
1070
   170
1070
     1
1002
}
  0
DIMENSION
  5
BCD
100
AcDbEntity
  8
DIM
100
AcDbDimension
  2
*D12
 10
333.688509
 20
131.19146
 30
0.0
 11
372.169509
 21
131.19146
 31
0.0
 70
    32
  3
SU1
100
AcDbAlignedDimension
 13
319.164866
 23
60.1927
 33
0.0
 14
333.688509
 24
104.687553
 34
0.0
100
AcDbRotatedDimension
1001
ACAD
1000
DSTYLE
1002
{
1070
    47
1040
0.0
1070
    48
1040
0.05
1070
   272
1070
     2
1070
    75
1070
     1
1070
    40
1040
25.4
1070
     3
1000
mm
1070
   271
1070
     2
1070
     4
1000
"
1070
   274
1070
     3
1070
   143
1040
0.03937
1070
   171
1070
     3
1070
   170
1070
     1
1002
}
  0
DIMENSION
  5
BDA
100
AcDbEntity
  8
DIM
100
AcDbDimension
  2
*D13
 10
433.91177
 20
212.748264
 30
0.0
 11
474.662423
 21
167.410577
 31
0.0
 70
    32
 51
48.05
  3
SU1
100
AcDbAlignedDimension
 13
416.066542
 23
200.977556
 33
0.0
 14
439.408275
 24
217.688661
 34
0.0
 50
311.95
100
AcDbRotatedDimension
1001
ACAD
1000
DSTYLE
1002
{
1070
    47
1040
0.03
1070
    71
1070
     1
1070
    48
1040
0.03
1070
   272
1070
     2
1070
    76
1070
     1
1070
    40
1040
25.4
1070
     3
1000
mm
1070
   271
1070
     2
1070
     4
1000
"
1070
   274
1070
     3
1070
   143
1040
0.03937
1070
   171
1070
     3
1070
   170
1070
     1
1002
}
  0
DIMENSION
  5
BE7
100
AcDbEntity
  8
DIM
100
AcDbDimension
  2
*D14
 10
294.76014
 20
65.242633
 30
0.0
 11
320.48399
 21
36.623218
 31
0.0
 70
    32
 51
48.05
  3
SU1
100
AcDbAlignedDimension
 13
252.131126
 23
49.359253
 33
0.0
 14
327.519505
 24
94.687573
 34
0.0
 50
311.95
100
AcDbRotatedDimension
1001
ACAD
1000
DSTYLE
1002
{
1070
    47
1040
0.03
1070
    48
1040
0.03
1070
   272
1070
     2
1070
    75
1070
     1
1070
    40
1040
25.4
1070
     3
1000
mm
1070
   271
1070
     2
1070
     4
1000
"
1070
   274
1070
     3
1070
   143
1040
0.03937
1070
   171
1070
     3
1070
   170
1070
     1
1002
}
  0
DIMENSION
  5
BF4
100
AcDbEntity
  8
DIM
100
AcDbDimension
  2
*D15
 10
273.814605
 20
68.848909
 30
0.0
 11
298.519688
 21
41.362936
 31
0.0
 70
    32
 51
48.05
  3
SU1
100
AcDbAlignedDimension
 13
308.912238
 23
115.389338
 33
0.0
 14
252.131126
 24
49.359253
 34
0.0
 50
311.95
100
AcDbRotatedDimension
1001
ACAD
1000
DSTYLE
1002
{
1070
    47
1040
0.03
1070
    48
1040
0.03
1070
   272
1070
     2
1070
    76
1070
     1
1070
    40
1040
25.4
1070
     3
1000
mm
1070
   271
1070
     2
1070
     4
1000
"
1070
   274
1070
     3
1070
   143
1040
0.03937
1070
   171
1070
     3
1070
   170
1070
     1
1002
}
  0
DIMENSION
  5
C23
100
AcDbEntity
  8
DIM
100
AcDbDimension
  2
*D16
 10
299.111042
 20
126.293791
 30
0.0
 11
271.170987
 21
143.700118
 31
0.0
 70
    32
 51
48.05
  3
SU1
100
AcDbAlignedDimension
 13
343.313956
 23
82.743467
 33
0.0
 14
308.912238
 24
115.389338
 34
0.0
 50
41.95
100
AcDbRotatedDimension
1001
ACAD
1000
DSTYLE
1002
{
1070
    47
1040
0.03
1070
    48
1040
0.03
1070
   272
1070
     2
1070
    75
1070
     1
1070
    40
1040
25.4
1070
     3
1000
mm
1070
   271
1070
     2
1070
     4
1000
"
1070
   274
1070
     3
1070
   143
1040
0.03937
1070
   171
1070
     3
1070
   170
1070
     1
1002
}
  0
DIMENSION
  5
C31
100
AcDbEntity
  8
DIM
100
AcDbDimension
  2
*D17
 10
259.134344
 20
175.258176
 30
0.0
 11
231.448982
 21
192.381143
 31
0.0
 70
    32
 51
48.05
  3
SU1
100
AcDbAlignedDimension
 13
343.313956
 23
82.743467
 33
0.0
 14
311.143419
 24
117.39478
 34
0.0
 50
41.95
100
AcDbRotatedDimension
1001
ACAD
1000
DSTYLE
1002
{
1070
    47
1040
0.03
1070
    48
1040
0.03
1070
   272
1070
     2
1070
    75
1070
     1
1070
    40
1040
25.4
1070
     3
1000
mm
1070
   271
1070
     2
1070
     4
1000
"
1070
   274
1070
     3
1070
   143
1040
0.03937
1070
   171
1070
     3
1070
   170
1070
     1
1002
}
  0
DIMENSION
  5
C3E
100
AcDbEntity
  8
DIM
100
AcDbDimension
  2
*D18
 10
364.95194
 20
355.158208
 30
0.0
 11
403.43294
 21
355.158208
 31
0.0
 70
    32
  3
SU1
100
AcDbAlignedDimension
 13
319.164866
 23
484.277863
 33
0.0
 14
364.95194
 24
321.777141
 34
0.0
100
AcDbRotatedDimension
1001
ACAD
1000
DSTYLE
1002
{
1070
    47
1040
0.03
1070
    48
1040
0.03
1070
   272
1070
     2
1070
    75
1070
     1
1070
    40
1040
25.4
1070
     3
1000
mm
1070
   271
1070
     2
1070
     4
1000
"
1070
   274
1070
     3
1070
   143
1040
0.03937
1070
   171
1070
     3
1070
   170
1070
     1
1002
}
  0
DIMENSION
  5
C4B
100
AcDbEntity
  8
DIM
100
AcDbDimension
  2
*D19
 10
362.254681
 20
364.912968
 30
0.0
 11
426.262681
 21
364.912968
 31
0.0
 70
    32
  3
SU1
100
AcDbAlignedDimension
 13
319.164866
 23
484.277863
 33
0.0
 14
362.254681
 24
313.366566
 34
0.0
100
AcDbRotatedDimension
1001
ACAD
1000
DSTYLE
1002
{
1070
    47
1040
0.03
1070
    71
1070
     1
1070
    48
1040
0.03
1070
   272
1070
     2
1070
    75
1070
     1
1070
    40
1040
25.4
1070
     3
1000
mm
1070
   271
1070
     2
1070
     4
1000
"
1070
   274
1070
     3
1070
   143
1040
0.03937
1070
   171
1070
     3
1070
   170
1070
     1
1002
}
  0
DIMENSION
  5
C58
100
AcDbEntity
  8
DIM
100
AcDbDimension
  2
*D20
 10
360.48154
 20
375.75159
 30
0.0
 11
398.58154
 21
375.75159
 31
0.0
 70
    32
  3
SU1
100
AcDbAlignedDimension
 13
319.164866
 23
484.277863
 33
0.0
 14
360.48154
 24
321.777141
 34
0.0
100
AcDbRotatedDimension
1001
ACAD
1000
DSTYLE
1002
{
1070
    47
1040
0.03
1070
    48
1040
0.03
1070
   272
1070
     2
1070
    75
1070
     1
1070
    40
1040
25.4
1070
     3
1000
mm
1070
   271
1070
     2
1070
     4
1000
"
1070
   274
1070
     3
1070
   143
1040
0.03937
1070
   171
1070
     3
1070
   170
1070
     1
1002
}
  0
DIMENSION
  5
C65
100
AcDbEntity
  8
DIM
100
AcDbDimension
  2
*D21
 10
358.276663
 20
386.156504
 30
0.0
 11
395.233663
 21
386.156504
 31
0.0
 70
    32
  3
SU1
100
AcDbAlignedDimension
 13
319.164866
 23
484.277863
 33
0.0
 14
358.276663
 24
318.002701
 34
0.0
100
AcDbRotatedDimension
1001
ACAD
1000
DSTYLE
1002
{
1070
    47
1040
0.03
1070
    48
1040
0.03
1070
   272
1070
     2
1070
    75
1070
     1
1070
    40
1040
25.4
1070
     3
1000
mm
1070
   271
1070
     2
1070
     4
1000
"
1070
   274
1070
     3
1070
   143
1040
0.03937
1070
   171
1070
     3
1070
   170
1070
     1
1002
}
  0
DIMENSION
  5
C72
100
AcDbEntity
  8
DIM
100
AcDbDimension
  2
*D22
 10
354.776543
 20
395.601589
 30
0.0
 11
392.495543
 21
395.601589
 31
0.0
 70
    32
  3
SU1
100
AcDbAlignedDimension
 13
319.164866
 23
484.277863
 33
0.0
 14
354.776543
 24
318.002701
 34
0.0
100
AcDbRotatedDimension
1001
ACAD
1000
DSTYLE
1002
{
1070
    47
1040
0.03
1070
    48
1040
0.03
1070
   272
1070
     2
1070
    75
1070
     1
1070
    40
1040
25.4
1070
     3
1000
mm
1070
   271
1070
     2
1070
     4
1000
"
1070
   274
1070
     3
1070
   143
1040
0.03937
1070
   171
1070
     3
1070
   170
1070
     1
1002
}
  0
DIMENSION
  5
C7F
100
AcDbEntity
  8
DIM
100
AcDbDimension
  2
*D23
 10
337.760267
 20
406.130536
 30
0.0
 11
375.860267
 21
406.130536
 31
0.0
 70
    32
  3
SU1
100
AcDbAlignedDimension
 13
319.164866
 23
484.277863
 33
0.0
 14
337.760267
 24
313.649141
 34
0.0
100
AcDbRotatedDimension
1001
ACAD
1000
DSTYLE
1002
{
1070
    47
1040
0.03
1070
    48
1040
0.03
1070
   272
1070
     2
1070
    75
1070
     1
1070
    40
1040
25.4
1070
     3
1000
mm
1070
   271
1070
     2
1070
     4
1000
"
1070
   274
1070
     3
1070
   143
1040
0.03937
1070
   171
1070
     3
1070
   170
1070
     1
1002
}
  0
DIMENSION
  5
C8E
100
AcDbEntity
  8
DIM
100
AcDbDimension
  2
*D24
 10
387.923393
 20
322.714312
 30
0.0
 11
419.546393
 21
275.771217
 31
0.0
 12
0.0
 22
56.087095
 32
0.0
 70
    32
  3
SU1
100
AcDbAlignedDimension
 13
369.72714
 23
317.001941
 33
0.0
 14
368.1526
 24
322.714312
 34
0.0
 50
90.0
100
AcDbRotatedDimension
1001
ACAD
1000
DSTYLE
1002
{
1070
    47
1040
0.03
1070
    48
1040
0.03
1070
   272
1070
     2
1070
    40
1040
25.4
1070
     3
1000
mm
1070
   271
1070
     2
1070
     4
1000
"
1070
   274
1070
     3
1070
   143
1040
0.03937
1070
   171
1070
     3
1070
   170
1070
     1
1002
}
  0
DIMENSION
  5
C9D
100
AcDbEntity
  8
DIM
100
AcDbDimension
  2
*D25
 10
452.057607
 20
322.714312
 30
0.0
 11
510.350607
 21
275.771217
 31
0.0
 12
0.0
 22
56.087095
 32
0.0
 70
    32
  3
SU1
100
AcDbAlignedDimension
 13
366.620306
 23
309.000941
 33
0.0
 14
368.1526
 24
322.714312
 34
0.0
 50
90.0
100
AcDbRotatedDimension
1001
ACAD
1000
DSTYLE
1002
{
1070
    47
1040
0.03
1070
    71
1070
     1
1070
    48
1040
0.03
1070
   272
1070
     2
1070
    40
1040
25.4
1070
     3
1000
mm
1070
   271
1070
     2
1070
     4
1000
"
1070
   274
1070
     3
1070
   143
1040
0.03937
1070
   171
1070
     3
1070
   170
1070
     1
1002
}
  0
DIMENSION
  5
CAC
100
AcDbEntity
  8
DIM
100
AcDbDimension
  2
*D26
 10
568.442865
 20
322.714312
 30
0.0
 11
601.589865
 21
275.771217
 31
0.0
 12
0.0
 22
56.087095
 32
0.0
 70
    32
  3
SU1
100
AcDbAlignedDimension
 13
369.72714
 23
300.999941
 33
0.0
 14
368.1526
 24
322.714312
 34
0.0
 50
90.0
100
AcDbRotatedDimension
1001
ACAD
1000
DSTYLE
1002
{
1070
    47
1040
0.03
1070
    48
1040
0.03
1070
   272
1070
     2
1070
    40
1040
25.4
1070
     3
1000
mm
1070
   271
1070
     2
1070
     4
1000
"
1070
   274
1070
     3
1070
   143
1040
0.03937
1070
   171
1070
     3
1070
   170
1070
     1
1002
}
  0
DIMENSION
  5
CBA
100
AcDbEntity
  8
DIM
100
AcDbDimension
  2
*D27
 10
658.71216
 20
322.714312
 30
0.0
 11
658.71216
 21
252.913846
 31
0.0
 12
0.0
 22
56.087095
 32
0.0
 70
    32
  3
SU1
100
AcDbAlignedDimension
 13
368.1526
 23
295.287569
 33
0.0
 14
368.1526
 24
322.714312
 34
0.0
 50
90.0
100
AcDbRotatedDimension
1001
ACAD
1000
DSTYLE
1002
{
1070
    47
1040
0.03
1070
    71
1070
     1
1070
    48
1040
0.03
1070
   272
1070
     2
1070
    40
1040
25.4
1070
     3
1000
mm
1070
   271
1070
     2
1070
     4
1000
"
1070
   274
1070
     3
1070
   143
1040
0.03937
1070
   171
1070
     3
1070
   170
1070
     1
1002
}
  0
DIMENSION
  5
CC9
100
AcDbEntity
  8
DIM
100
AcDbDimension
  2
*D28
 10
234.17562
 20
322.714312
 30
0.0
 11
265.03662
 21
275.771217
 31
0.0
 12
0.0
 22
56.087095
 32
0.0
 70
    32
  3
SU1
100
AcDbAlignedDimension
 13
355.276923
 23
318.503081
 33
0.0
 14
308.912238
 24
322.714312
 34
0.0
 50
90.0
100
AcDbRotatedDimension
1001
ACAD
1000
DSTYLE
1002
{
1070
    47
1040
0.03
1070
    48
1040
0.03
1070
   272
1070
     2
1070
    40
1040
25.4
1070
     3
1000
mm
1070
   271
1070
     2
1070
     4
1000
"
1070
   274
1070
     3
1070
   143
1040
0.03937
1070
   171
1070
     3
1070
   170
1070
     1
1002
}
  0
DIMENSION
  5
CD8
100
AcDbEntity
  8
DIM
100
AcDbDimension
  2
*D29
 10
169.084951
 20
322.714312
 30
0.0
 11
200.707951
 21
275.771217
 31
0.0
 12
0.0
 22
56.087095
 32
0.0
 70
    32
  3
SU1
100
AcDbAlignedDimension
 13
355.276923
 23
315.500801
 33
0.0
 14
308.912238
 24
322.714312
 34
0.0
 50
90.0
100
AcDbRotatedDimension
1001
ACAD
1000
DSTYLE
1002
{
1070
    47
1040
0.03
1070
    48
1040
0.03
1070
   272
1070
     2
1070
    40
1040
25.4
1070
     3
1000
mm
1070
   271
1070
     2
1070
     4
1000
"
1070
   274
1070
     3
1070
   143
1040
0.03937
1070
   171
1070
     3
1070
   170
1070
     1
1002
}
  0
DIMENSION
  5
CE7
100
AcDbEntity
  8
DIM
100
AcDbDimension
  2
*D30
 10
100.521401
 20
322.714312
 30
0.0
 11
134.049401
 21
275.771217
 31
0.0
 12
0.0
 22
56.087095
 32
0.0
 70
    32
  3
SU1
100
AcDbAlignedDimension
 13
355.276923
 23
302.501081
 33
0.0
 14
308.912238
 24
322.714312
 34
0.0
 50
90.0
100
AcDbRotatedDimension
1001
ACAD
1000
DSTYLE
1002
{
1070
    47
1040
0.03
1070
    48
1040
0.03
1070
   272
1070
     2
1070
    40
1040
25.4
1070
     3
1000
mm
1070
   271
1070
     2
1070
     4
1000
"
1070
   274
1070
     3
1070
   143
1040
0.03937
1070
   171
1070
     3
1070
   170
1070
     1
1002
}
  0
DIMENSION
  5
CF5
100
AcDbEntity
  8
DIM
100
AcDbDimension
  2
*D31
 10
64.250406
 20
322.714312
 30
0.0
 11
64.250406
 21
255.019461
 31
0.0
 12
0.0
 22
56.087095
 32
0.0
 70
    32
  3
SU1
100
AcDbAlignedDimension
 13
355.276923
 23
299.498801
 33
0.0
 14
308.912238
 24
322.714312
 34
0.0
 50
90.0
100
AcDbRotatedDimension
1001
ACAD
1000
DSTYLE
1002
{
1070
    47
1040
0.03
1070
    48
1040
0.03
1070
   272
1070
     2
1070
    40
1040
25.4
1070
     3
1000
mm
1070
   271
1070
     2
1070
     4
1000
"
1070
   274
1070
     3
1070
   143
1040
0.03937
1070
   171
1070
     3
1070
   170
1070
     1
1002
}
  0
DIMENSION
  5
D0F
100
AcDbEntity
  8
DIM
100
AcDbDimension
  2
*D32
 10
496.142773
 20
295.287569
 30
0.0
 11
439.373773
 21
286.143569
 31
0.0
 70
    32
  1
{<>}\P{WALL THICKNESS}
  3
SU1
100
AcDbAlignedDimension
 13
368.1526
 23
296.049569
 33
0.0
 14
368.1526
 24
295.287569
 34
0.0
 50
90.0
100
AcDbRotatedDimension
1001
ACAD
1000
DSTYLE
1002
{
1070
    47
1040
0.03
1070
    71
1070
     1
1070
    48
1040
0.03
1070
   272
1070
     2
1070
    40
1040
25.4
1070
     3
1000
mm
1070
   271
1070
     2
1070
     4
1000
"
1070
   274
1070
     3
1070
   143
1040
0.03937
1070
   171
1070
     3
1070
   170
1070
     1
1002
}
  0
DIMENSION
  5
DAC
100
AcDbEntity
  8
DIM
100
AcDbDimension
  2
*D33
 10
338.695654
 20
310.139083
 30
0.0
 11
279.488894
 21
281.212092
 31
0.0
 12
0.0
 22
23.196822
 32
0.0
 70
   163
  3
SU1$3
100
AcDbDiametricDimension
 15
336.82488
 25
307.862798
 35
0.0
 40
0.0
1001
ACAD
1000
DSTYLE
1002
{
1070
    47
1040
0.03
1070
    48
1040
0.03
1070
   272
1070
     2
1070
    40
1040
25.4
1070
     3
1000
mm
1070
   271
1070
     2
1070
     4
1000
"
1070
   274
1070
     3
1070
   143
1040
0.03937
1070
   171
1070
     3
1070
   170
1070
     1
1002
}
  0
DIMENSION
  5
DB8
100
AcDbEntity
  8
DIM
100
AcDbDimension
  2
*D34
 10
355.600443
 20
300.380907
 30
0.0
 11
279.513332
 21
251.96301
 31
0.0
 12
0.0
 22
23.196822
 32
0.0
 70
   163
  1
{<>}\P{8X}
  3
SU1$3
100
AcDbDiametricDimension
 15
354.953403
 25
299.617454
 35
0.0
 40
0.0
1001
ACAD
1000
DSTYLE
1002
{
1070
    47
1040
0.03
1070
    48
1040
0.03
1070
   272
1070
     2
1070
    40
1040
25.4
1070
     3
1000
mm
1070
   271
1070
     2
1070
     4
1000
"
1070
   274
1070
     3
1070
   143
1040
0.03937
1070
   171
1070
     3
1070
   170
1070
     1
1002
}
  0
DIMENSION
  5
DCE
100
AcDbEntity
  8
DIM
100
AcDbDimension
  2
*D35
 10
361.545671
 20
309.95744
 30
0.0
 11
459.756178
 21
261.246128
 31
0.0
 70
   163
  1
{<>}\P{2X}
  3
SU1$3
100
AcDbDiametricDimension
 15
362.963692
 25
308.044441
 35
0.0
 40
0.0
1001
ACAD
1000
DSTYLE
1002
{
1070
    47
1040
0.03
1070
    71
1070
     1
1070
    48
1040
0.03
1070
   272
1070
     2
1070
    40
1040
25.4
1070
     3
1000
mm
1070
   271
1070
     2
1070
     4
1000
"
1070
   274
1070
     3
1070
   143
1040
0.03937
1070
   171
1070
     3
1070
   170
1070
     1
1002
}
  0
DIMENSION
  5
DF0
100
AcDbEntity
  8
DIM
100
AcDbDimension
  2
*D36
 10
364.027706
 20
302.306244
 30
0.0
 11
444.985519
 21
238.50045
 31
0.0
 70
   163
  1
{<>}\P{4X}
  3
SU1$3
100
AcDbDiametricDimension
 15
365.876175
 25
299.693637
 35
0.0
 40
0.0
1001
ACAD
1000
DSTYLE
1002
{
1070
    47
1040
0.03
1070
    48
1040
0.03
1070
   272
1070
     2
1070
    40
1040
25.4
1070
     3
1000
mm
1070
   271
1070
     2
1070
     4
1000
"
1070
   274
1070
     3
1070
   143
1040
0.03937
1070
   171
1070
     3
1070
   170
1070
     1
1002
}
  0
DIMENSION
  5
E89
100
AcDbEntity
  8
DIM
100
AcDbDimension
  2
*D37
 10
217.269128
 20
222.976338
 30
0.0
 11
281.321144
 21
208.32585
 31
0.0
 70
    34
  3
SU1$2
100
AcDb2LineAngularDimension
 13
319.164866
 23
60.1927
 33
0.0
 14
319.164866
 24
484.277863
 34
0.0
 15
343.313956
 25
82.743467
 35
0.0
 16
288.628458
 26
210.825109
 36
0.0
1001
ACAD
1000
DSTYLE
1002
{
1070
    47
1040
0.03
1070
    48
1040
0.03
1070
   272
1070
     2
1070
    40
1040
25.4
1070
   271
1070
     2
1070
     4
1000
"
1070
   274
1070
     3
1070
   143
1040
0.03937
1070
   171
1070
     3
1070
   170
1070
     1
1002
}
  0
INSERT
  5
E9A
100
AcDbEntity
  8
HATCH
100
AcDbBlockReference
  2
*X38
 10
0.0
 20
0.0
 30
0.0
1001
ACAD
1000
HATCH
1002
{
1070
    19
1000
ANSI31
1040
10.0
1040
0.0
1000
ASC_BOUNDS
1070
     1
1070
     1
1070
     6
1005
B19
1005
B1C
1005
B1F
1005
B1D
1005
B1A
1005
B15
1000
ASC_SEEDPOINT
1011
360.021185
1021
95.221238
1031
0.0
1002
}
  0
ENDSEC
  0
SECTION
  2
OBJECTS
  0
DICTIONARY
  5
C
100
AcDbDictionary
  3
ACAD_GROUP
350
D
  3
ACAD_MLINESTYLE
350
E
  3
ACASAPPOBJECT
350
7B
  3
ACASGREF_MASTER
350
2D
  3
ACCELVIEW
350
86
  3
ACDMSYSVARMGR
350
49
  3
ACGREF_MASTER
350
2B
  3
ACME_COMMAND_HISTORY
350
29
  3
ACME_SCOPE_NAME
350
28
  3
AD_APPL
350
3C
  3
AD_DRAWMGR_NAME
350
5E
  3
AD_GREF_MODULE
350
44
  3
AD_HOLENOTE_REPOSITORY
350
43
  3
ADSYSVARMGR
350
32
  3
AMI_MASTER
350
2C
  3
AUTOCAD_ASSEMBLIES_PROJECT
350
6A
  3
DESIGNER_ASSEMBLIES_SYSVARS
350
65
  0
DICTIONARY
  5
D
102
{ACAD_REACTORS
330
C
102
}
100
AcDbDictionary
  0
DICTIONARY
  5
E
102
{ACAD_REACTORS
330
C
102
}
100
AcDbDictionary
  3
STANDARD
350
13
  0
ACAD_ZOMBIE_OBJECT
  5
7B
102
{ACAD_REACTORS
330
C
102
}
100
AcDbZombieObject
 90
      499
 91
      536
 93
        2
310
80
360
79
 94
        0
  0
ACAD_ZOMBIE_OBJECT
  5
2D
102
{ACAD_REACTORS
330
C
102
}
100
AcDbZombieObject
 90
      499
 91
      505
 93
       34
310
0100004040
 94
        0
  0
ACAD_ZOMBIE_OBJECT
  5
86
102
{ACAD_REACTORS
330
C
102
}
100
AcDbZombieObject
 90
      499
 91
      537
 93
       12
310
9010
330
3D
 94
        0
  0
ACAD_ZOMBIE_OBJECT
  5
49
102
{ACAD_REACTORS
330
C
102
}
100
AcDbZombieObject
 90
      499
 91
      510
 93
      176
310
4C5114810100000000000000000000000000000000004F
330
4A
330
4B
330
4C
330
4D
330
4E
330
50
330
52
330
53
330
54
330
55
330
56
330
57
330
58
330
59
330
5A
330
5B
330
5D
 94
        0
  0
ACAD_ZOMBIE_OBJECT
  5
2B
102
{ACAD_REACTORS
330
C
102
}
100
AcDbZombieObject
 90
      499
 91
      503
 93
      114
310
01000040C000000000000000000000
 94
        0
  0
ACAD_ZOMBIE_OBJECT
  5
29
102
{ACAD_REACTORS
330
C
102
}
100
AcDbZombieObject
 90
      499
 91
      501
 93
     3940
310
478050444494D3140405084E202D205341564501411112534C501014293880B4814D1551590548050444494D31404050A4E202D2053455456415201411112534C501014293880B4814D1551590548050444494D31404050A4E202D2053455456415201411112534C501014293880B4814D1551590548050444494D31404050
310
A4E202D2053455456415201411112534C501014213880B4814D055914050444494D31404050A4E202D2053455456415201411112534C501014293880B4814D1551590548050444494D31404050A4E202D2053455456415201411112534C501014293880B4814D1551590548050444494D31404050A4E202D20534554564152
310
01411112534C501014293880B4814D1551590548050444494D3140405084E202D205341564501411112534C5010142D3880B48149154D513D49140504554E444F80504554E444F805034E455780508554E444546494E4580508554E444546494E458050A4D454E55554E4C4F4144805084D454E554C4F41448050C41445F43
310
4F4E56455254523140805084E202D20554E444F014213880B4815539113C050C414D4C54595045434845434B40C05084E202D20554E444F014253880B481310565154805084E202D20554E444F01415310565154A01415310565154A014115539113E014115539113E014113D41153AE
 94
        0
  0
ACAD_ZOMBIE_OBJECT
  5
28
102
{ACAD_REACTORS
330
C
102
}
100
AcDbZombieObject
 90
      499
 91
      500
 93
      456
310
01010040931000000000000000000000000000000000000000000000000000000000000000000000000000000000000000000000000009010009
360
2E
360
2F
360
30
360
31
360
33
360
34
360
35
360
36
360
37
360
38
360
39
360
3A
360
3B
360
3E
360
3F
360
40
360
41
360
42
360
45
360
46
360
47
360
48
360
4A
360
4B
360
4C
360
4D
360
4E
360
50
360
52
360
53
360
54
360
55
360
56
360
57
360
58
360
59
360
5A
360
5B
360
5D
360
66
360
67
360
68
360
69
360
6E
360
6F
360
70
360
71
360
72
360
76
330
3D
 94
        0
  0
ACAD_ZOMBIE_OBJECT
  5
3C
102
{ACAD_REACTORS
330
C
102
}
100
AcDbZombieObject
 90
      499
 91
      514
 93
       42
310
000100004353
330
2E
 94
        0
  0
ACAD_ZOMBIE_OBJECT
  5
5E
102
{ACAD_REACTORS
330
C
102
}
100
AcDbZombieObject
 90
      499
 91
      526
 93
       42
310
00010000440E
330
45
 94
        0
  0
ACAD_ZOMBIE_OBJECT
  5
44
102
{ACAD_REACTORS
330
C
102
}
100
AcDbZombieObject
 90
      499
 91
      521
 93
      114
310
000000428000000000000000000009
 94
        0
  0
ACAD_ZOMBIE_OBJECT
  5
43
102
{ACAD_REACTORS
330
C
102
}
100
AcDbZombieObject
 90
      499
 91
      520
 93
        8
310
0027
330
42
 94
        0
  0
ACAD_ZOMBIE_OBJECT
  5
32
102
{ACAD_REACTORS
330
C
102
}
100
AcDbZombieObject
 90
      499
 91
      510
 93
      104
310
9094410100000000000000000000
330
33
330
34
330
35
330
36
330
37
330
38
330
39
330
3A
330
3B
 94
        0
  0
ACAD_ZOMBIE_OBJECT
  5
2C
102
{ACAD_REACTORS
330
C
102
}
100
AcDbZombieObject
 90
      499
 91
      504
 93
       34
310
0100004040
 94
        0
  0
ACAD_ZOMBIE_OBJECT
  5
6A
102
{ACAD_REACTORS
330
C
102
}
100
AcDbZombieObject
 90
      499
 91
      527
 93
       58
310
0100004180000002
330
70
330
76
330
71
 94
        0
  0
ACAD_ZOMBIE_OBJECT
  5
65
102
{ACAD_REACTORS
330
C
102
}
100
AcDbZombieObject
 90
      499
 91
      510
 93
       64
310
90444101000000002E
330
66
330
67
330
68
330
69
 94
        0
  0
MLINESTYLE
  5
13
102
{ACAD_REACTORS
330
E
102
}
100
AcDbMlineStyle
  2
STANDARD
 70
     0
  3

 62
     0
 51
90.0
 52
90.0
 71
     2
 49
0.5
 62
   256
  6
BYLAYER
 49
-0.5
 62
   256
  6
BYLAYER
  0
ACAD_ZOMBIE_OBJECT
  5
79
100
AcDbZombieObject
 90
      499
 91
      534
 93
      720
310
9064D2E312E313607014B7269BC41100000000000000E03F1EC52B91F85EA10FE1EC52B91F85EA10FD034153471EC52B91F85EA10FC000000FC83D797414650540C000000000000E03F3F2A7C749358940FC000000FC83D797414F
 94
        0
  0
ACAD_ZOMBIE_OBJECT
  5
2E
100
AcDbZombieObject
 90
      499
 91
      506
 93
      280
310
000000000000014119185D1940506462E312E3136014119185D1940506462E312E313665
330
28
330
2F
330
30
330
32
330
3D
 94
        0
  0
ACAD_ZOMBIE_OBJECT
  5
2F
100
AcDbZombieObject
 90
      499
 91
      507
 93
      120
310
00009024410100000092080002A6A600
330
28
330
3F
330
3E
330
0
 94
        0
  0
ACAD_ZOMBIE_OBJECT
  5
30
100
AcDbZombieObject
 90
      499
 91
      508
 93
       46
310
000000009208
330
28
330
0
330
31
 94
        0
  0
ACAD_ZOMBIE_OBJECT
  5
31
100
AcDbZombieObject
 90
      499
 91
      509
 93
       22
310
0000A9
330
28
 94
        0
  0
ACAD_ZOMBIE_OBJECT
  5
33
100
AcDbZombieObject
 90
      499
 91
      511
 93
      124
310
00000142905350D3D39114D414D69050
330
28
 94
        0
  0
ACAD_ZOMBIE_OBJECT
  5
34
100
AcDbZombieObject
 90
      499
 91
      511
 93
      124
310
000001429053549553115353D1115010
330
28
 94
        0
  0
ACAD_ZOMBIE_OBJECT
  5
35
100
AcDbZombieObject
 90
      499
 91
      511
 93
      108
310
00000142105354D2D353D1115016
330
28
 94
        0
  0
ACAD_ZOMBIE_OBJECT
  5
36
100
AcDbZombieObject
 90
      499
 91
      511
 93
      140
310
000001435053511253511254D41353D11160
330
28
 94
        0
  0
ACAD_ZOMBIE_OBJECT
  5
37
100
AcDbZombieObject
 90
      499
 91
      512
 93
      180
310
00000142905354D2D05391D513D3000000000000010405
330
28
 94
        0
  0
ACAD_ZOMBIE_OBJECT
  5
38
100
AcDbZombieObject
 90
      499
 91
      513
 93
      164
310
00000142505354D2D4D516531140505434F4E542A0
330
28
 94
        0
  0
ACAD_ZOMBIE_OBJECT
  5
39
100
AcDbZombieObject
 90
      499
 91
      511
 93
      108
310
00000142105350D3511112535013
330
28
 94
        0
  0
ACAD_ZOMBIE_OBJECT
  5
3A
100
AcDbZombieObject
 90
      499
 91
      513
 93
      116
310
000001425053541054919253114060
330
28
 94
        0
  0
ACAD_ZOMBIE_OBJECT
  5
3B
100
AcDbZombieObject
 90
      499
 91
      511
 93
      100
310
00000142105350D3D35414D5A0
330
28
 94
        0
  0
ACAD_ZOMBIE_OBJECT
  5
3E
100
AcDbZombieObject
 90
      499
 91
      516
 93
      164
310
000092090148200A00000440000FFFFFFFF0000001
330
28
330
3F
330
2F
330
3D
 94
        0
  0
ACAD_ZOMBIE_OBJECT
  5
3F
100
AcDbZombieObject
 90
      499
 91
      517
 93
       82
310
000040520802482A800000
330
28
330
3E
330
2F
330
3D
 94
        0
  0
ACAD_ZOMBIE_OBJECT
  5
40
100
AcDbZombieObject
 90
      499
 91
      509
 93
       22
310
0000A9
330
28
 94
        0
  0
ACAD_ZOMBIE_OBJECT
  5
41
100
AcDbZombieObject
 90
      499
 91
      518
 93
       38
310
000000920B
330
28
330
0
 94
        0
  0
ACAD_ZOMBIE_OBJECT
  5
42
100
AcDbZombieObject
 90
      499
 91
      519
 93
     3196
310
0000419208050A544852555F4452494C4C0142D09312539117D1149253130050A544852555F43424F52450142D09312539117D0D093D4914050A544852555F4353494E4B0142D09312539117D0D4D25392D0648201459EC94958C8094950535112504815121493D551D20B9F4051C7B252563202525414D444941205820252
310
5414D44455020444545507D014F5EC94958C8094950535112504815121493D551D20B9F57141ED0D093D49148094958C80949505350D112504816080949505350D091115408111151541F405437B252563202525414D4449412058202525414D44455020444545507D5C507B43424F524520252563202525414D4344494120
310
58202525414D434244455020444545507D014EDEC94958C8094950535112504815121493D551D20B9F57141ED0D4D25392C8094958C80949505350D112504816080949505350D4D05391C949591F405417B252563202525414D4449412058202525414D44455020444545507D5C507B4353494E4B20252563202525414D434
310
449412058202525414D4353414E472525647D2
330
28
 94
        0
  0
ACAD_ZOMBIE_OBJECT
  5
45
100
AcDbZombieObject
 90
      499
 91
      522
 93
      308
310
0000014119185D1940507442E312E313663014119185D1940507442E312E313663405010000004
330
28
330
46
330
48
330
49
 94
        0
  0
ACAD_ZOMBIE_OBJECT
  5
46
100
AcDbZombieObject
 90
      499
 91
      523
 93
       56
310
0000901441010045
330
28
330
47
 94
        0
  0
ACAD_ZOMBIE_OBJECT
  5
47
100
AcDbZombieObject
 90
      499
 91
      524
 93
       40
310
0000A4410169
330
28
 94
        0
  0
ACAD_ZOMBIE_OBJECT
  5
48
100
AcDbZombieObject
 90
      499
 91
      525
 93
       68
310
0000A44101920A4820
330
28
 94
        0
  0
ACAD_ZOMBIE_OBJECT
  5
4A
100
AcDbZombieObject
 90
      499
 91
      511
 93
      108
310
000001421053521310D05310D010
330
28
 94
        0
  0
ACAD_ZOMBIE_OBJECT
  5
4B
100
AcDbZombieObject
 90
      499
 91
      511
 93
      124
310
000001429053541493D2951654115013
330
28
 94
        0
  0
ACAD_ZOMBIE_OBJECT
  5
4C
100
AcDbZombieObject
 90
      499
 91
      511
 93
      124
310
00000142905354915554D15112535010
330
28
 94
        0
  0
ACAD_ZOMBIE_OBJECT
  5
4D
100
AcDbZombieObject
 90
      499
 91
      511
 93
      132
310
00000143105354D150D51253D391125366
330
28
 94
        0
  0
ACAD_ZOMBIE_OBJECT
  5
4E
100
AcDbZombieObject
 90
      499
 91
      511
 93
      124
310
00000142905355941093D49111549010
330
28
 94
        0
  0
ACAD_ZOMBIE_OBJECT
  5
50
100
AcDbZombieObject
 90
      499
 91
      513
 93
      180
310
00000142905352125113151654114050648494444454E1
330
28
 94
        0
  0
ACAD_ZOMBIE_OBJECT
  5
52
100
AcDbZombieObject
 90
      499
 91
      513
 93
      196
310
00000142905354D150D315165411405085048414E544F4D320
330
28
 94
        0
  0
ACAD_ZOMBIE_OBJECT
  5
53
100
AcDbZombieObject
 90
      499
 91
      511
 93
      108
310
00000142105354D51114D0D51021
330
28
 94
        0
  0
ACAD_ZOMBIE_OBJECT
  5
54
100
AcDbZombieObject
 90
      499
 91
      511
 93
      108
310
00000142105354D5111510541021
330
28
 94
        0
  0
ACAD_ZOMBIE_OBJECT
  5
55
100
AcDbZombieObject
 90
      499
 91
      511
 93
      108
310
00000142105354D5111115131021
330
28
 94
        0
  0
ACAD_ZOMBIE_OBJECT
  5
56
100
AcDbZombieObject
 90
      499
 91
      512
 93
      148
310
00000141905350D310D34295C8FC2F528BC3F4
330
28
 94
        0
  0
ACAD_ZOMBIE_OBJECT
  5
57
100
AcDbZombieObject
 90
      499
 91
      512
 93
      156
310
00000141D05350D311D05402B8716D9CEF7C33F4
330
28
 94
        0
  0
ACAD_ZOMBIE_OBJECT
  5
58
100
AcDbZombieObject
 90
      499
 91
      512
 93
      164
310
00000142105350D313D4D2150295C8FC2F528BC3F0
330
28
 94
        0
  0
ACAD_ZOMBIE_OBJECT
  5
59
100
AcDbZombieObject
 90
      499
 91
      511
 93
      100
310
00000141D05350D31410549018
330
28
 94
        0
  0
ACAD_ZOMBIE_OBJECT
  5
5A
100
AcDbZombieObject
 90
      499
 91
      511
 93
      100
310
0000014210535590539254D222
330
28
 94
        0
  0
ACAD_ZOMBIE_OBJECT
  5
5B
100
AcDbZombieObject
 90
      499
 91
      512
 93
      188
310
00000142D0535312539155121250D2C295C8FC2F5289C3F4
330
28
 94
        0
  0
ACAD_ZOMBIE_OBJECT
  5
5D
100
AcDbZombieObject
 90
      499
 91
      513
 93
      164
310
00000142105350D3151654114050643454E5445520
330
28
 94
        0
  0
ACAD_ZOMBIE_OBJECT
  5
66
100
AcDbZombieObject
 90
      499
 91
      511
 93
      132
310
00000142D05050555513D4D3D315915016
330
28
 94
        0
  0
ACAD_ZOMBIE_OBJECT
  5
67
100
AcDbZombieObject
 90
      499
 91
      511
 93
      156
310
00000143905050555513D054D4D1535093115010
330
28
 94
        0
  0
ACAD_ZOMBIE_OBJECT
  5
68
100
AcDbZombieObject
 90
      499
 91
      511
 93
      148
310
00000143505055925155D49154D513D4915014
330
28
 94
        0
  0
ACAD_ZOMBIE_OBJECT
  5
69
100
AcDbZombieObject
 90
      499
 91
      511
 93
      124
310
00000142D050525394D15495105094E0
330
28
 94
        0
  0
ACAD_ZOMBIE_OBJECT
  5
6E
100
AcDbZombieObject
 90
      499
 91
      528
 93
       32
310
000000004D
330
28
340
6B
330
6F
330
6B
 94
        0
  0
ACAD_ZOMBIE_OBJECT
  5
6F
100
AcDbZombieObject
 90
      499
 91
      529
 93
      111
310
000001411050D05110400522080D
330
28
330
6E
 94
        0
  0
ACAD_ZOMBIE_OBJECT
  5
70
100
AcDbZombieObject
 90
      499
 91
      530
 93
       72
310
000000A44101A4410100
330
28
330
6F
 94
        0
  0
ACAD_ZOMBIE_OBJECT
  5
71
100
AcDbZombieObject
 90
      499
 91
      531
 93
       80
310
0000901441010000000000
330
28
330
72
330
72
330
72
330
72
 94
        0
  0
ACAD_ZOMBIE_OBJECT
  5
72
100
AcDbZombieObject
 90
      499
 91
      532
 93
      173
310
00000000406AAAAAAAAAAAAAAAAA806A44101A441010
330
28
330
71
330
6F
 94
        0
  0
ACAD_ZOMBIE_OBJECT
  5
76
100
AcDbZombieObject
 90
      499
 91
      533
 93
       26
310
00008000
330
28
330
0
 94
        0
  0
ENDSEC
  0
EOF
