  0
SECTION
  2
HEADER
  9
$ACADVER
  1
AC1012
  9
$DWGCODEPAGE
  3
ansi_1252
  9
$INSBASE
 10
0.0
 20
0.0
 30
0.0
  9
$EXTMIN
 10
12.7
 20
15.875
 30
0.0
  9
$EXTMAX
 10
520.721906
 20
390.525
 30
0.0
  9
$LIMMIN
 10
0.0
 20
0.0
  9
$LIMMAX
 10
534.0
 20
406.0
  9
$ORTHOMODE
 70
     1
  9
$REGENMODE
 70
     1
  9
$FILLMODE
 70
     1
  9
$QTEXTMODE
 70
     0
  9
$MIRRTEXT
 70
     1
  9
$DRAGMODE
 70
     2
  9
$LTSCALE
 40
10.0
  9
$OSMODE
 70
     0
  9
$ATTMODE
 70
     1
  9
$TEXTSIZE
 40
5.0
  9
$TRACEWID
 40
0.05
  9
$TEXTSTYLE
  7
STANDARD
  9
$CLAYER
  8
TEXT
  9
$CELTYPE
  6
BYLAYER
  9
$CECOLOR
 62
   256
  9
$CELTSCALE
 40
1.0
  9
$DELOBJ
 70
     1
  9
$DISPSILH
 70
     0
  9
$DIMSCALE
 40
10.0
  9
$DIMASZ
 40
0.18
  9
$DIMEXO
 40
0.0625
  9
$DIMDLI
 40
0.38
  9
$DIMRND
 40
0.0
  9
$DIMDLE
 40
0.0
  9
$DIMEXE
 40
0.18
  9
$DIMTP
 40
0.0
  9
$DIMTM
 40
0.0
  9
$DIMTXT
 40
0.18
  9
$DIMCEN
 40
0.09
  9
$DIMTSZ
 40
0.0
  9
$DIMTOL
 70
     0
  9
$DIMLIM
 70
     0
  9
$DIMTIH
 70
     1
  9
$DIMTOH
 70
     1
  9
$DIMSE1
 70
     0
  9
$DIMSE2
 70
     0
  9
$DIMTAD
 70
     0
  9
$DIMZIN
 70
     0
  9
$DIMBLK
  1

  9
$DIMASO
 70
     1
  9
$DIMSHO
 70
     1
  9
$DIMPOST
  1
mm
  9
$DIMAPOST
  1
"
  9
$DIMALT
 70
     1
  9
$DIMALTD
 70
     3
  9
$DIMALTF
 40
0.03937
  9
$DIMLFAC
 40
1.0
  9
$DIMTOFL
 70
     0
  9
$DIMTVP
 40
0.0
  9
$DIMTIX
 70
     0
  9
$DIMSOXD
 70
     0
  9
$DIMSAH
 70
     0
  9
$DIMBLK1
  1

  9
$DIMBLK2
  1

  9
$DIMSTYLE
  2
STANDARD
  9
$DIMCLRD
 70
     0
  9
$DIMCLRE
 70
     0
  9
$DIMCLRT
 70
     0
  9
$DIMTFAC
 40
1.0
  9
$DIMGAP
 40
0.09
  9
$DIMJUST
 70
     0
  9
$DIMSD1
 70
     0
  9
$DIMSD2
 70
     0
  9
$DIMTOLJ
 70
     1
  9
$DIMTZIN
 70
     0
  9
$DIMALTZ
 70
     0
  9
$DIMALTTZ
 70
     0
  9
$DIMFIT
 70
     0
  9
$DIMUPT
 70
     0
  9
$DIMUNIT
 70
     2
  9
$DIMDEC
 70
     2
  9
$DIMTDEC
 70
     4
  9
$DIMALTU
 70
     2
  9
$DIMALTTD
 70
     2
  9
$DIMTXSTY
  7
STANDARD
  9
$DIMAUNIT
 70
     0
  9
$LUNITS
 70
     2
  9
$LUPREC
 70
     4
  9
$SKETCHINC
 40
0.1
  9
$FILLETRAD
 40
0.0
  9
$AUNITS
 70
     0
  9
$AUPREC
 70
     0
  9
$MENU
  1
C:\CIM\ACAD
  9
$ELEVATION
 40
0.0
  9
$PELEVATION
 40
0.0
  9
$THICKNESS
 40
0.0
  9
$LIMCHECK
 70
     0
  9
$BLIPMODE
 70
     1
  9
$CHAMFERA
 40
0.0
  9
$CHAMFERB
 40
0.0
  9
$CHAMFERC
 40
0.0
  9
$CHAMFERD
 40
0.0
  9
$SKPOLY
 70
     0
  9
$TDCREATE
 40
2449993.600116319
  9
$TDUPDATE
 40
2449996.588155324
  9
$TDINDWG
 40
0.0188525463
  9
$TDUSRTIMER
 40
0.0188525463
  9
$USRTIMER
 70
     1
  9
$ANGBASE
 50
0.0
  9
$ANGDIR
 70
     0
  9
$PDMODE
 70
     0
  9
$PDSIZE
 40
0.0
  9
$PLINEWID
 40
0.0
  9
$COORDS
 70
     1
  9
$SPLFRAME
 70
     0
  9
$SPLINETYPE
 70
     6
  9
$SPLINESEGS
 70
     8
  9
$ATTDIA
 70
     0
  9
$ATTREQ
 70
     1
  9
$HANDLING
 70
     1
  9
$HANDSEED
  5
212F
  9
$SURFTAB1
 70
     6
  9
$SURFTAB2
 70
     6
  9
$SURFTYPE
 70
     6
  9
$SURFU
 70
     6
  9
$SURFV
 70
     6
  9
$UCSNAME
  2
CIM_TB_HOLD
  9
$UCSORG
 10
0.0
 20
0.0
 30
0.0
  9
$UCSXDIR
 10
1.0
 20
0.0
 30
0.0
  9
$UCSYDIR
 10
0.0
 20
1.0
 30
0.0
  9
$PUCSNAME
  2

  9
$PUCSORG
 10
0.0
 20
0.0
 30
0.0
  9
$PUCSXDIR
 10
1.0
 20
0.0
 30
0.0
  9
$PUCSYDIR
 10
0.0
 20
1.0
 30
0.0
  9
$USERI1
 70
     0
  9
$USERI2
 70
     0
  9
$USERI3
 70
     0
  9
$USERI4
 70
     0
  9
$USERI5
 70
     0
  9
$USERR1
 40
0.0
  9
$USERR2
 40
0.0
  9
$USERR3
 40
0.0
  9
$USERR4
 40
0.0
  9
$USERR5
 40
0.0
  9
$WORLDVIEW
 70
     1
  9
$SHADEDGE
 70
     3
  9
$SHADEDIF
 70
    70
  9
$TILEMODE
 70
     1
  9
$MAXACTVP
 70
    16
  9
$PINSBASE
 10
0.0
 20
0.0
 30
0.0
  9
$PLIMCHECK
 70
     0
  9
$PEXTMIN
 10
1.000000E+20
 20
1.000000E+20
 30
1.000000E+20
  9
$PEXTMAX
 10
-1.000000E+20
 20
-1.000000E+20
 30
-1.000000E+20
  9
$PLIMMIN
 10
0.0
 20
0.0
  9
$PLIMMAX
 10
12.0
 20
9.0
  9
$UNITMODE
 70
     0
  9
$VISRETAIN
 70
     0
  9
$PLINEGEN
 70
     0
  9
$PSLTSCALE
 70
     1
  9
$TREEDEPTH
 70
  3020
  9
$PICKSTYLE
 70
     1
  9
$CMLSTYLE
  2
STANDARD
  9
$CMLJUST
 70
     0
  9
$CMLSCALE
 40
1.0
  9
$SAVEIMAGES
 70
     0
  0
ENDSEC
  0
SECTION
  2
CLASSES
  0
CLASS
  1
ACMESCOPE
  2
AcMeScope
  3
ACME_MODULE_NAME
 90
        0
280
     0
281
     0
  0
CLASS
  1
ACMECOMMANDHISTORY
  2
AcMeCommandHistory
  3
ACME_MODULE_NAME
 90
        0
280
     0
281
     0
  0
CLASS
  1
AcRfInsAdjusterMgr
  2
AcRfInsAdjusterMgr
  3
ACME_MODULE_NAME
 90
        0
280
     0
281
     0
  0
CLASS
  1
ACGREFMASTER
  2
AcGrefMaster
  3
"AcadRfServer"
 90
        0
280
     0
281
     0
  0
CLASS
  1
AmiMaster
  2
AmiMaster
  3
"AmiServices"
 90
        0
280
     0
281
     0
  0
CLASS
  1
ACASGREFMASTER
  2
AcAsGrefMaster
  3
"AutoSurfResolver"
 90
        0
280
     0
281
     0
  0
CLASS
  1
ADAPPL
  2
AcAdAppl
  3
"DesignerServices"
 90
        0
280
     0
281
     0
  0
CLASS
  1
DEPMGR
  2
AcAdDepMgr
  3
"DesignerServices"
 90
        0
280
     0
281
     0
  0
CLASS
  1
PARAMMGR
  2
AcAdParamMgr
  3
"DesignerServices"
 90
        0
280
     0
281
     0
  0
CLASS
  1
PARAMSCOPE
  2
AcAdParamScope
  3
"DesignerServices"
 90
        0
280
     0
281
     0
  0
CLASS
  1
"IM_SYSVAR_MAN"
  2
AcImSysVarManager
  3
"ADAM"
 90
        0
280
     0
281
     0
  0
CLASS
  1
SYSTEM_VAR_INT
  2
AcImIntSysVar
  3
"ADAM"
 90
        0
280
     0
281
     0
  0
CLASS
  1
SYSTEM_VAR_REAL
  2
AcImRealSysVar
  3
"ADAM"
 90
        0
280
     0
281
     0
  0
CLASS
  1
SYSTEM_VAR_STR
  2
AcImStrSysVar
  3
"ADAM"
 90
        0
280
     0
281
     0
  0
CLASS
  1
NAMEDAPPL
  2
AcAdNamedAppl
  3
"DesignerServices"
 90
        0
280
     0
281
     0
  0
CLASS
  1
ADPART
  2
AcAdPart
  3
"DesignerServices"
 90
        0
280
     0
281
     1
  0
CLASS
  1
ADBASE
  2
AcAdBase
  3
"DesignerServices"
 90
        0
280
     0
281
     0
  0
CLASS
  1
BODYID
  2
AcAdBodyId
  3
"DesignerServices"
 90
        0
280
     0
281
     0
  0
CLASS
  1
WORKPLANEDISPLAYMGR
  2
AcAdDisplayMgr
  3
"DesignerServices"
 90
        0
280
     0
281
     0
  0
CLASS
  1
ADHNTMPLT
  2
AdHoleNoteTemplateMgr
  3
"DesignerServices"
 90
        0
280
     0
281
     0
  0
CLASS
  1
AM_HNTEMPLATE_MGR_NAME
  2
AdHoleNoteTemplateMgrName
  3
"DesignerServices"
 90
        0
280
     0
281
     0
  0
CLASS
  1
AcAdGrefModule
  2
AcAdGrefModule
  3
AD_GREF_SERVICES_NSTR
 90
        0
280
     0
281
     0
  0
CLASS
  1
AM_DRAWING_MGR
  2
AcDmDwgMgr
  3
"Designer_Drawing_Mgmt"
 90
        0
280
     0
281
     0
  0
CLASS
  1
AM_DWG_DOCUMENT
  2
AcDmDwgDocument
  3
"Designer_Drawing_Mgmt"
 90
        0
280
     0
281
     0
  0
CLASS
  1
AM_DWG_SHEET
  2
AcDmSheet
  3
"Designer_Drawing_Mgmt"
 90
        0
280
     0
281
     0
  0
CLASS
  1
AM_VIEWDIMPARMAP
  2
AcDmViewDimParMap
  3
"Designer_Drawing_Mgmt"
 90
        0
280
     0
281
     0
  0
CLASS
  1
AM_DWGMGR_NAME
  2
AcDmDwgMgrName
  3
"Designer_Drawing_Mgmt"
 90
        0
280
     0
281
     0
  0
CLASS
  1
ACAMPROJECT
  2
AcAmProject
  3
"DesignerAssemblies"
 90
        0
280
     0
281
     0
  0
CLASS
  1
ACAMGRCOMPDEF
  2
AcAmGrCompDef
  3
"DesignerAssemblies"
 90
        0
280
     0
281
     0
  0
CLASS
  1
ACAMCOMPDEF
  2
AcAmCompDef
  3
"DesignerAssemblies"
 90
        0
280
     0
281
     0
  0
CLASS
  1
ACAMCOMPDEFMGR
  2
AcAmCompDefMgr
  3
"DesignerAssemblies"
 90
        0
280
     0
281
     0
  0
CLASS
  1
AMCONTEXTMGR
  2
AcAmContextMgr
  3
"DesignerAssemblies"
 90
        0
280
     0
281
     0
  0
CLASS
  1
AcAmContextModeler
  2
AcAmContextModeler
  3
"DesignerAssemblies"
 90
        0
280
     0
281
     0
  0
CLASS
  1
ACAMDRAWINGMAN
  2
AcAmDrawingMan
  3
"DesignerAssemblies"
 90
        0
280
     0
281
     0
  0
CLASS
  1
ASSYSVARS
  2
AcAsSysVars
  3
"AutoSurf"
 90
        0
280
     0
281
     0
  0
CLASS
  1
ASSTATICVARS
  2
AcAsStaticVars
  3
"AutoSurf"
 90
        0
280
     0
281
     0
  0
CLASS
  1
ASAPP
  2
AcAsAppObject
  3
"AutoSurf"
 90
        0
280
     0
281
     0
  0
CLASS
  1
AGDICTIONARY
  2
AgDictionary
  3
"AccelView"
 90
        1
280
     0
281
     0
  0
ENDSEC
  0
SECTION
  2
TABLES
  0
TABLE
  2
VPORT
  5
8
100
AcDbSymbolTable
 70
     3
  0
VPORT
  5
212E
100
AcDbSymbolTableRecord
100
AcDbViewportTableRecord
  2
*ACTIVE
 70
     0
 10
0.0
 20
0.0
 11
1.0
 21
1.0
 12
312.812304
 22
203.2
 13
0.0
 23
0.0
 14
1.0
 24
1.0
 15
10.0
 25
10.0
 16
0.0
 26
0.0
 36
1.0
 17
0.0
 27
0.0
 37
0.0
 40
374.65
 41
1.602094
 42
50.0
 43
0.0
 44
0.0
 50
0.0
 51
0.0
 71
     0
 72
   100
 73
     1
 74
     1
 75
     0
 76
     1
 77
     0
 78
     0
  0
ENDTAB
  0
TABLE
  2
LTYPE
  5
5
100
AcDbSymbolTable
 70
     6
  0
LTYPE
  5
14
100
AcDbSymbolTableRecord
100
AcDbLinetypeTableRecord
  2
BYBLOCK
 70
     0
  3

 72
    65
 73
     0
 40
0.0
  0
LTYPE
  5
15
100
AcDbSymbolTableRecord
100
AcDbLinetypeTableRecord
  2
BYLAYER
 70
     0
  3

 72
    65
 73
     0
 40
0.0
  0
LTYPE
  5
16
100
AcDbSymbolTableRecord
100
AcDbLinetypeTableRecord
  2
CONTINUOUS
 70
    64
  3
Solid line
 72
    65
 73
     0
 40
0.0
  0
LTYPE
  5
24
100
AcDbSymbolTableRecord
100
AcDbLinetypeTableRecord
  2
CENTER
 70
    64
  3
____ _ ____ _ ____ _ ____ _ ____ _ ____ _ ____ 
 72
    65
 73
     4
 40
2.0
 49
1.25
 74
     0
 49
-0.25
 74
     0
 49
0.25
 74
     0
 49
-0.25
 74
     0
  0
LTYPE
  5
26
100
AcDbSymbolTableRecord
100
AcDbLinetypeTableRecord
  2
HIDDEN
 70
    64
  3
__ __ __ __ __ __ __ __ __ __ __ __ __ __ __ __
 72
    65
 73
     2
 40
0.375
 49
0.25
 74
     0
 49
-0.125
 74
     0
  0
LTYPE
  5
20FF
100
AcDbSymbolTableRecord
100
AcDbLinetypeTableRecord
  2
PHANTOM2
 70
     0
  3
___ _ _ ___ _ _ ___ _ _ ___ _ _ ___ _ _ ___ _ _
 72
    65
 73
     6
 40
1.25
 49
0.625
 74
     0
 49
-0.125
 74
     0
 49
0.125
 74
     0
 49
-0.125
 74
     0
 49
0.125
 74
     0
 49
-0.125
 74
     0
  0
LTYPE
  5
2129
100
AcDbSymbolTableRecord
100
AcDbLinetypeTableRecord
  2
ASULTYPE
 70
     0
  3
Solid line
 72
    65
 73
     2
 40
3.0
 49
2.5
 74
     0
 49
0.5
 74
     0
  0
LTYPE
  5
212A
100
AcDbSymbolTableRecord
100
AcDbLinetypeTableRecord
  2
ASVLTYPE
 70
     0
  3
__ __ __ __ __ __ __ __ __ __ __ __ __ __ __ __ __ __ __ __ __
 72
    65
 73
     2
 40
0.75
 49
0.5
 74
     0
 49
-0.25
 74
     0
  0
ENDTAB
  0
TABLE
  2
LAYER
  5
2
100
AcDbSymbolTable
 70
    22
  0
LAYER
  5
F
100
AcDbSymbolTableRecord
100
AcDbLayerTableRecord
  2
0
 70
     0
 62
     7
  6
CONTINUOUS
  0
LAYER
  5
23
100
AcDbSymbolTableRecord
100
AcDbLayerTableRecord
  2
CENTER
 70
    64
 62
     1
  6
CENTER
  0
LAYER
  5
25
100
AcDbSymbolTableRecord
100
AcDbLayerTableRecord
  2
HIDDEN
 70
    64
 62
     7
  6
HIDDEN
  0
LAYER
  5
29
100
AcDbSymbolTableRecord
100
AcDbLayerTableRecord
  2
DIM
 70
    64
 62
     3
  6
CONTINUOUS
  0
LAYER
  5
2A
100
AcDbSymbolTableRecord
100
AcDbLayerTableRecord
  2
TEXT
 70
    64
 62
     7
  6
CONTINUOUS
  0
LAYER
  5
48
100
AcDbSymbolTableRecord
100
AcDbLayerTableRecord
  2
BORDER
 70
    64
 62
     6
  6
CONTINUOUS
  0
LAYER
  5
22F
100
AcDbSymbolTableRecord
100
AcDbLayerTableRecord
  2
SCRATCH
 70
    64
 62
     7
  6
CONTINUOUS
  0
LAYER
  5
230
100
AcDbSymbolTableRecord
100
AcDbLayerTableRecord
  2
DEFPOINTS
 70
    64
 62
     7
  6
CONTINUOUS
  0
LAYER
  5
231
100
AcDbSymbolTableRecord
100
AcDbLayerTableRecord
  2
BUSHING
 70
    64
 62
     3
  6
CONTINUOUS
  0
LAYER
  5
233
100
AcDbSymbolTableRecord
100
AcDbLayerTableRecord
  2
UPILEX
 70
    64
 62
     3
  6
CONTINUOUS
  0
LAYER
  5
234
100
AcDbSymbolTableRecord
100
AcDbLayerTableRecord
  2
AIN
 70
    64
 62
     5
  6
CONTINUOUS
  0
LAYER
  5
235
100
AcDbSymbolTableRecord
100
AcDbLayerTableRecord
  2
FOOT
 70
    64
 62
     1
  6
CONTINUOUS
  0
LAYER
  5
B7E
100
AcDbSymbolTableRecord
100
AcDbLayerTableRecord
  2
L3_
 70
    64
 62
     1
  6
CONTINUOUS
  0
LAYER
  5
B7F
100
AcDbSymbolTableRecord
100
AcDbLayerTableRecord
  2
KEVLAR
 70
    64
 62
     2
  6
CONTINUOUS
  0
LAYER
  5
210D
100
AcDbSymbolTableRecord
100
AcDbLayerTableRecord
  2
AM_VIEWS
 70
     0
 62
    -7
  6
CONTINUOUS
  0
LAYER
  5
210E
100
AcDbSymbolTableRecord
100
AcDbLayerTableRecord
  2
AM_PARDIM
 70
     0
 62
     3
  6
CONTINUOUS
  0
LAYER
  5
210F
100
AcDbSymbolTableRecord
100
AcDbLayerTableRecord
  2
AM_REFDIM
 70
     0
 62
     4
  6
CONTINUOUS
  0
LAYER
  5
2110
100
AcDbSymbolTableRecord
100
AcDbLayerTableRecord
  2
AM_VIS
 70
     0
 62
     7
  6
CONTINUOUS
  0
LAYER
  5
2111
100
AcDbSymbolTableRecord
100
AcDbLayerTableRecord
  2
AM_HID
 70
    64
 62
     7
  6
HIDDEN
  0
LAYER
  5
2120
100
AcDbSymbolTableRecord
100
AcDbLayerTableRecord
  2
AM_TR
 70
     0
 62
     7
  6
CONTINUOUS
  0
LAYER
  5
2121
100
AcDbSymbolTableRecord
100
AcDbLayerTableRecord
  2
AM_BM
 70
     0
 62
     7
  6
CONTINUOUS
  0
LAYER
  5
2122
100
AcDbSymbolTableRecord
100
AcDbLayerTableRecord
  2
AM_BL
 70
     0
 62
     7
  6
CONTINUOUS
  0
ENDTAB
  0
TABLE
  2
STYLE
  5
3
100
AcDbSymbolTable
 70
     3
  0
STYLE
  5
10
100
AcDbSymbolTableRecord
100
AcDbTextStyleTableRecord
  2
STANDARD
 70
    64
 40
0.0
 41
1.0
 50
0.0
 71
     0
 42
5.0
  3
txt
  4

  0
STYLE
  5
28
100
AcDbSymbolTableRecord
100
AcDbTextStyleTableRecord
  2
CIM_TB
 70
    64
 40
0.0
 41
1.0
 50
0.0
 71
     0
 42
0.2
  3
romans
  4

  0
STYLE
  5
49
100
AcDbSymbolTableRecord
100
AcDbTextStyleTableRecord
  2
ADESK2
 70
    64
 40
0.0
 41
1.0
 50
0.0
 71
     0
 42
0.065
  3
romans
  4

  0
ENDTAB
  0
TABLE
  2
VIEW
  5
6
100
AcDbSymbolTable
 70
     0
  0
ENDTAB
  0
TABLE
  2
UCS
  5
7
100
AcDbSymbolTable
 70
     1
  0
UCS
  5
2D
100
AcDbSymbolTableRecord
100
AcDbUCSTableRecord
  2
CIM_TB_HOLD
 70
     0
 10
0.0
 20
0.0
 30
0.0
 11
1.0
 21
0.0
 31
0.0
 12
0.0
 22
1.0
 32
0.0
  0
ENDTAB
  0
TABLE
  2
APPID
  5
9
100
AcDbSymbolTable
 70
     6
  0
APPID
  5
11
100
AcDbSymbolTableRecord
100
AcDbRegAppTableRecord
  2
ACAD
 70
     0
  0
APPID
  5
22
100
AcDbSymbolTableRecord
100
AcDbRegAppTableRecord
  2
TB_S_MPD
 70
     0
  0
APPID
  5
210C
100
AcDbSymbolTableRecord
100
AcDbRegAppTableRecord
  2
AD_DRAW
 70
     0
  0
APPID
  5
2124
100
AcDbSymbolTableRecord
100
AcDbRegAppTableRecord
  2
DESIGNERASSEMBLIES
 70
     0
  0
APPID
  5
2125
100
AcDbSymbolTableRecord
100
AcDbRegAppTableRecord
  2
MCAD_NO_VIS
 70
     0
  0
APPID
  5
212B
100
AcDbSymbolTableRecord
100
AcDbRegAppTableRecord
  2
ASURF_PCURVE_APPNAME
 70
     0
  0
ENDTAB
  0
TABLE
  2
DIMSTYLE
  5
A
100
AcDbSymbolTable
 70
     3
  0
DIMSTYLE
105
1D
100
AcDbSymbolTableRecord
100
AcDbDimStyleTableRecord
  2
STANDARD
 70
     0
  3

  4

  5

  6

  7

 40
1.0
 41
0.18
 42
0.0625
 43
0.38
 44
0.18
 45
0.0
 46
0.0
 47
0.0
 48
0.0
140
0.18
141
0.09
142
0.0
143
25.4
144
1.0
145
0.0
146
1.0
147
0.09
 71
     0
 72
     0
 73
     1
 74
     1
 75
     0
 76
     0
 77
     0
 78
     0
170
     0
171
     2
172
     0
173
     0
174
     0
175
     0
176
     0
177
     0
178
     0
270
     2
271
     3
272
     4
273
     2
274
     2
340
10
275
     0
280
     0
281
     0
282
     0
283
     1
284
     0
285
     0
286
     0
287
     0
288
     0
  0
DIMSTYLE
105
2B
100
AcDbSymbolTableRecord
100
AcDbDimStyleTableRecord
  2
STANDARD$4
 70
     0
  3

  4

  5

  6

  7

 40
1.0
 41
0.18
 42
0.0625
 43
0.38
 44
0.18
 45
0.0
 46
0.0
 47
0.0
 48
0.0
140
0.18
141
0.09
142
0.0
143
25.4
144
1.0
145
0.0
146
1.0
147
0.09
 71
     0
 72
     0
 73
     1
 74
     1
 75
     0
 76
     0
 77
     0
 78
     0
170
     0
171
     2
172
     0
173
     0
174
     0
175
     0
176
     0
177
     0
178
     0
270
     2
271
     4
272
     4
273
     2
274
     2
340
10
275
     0
280
     0
281
     0
282
     0
283
     1
284
     0
285
     0
286
     0
287
     3
288
     0
  0
DIMSTYLE
105
2C
100
AcDbSymbolTableRecord
100
AcDbDimStyleTableRecord
  2
STANDARD$3
 70
     0
  3

  4

  5

  6

  7

 40
1.0
 41
0.18
 42
0.0625
 43
0.38
 44
0.18
 45
0.0
 46
0.0
 47
0.0
 48
0.0
140
0.18
141
0.09
142
0.0
143
25.4
144
1.0
145
0.0
146
1.0
147
0.09
 71
     0
 72
     0
 73
     1
 74
     1
 75
     0
 76
     0
 77
     0
 78
     0
170
     0
171
     2
172
     0
173
     0
174
     0
175
     0
176
     0
177
     0
178
     0
270
     2
271
     4
272
     4
273
     2
274
     2
340
10
275
     0
280
     0
281
     0
282
     0
283
     1
284
     0
285
     0
286
     0
287
     3
288
     0
  0
ENDTAB
  0
TABLE
  2
BLOCK_RECORD
  5
1
100
AcDbSymbolTable
 70
    17
  0
BLOCK_RECORD
  5
1A
100
AcDbSymbolTableRecord
100
AcDbBlockTableRecord
  2
*MODEL_SPACE
  0
BLOCK_RECORD
  5
17
100
AcDbSymbolTableRecord
100
AcDbBlockTableRecord
  2
*PAPER_SPACE
  0
BLOCK_RECORD
  5
4A
100
AcDbSymbolTableRecord
100
AcDbBlockTableRecord
  2
C-BORDER
  0
BLOCK_RECORD
  5
83
100
AcDbSymbolTableRecord
100
AcDbBlockTableRecord
  2
*X1
  0
BLOCK_RECORD
  5
9D
100
AcDbSymbolTableRecord
100
AcDbBlockTableRecord
  2
*X2
  0
BLOCK_RECORD
  5
B8
100
AcDbSymbolTableRecord
100
AcDbBlockTableRecord
  2
HYBR-12
  0
BLOCK_RECORD
  5
11B
100
AcDbSymbolTableRecord
100
AcDbBlockTableRecord
  2
POST-1
  0
BLOCK_RECORD
  5
92B
100
AcDbSymbolTableRecord
100
AcDbBlockTableRecord
  2
*X5
  0
BLOCK_RECORD
  5
946
100
AcDbSymbolTableRecord
100
AcDbBlockTableRecord
  2
*X6
  0
BLOCK_RECORD
  5
961
100
AcDbSymbolTableRecord
100
AcDbBlockTableRecord
  2
HYBR-3
  0
BLOCK_RECORD
  5
9D6
100
AcDbSymbolTableRecord
100
AcDbBlockTableRecord
  2
POST-3
  0
BLOCK_RECORD
  5
C3A
100
AcDbSymbolTableRecord
100
AcDbBlockTableRecord
  2
*D9
  0
BLOCK_RECORD
  5
C48
100
AcDbSymbolTableRecord
100
AcDbBlockTableRecord
  2
*D10
  0
BLOCK_RECORD
  5
C57
100
AcDbSymbolTableRecord
100
AcDbBlockTableRecord
  2
*D11
  0
BLOCK_RECORD
  5
C65
100
AcDbSymbolTableRecord
100
AcDbBlockTableRecord
  2
*D12
  0
BLOCK_RECORD
  5
C73
100
AcDbSymbolTableRecord
100
AcDbBlockTableRecord
  2
*D13
  0
BLOCK_RECORD
  5
1EC7
100
AcDbSymbolTableRecord
100
AcDbBlockTableRecord
  2
*X14
  0
BLOCK_RECORD
  5
2053
100
AcDbSymbolTableRecord
100
AcDbBlockTableRecord
  2
*X15
  0
BLOCK_RECORD
  5
2118
100
AcDbSymbolTableRecord
100
AcDbBlockTableRecord
  2
*U16
  0
ENDTAB
  0
ENDSEC
  0
SECTION
  2
BLOCKS
  0
BLOCK
  5
1B
100
AcDbEntity
  8
0
100
AcDbBlockBegin
  2
*MODEL_SPACE
 70
     0
 10
0.0
 20
0.0
 30
0.0
  3
*MODEL_SPACE
  1

  0
ENDBLK
  5
1C
100
AcDbEntity
  8
0
100
AcDbBlockEnd
  0
BLOCK
  5
18
100
AcDbEntity
 67
     1
  8
0
100
AcDbBlockBegin
  2
*PAPER_SPACE
 70
     0
 10
0.0
 20
0.0
 30
0.0
  3
*PAPER_SPACE
  1

  0
ENDBLK
  5
19
100
AcDbEntity
 67
     1
  8
0
100
AcDbBlockEnd
  0
BLOCK
  5
80
100
AcDbEntity
  8
0
100
AcDbBlockBegin
  2
C-BORDER
 70
     0
 10
0.0
 20
0.0
 30
0.0
  3
C-BORDER
  1

  0
LINE
  5
48B
100
AcDbEntity
  8
TEXT
100
AcDbLine
 10
0.5
 20
14.875
 30
0.0
 11
3.0625
 21
14.875
 31
0.0
  0
LINE
  5
48C
100
AcDbEntity
  8
TEXT
100
AcDbLine
 10
3.0625
 20
14.875
 30
0.0
 11
3.0625
 21
15.375
 31
0.0
  0
CIRCLE
  5
48D
100
AcDbEntity
  8
TEXT
100
AcDbCircle
 10
1.177871
 20
15.111461
 30
0.0
 40
0.1875
  0
CIRCLE
  5
48E
100
AcDbEntity
  8
TEXT
100
AcDbCircle
 10
1.177871
 20
15.111461
 30
0.0
 40
0.09375
  0
LINE
  5
48F
100
AcDbEntity
  8
TEXT
  6
CENTER
100
AcDbLine
 10
0.943951
 20
15.111461
 30
0.0
 11
2.396621
 21
15.111461
 31
0.0
  0
LINE
  5
490
100
AcDbEntity
  8
TEXT
  6
CENTER
100
AcDbLine
 10
1.177871
 20
14.882779
 30
0.0
 11
1.177871
 21
15.350656
 31
0.0
  0
LINE
  5
491
100
AcDbEntity
  8
TEXT
100
AcDbLine
 10
1.646621
 20
15.205211
 30
0.0
 11
2.131263
 21
15.298961
 31
0.0
  0
LINE
  5
492
100
AcDbEntity
  8
TEXT
100
AcDbLine
 10
1.646621
 20
15.017711
 30
0.0
 11
2.131263
 21
14.923961
 31
0.0
  0
LINE
  5
493
100
AcDbEntity
  8
TEXT
100
AcDbLine
 10
1.646621
 20
15.017711
 30
0.0
 11
1.646621
 21
15.205211
 31
0.0
  0
LINE
  5
494
100
AcDbEntity
  8
TEXT
100
AcDbLine
 10
2.131263
 20
15.298961
 30
0.0
 11
2.131263
 21
14.923961
 31
0.0
  0
TEXT
  5
495
100
AcDbEntity
  8
TEXT
100
AcDbText
 10
0.6875
 20
14.689828
 30
0.0
 40
0.1
  1
THIRD ANGLE PROJECTION
100
AcDbText
  0
LINE
  5
496
100
AcDbEntity
  8
TEXT
100
AcDbLine
 10
3.0625
 20
14.875
 30
0.0
 11
3.0625
 21
14.625
 31
0.0
  0
LINE
  5
497
100
AcDbEntity
  8
TEXT
100
AcDbLine
 10
3.0625
 20
14.625
 30
0.0
 11
0.5
 21
14.625
 31
0.0
  0
TEXT
  5
498
100
AcDbEntity
  8
TEXT
100
AcDbText
 10
15.40792
 20
1.861505
 30
0.0
 40
0.065
  1
  %%P 0.5%%D
  7
ADESK2
100
AcDbText
  0
TEXT
  5
499
100
AcDbEntity
  8
TEXT
100
AcDbText
 10
15.40792
 20
1.966743
 30
0.0
 40
0.065
  1
ANGULAR
  7
ADESK2
100
AcDbText
  0
TEXT
  5
49A
100
AcDbEntity
  8
TEXT
100
AcDbText
 10
14.61466
 20
1.653744
 30
0.0
 40
0.065
  1
DO NOT SCALE DRAWING
  7
ADESK2
 72
     1
 11
15.229065
 21
1.653744
 31
0.0
100
AcDbText
  0
TEXT
  5
49B
100
AcDbEntity
  8
TEXT
100
AcDbText
 10
14.544023
 20
1.756267
 30
0.0
 40
0.065
  1
.XXX %%P .005
  7
ADESK2
100
AcDbText
  0
TEXT
  5
49C
100
AcDbEntity
  8
TEXT
100
AcDbText
 10
14.544023
 20
1.861505
 30
0.0
 40
0.065
  1
.XX  %%P .05
  7
ADESK2
100
AcDbText
  0
TEXT
  5
49D
100
AcDbEntity
  8
TEXT
100
AcDbText
 10
14.544023
 20
1.966743
 30
0.0
 40
0.065
  1
DECIMALS
  7
ADESK2
100
AcDbText
  0
TEXT
  5
49E
100
AcDbEntity
  8
TEXT
100
AcDbText
 10
14.930374
 20
2.074613
 30
0.0
 40
0.065
  1
TOLERANCES
  7
ADESK2
 72
     1
 11
15.229065
 21
2.074613
 31
0.0
100
AcDbText
  0
TEXT
  5
49F
100
AcDbEntity
  8
TEXT
100
AcDbText
 10
14.532636
 20
2.179851
 30
0.0
 40
0.065
  1
DIMENSIONS ARE IN INCHES
  7
ADESK2
 72
     1
 11
15.229065
 21
2.179851
 31
0.0
100
AcDbText
  0
TEXT
  5
4A0
100
AcDbEntity
  8
TEXT
100
AcDbText
 10
14.458351
 20
2.285089
 30
0.0
 40
0.065
  1
UNLESS OTHERWISE SPECIFIED:
  7
ADESK2
 72
     1
 11
15.229065
 21
2.285089
 31
0.0
100
AcDbText
  0
TEXT
  5
4A1
100
AcDbEntity
  8
BORDER
100
AcDbText
 10
16.916608
 20
2.075566
 30
0.0
 40
0.15
  1
HIGH ENERGY PHYSICS
100
AcDbText
  0
LINE
  5
4A2
100
AcDbEntity
  8
BORDER
100
AcDbLine
 10
0.5
 20
15.375
 30
0.0
 11
20.5
 21
15.375
 31
0.0
  0
TEXT
  5
4A3
100
AcDbEntity
  8
TEXT
100
AcDbText
 10
16.680137
 20
1.165354
 30
0.0
 40
0.075
  1
FILE #
100
AcDbText
  0
TEXT
  5
4A4
100
AcDbEntity
  8
BORDER
100
AcDbText
 10
16.367704
 20
0.951962
 30
0.0
 40
0.15
  1
C
100
AcDbText
  0
LINE
  5
4A5
100
AcDbEntity
  8
BORDER
100
AcDbLine
 10
0.5
 20
0.625
 30
0.0
 11
20.5
 21
0.625
 31
0.0
  0
LINE
  5
4A6
100
AcDbEntity
  8
BORDER
100
AcDbLine
 10
0.5
 20
15.375
 30
0.0
 11
0.5
 21
0.625
 31
0.0
  0
LINE
  5
4A7
100
AcDbEntity
  8
BORDER
100
AcDbLine
 10
20.5
 20
0.625
 30
0.0
 11
20.5
 21
15.375
 31
0.0
  0
LINE
  5
4A8
100
AcDbEntity
  8
BORDER
100
AcDbLine
 10
14.228025
 20
2.824147
 30
0.0
 11
20.500862
 21
2.824147
 31
0.0
  0
TEXT
  5
4A9
100
AcDbEntity
  8
BORDER
100
AcDbText
 10
14.407029
 20
2.549228
 30
0.0
 40
0.15
  1
UNIVERSITY OF CALIFORNIA @ SANTA BARBARA
100
AcDbText
  0
TEXT
  5
4AA
100
AcDbEntity
  8
TEXT
100
AcDbText
 10
14.297375
 20
1.479964
 30
0.0
 40
0.065
  1
DRAWN
  7
ADESK2
100
AcDbText
  0
LINE
  5
4AB
100
AcDbEntity
  8
BORDER
100
AcDbLine
 10
14.229065
 20
0.625
 30
0.0
 11
14.229065
 21
2.824147
 31
0.0
  0
LINE
  5
4AC
100
AcDbEntity
  8
BORDER
100
AcDbLine
 10
14.229065
 20
2.401501
 30
0.0
 11
20.500862
 21
2.401501
 31
0.0
  0
LINE
  5
4AD
100
AcDbEntity
  8
TEXT
100
AcDbLine
 10
14.229065
 20
0.966501
 30
0.0
 11
16.229065
 21
0.966501
 31
0.0
  0
LINE
  5
4AE
100
AcDbEntity
  8
TEXT
100
AcDbLine
 10
14.229065
 20
1.281501
 30
0.0
 11
20.500862
 21
1.281501
 31
0.0
  0
LINE
  5
4AF
100
AcDbEntity
  8
TEXT
100
AcDbLine
 10
16.229065
 20
0.901501
 30
0.0
 11
20.500862
 21
0.901501
 31
0.0
  0
LINE
  5
4B0
100
AcDbEntity
  8
BORDER
100
AcDbLine
 10
16.229065
 20
1.901501
 30
0.0
 11
20.500862
 21
1.901501
 31
0.0
  0
LINE
  5
4B1
100
AcDbEntity
  8
BORDER
100
AcDbLine
 10
16.229065
 20
0.625
 30
0.0
 11
16.229065
 21
2.401501
 31
0.0
  0
LINE
  5
4B2
100
AcDbEntity
  8
TEXT
100
AcDbLine
 10
17.229065
 20
0.625
 30
0.0
 11
17.229065
 21
0.901501
 31
0.0
  0
LINE
  5
4B3
100
AcDbEntity
  8
TEXT
100
AcDbLine
 10
18.729065
 20
0.625
 30
0.0
 11
18.729065
 21
0.901501
 31
0.0
  0
LINE
  5
4B4
100
AcDbEntity
  8
TEXT
100
AcDbLine
 10
16.609065
 20
0.901501
 30
0.0
 11
16.609065
 21
1.281501
 31
0.0
  0
LINE
  5
4B5
100
AcDbEntity
  8
TEXT
100
AcDbLine
 10
17.729065
 20
0.901501
 30
0.0
 11
17.729065
 21
1.281501
 31
0.0
  0
LINE
  5
4B6
100
AcDbEntity
  8
TEXT
100
AcDbLine
 10
20.099065
 20
0.901501
 30
0.0
 11
20.099065
 21
1.281501
 31
0.0
  0
TEXT
  5
4B7
100
AcDbEntity
  8
TEXT
100
AcDbText
 10
16.281365
 20
0.744001
 30
0.0
 40
0.065
  1
SCALE
  7
ADESK2
100
AcDbText
  0
TEXT
  5
4B8
100
AcDbEntity
  8
TEXT
100
AcDbText
 10
18.781865
 20
0.744001
 30
0.0
 40
0.065
  1
SHEET
  7
ADESK2
100
AcDbText
  0
TEXT
  5
4B9
100
AcDbEntity
  8
TEXT
100
AcDbText
 10
16.316965
 20
1.167401
 30
0.0
 40
0.065
  1
SIZE
  7
ADESK2
100
AcDbText
  0
TEXT
  5
4BA
100
AcDbEntity
  8
TEXT
100
AcDbText
 10
17.800065
 20
1.167401
 30
0.0
 40
0.065
  1
DWG NO.
  7
ADESK2
100
AcDbText
  0
TEXT
  5
4BB
100
AcDbEntity
  8
TEXT
100
AcDbText
 10
20.179565
 20
1.167401
 30
0.0
 40
0.065
  1
REV
  7
ADESK2
100
AcDbText
  0
LINE
  5
4BC
100
AcDbEntity
  8
TEXT
100
AcDbLine
 10
15.445694
 20
15.018795
 30
0.0
 11
20.5
 21
15.018795
 31
0.0
  0
LINE
  5
4BD
100
AcDbEntity
  8
TEXT
100
AcDbLine
 10
15.445694
 20
14.768795
 30
0.0
 11
20.5
 21
14.768795
 31
0.0
  0
LINE
  5
4BE
100
AcDbEntity
  8
TEXT
100
AcDbLine
 10
15.445694
 20
15.328859
 30
0.0
 11
15.445694
 21
14.768795
 31
0.0
  0
LINE
  5
4BF
100
AcDbEntity
  8
TEXT
100
AcDbLine
 10
15.835946
 20
14.768795
 30
0.0
 11
15.835946
 21
15.018795
 31
0.0
  0
LINE
  5
4C0
100
AcDbEntity
  8
TEXT
100
AcDbLine
 10
18.575946
 20
14.768795
 30
0.0
 11
18.575946
 21
15.018795
 31
0.0
  0
LINE
  5
4C1
100
AcDbEntity
  8
TEXT
100
AcDbLine
 10
19.455946
 20
14.768795
 30
0.0
 11
19.455946
 21
15.018795
 31
0.0
  0
TEXT
  5
4C2
100
AcDbEntity
  8
TEXT
100
AcDbText
 10
17.666146
 20
15.101295
 30
0.0
 40
0.065
  1
REVISIONS
  7
ADESK2
100
AcDbText
  0
TEXT
  5
4C3
100
AcDbEntity
  8
TEXT
100
AcDbText
 10
15.536046
 20
14.859095
 30
0.0
 40
0.065
  1
REV
  7
ADESK2
100
AcDbText
  0
TEXT
  5
4C4
100
AcDbEntity
  8
TEXT
100
AcDbText
 10
16.837946
 20
14.859095
 30
0.0
 40
0.065
  1
DESCRIPTION
  7
ADESK2
100
AcDbText
  0
TEXT
  5
4C5
100
AcDbEntity
  8
TEXT
100
AcDbText
 10
18.903646
 20
14.859095
 30
0.0
 40
0.065
  1
DATE
  7
ADESK2
100
AcDbText
  0
TEXT
  5
4C6
100
AcDbEntity
  8
TEXT
100
AcDbText
 10
19.697346
 20
14.859095
 30
0.0
 40
0.065
  1
APPROVED
  7
ADESK2
100
AcDbText
  0
LINE
  5
4C7
100
AcDbEntity
  8
TEXT
100
AcDbLine
 10
14.229065
 20
1.591501
 30
0.0
 11
16.229065
 21
1.591501
 31
0.0
  0
TEXT
  5
4C8
100
AcDbEntity
  8
TEXT
100
AcDbText
 10
14.309065
 20
1.171501
 30
0.0
 40
0.065
  1
CHECKED
  7
ADESK2
100
AcDbText
  0
TEXT
  5
4C9
100
AcDbEntity
  8
TEXT
100
AcDbText
 10
14.309065
 20
0.856501
 30
0.0
 40
0.065
  1
DESIGN
  7
ADESK2
100
AcDbText
  0
LINE
  5
4CA
100
AcDbEntity
  8
TEXT
100
AcDbLine
 10
15.729049
 20
1.591501
 30
0.0
 11
15.729049
 21
0.625
 31
0.0
  0
TEXT
  5
4CB
100
AcDbEntity
  8
TEXT
100
AcDbText
 10
15.852468
 20
1.474951
 30
0.0
 40
0.065
  1
DATE
  7
ADESK2
100
AcDbText
  0
TEXT
  5
4CC
100
AcDbEntity
  8
TEXT
100
AcDbText
 10
19.612036
 20
0.744377
 30
0.0
 40
0.065
  1
OF
  7
ADESK2
100
AcDbText
  0
ENDBLK
  5
81
100
AcDbEntity
  8
0
100
AcDbBlockEnd
  0
BLOCK
  5
9B
100
AcDbEntity
  8
0
100
AcDbBlockBegin
  2
*X1
 70
    65
 10
0.0
 20
0.0
 30
0.0
  3
*X1
  1

  0
LINE
  5
84
100
AcDbEntity
  8
0
 62
     0
100
AcDbLine
 10
105.871943
 20
75.819905
 30
0.0
 11
106.371943
 21
76.319905
 31
0.0
  0
LINE
  5
85
100
AcDbEntity
  8
0
 62
     0
100
AcDbLine
 10
115.590718
 20
85.53868
 30
0.0
 11
116.090718
 21
86.03868
 31
0.0
  0
LINE
  5
86
100
AcDbEntity
  8
0
 62
     0
100
AcDbLine
 10
105.871943
 20
77.587672
 30
0.0
 11
106.371943
 21
78.087672
 31
0.0
  0
LINE
  5
87
100
AcDbEntity
  8
0
 62
     0
100
AcDbLine
 10
113.822951
 20
85.53868
 30
0.0
 11
114.322951
 21
86.03868
 31
0.0
  0
LINE
  5
88
100
AcDbEntity
  8
0
 62
     0
100
AcDbLine
 10
105.871943
 20
79.355439
 30
0.0
 11
106.371943
 21
79.855439
 31
0.0
  0
LINE
  5
89
100
AcDbEntity
  8
0
 62
     0
100
AcDbLine
 10
112.055184
 20
85.53868
 30
0.0
 11
112.555184
 21
86.03868
 31
0.0
  0
LINE
  5
8A
100
AcDbEntity
  8
0
 62
     0
100
AcDbLine
 10
105.871943
 20
81.123206
 30
0.0
 11
106.371943
 21
81.623206
 31
0.0
  0
LINE
  5
8B
100
AcDbEntity
  8
0
 62
     0
100
AcDbLine
 10
110.287417
 20
85.53868
 30
0.0
 11
110.787417
 21
86.03868
 31
0.0
  0
LINE
  5
8C
100
AcDbEntity
  8
0
 62
     0
100
AcDbLine
 10
105.871943
 20
82.890973
 30
0.0
 11
106.371943
 21
83.390973
 31
0.0
  0
LINE
  5
8D
100
AcDbEntity
  8
0
 62
     0
100
AcDbLine
 10
108.51965
 20
85.53868
 30
0.0
 11
109.01965
 21
86.03868
 31
0.0
  0
LINE
  5
8E
100
AcDbEntity
  8
0
 62
     0
100
AcDbLine
 10
105.871943
 20
84.65874
 30
0.0
 11
106.371943
 21
85.15874
 31
0.0
  0
LINE
  5
8F
100
AcDbEntity
  8
0
 62
     0
100
AcDbLine
 10
106.751883
 20
85.53868
 30
0.0
 11
107.251883
 21
86.03868
 31
0.0
  0
LINE
  5
90
100
AcDbEntity
  8
0
 62
     0
100
AcDbLine
 10
107.158485
 20
75.33868
 30
0.0
 11
107.658485
 21
75.83868
 31
0.0
  0
LINE
  5
91
100
AcDbEntity
  8
0
 62
     0
100
AcDbLine
 10
116.271943
 20
84.452138
 30
0.0
 11
116.771943
 21
84.952138
 31
0.0
  0
LINE
  5
92
100
AcDbEntity
  8
0
 62
     0
100
AcDbLine
 10
108.926252
 20
75.33868
 30
0.0
 11
109.426252
 21
75.83868
 31
0.0
  0
LINE
  5
93
100
AcDbEntity
  8
0
 62
     0
100
AcDbLine
 10
116.271943
 20
82.684371
 30
0.0
 11
116.771943
 21
83.184371
 31
0.0
  0
LINE
  5
94
100
AcDbEntity
  8
0
 62
     0
100
AcDbLine
 10
110.694019
 20
75.33868
 30
0.0
 11
111.194019
 21
75.83868
 31
0.0
  0
LINE
  5
95
100
AcDbEntity
  8
0
 62
     0
100
AcDbLine
 10
116.271943
 20
80.916604
 30
0.0
 11
116.771943
 21
81.416604
 31
0.0
  0
LINE
  5
96
100
AcDbEntity
  8
0
 62
     0
100
AcDbLine
 10
112.461786
 20
75.33868
 30
0.0
 11
112.961786
 21
75.83868
 31
0.0
  0
LINE
  5
97
100
AcDbEntity
  8
0
 62
     0
100
AcDbLine
 10
116.271943
 20
79.148837
 30
0.0
 11
116.771943
 21
79.648837
 31
0.0
  0
LINE
  5
98
100
AcDbEntity
  8
0
 62
     0
100
AcDbLine
 10
114.229553
 20
75.33868
 30
0.0
 11
114.729553
 21
75.83868
 31
0.0
  0
LINE
  5
99
100
AcDbEntity
  8
0
 62
     0
100
AcDbLine
 10
116.271943
 20
77.38107
 30
0.0
 11
116.771943
 21
77.88107
 31
0.0
  0
LINE
  5
9A
100
AcDbEntity
  8
0
 62
     0
100
AcDbLine
 10
115.99732
 20
75.33868
 30
0.0
 11
116.771943
 21
76.113303
 31
0.0
  0
ENDBLK
  5
9C
100
AcDbEntity
  8
0
100
AcDbBlockEnd
  0
BLOCK
  5
B6
100
AcDbEntity
  8
0
100
AcDbBlockBegin
  2
*X2
 70
    65
 10
0.0
 20
0.0
 30
0.0
  3
*X2
  1

  0
LINE
  5
9E
100
AcDbEntity
  8
0
 62
     0
100
AcDbLine
 10
105.871943
 20
58.142235
 30
0.0
 11
106.371943
 21
58.642235
 31
0.0
  0
LINE
  5
9F
100
AcDbEntity
  8
0
 62
     0
100
AcDbLine
 10
114.568387
 20
66.83868
 30
0.0
 11
115.068387
 21
67.33868
 31
0.0
  0
LINE
  5
A0
100
AcDbEntity
  8
0
 62
     0
100
AcDbLine
 10
105.871943
 20
59.910002
 30
0.0
 11
106.371943
 21
60.410002
 31
0.0
  0
LINE
  5
A1
100
AcDbEntity
  8
0
 62
     0
100
AcDbLine
 10
112.80062
 20
66.83868
 30
0.0
 11
113.30062
 21
67.33868
 31
0.0
  0
LINE
  5
A2
100
AcDbEntity
  8
0
 62
     0
100
AcDbLine
 10
105.871943
 20
61.677769
 30
0.0
 11
106.371943
 21
62.177769
 31
0.0
  0
LINE
  5
A3
100
AcDbEntity
  8
0
 62
     0
100
AcDbLine
 10
111.032853
 20
66.83868
 30
0.0
 11
111.532853
 21
67.33868
 31
0.0
  0
LINE
  5
A4
100
AcDbEntity
  8
0
 62
     0
100
AcDbLine
 10
105.871943
 20
63.445536
 30
0.0
 11
106.371943
 21
63.945536
 31
0.0
  0
LINE
  5
A5
100
AcDbEntity
  8
0
 62
     0
100
AcDbLine
 10
109.265086
 20
66.83868
 30
0.0
 11
109.765086
 21
67.33868
 31
0.0
  0
LINE
  5
A6
100
AcDbEntity
  8
0
 62
     0
100
AcDbLine
 10
105.871943
 20
65.213303
 30
0.0
 11
106.371943
 21
65.713303
 31
0.0
  0
LINE
  5
A7
100
AcDbEntity
  8
0
 62
     0
100
AcDbLine
 10
107.49732
 20
66.83868
 30
0.0
 11
107.99732
 21
67.33868
 31
0.0
  0
LINE
  5
A8
100
AcDbEntity
  8
0
 62
     0
100
AcDbLine
 10
105.871943
 20
66.98107
 30
0.0
 11
106.229553
 21
67.33868
 31
0.0
  0
LINE
  5
A9
100
AcDbEntity
  8
0
 62
     0
100
AcDbLine
 10
106.136154
 20
56.63868
 30
0.0
 11
106.636154
 21
57.13868
 31
0.0
  0
LINE
  5
AA
100
AcDbEntity
  8
0
 62
     0
100
AcDbLine
 10
116.271943
 20
66.774469
 30
0.0
 11
116.771943
 21
67.274469
 31
0.0
  0
LINE
  5
AB
100
AcDbEntity
  8
0
 62
     0
100
AcDbLine
 10
107.903921
 20
56.63868
 30
0.0
 11
108.403921
 21
57.13868
 31
0.0
  0
LINE
  5
AC
100
AcDbEntity
  8
0
 62
     0
100
AcDbLine
 10
116.271943
 20
65.006702
 30
0.0
 11
116.771943
 21
65.506702
 31
0.0
  0
LINE
  5
AD
100
AcDbEntity
  8
0
 62
     0
100
AcDbLine
 10
109.671688
 20
56.63868
 30
0.0
 11
110.171688
 21
57.13868
 31
0.0
  0
LINE
  5
AE
100
AcDbEntity
  8
0
 62
     0
100
AcDbLine
 10
116.271943
 20
63.238935
 30
0.0
 11
116.771943
 21
63.738935
 31
0.0
  0
LINE
  5
AF
100
AcDbEntity
  8
0
 62
     0
100
AcDbLine
 10
111.439455
 20
56.63868
 30
0.0
 11
111.939455
 21
57.13868
 31
0.0
  0
LINE
  5
B0
100
AcDbEntity
  8
0
 62
     0
100
AcDbLine
 10
116.271943
 20
61.471168
 30
0.0
 11
116.771943
 21
61.971168
 31
0.0
  0
LINE
  5
B1
100
AcDbEntity
  8
0
 62
     0
100
AcDbLine
 10
113.207222
 20
56.63868
 30
0.0
 11
113.707222
 21
57.13868
 31
0.0
  0
LINE
  5
B2
100
AcDbEntity
  8
0
 62
     0
100
AcDbLine
 10
116.271943
 20
59.703401
 30
0.0
 11
116.771943
 21
60.203401
 31
0.0
  0
LINE
  5
B3
100
AcDbEntity
  8
0
 62
     0
100
AcDbLine
 10
114.974989
 20
56.63868
 30
0.0
 11
115.474989
 21
57.13868
 31
0.0
  0
LINE
  5
B4
100
AcDbEntity
  8
0
 62
     0
100
AcDbLine
 10
116.271943
 20
57.935634
 30
0.0
 11
116.771943
 21
58.435634
 31
0.0
  0
LINE
  5
B5
100
AcDbEntity
  8
0
 62
     0
100
AcDbLine
 10
116.742756
 20
56.63868
 30
0.0
 11
116.771943
 21
56.667867
 31
0.0
  0
ENDBLK
  5
B7
100
AcDbEntity
  8
0
100
AcDbBlockEnd
  0
BLOCK
  5
10C
100
AcDbEntity
  8
AIN
100
AcDbBlockBegin
  2
HYBR-12
 70
     0
 10
0.0
 20
0.0
 30
0.0
  3
HYBR-12
  1

  0
LINE
  5
B9
100
AcDbEntity
  8
SCRATCH
 62
     4
100
AcDbLine
 10
41.2
 20
46.8
 30
0.0
 11
41.2
 21
0.0
 31
0.0
  0
LINE
  5
BA
100
AcDbEntity
  8
SCRATCH
100
AcDbLine
 10
34.2
 20
30.347
 30
0.0
 11
34.2
 21
9.707
 31
0.0
  0
LINE
  5
BB
100
AcDbEntity
  8
SCRATCH
100
AcDbLine
 10
40.2
 20
30.347
 30
0.0
 11
40.2
 21
9.707
 31
0.0
  0
LINE
  5
BC
100
AcDbEntity
  8
SCRATCH
 62
     4
100
AcDbLine
 10
0.0
 20
46.8
 30
0.0
 11
0.0
 21
0.0
 31
0.0
  0
POLYLINE
  5
BD
100
AcDbEntity
  8
SCRATCH
100
AcDb2dPolyline
 66
     1
 10
0.0
 20
0.0
 30
0.0
 70
     1
  0
VERTEX
  5
BE
100
AcDbEntity
  8
SCRATCH
100
AcDbVertex
100
AcDb2dVertex
 10
7.6
 20
20.1
 30
0.0
  0
VERTEX
  5
BF
100
AcDbEntity
  8
SCRATCH
100
AcDbVertex
100
AcDb2dVertex
 10
17.6
 20
20.1
 30
0.0
  0
VERTEX
  5
C0
100
AcDbEntity
  8
SCRATCH
100
AcDbVertex
100
AcDb2dVertex
 10
17.6
 20
13.7
 30
0.0
  0
VERTEX
  5
C1
100
AcDbEntity
  8
SCRATCH
100
AcDbVertex
100
AcDb2dVertex
 10
7.6
 20
13.7
 30
0.0
  0
SEQEND
  5
10E
100
AcDbEntity
  8
SCRATCH
  0
LINE
  5
C2
100
AcDbEntity
  8
SCRATCH
 62
     4
100
AcDbLine
 10
0.0
 20
0.0
 30
0.0
 11
41.2
 21
0.0
 31
0.0
  0
POLYLINE
  5
C3
100
AcDbEntity
  8
SCRATCH
100
AcDb2dPolyline
 66
     1
 10
0.0
 20
0.0
 30
0.0
 70
     1
  0
VERTEX
  5
C4
100
AcDbEntity
  8
SCRATCH
100
AcDbVertex
100
AcDb2dVertex
 10
7.6
 20
7.1
 30
0.0
  0
VERTEX
  5
C5
100
AcDbEntity
  8
SCRATCH
100
AcDbVertex
100
AcDb2dVertex
 10
17.6
 20
7.1
 30
0.0
  0
VERTEX
  5
C6
100
AcDbEntity
  8
SCRATCH
100
AcDbVertex
100
AcDb2dVertex
 10
17.6
 20
0.7
 30
0.0
  0
VERTEX
  5
C7
100
AcDbEntity
  8
SCRATCH
100
AcDbVertex
100
AcDb2dVertex
 10
7.6
 20
0.7
 30
0.0
  0
SEQEND
  5
10F
100
AcDbEntity
  8
SCRATCH
  0
POLYLINE
  5
C8
100
AcDbEntity
  8
SCRATCH
100
AcDb2dPolyline
 66
     1
 10
0.0
 20
0.0
 30
0.0
 70
     1
  0
VERTEX
  5
C9
100
AcDbEntity
  8
SCRATCH
100
AcDbVertex
100
AcDb2dVertex
 10
7.6
 20
13.6
 30
0.0
  0
VERTEX
  5
CA
100
AcDbEntity
  8
SCRATCH
100
AcDbVertex
100
AcDb2dVertex
 10
17.6
 20
13.6
 30
0.0
  0
VERTEX
  5
CB
100
AcDbEntity
  8
SCRATCH
100
AcDbVertex
100
AcDb2dVertex
 10
17.6
 20
7.2
 30
0.0
  0
VERTEX
  5
CC
100
AcDbEntity
  8
SCRATCH
100
AcDbVertex
100
AcDb2dVertex
 10
7.6
 20
7.2
 30
0.0
  0
SEQEND
  5
110
100
AcDbEntity
  8
SCRATCH
  0
LINE
  5
CD
100
AcDbEntity
  8
SCRATCH
100
AcDbLine
 10
40.2
 20
9.707
 30
0.0
 11
34.2
 21
9.707
 31
0.0
  0
POLYLINE
  5
CE
100
AcDbEntity
  8
SCRATCH
100
AcDb2dPolyline
 66
     1
 10
0.0
 20
0.0
 30
0.0
 70
     1
  0
VERTEX
  5
CF
100
AcDbEntity
  8
SCRATCH
100
AcDbVertex
100
AcDb2dVertex
 10
7.6
 20
39.6
 30
0.0
  0
VERTEX
  5
D0
100
AcDbEntity
  8
SCRATCH
100
AcDbVertex
100
AcDb2dVertex
 10
17.6
 20
39.6
 30
0.0
  0
VERTEX
  5
D1
100
AcDbEntity
  8
SCRATCH
100
AcDbVertex
100
AcDb2dVertex
 10
17.6
 20
33.2
 30
0.0
  0
VERTEX
  5
D2
100
AcDbEntity
  8
SCRATCH
100
AcDbVertex
100
AcDb2dVertex
 10
7.6
 20
33.2
 30
0.0
  0
SEQEND
  5
111
100
AcDbEntity
  8
SCRATCH
  0
POLYLINE
  5
D3
100
AcDbEntity
  8
SCRATCH
100
AcDb2dPolyline
 66
     1
 10
0.0
 20
0.0
 30
0.0
 70
     1
  0
VERTEX
  5
D4
100
AcDbEntity
  8
SCRATCH
100
AcDbVertex
100
AcDb2dVertex
 10
7.6
 20
26.6
 30
0.0
  0
VERTEX
  5
D5
100
AcDbEntity
  8
SCRATCH
100
AcDbVertex
100
AcDb2dVertex
 10
17.6
 20
26.6
 30
0.0
  0
VERTEX
  5
D6
100
AcDbEntity
  8
SCRATCH
100
AcDbVertex
100
AcDb2dVertex
 10
17.6
 20
20.2
 30
0.0
  0
VERTEX
  5
D7
100
AcDbEntity
  8
SCRATCH
100
AcDbVertex
100
AcDb2dVertex
 10
7.6
 20
20.2
 30
0.0
  0
SEQEND
  5
112
100
AcDbEntity
  8
SCRATCH
  0
POLYLINE
  5
D8
100
AcDbEntity
  8
SCRATCH
100
AcDb2dPolyline
 66
     1
 10
0.0
 20
0.0
 30
0.0
 70
     1
  0
VERTEX
  5
D9
100
AcDbEntity
  8
SCRATCH
100
AcDbVertex
100
AcDb2dVertex
 10
7.6
 20
33.1
 30
0.0
  0
VERTEX
  5
DA
100
AcDbEntity
  8
SCRATCH
100
AcDbVertex
100
AcDb2dVertex
 10
17.6
 20
33.1
 30
0.0
  0
VERTEX
  5
DB
100
AcDbEntity
  8
SCRATCH
100
AcDbVertex
100
AcDb2dVertex
 10
17.6
 20
26.7
 30
0.0
  0
VERTEX
  5
DC
100
AcDbEntity
  8
SCRATCH
100
AcDbVertex
100
AcDb2dVertex
 10
7.6
 20
26.7
 30
0.0
  0
SEQEND
  5
113
100
AcDbEntity
  8
SCRATCH
  0
LINE
  5
DD
100
AcDbEntity
  8
SCRATCH
 62
     4
100
AcDbLine
 10
0.0
 20
46.8
 30
0.0
 11
41.2
 21
46.8
 31
0.0
  0
POLYLINE
  5
DE
100
AcDbEntity
  8
SCRATCH
100
AcDb2dPolyline
 66
     1
 10
0.0
 20
0.0
 30
0.0
 70
     1
  0
VERTEX
  5
DF
100
AcDbEntity
  8
SCRATCH
100
AcDbVertex
100
AcDb2dVertex
 10
7.6
 20
46.1
 30
0.0
  0
VERTEX
  5
E0
100
AcDbEntity
  8
SCRATCH
100
AcDbVertex
100
AcDb2dVertex
 10
17.6
 20
46.1
 30
0.0
  0
VERTEX
  5
E1
100
AcDbEntity
  8
SCRATCH
100
AcDbVertex
100
AcDb2dVertex
 10
17.6
 20
39.7
 30
0.0
  0
VERTEX
  5
E2
100
AcDbEntity
  8
SCRATCH
100
AcDbVertex
100
AcDb2dVertex
 10
7.6
 20
39.7
 30
0.0
  0
SEQEND
  5
114
100
AcDbEntity
  8
SCRATCH
  0
LINE
  5
E3
100
AcDbEntity
  8
SCRATCH
100
AcDbLine
 10
40.2
 20
30.347
 30
0.0
 11
34.2
 21
30.347
 31
0.0
  0
POLYLINE
  5
E4
100
AcDbEntity
  8
SCRATCH
 62
     4
100
AcDb2dPolyline
 66
     1
 10
0.0
 20
0.0
 30
0.0
 70
     1
  0
VERTEX
  5
E5
100
AcDbEntity
  8
SCRATCH
 62
     4
100
AcDbVertex
100
AcDb2dVertex
 10
27.3
 20
25.027
 30
0.0
 42
-0.414214
  0
VERTEX
  5
E6
100
AcDbEntity
  8
SCRATCH
 62
     4
100
AcDbVertex
100
AcDb2dVertex
 10
26.3
 20
26.027
 30
0.0
  0
VERTEX
  5
E7
100
AcDbEntity
  8
SCRATCH
 62
     4
100
AcDbVertex
100
AcDb2dVertex
 10
26.3
 20
32.727
 30
0.0
 42
-0.414214
  0
VERTEX
  5
E8
100
AcDbEntity
  8
SCRATCH
 62
     4
100
AcDbVertex
100
AcDb2dVertex
 10
27.3
 20
33.727
 30
0.0
  0
VERTEX
  5
E9
100
AcDbEntity
  8
SCRATCH
 62
     4
100
AcDbVertex
100
AcDb2dVertex
 10
29.7
 20
33.727
 30
0.0
 42
-0.414214
  0
VERTEX
  5
EA
100
AcDbEntity
  8
SCRATCH
 62
     4
100
AcDbVertex
100
AcDb2dVertex
 10
30.7
 20
32.727
 30
0.0
  0
VERTEX
  5
EB
100
AcDbEntity
  8
SCRATCH
 62
     4
100
AcDbVertex
100
AcDb2dVertex
 10
30.7
 20
26.027
 30
0.0
 42
-0.414214
  0
VERTEX
  5
EC
100
AcDbEntity
  8
SCRATCH
 62
     4
100
AcDbVertex
100
AcDb2dVertex
 10
29.7
 20
25.027
 30
0.0
  0
SEQEND
  5
115
100
AcDbEntity
  8
SCRATCH
 62
     4
  0
POLYLINE
  5
ED
100
AcDbEntity
  8
SCRATCH
 62
     4
100
AcDb2dPolyline
 66
     1
 10
0.0
 20
0.0
 30
0.0
 70
     1
  0
VERTEX
  5
EE
100
AcDbEntity
  8
SCRATCH
 62
     4
100
AcDbVertex
100
AcDb2dVertex
 10
27.3
 20
6.327
 30
0.0
 42
-0.414214
  0
VERTEX
  5
EF
100
AcDbEntity
  8
SCRATCH
 62
     4
100
AcDbVertex
100
AcDb2dVertex
 10
26.3
 20
7.327
 30
0.0
  0
VERTEX
  5
F0
100
AcDbEntity
  8
SCRATCH
 62
     4
100
AcDbVertex
100
AcDb2dVertex
 10
26.3
 20
14.027
 30
0.0
 42
-0.414214
  0
VERTEX
  5
F1
100
AcDbEntity
  8
SCRATCH
 62
     4
100
AcDbVertex
100
AcDb2dVertex
 10
27.3
 20
15.027
 30
0.0
  0
VERTEX
  5
F2
100
AcDbEntity
  8
SCRATCH
 62
     4
100
AcDbVertex
100
AcDb2dVertex
 10
29.7
 20
15.027
 30
0.0
 42
-0.414214
  0
VERTEX
  5
F3
100
AcDbEntity
  8
SCRATCH
 62
     4
100
AcDbVertex
100
AcDb2dVertex
 10
30.7
 20
14.027
 30
0.0
  0
VERTEX
  5
F4
100
AcDbEntity
  8
SCRATCH
 62
     4
100
AcDbVertex
100
AcDb2dVertex
 10
30.7
 20
7.327
 30
0.0
 42
-0.414214
  0
VERTEX
  5
F5
100
AcDbEntity
  8
SCRATCH
 62
     4
100
AcDbVertex
100
AcDb2dVertex
 10
29.7
 20
6.327
 30
0.0
  0
SEQEND
  5
116
100
AcDbEntity
  8
SCRATCH
 62
     4
  0
POLYLINE
  5
F6
100
AcDbEntity
  8
SCRATCH
100
AcDb2dPolyline
 66
     1
 10
0.0
 20
0.0
 30
0.0
 70
     1
1001
ACAD
1000
ASC_BOUNDS
1002
{
1070
    19
1005
100
1002
}
  0
VERTEX
  5
F7
100
AcDbEntity
  8
SCRATCH
100
AcDbVertex
100
AcDb2dVertex
 10
32.7
 20
24.527
 30
0.0
  0
VERTEX
  5
F8
100
AcDbEntity
  8
SCRATCH
100
AcDbVertex
100
AcDb2dVertex
 10
32.7
 20
34.227
 30
0.0
  0
VERTEX
  5
F9
100
AcDbEntity
  8
SCRATCH
100
AcDbVertex
100
AcDb2dVertex
 10
22.8
 20
34.227
 30
0.0
  0
VERTEX
  5
FA
100
AcDbEntity
  8
SCRATCH
100
AcDbVertex
100
AcDb2dVertex
 10
22.8
 20
24.527
 30
0.0
  0
SEQEND
  5
117
100
AcDbEntity
  8
SCRATCH
  0
POLYLINE
  5
FB
100
AcDbEntity
  8
SCRATCH
100
AcDb2dPolyline
 66
     1
 10
0.0
 20
0.0
 30
0.0
 70
     1
1001
ACAD
1000
ASC_BOUNDS
1002
{
1070
    19
1005
100
1002
}
  0
VERTEX
  5
FC
100
AcDbEntity
  8
SCRATCH
100
AcDbVertex
100
AcDb2dVertex
 10
33.2
 20
24.027
 30
0.0
  0
VERTEX
  5
FD
100
AcDbEntity
  8
SCRATCH
100
AcDbVertex
100
AcDb2dVertex
 10
33.2
 20
34.727
 30
0.0
  0
VERTEX
  5
FE
100
AcDbEntity
  8
SCRATCH
100
AcDbVertex
100
AcDb2dVertex
 10
22.3
 20
34.727
 30
0.0
  0
VERTEX
  5
FF
100
AcDbEntity
  8
SCRATCH
100
AcDbVertex
100
AcDb2dVertex
 10
22.3
 20
24.027
 30
0.0
  0
SEQEND
  5
118
100
AcDbEntity
  8
SCRATCH
  0
INSERT
  5
100
100
AcDbEntity
  8
SCRATCH
100
AcDbBlockReference
  2
*X1
 10
-83.571943
 20
-51.31168
 30
0.0
1001
ACAD
1000
HATCH
1002
{
1070
    19
1000
ANSI31
1040
10.0
1040
0.0
1000
ASC_BOUNDS
1070
     1
1070
     2
1070
     2
1005
FB
1005
F6
1000
ASC_SEEDPOINT
1011
-127.779811
1021
119.098754
1031
0.0
1002
}
  0
POLYLINE
  5
101
100
AcDbEntity
  8
SCRATCH
100
AcDb2dPolyline
 66
     1
 10
0.0
 20
0.0
 30
0.0
 70
     1
1001
ACAD
1000
ASC_BOUNDS
1002
{
1070
    19
1005
10B
1002
}
  0
VERTEX
  5
102
100
AcDbEntity
  8
SCRATCH
100
AcDbVertex
100
AcDb2dVertex
 10
22.8
 20
15.527
 30
0.0
  0
VERTEX
  5
103
100
AcDbEntity
  8
SCRATCH
100
AcDbVertex
100
AcDb2dVertex
 10
32.7
 20
15.527
 30
0.0
  0
VERTEX
  5
104
100
AcDbEntity
  8
SCRATCH
100
AcDbVertex
100
AcDb2dVertex
 10
32.7
 20
5.827
 30
0.0
  0
VERTEX
  5
105
100
AcDbEntity
  8
SCRATCH
100
AcDbVertex
100
AcDb2dVertex
 10
22.8
 20
5.827
 30
0.0
  0
SEQEND
  5
119
100
AcDbEntity
  8
SCRATCH
  0
POLYLINE
  5
106
100
AcDbEntity
  8
SCRATCH
100
AcDb2dPolyline
 66
     1
 10
0.0
 20
0.0
 30
0.0
 70
     1
1001
ACAD
1000
ASC_BOUNDS
1002
{
1070
    19
1005
10B
1002
}
  0
VERTEX
  5
107
100
AcDbEntity
  8
SCRATCH
100
AcDbVertex
100
AcDb2dVertex
 10
22.3
 20
16.027
 30
0.0
  0
VERTEX
  5
108
100
AcDbEntity
  8
SCRATCH
100
AcDbVertex
100
AcDb2dVertex
 10
33.2
 20
16.027
 30
0.0
  0
VERTEX
  5
109
100
AcDbEntity
  8
SCRATCH
100
AcDbVertex
100
AcDb2dVertex
 10
33.2
 20
5.327
 30
0.0
  0
VERTEX
  5
10A
100
AcDbEntity
  8
SCRATCH
100
AcDbVertex
100
AcDb2dVertex
 10
22.3
 20
5.327
 30
0.0
  0
SEQEND
  5
11A
100
AcDbEntity
  8
SCRATCH
  0
INSERT
  5
10B
100
AcDbEntity
  8
SCRATCH
100
AcDbBlockReference
  2
*X2
 10
-83.571943
 20
-51.31168
 30
0.0
1001
ACAD
1000
HATCH
1002
{
1070
    19
1000
ANSI31
1040
10.0
1040
0.0
1000
ASC_BOUNDS
1070
     1
1070
     2
1070
     2
1005
101
1005
106
1000
ASC_SEEDPOINT
1011
-127.779811
1021
119.098754
1031
0.0
1002
}
  0
ENDBLK
  5
10D
100
AcDbEntity
  8
AIN
100
AcDbBlockEnd
  0
BLOCK
  5
132
100
AcDbEntity
  8
FOOT
100
AcDbBlockBegin
  2
POST-1
 70
     0
 10
0.0
 20
0.0
 30
0.0
  3
POST-1
  1

  0
CIRCLE
  5
11C
100
AcDbEntity
  8
BUSHING
100
AcDbCircle
 10
5.7
 20
2.5
 30
0.0
 40
0.8
  0
POLYLINE
  5
11D
100
AcDbEntity
  8
BUSHING
  6
HIDDEN
100
AcDb2dPolyline
 66
     1
 10
0.0
 20
0.0
 30
0.0
 70
     1
  0
VERTEX
  5
11E
100
AcDbEntity
  8
BUSHING
  6
HIDDEN
100
AcDbVertex
100
AcDb2dVertex
 10
4.0
 20
1.5
 30
0.0
  0
VERTEX
  5
11F
100
AcDbEntity
  8
BUSHING
  6
HIDDEN
100
AcDbVertex
100
AcDb2dVertex
 10
4.0
 20
8.2
 30
0.0
 42
-0.414214
  0
VERTEX
  5
120
100
AcDbEntity
  8
BUSHING
  6
HIDDEN
100
AcDbVertex
100
AcDb2dVertex
 10
4.5
 20
8.7
 30
0.0
  0
VERTEX
  5
121
100
AcDbEntity
  8
BUSHING
  6
HIDDEN
100
AcDbVertex
100
AcDb2dVertex
 10
6.9
 20
8.7
 30
0.0
 42
-0.414214
  0
VERTEX
  5
122
100
AcDbEntity
  8
BUSHING
  6
HIDDEN
100
AcDbVertex
100
AcDb2dVertex
 10
7.4
 20
8.2
 30
0.0
  0
VERTEX
  5
123
100
AcDbEntity
  8
BUSHING
  6
HIDDEN
100
AcDbVertex
100
AcDb2dVertex
 10
7.4
 20
1.5
 30
0.0
 42
-0.414214
  0
VERTEX
  5
124
100
AcDbEntity
  8
BUSHING
  6
HIDDEN
100
AcDbVertex
100
AcDb2dVertex
 10
6.9
 20
1.0
 30
0.0
  0
VERTEX
  5
125
100
AcDbEntity
  8
BUSHING
  6
HIDDEN
100
AcDbVertex
100
AcDb2dVertex
 10
4.5
 20
1.0
 30
0.0
 42
-0.414214
  0
SEQEND
  5
134
100
AcDbEntity
  8
BUSHING
  6
HIDDEN
  0
LINE
  5
126
100
AcDbEntity
  8
BUSHING
100
AcDbLine
 10
0.5
 20
8.7
 30
0.0
 11
0.5
 21
1.0
 31
0.0
  0
LINE
  5
127
100
AcDbEntity
  8
BUSHING
100
AcDbLine
 10
2.5
 20
8.7
 30
0.0
 11
2.5
 21
1.0
 31
0.0
  0
CIRCLE
  5
128
100
AcDbEntity
  8
BUSHING
100
AcDbCircle
 10
5.7
 20
2.5
 30
0.0
 40
1.7
  0
LINE
  5
129
100
AcDbEntity
  8
BUSHING
100
AcDbLine
 10
0.0
 20
9.7
 30
0.0
 11
0.0
 21
0.0
 31
0.0
  0
LINE
  5
12A
100
AcDbEntity
  8
BUSHING
100
AcDbLine
 10
9.9
 20
9.7
 30
0.0
 11
9.9
 21
0.0
 31
0.0
  0
LINE
  5
12B
100
AcDbEntity
  8
BUSHING
100
AcDbLine
 10
0.0
 20
0.0
 30
0.0
 11
9.9
 21
0.0
 31
0.0
  0
LINE
  5
12C
100
AcDbEntity
  8
BUSHING
100
AcDbLine
 10
0.5
 20
1.0
 30
0.0
 11
2.5
 21
1.0
 31
0.0
  0
LINE
  5
12D
100
AcDbEntity
  8
BUSHING
100
AcDbLine
 10
0.0
 20
9.7
 30
0.0
 11
9.9
 21
9.7
 31
0.0
  0
LINE
  5
12E
100
AcDbEntity
  8
BUSHING
100
AcDbLine
 10
0.5
 20
8.7
 30
0.0
 11
2.5
 21
8.7
 31
0.0
  0
CIRCLE
  5
12F
100
AcDbEntity
  8
BUSHING
100
AcDbCircle
 10
5.7
 20
7.2
 30
0.0
 40
1.7
  0
CIRCLE
  5
130
100
AcDbEntity
  8
BUSHING
100
AcDbCircle
 10
5.7
 20
7.2
 30
0.0
 40
0.8
  0
CIRCLE
  5
131
100
AcDbEntity
  8
BUSHING
100
AcDbCircle
 10
5.7
 20
4.85
 30
0.0
 40
0.5
  0
ENDBLK
  5
133
100
AcDbEntity
  8
FOOT
100
AcDbBlockEnd
  0
BLOCK
  5
944
100
AcDbEntity
  8
0
100
AcDbBlockBegin
  2
*X5
 70
    65
 10
0.0
 20
0.0
 30
0.0
  3
*X5
  1

  0
LINE
  5
92C
100
AcDbEntity
  8
0
 62
     0
100
AcDbLine
 10
207.002831
 20
76.188076
 30
0.0
 11
207.502831
 21
76.688076
 31
0.0
  0
LINE
  5
92D
100
AcDbEntity
  8
0
 62
     0
100
AcDbLine
 10
215.402831
 20
84.588076
 30
0.0
 11
215.902831
 21
85.088076
 31
0.0
  0
LINE
  5
92E
100
AcDbEntity
  8
0
 62
     0
100
AcDbLine
 10
207.002831
 20
77.955843
 30
0.0
 11
207.502831
 21
78.455843
 31
0.0
  0
LINE
  5
92F
100
AcDbEntity
  8
0
 62
     0
100
AcDbLine
 10
215.32724
 20
86.280252
 30
0.0
 11
215.82724
 21
86.780252
 31
0.0
  0
LINE
  5
930
100
AcDbEntity
  8
0
 62
     0
100
AcDbLine
 10
207.002831
 20
79.72361
 30
0.0
 11
207.502831
 21
80.22361
 31
0.0
  0
LINE
  5
931
100
AcDbEntity
  8
0
 62
     0
100
AcDbLine
 10
213.559473
 20
86.280252
 30
0.0
 11
214.059473
 21
86.780252
 31
0.0
  0
LINE
  5
932
100
AcDbEntity
  8
0
 62
     0
100
AcDbLine
 10
207.002831
 20
81.491377
 30
0.0
 11
207.502831
 21
81.991377
 31
0.0
  0
LINE
  5
933
100
AcDbEntity
  8
0
 62
     0
100
AcDbLine
 10
211.791706
 20
86.280252
 30
0.0
 11
212.291706
 21
86.780252
 31
0.0
  0
LINE
  5
934
100
AcDbEntity
  8
0
 62
     0
100
AcDbLine
 10
207.002831
 20
83.259144
 30
0.0
 11
207.502831
 21
83.759144
 31
0.0
  0
LINE
  5
935
100
AcDbEntity
  8
0
 62
     0
100
AcDbLine
 10
210.023939
 20
86.280252
 30
0.0
 11
210.523939
 21
86.780252
 31
0.0
  0
LINE
  5
936
100
AcDbEntity
  8
0
 62
     0
100
AcDbLine
 10
207.002831
 20
85.026911
 30
0.0
 11
207.502831
 21
85.526911
 31
0.0
  0
LINE
  5
937
100
AcDbEntity
  8
0
 62
     0
100
AcDbLine
 10
208.256172
 20
86.280252
 30
0.0
 11
208.756172
 21
86.780252
 31
0.0
  0
LINE
  5
938
100
AcDbEntity
  8
0
 62
     0
100
AcDbLine
 10
207.002831
 20
74.420309
 30
0.0
 11
207.502831
 21
74.920309
 31
0.0
  0
LINE
  5
939
100
AcDbEntity
  8
0
 62
     0
100
AcDbLine
 10
215.402831
 20
82.820309
 30
0.0
 11
215.902831
 21
83.320309
 31
0.0
  0
LINE
  5
93A
100
AcDbEntity
  8
0
 62
     0
100
AcDbLine
 10
207.430541
 20
73.080252
 30
0.0
 11
207.930541
 21
73.580252
 31
0.0
  0
LINE
  5
93B
100
AcDbEntity
  8
0
 62
     0
100
AcDbLine
 10
215.402831
 20
81.052543
 30
0.0
 11
215.902831
 21
81.552543
 31
0.0
  0
LINE
  5
93C
100
AcDbEntity
  8
0
 62
     0
100
AcDbLine
 10
209.198308
 20
73.080252
 30
0.0
 11
209.698308
 21
73.580252
 31
0.0
  0
LINE
  5
93D
100
AcDbEntity
  8
0
 62
     0
100
AcDbLine
 10
215.402831
 20
79.284776
 30
0.0
 11
215.902831
 21
79.784776
 31
0.0
  0
LINE
  5
93E
100
AcDbEntity
  8
0
 62
     0
100
AcDbLine
 10
210.966075
 20
73.080252
 30
0.0
 11
211.466075
 21
73.580252
 31
0.0
  0
LINE
  5
93F
100
AcDbEntity
  8
0
 62
     0
100
AcDbLine
 10
215.402831
 20
77.517009
 30
0.0
 11
215.902831
 21
78.017009
 31
0.0
  0
LINE
  5
940
100
AcDbEntity
  8
0
 62
     0
100
AcDbLine
 10
212.733842
 20
73.080252
 30
0.0
 11
213.233842
 21
73.580252
 31
0.0
  0
LINE
  5
941
100
AcDbEntity
  8
0
 62
     0
100
AcDbLine
 10
215.402831
 20
75.749242
 30
0.0
 11
215.902831
 21
76.249242
 31
0.0
  0
LINE
  5
942
100
AcDbEntity
  8
0
 62
     0
100
AcDbLine
 10
214.501609
 20
73.080252
 30
0.0
 11
215.001609
 21
73.580252
 31
0.0
  0
LINE
  5
943
100
AcDbEntity
  8
0
 62
     0
100
AcDbLine
 10
215.402831
 20
73.981475
 30
0.0
 11
215.902831
 21
74.481475
 31
0.0
  0
ENDBLK
  5
945
100
AcDbEntity
  8
0
100
AcDbBlockEnd
  0
BLOCK
  5
95F
100
AcDbEntity
  8
0
100
AcDbBlockBegin
  2
*X6
 70
    65
 10
0.0
 20
0.0
 30
0.0
  3
*X6
  1

  0
LINE
  5
947
100
AcDbEntity
  8
0
 62
     0
100
AcDbLine
 10
207.002831
 20
33.76167
 30
0.0
 11
207.502831
 21
34.26167
 31
0.0
  0
LINE
  5
948
100
AcDbEntity
  8
0
 62
     0
100
AcDbLine
 10
215.402831
 20
42.16167
 30
0.0
 11
215.902831
 21
42.66167
 31
0.0
  0
LINE
  5
949
100
AcDbEntity
  8
0
 62
     0
100
AcDbLine
 10
207.002831
 20
35.529437
 30
0.0
 11
207.502831
 21
36.029437
 31
0.0
  0
LINE
  5
94A
100
AcDbEntity
  8
0
 62
     0
100
AcDbLine
 10
215.053647
 20
43.580252
 30
0.0
 11
215.553647
 21
44.080252
 31
0.0
  0
LINE
  5
94B
100
AcDbEntity
  8
0
 62
     0
100
AcDbLine
 10
207.002831
 20
37.297203
 30
0.0
 11
207.502831
 21
37.797203
 31
0.0
  0
LINE
  5
94C
100
AcDbEntity
  8
0
 62
     0
100
AcDbLine
 10
213.28588
 20
43.580252
 30
0.0
 11
213.78588
 21
44.080252
 31
0.0
  0
LINE
  5
94D
100
AcDbEntity
  8
0
 62
     0
100
AcDbLine
 10
207.002831
 20
39.06497
 30
0.0
 11
207.502831
 21
39.56497
 31
0.0
  0
LINE
  5
94E
100
AcDbEntity
  8
0
 62
     0
100
AcDbLine
 10
211.518113
 20
43.580252
 30
0.0
 11
212.018113
 21
44.080252
 31
0.0
  0
LINE
  5
94F
100
AcDbEntity
  8
0
 62
     0
100
AcDbLine
 10
207.002831
 20
40.832737
 30
0.0
 11
207.502831
 21
41.332737
 31
0.0
  0
LINE
  5
950
100
AcDbEntity
  8
0
 62
     0
100
AcDbLine
 10
209.750346
 20
43.580252
 30
0.0
 11
210.250346
 21
44.080252
 31
0.0
  0
LINE
  5
951
100
AcDbEntity
  8
0
 62
     0
100
AcDbLine
 10
207.002831
 20
42.600504
 30
0.0
 11
207.502831
 21
43.100504
 31
0.0
  0
LINE
  5
952
100
AcDbEntity
  8
0
 62
     0
100
AcDbLine
 10
207.982579
 20
43.580252
 30
0.0
 11
208.482579
 21
44.080252
 31
0.0
  0
LINE
  5
953
100
AcDbEntity
  8
0
 62
     0
100
AcDbLine
 10
207.002831
 20
31.993903
 30
0.0
 11
207.502831
 21
32.493903
 31
0.0
  0
LINE
  5
954
100
AcDbEntity
  8
0
 62
     0
100
AcDbLine
 10
215.402831
 20
40.393903
 30
0.0
 11
215.902831
 21
40.893903
 31
0.0
  0
LINE
  5
955
100
AcDbEntity
  8
0
 62
     0
100
AcDbLine
 10
207.156948
 20
30.380252
 30
0.0
 11
207.656948
 21
30.880252
 31
0.0
  0
LINE
  5
956
100
AcDbEntity
  8
0
 62
     0
100
AcDbLine
 10
215.402831
 20
38.626136
 30
0.0
 11
215.902831
 21
39.126136
 31
0.0
  0
LINE
  5
957
100
AcDbEntity
  8
0
 62
     0
100
AcDbLine
 10
208.924715
 20
30.380252
 30
0.0
 11
209.424715
 21
30.880252
 31
0.0
  0
LINE
  5
958
100
AcDbEntity
  8
0
 62
     0
100
AcDbLine
 10
215.402831
 20
36.858369
 30
0.0
 11
215.902831
 21
37.358369
 31
0.0
  0
LINE
  5
959
100
AcDbEntity
  8
0
 62
     0
100
AcDbLine
 10
210.692482
 20
30.380252
 30
0.0
 11
211.192482
 21
30.880252
 31
0.0
  0
LINE
  5
95A
100
AcDbEntity
  8
0
 62
     0
100
AcDbLine
 10
215.402831
 20
35.090602
 30
0.0
 11
215.902831
 21
35.590602
 31
0.0
  0
LINE
  5
95B
100
AcDbEntity
  8
0
 62
     0
100
AcDbLine
 10
212.460249
 20
30.380252
 30
0.0
 11
212.960249
 21
30.880252
 31
0.0
  0
LINE
  5
95C
100
AcDbEntity
  8
0
 62
     0
100
AcDbLine
 10
215.402831
 20
33.322835
 30
0.0
 11
215.902831
 21
33.822835
 31
0.0
  0
LINE
  5
95D
100
AcDbEntity
  8
0
 62
     0
100
AcDbLine
 10
214.228015
 20
30.380252
 30
0.0
 11
214.728015
 21
30.880252
 31
0.0
  0
LINE
  5
95E
100
AcDbEntity
  8
0
 62
     0
100
AcDbLine
 10
215.402831
 20
31.555068
 30
0.0
 11
215.902831
 21
32.055068
 31
0.0
  0
ENDBLK
  5
960
100
AcDbEntity
  8
0
100
AcDbBlockEnd
  0
BLOCK
  5
9C4
100
AcDbEntity
  8
KEVLAR
100
AcDbBlockBegin
  2
HYBR-3
 70
     0
 10
0.0
 20
0.0
 30
0.0
  3
HYBR-3
  1

  0
LINE
  5
962
100
AcDbEntity
  8
SCRATCH
 62
     4
100
AcDbLine
 10
0.0
 20
66.3
 30
0.0
 11
38.0
 21
66.3
 31
0.0
  0
POLYLINE
  5
963
100
AcDbEntity
  8
SCRATCH
100
AcDb2dPolyline
 66
     1
 10
0.0
 20
0.0
 30
0.0
 70
     1
  0
VERTEX
  5
964
100
AcDbEntity
  8
SCRATCH
100
AcDbVertex
100
AcDb2dVertex
 10
7.6
 20
65.6
 30
0.0
  0
VERTEX
  5
965
100
AcDbEntity
  8
SCRATCH
100
AcDbVertex
100
AcDb2dVertex
 10
17.6
 20
65.6
 30
0.0
  0
VERTEX
  5
966
100
AcDbEntity
  8
SCRATCH
100
AcDbVertex
100
AcDb2dVertex
 10
17.6
 20
59.2
 30
0.0
  0
VERTEX
  5
967
100
AcDbEntity
  8
SCRATCH
100
AcDbVertex
100
AcDb2dVertex
 10
7.6
 20
59.2
 30
0.0
  0
SEQEND
  5
9C6
100
AcDbEntity
  8
SCRATCH
  0
POLYLINE
  5
968
100
AcDbEntity
  8
SCRATCH
100
AcDb2dPolyline
 66
     1
 10
0.0
 20
0.0
 30
0.0
 70
     1
  0
VERTEX
  5
969
100
AcDbEntity
  8
SCRATCH
100
AcDbVertex
100
AcDb2dVertex
 10
7.6
 20
59.1
 30
0.0
  0
VERTEX
  5
96A
100
AcDbEntity
  8
SCRATCH
100
AcDbVertex
100
AcDb2dVertex
 10
17.6
 20
59.1
 30
0.0
  0
VERTEX
  5
96B
100
AcDbEntity
  8
SCRATCH
100
AcDbVertex
100
AcDb2dVertex
 10
17.6
 20
52.7
 30
0.0
  0
VERTEX
  5
96C
100
AcDbEntity
  8
SCRATCH
100
AcDbVertex
100
AcDb2dVertex
 10
7.6
 20
52.7
 30
0.0
  0
SEQEND
  5
9C7
100
AcDbEntity
  8
SCRATCH
  0
POLYLINE
  5
96D
100
AcDbEntity
  8
SCRATCH
100
AcDb2dPolyline
 66
     1
 10
0.0
 20
0.0
 30
0.0
 70
     1
  0
VERTEX
  5
96E
100
AcDbEntity
  8
SCRATCH
100
AcDbVertex
100
AcDb2dVertex
 10
7.6
 20
52.6
 30
0.0
  0
VERTEX
  5
96F
100
AcDbEntity
  8
SCRATCH
100
AcDbVertex
100
AcDb2dVertex
 10
17.6
 20
52.6
 30
0.0
  0
VERTEX
  5
970
100
AcDbEntity
  8
SCRATCH
100
AcDbVertex
100
AcDb2dVertex
 10
17.6
 20
46.2
 30
0.0
  0
VERTEX
  5
971
100
AcDbEntity
  8
SCRATCH
100
AcDbVertex
100
AcDb2dVertex
 10
7.6
 20
46.2
 30
0.0
  0
SEQEND
  5
9C8
100
AcDbEntity
  8
SCRATCH
  0
POLYLINE
  5
972
100
AcDbEntity
  8
SCRATCH
100
AcDb2dPolyline
 66
     1
 10
0.0
 20
0.0
 30
0.0
 70
     1
  0
VERTEX
  5
973
100
AcDbEntity
  8
SCRATCH
100
AcDbVertex
100
AcDb2dVertex
 10
7.6
 20
46.1
 30
0.0
  0
VERTEX
  5
974
100
AcDbEntity
  8
SCRATCH
100
AcDbVertex
100
AcDb2dVertex
 10
17.6
 20
46.1
 30
0.0
  0
VERTEX
  5
975
100
AcDbEntity
  8
SCRATCH
100
AcDbVertex
100
AcDb2dVertex
 10
17.6
 20
39.7
 30
0.0
  0
VERTEX
  5
976
100
AcDbEntity
  8
SCRATCH
100
AcDbVertex
100
AcDb2dVertex
 10
7.6
 20
39.7
 30
0.0
  0
SEQEND
  5
9C9
100
AcDbEntity
  8
SCRATCH
  0
POLYLINE
  5
977
100
AcDbEntity
  8
SCRATCH
100
AcDb2dPolyline
 66
     1
 10
0.0
 20
0.0
 30
0.0
 70
     1
  0
VERTEX
  5
978
100
AcDbEntity
  8
SCRATCH
100
AcDbVertex
100
AcDb2dVertex
 10
7.6
 20
39.6
 30
0.0
  0
VERTEX
  5
979
100
AcDbEntity
  8
SCRATCH
100
AcDbVertex
100
AcDb2dVertex
 10
17.6
 20
39.6
 30
0.0
  0
VERTEX
  5
97A
100
AcDbEntity
  8
SCRATCH
100
AcDbVertex
100
AcDb2dVertex
 10
17.6
 20
33.2
 30
0.0
  0
VERTEX
  5
97B
100
AcDbEntity
  8
SCRATCH
100
AcDbVertex
100
AcDb2dVertex
 10
7.6
 20
33.2
 30
0.0
  0
SEQEND
  5
9CA
100
AcDbEntity
  8
SCRATCH
  0
POLYLINE
  5
97C
100
AcDbEntity
  8
SCRATCH
100
AcDb2dPolyline
 66
     1
 10
0.0
 20
0.0
 30
0.0
 70
     1
  0
VERTEX
  5
97D
100
AcDbEntity
  8
SCRATCH
100
AcDbVertex
100
AcDb2dVertex
 10
7.6
 20
33.1
 30
0.0
  0
VERTEX
  5
97E
100
AcDbEntity
  8
SCRATCH
100
AcDbVertex
100
AcDb2dVertex
 10
17.6
 20
33.1
 30
0.0
  0
VERTEX
  5
97F
100
AcDbEntity
  8
SCRATCH
100
AcDbVertex
100
AcDb2dVertex
 10
17.6
 20
26.7
 30
0.0
  0
VERTEX
  5
980
100
AcDbEntity
  8
SCRATCH
100
AcDbVertex
100
AcDb2dVertex
 10
7.6
 20
26.7
 30
0.0
  0
SEQEND
  5
9CB
100
AcDbEntity
  8
SCRATCH
  0
POLYLINE
  5
981
100
AcDbEntity
  8
SCRATCH
100
AcDb2dPolyline
 66
     1
 10
0.0
 20
0.0
 30
0.0
 70
     1
  0
VERTEX
  5
982
100
AcDbEntity
  8
SCRATCH
100
AcDbVertex
100
AcDb2dVertex
 10
7.6
 20
26.6
 30
0.0
  0
VERTEX
  5
983
100
AcDbEntity
  8
SCRATCH
100
AcDbVertex
100
AcDb2dVertex
 10
17.6
 20
26.6
 30
0.0
  0
VERTEX
  5
984
100
AcDbEntity
  8
SCRATCH
100
AcDbVertex
100
AcDb2dVertex
 10
17.6
 20
20.2
 30
0.0
  0
VERTEX
  5
985
100
AcDbEntity
  8
SCRATCH
100
AcDbVertex
100
AcDb2dVertex
 10
7.6
 20
20.2
 30
0.0
  0
SEQEND
  5
9CC
100
AcDbEntity
  8
SCRATCH
  0
POLYLINE
  5
986
100
AcDbEntity
  8
SCRATCH
100
AcDb2dPolyline
 66
     1
 10
0.0
 20
0.0
 30
0.0
 70
     1
  0
VERTEX
  5
987
100
AcDbEntity
  8
SCRATCH
100
AcDbVertex
100
AcDb2dVertex
 10
7.6
 20
20.1
 30
0.0
  0
VERTEX
  5
988
100
AcDbEntity
  8
SCRATCH
100
AcDbVertex
100
AcDb2dVertex
 10
17.6
 20
20.1
 30
0.0
  0
VERTEX
  5
989
100
AcDbEntity
  8
SCRATCH
100
AcDbVertex
100
AcDb2dVertex
 10
17.6
 20
13.7
 30
0.0
  0
VERTEX
  5
98A
100
AcDbEntity
  8
SCRATCH
100
AcDbVertex
100
AcDb2dVertex
 10
7.6
 20
13.7
 30
0.0
  0
SEQEND
  5
9CD
100
AcDbEntity
  8
SCRATCH
  0
POLYLINE
  5
98B
100
AcDbEntity
  8
SCRATCH
100
AcDb2dPolyline
 66
     1
 10
0.0
 20
0.0
 30
0.0
 70
     1
  0
VERTEX
  5
98C
100
AcDbEntity
  8
SCRATCH
100
AcDbVertex
100
AcDb2dVertex
 10
7.6
 20
13.6
 30
0.0
  0
VERTEX
  5
98D
100
AcDbEntity
  8
SCRATCH
100
AcDbVertex
100
AcDb2dVertex
 10
17.6
 20
13.6
 30
0.0
  0
VERTEX
  5
98E
100
AcDbEntity
  8
SCRATCH
100
AcDbVertex
100
AcDb2dVertex
 10
17.6
 20
7.2
 30
0.0
  0
VERTEX
  5
98F
100
AcDbEntity
  8
SCRATCH
100
AcDbVertex
100
AcDb2dVertex
 10
7.6
 20
7.2
 30
0.0
  0
SEQEND
  5
9CE
100
AcDbEntity
  8
SCRATCH
  0
POLYLINE
  5
990
100
AcDbEntity
  8
SCRATCH
100
AcDb2dPolyline
 66
     1
 10
0.0
 20
0.0
 30
0.0
 70
     1
  0
VERTEX
  5
991
100
AcDbEntity
  8
SCRATCH
100
AcDbVertex
100
AcDb2dVertex
 10
7.6
 20
7.1
 30
0.0
  0
VERTEX
  5
992
100
AcDbEntity
  8
SCRATCH
100
AcDbVertex
100
AcDb2dVertex
 10
17.6
 20
7.1
 30
0.0
  0
VERTEX
  5
993
100
AcDbEntity
  8
SCRATCH
100
AcDbVertex
100
AcDb2dVertex
 10
17.6
 20
0.7
 30
0.0
  0
VERTEX
  5
994
100
AcDbEntity
  8
SCRATCH
100
AcDbVertex
100
AcDb2dVertex
 10
7.6
 20
0.7
 30
0.0
  0
SEQEND
  5
9CF
100
AcDbEntity
  8
SCRATCH
  0
LINE
  5
995
100
AcDbEntity
  8
SCRATCH
 62
     4
100
AcDbLine
 10
0.0
 20
0.0
 30
0.0
 11
38.0
 21
0.0
 31
0.0
  0
LINE
  5
996
100
AcDbEntity
  8
SCRATCH
 62
     4
100
AcDbLine
 10
38.0
 20
66.3
 30
0.0
 11
38.0
 21
0.0
 31
0.0
  0
LINE
  5
997
100
AcDbEntity
  8
SCRATCH
 62
     4
100
AcDbLine
 10
0.0
 20
66.3
 30
0.0
 11
0.0
 21
0.0
 31
0.0
  0
LINE
  5
998
100
AcDbEntity
  8
SCRATCH
100
AcDbLine
 10
37.0
 20
48.15
 30
0.0
 11
37.0
 21
27.51
 31
0.0
  0
LINE
  5
999
100
AcDbEntity
  8
SCRATCH
100
AcDbLine
 10
37.0
 20
27.51
 30
0.0
 11
31.0
 21
27.51
 31
0.0
  0
LINE
  5
99A
100
AcDbEntity
  8
SCRATCH
100
AcDbLine
 10
37.0
 20
48.15
 30
0.0
 11
31.0
 21
48.15
 31
0.0
  0
LINE
  5
99B
100
AcDbEntity
  8
SCRATCH
100
AcDbLine
 10
31.0
 20
48.15
 30
0.0
 11
31.0
 21
27.51
 31
0.0
  0
POLYLINE
  5
99C
100
AcDbEntity
  8
SCRATCH
 62
     4
100
AcDb2dPolyline
 66
     1
 10
0.0
 20
0.0
 30
0.0
 70
     1
  0
VERTEX
  5
99D
100
AcDbEntity
  8
SCRATCH
 62
     4
100
AcDbVertex
100
AcDb2dVertex
 10
25.1
 20
8.45
 30
0.0
  0
VERTEX
  5
99E
100
AcDbEntity
  8
SCRATCH
 62
     4
100
AcDbVertex
100
AcDb2dVertex
 10
25.1
 20
15.15
 30
0.0
 42
-0.414214
  0
VERTEX
  5
99F
100
AcDbEntity
  8
SCRATCH
 62
     4
100
AcDbVertex
100
AcDb2dVertex
 10
26.1
 20
16.15
 30
0.0
  0
VERTEX
  5
9A0
100
AcDbEntity
  8
SCRATCH
 62
     4
100
AcDbVertex
100
AcDb2dVertex
 10
28.5
 20
16.15
 30
0.0
 42
-0.414214
  0
VERTEX
  5
9A1
100
AcDbEntity
  8
SCRATCH
 62
     4
100
AcDbVertex
100
AcDb2dVertex
 10
29.5
 20
15.15
 30
0.0
  0
VERTEX
  5
9A2
100
AcDbEntity
  8
SCRATCH
 62
     4
100
AcDbVertex
100
AcDb2dVertex
 10
29.5
 20
8.45
 30
0.0
 42
-0.414214
  0
VERTEX
  5
9A3
100
AcDbEntity
  8
SCRATCH
 62
     4
100
AcDbVertex
100
AcDb2dVertex
 10
28.5
 20
7.45
 30
0.0
  0
VERTEX
  5
9A4
100
AcDbEntity
  8
SCRATCH
 62
     4
100
AcDbVertex
100
AcDb2dVertex
 10
26.1
 20
7.45
 30
0.0
 42
-0.414214
  0
SEQEND
  5
9D0
100
AcDbEntity
  8
SCRATCH
 62
     4
  0
POLYLINE
  5
9A5
100
AcDbEntity
  8
SCRATCH
 62
     4
100
AcDb2dPolyline
 66
     1
 10
0.0
 20
0.0
 30
0.0
 70
     1
  0
VERTEX
  5
9A6
100
AcDbEntity
  8
SCRATCH
 62
     4
100
AcDbVertex
100
AcDb2dVertex
 10
25.1
 20
51.15
 30
0.0
  0
VERTEX
  5
9A7
100
AcDbEntity
  8
SCRATCH
 62
     4
100
AcDbVertex
100
AcDb2dVertex
 10
25.1
 20
57.85
 30
0.0
 42
-0.414214
  0
VERTEX
  5
9A8
100
AcDbEntity
  8
SCRATCH
 62
     4
100
AcDbVertex
100
AcDb2dVertex
 10
26.1
 20
58.85
 30
0.0
  0
VERTEX
  5
9A9
100
AcDbEntity
  8
SCRATCH
 62
     4
100
AcDbVertex
100
AcDb2dVertex
 10
28.5
 20
58.85
 30
0.0
 42
-0.414214
  0
VERTEX
  5
9AA
100
AcDbEntity
  8
SCRATCH
 62
     4
100
AcDbVertex
100
AcDb2dVertex
 10
29.5
 20
57.85
 30
0.0
  0
VERTEX
  5
9AB
100
AcDbEntity
  8
SCRATCH
 62
     4
100
AcDbVertex
100
AcDb2dVertex
 10
29.5
 20
51.15
 30
0.0
 42
-0.414214
  0
VERTEX
  5
9AC
100
AcDbEntity
  8
SCRATCH
 62
     4
100
AcDbVertex
100
AcDb2dVertex
 10
28.5
 20
50.15
 30
0.0
  0
VERTEX
  5
9AD
100
AcDbEntity
  8
SCRATCH
 62
     4
100
AcDbVertex
100
AcDb2dVertex
 10
26.1
 20
50.15
 30
0.0
 42
-0.414214
  0
SEQEND
  5
9D1
100
AcDbEntity
  8
SCRATCH
 62
     4
  0
POLYLINE
  5
9AE
100
AcDbEntity
  8
SCRATCH
100
AcDb2dPolyline
 66
     1
 10
0.0
 20
0.0
 30
0.0
 70
     1
1001
ACAD
1000
ASC_BOUNDS
1002
{
1070
    19
1005
0
1005
9B8
1002
}
  0
VERTEX
  5
9AF
100
AcDbEntity
  8
SCRATCH
100
AcDbVertex
100
AcDb2dVertex
 10
22.6
 20
60.85
 30
0.0
1001
ACAD
1000
ASC_BOUNDS
1002
{
1070
    19
1005
0
1002
}
  0
VERTEX
  5
9B0
100
AcDbEntity
  8
SCRATCH
100
AcDbVertex
100
AcDb2dVertex
 10
30.5
 20
60.85
 30
0.0
1001
ACAD
1000
ASC_BOUNDS
1002
{
1070
    19
1005
0
1002
}
  0
VERTEX
  5
9B1
100
AcDbEntity
  8
SCRATCH
100
AcDbVertex
100
AcDb2dVertex
 10
30.5
 20
48.15
 30
0.0
  0
VERTEX
  5
9B2
100
AcDbEntity
  8
SCRATCH
100
AcDbVertex
100
AcDb2dVertex
 10
22.6
 20
48.15
 30
0.0
  0
SEQEND
  5
9D2
100
AcDbEntity
  8
SCRATCH
1001
ACAD
1000
ASC_BOUNDS
1002
{
1070
    19
1005
0
1002
}
  0
POLYLINE
  5
9B3
100
AcDbEntity
  8
SCRATCH
100
AcDb2dPolyline
 66
     1
 10
0.0
 20
0.0
 30
0.0
 70
     1
1001
ACAD
1000
ASC_BOUNDS
1002
{
1070
    19
1005
0
1005
9B8
1002
}
  0
VERTEX
  5
9B4
100
AcDbEntity
  8
SCRATCH
100
AcDbVertex
100
AcDb2dVertex
 10
22.1
 20
61.35
 30
0.0
1001
ACAD
1000
ASC_BOUNDS
1002
{
1070
    19
1005
0
1002
}
  0
VERTEX
  5
9B5
100
AcDbEntity
  8
SCRATCH
100
AcDbVertex
100
AcDb2dVertex
 10
31.0
 20
61.35
 30
0.0
1001
ACAD
1000
ASC_BOUNDS
1002
{
1070
    19
1005
0
1002
}
  0
VERTEX
  5
9B6
100
AcDbEntity
  8
SCRATCH
100
AcDbVertex
100
AcDb2dVertex
 10
31.0
 20
47.65
 30
0.0
1001
ACAD
1000
ASC_BOUNDS
1002
{
1070
    19
1005
0
1002
}
  0
VERTEX
  5
9B7
100
AcDbEntity
  8
SCRATCH
100
AcDbVertex
100
AcDb2dVertex
 10
22.1
 20
47.65
 30
0.0
1001
ACAD
1000
ASC_BOUNDS
1002
{
1070
    19
1005
0
1002
}
  0
SEQEND
  5
9D3
100
AcDbEntity
  8
SCRATCH
1001
ACAD
1000
ASC_BOUNDS
1002
{
1070
    19
1005
0
1002
}
  0
INSERT
  5
9B8
100
AcDbEntity
  8
SCRATCH
100
AcDbBlockReference
  2
*X5
 10
-184.902831
 20
-25.430252
 30
0.0
1001
ACAD
1000
HATCH
1002
{
1070
    19
1000
ANSI31
1040
10.0
1040
0.0
1000
ASC_BOUNDS
1070
     1
1070
     2
1070
     2
1005
9B3
1005
9AE
1000
ASC_SEEDPOINT
1011
25.483139
1021
8.333139
1031
0.0
1002
}
  0
POLYLINE
  5
9B9
100
AcDbEntity
  8
SCRATCH
100
AcDb2dPolyline
 66
     1
 10
0.0
 20
0.0
 30
0.0
 70
     1
1001
ACAD
1000
ASC_BOUNDS
1002
{
1070
    19
1005
9C3
1002
}
  0
VERTEX
  5
9BA
100
AcDbEntity
  8
SCRATCH
100
AcDbVertex
100
AcDb2dVertex
 10
22.6
 20
18.15
 30
0.0
1001
ACAD
1000
ASC_BOUNDS
1002
{
1070
    19
1002
}
  0
VERTEX
  5
9BB
100
AcDbEntity
  8
SCRATCH
100
AcDbVertex
100
AcDb2dVertex
 10
30.5
 20
18.15
 30
0.0
1001
ACAD
1000
ASC_BOUNDS
1002
{
1070
    19
1002
}
  0
VERTEX
  5
9BC
100
AcDbEntity
  8
SCRATCH
100
AcDbVertex
100
AcDb2dVertex
 10
30.5
 20
5.45
 30
0.0
  0
VERTEX
  5
9BD
100
AcDbEntity
  8
SCRATCH
100
AcDbVertex
100
AcDb2dVertex
 10
22.6
 20
5.45
 30
0.0
  0
SEQEND
  5
9D4
100
AcDbEntity
  8
SCRATCH
1001
ACAD
1000
ASC_BOUNDS
1002
{
1070
    19
1002
}
  0
POLYLINE
  5
9BE
100
AcDbEntity
  8
SCRATCH
100
AcDb2dPolyline
 66
     1
 10
0.0
 20
0.0
 30
0.0
 70
     1
1001
ACAD
1000
ASC_BOUNDS
1002
{
1070
    19
1005
9C3
1002
}
  0
VERTEX
  5
9BF
100
AcDbEntity
  8
SCRATCH
100
AcDbVertex
100
AcDb2dVertex
 10
22.1
 20
18.65
 30
0.0
1001
ACAD
1000
ASC_BOUNDS
1002
{
1070
    19
1002
}
  0
VERTEX
  5
9C0
100
AcDbEntity
  8
SCRATCH
100
AcDbVertex
100
AcDb2dVertex
 10
31.0
 20
18.65
 30
0.0
1001
ACAD
1000
ASC_BOUNDS
1002
{
1070
    19
1002
}
  0
VERTEX
  5
9C1
100
AcDbEntity
  8
SCRATCH
100
AcDbVertex
100
AcDb2dVertex
 10
31.0
 20
4.95
 30
0.0
1001
ACAD
1000
ASC_BOUNDS
1002
{
1070
    19
1002
}
  0
VERTEX
  5
9C2
100
AcDbEntity
  8
SCRATCH
100
AcDbVertex
100
AcDb2dVertex
 10
22.1
 20
4.95
 30
0.0
1001
ACAD
1000
ASC_BOUNDS
1002
{
1070
    19
1002
}
  0
SEQEND
  5
9D5
100
AcDbEntity
  8
SCRATCH
1001
ACAD
1000
ASC_BOUNDS
1002
{
1070
    19
1002
}
  0
INSERT
  5
9C3
100
AcDbEntity
  8
SCRATCH
100
AcDbBlockReference
  2
*X6
 10
-184.902831
 20
-25.430252
 30
0.0
1001
ACAD
1000
HATCH
1002
{
1070
    19
1000
ANSI31
1040
10.0
1040
0.0
1000
ASC_BOUNDS
1070
     1
1070
     2
1070
     2
1005
9BE
1005
9B9
1000
ASC_SEEDPOINT
1011
25.483139
1021
8.333139
1031
0.0
1002
}
  0
ENDBLK
  5
9C5
100
AcDbEntity
  8
KEVLAR
100
AcDbBlockEnd
  0
BLOCK
  5
9ED
100
AcDbEntity
  8
BUSHING
100
AcDbBlockBegin
  2
POST-3
 70
     0
 10
0.0
 20
0.0
 30
0.0
  3
POST-3
  1

  0
CIRCLE
  5
9D7
100
AcDbEntity
  8
BUSHING
100
AcDbCircle
 10
4.7
 20
6.35
 30
0.0
 40
0.5
  0
LINE
  5
9D8
100
AcDbEntity
  8
BUSHING
100
AcDbLine
 10
7.9
 20
12.7
 30
0.0
 11
7.9
 21
0.0
 31
0.0
  0
LINE
  5
9D9
100
AcDbEntity
  8
BUSHING
100
AcDbLine
 10
2.5
 20
11.7
 30
0.0
 11
2.5
 21
1.0
 31
0.0
  0
LINE
  5
9DA
100
AcDbEntity
  8
BUSHING
100
AcDbLine
 10
0.5
 20
11.7
 30
0.0
 11
0.5
 21
1.0
 31
0.0
  0
POLYLINE
  5
9DB
100
AcDbEntity
  8
BUSHING
  6
HIDDEN
100
AcDb2dPolyline
 66
     1
 10
0.0
 20
0.0
 30
0.0
 70
     1
  0
VERTEX
  5
9DC
100
AcDbEntity
  8
BUSHING
  6
HIDDEN
100
AcDbVertex
100
AcDb2dVertex
 10
3.0
 20
3.0
 30
0.0
  0
VERTEX
  5
9DD
100
AcDbEntity
  8
BUSHING
  6
HIDDEN
100
AcDbVertex
100
AcDb2dVertex
 10
3.0
 20
9.7
 30
0.0
 42
-0.414214
  0
VERTEX
  5
9DE
100
AcDbEntity
  8
BUSHING
  6
HIDDEN
100
AcDbVertex
100
AcDb2dVertex
 10
3.5
 20
10.2
 30
0.0
  0
VERTEX
  5
9DF
100
AcDbEntity
  8
BUSHING
  6
HIDDEN
100
AcDbVertex
100
AcDb2dVertex
 10
5.9
 20
10.2
 30
0.0
 42
-0.414214
  0
VERTEX
  5
9E0
100
AcDbEntity
  8
BUSHING
  6
HIDDEN
100
AcDbVertex
100
AcDb2dVertex
 10
6.4
 20
9.7
 30
0.0
  0
VERTEX
  5
9E1
100
AcDbEntity
  8
BUSHING
  6
HIDDEN
100
AcDbVertex
100
AcDb2dVertex
 10
6.4
 20
3.0
 30
0.0
 42
-0.414214
  0
VERTEX
  5
9E2
100
AcDbEntity
  8
BUSHING
  6
HIDDEN
100
AcDbVertex
100
AcDb2dVertex
 10
5.9
 20
2.5
 30
0.0
  0
VERTEX
  5
9E3
100
AcDbEntity
  8
BUSHING
  6
HIDDEN
100
AcDbVertex
100
AcDb2dVertex
 10
3.5
 20
2.5
 30
0.0
 42
-0.414214
  0
SEQEND
  5
9EF
100
AcDbEntity
  8
BUSHING
  6
HIDDEN
  0
LINE
  5
9E4
100
AcDbEntity
  8
BUSHING
100
AcDbLine
 10
0.0
 20
12.7
 30
0.0
 11
0.0
 21
0.0
 31
0.0
  0
LINE
  5
9E5
100
AcDbEntity
  8
BUSHING
100
AcDbLine
 10
0.0
 20
0.0
 30
0.0
 11
7.9
 21
0.0
 31
0.0
  0
LINE
  5
9E6
100
AcDbEntity
  8
BUSHING
100
AcDbLine
 10
0.5
 20
1.0
 30
0.0
 11
2.5
 21
1.0
 31
0.0
  0
CIRCLE
  5
9E7
100
AcDbEntity
  8
BUSHING
100
AcDbCircle
 10
4.7
 20
4.0
 30
0.0
 40
0.8
  0
CIRCLE
  5
9E8
100
AcDbEntity
  8
BUSHING
100
AcDbCircle
 10
4.7
 20
4.0
 30
0.0
 40
1.7
  0
LINE
  5
9E9
100
AcDbEntity
  8
BUSHING
100
AcDbLine
 10
0.0
 20
12.7
 30
0.0
 11
7.9
 21
12.7
 31
0.0
  0
LINE
  5
9EA
100
AcDbEntity
  8
BUSHING
100
AcDbLine
 10
0.5
 20
11.7
 30
0.0
 11
2.5
 21
11.7
 31
0.0
  0
CIRCLE
  5
9EB
100
AcDbEntity
  8
BUSHING
100
AcDbCircle
 10
4.7
 20
8.7
 30
0.0
 40
0.8
  0
CIRCLE
  5
9EC
100
AcDbEntity
  8
BUSHING
100
AcDbCircle
 10
4.7
 20
8.7
 30
0.0
 40
1.7
  0
ENDBLK
  5
9EE
100
AcDbEntity
  8
BUSHING
100
AcDbBlockEnd
  0
BLOCK
  5
1C3B
100
AcDbEntity
  8
0
100
AcDbBlockBegin
  2
*D9
 70
    65
 10
0.0
 20
0.0
 30
0.0
  3
*D9
  1

  0
LINE
  5
1C3C
100
AcDbEntity
  8
0
  6
BYBLOCK
 62
     0
100
AcDbLine
 10
355.967453
 20
179.27625
 30
0.0
 11
355.967453
 21
196.981236
 31
0.0
  0
LINE
  5
1C3D
100
AcDbEntity
  8
0
  6
BYBLOCK
 62
     0
100
AcDbLine
 10
334.0675
 20
180.36625
 30
0.0
 11
334.0675
 21
196.981236
 31
0.0
  0
LINE
  5
1C3E
100
AcDbEntity
  8
0
  6
BYBLOCK
 62
     0
100
AcDbLine
 10
357.317453
 20
195.631236
 30
0.0
 11
358.667453
 21
195.631236
 31
0.0
  0
LINE
  5
1C3F
100
AcDbEntity
  8
0
  6
BYBLOCK
 62
     0
100
AcDbLine
 10
332.7175
 20
195.631236
 30
0.0
 11
331.3675
 21
195.631236
 31
0.0
  0
SOLID
  5
1C40
100
AcDbEntity
  8
0
  6
BYBLOCK
 62
     0
100
AcDbTrace
 10
357.317453
 20
195.856236
 30
0.0
 11
357.317453
 21
195.406236
 31
0.0
 12
355.967453
 22
195.631236
 32
0.0
 13
355.967453
 23
195.631236
 33
0.0
  0
SOLID
  5
1C41
100
AcDbEntity
  8
0
  6
BYBLOCK
 62
     0
100
AcDbTrace
 10
332.7175
 20
195.856236
 30
0.0
 11
332.7175
 21
195.406236
 31
0.0
 12
334.0675
 22
195.631236
 32
0.0
 13
334.0675
 23
195.631236
 33
0.0
  0
MTEXT
  5
1C42
100
AcDbEntity
  8
0
  6
BYBLOCK
 62
     0
100
AcDbMText
 10
317.5675
 20
195.631236
 30
0.0
 40
2.25
 41
0.0
 71
     5
 72
     1
  1
\A1;21.90mm[0.862"]
  0
POINT
  5
1C43
100
AcDbEntity
  8
DEFPOINTS
  6
BYBLOCK
 62
     0
100
AcDbPoint
 10
355.967453
 20
178.8075
 30
0.0
  0
POINT
  5
1C44
100
AcDbEntity
  8
DEFPOINTS
  6
BYBLOCK
 62
     0
100
AcDbPoint
 10
334.0675
 20
179.8975
 30
0.0
  0
POINT
  5
1C45
100
AcDbEntity
  8
DEFPOINTS
  6
BYBLOCK
 62
     0
100
AcDbPoint
 10
334.0675
 20
195.631236
 30
0.0
  0
ENDBLK
  5
1C46
100
AcDbEntity
  8
0
100
AcDbBlockEnd
  0
BLOCK
  5
C98
100
AcDbEntity
  8
0
100
AcDbBlockBegin
  2
*D10
 70
    65
 10
0.0
 20
0.0
 30
0.0
  3
*D10
  1

  0
LINE
  5
C99
100
AcDbEntity
  8
0
  6
BYBLOCK
 62
     0
100
AcDbLine
 10
355.784453
 20
198.33875
 30
0.0
 11
355.784453
 21
207.541592
 31
0.0
  0
LINE
  5
C9A
100
AcDbEntity
  8
0
  6
BYBLOCK
 62
     0
100
AcDbLine
 10
360.784453
 20
197.63875
 30
0.0
 11
360.784453
 21
207.541592
 31
0.0
  0
LINE
  5
C9B
100
AcDbEntity
  8
0
  6
BYBLOCK
 62
     0
100
AcDbLine
 10
354.434453
 20
206.191592
 30
0.0
 11
353.084453
 21
206.191592
 31
0.0
  0
LINE
  5
C9C
100
AcDbEntity
  8
0
  6
BYBLOCK
 62
     0
100
AcDbLine
 10
362.134453
 20
206.191592
 30
0.0
 11
363.484453
 21
206.191592
 31
0.0
  0
SOLID
  5
C9D
100
AcDbEntity
  8
0
  6
BYBLOCK
 62
     0
100
AcDbTrace
 10
354.434453
 20
206.416592
 30
0.0
 11
354.434453
 21
205.966592
 31
0.0
 12
355.784453
 22
206.191592
 32
0.0
 13
355.784453
 23
206.191592
 33
0.0
  0
SOLID
  5
C9E
100
AcDbEntity
  8
0
  6
BYBLOCK
 62
     0
100
AcDbTrace
 10
362.134453
 20
206.416592
 30
0.0
 11
362.134453
 21
205.966592
 31
0.0
 12
360.784453
 22
206.191592
 32
0.0
 13
360.784453
 23
206.191592
 33
0.0
  0
MTEXT
  5
C9F
100
AcDbEntity
  8
0
  6
BYBLOCK
 62
     0
100
AcDbMText
 10
377.284453
 20
206.191592
 30
0.0
 40
2.25
 41
0.0
 71
     5
 72
     1
  1
\A1;5.00mm[0.197"]
  0
POINT
  5
CA0
100
AcDbEntity
  8
DEFPOINTS
  6
BYBLOCK
 62
     0
100
AcDbPoint
 10
355.784453
 20
197.87
 30
0.0
  0
POINT
  5
CA1
100
AcDbEntity
  8
DEFPOINTS
  6
BYBLOCK
 62
     0
100
AcDbPoint
 10
360.784453
 20
197.17
 30
0.0
  0
POINT
  5
CA2
100
AcDbEntity
  8
DEFPOINTS
  6
BYBLOCK
 62
     0
100
AcDbPoint
 10
360.784453
 20
206.191592
 30
0.0
  0
ENDBLK
  5
CA3
100
AcDbEntity
  8
0
100
AcDbBlockEnd
  0
BLOCK
  5
1BBD
100
AcDbEntity
  8
0
100
AcDbBlockBegin
  2
*D11
 70
    65
 10
0.0
 20
0.0
 30
0.0
  3
*D11
  1

  0
LINE
  5
1BBE
100
AcDbEntity
  8
0
  6
BYBLOCK
 62
     0
100
AcDbLine
 10
334.0675
 20
313.184359
 30
0.0
 11
334.0675
 21
320.541389
 31
0.0
  0
LINE
  5
1BBF
100
AcDbEntity
  8
0
  6
BYBLOCK
 62
     0
100
AcDbLine
 10
329.0675
 20
310.694359
 30
0.0
 11
329.0675
 21
320.541389
 31
0.0
  0
LINE
  5
1BC0
100
AcDbEntity
  8
0
  6
BYBLOCK
 62
     0
100
AcDbLine
 10
335.4175
 20
319.191389
 30
0.0
 11
336.7675
 21
319.191389
 31
0.0
  0
LINE
  5
1BC1
100
AcDbEntity
  8
0
  6
BYBLOCK
 62
     0
100
AcDbLine
 10
327.7175
 20
319.191389
 30
0.0
 11
326.3675
 21
319.191389
 31
0.0
  0
SOLID
  5
1BC2
100
AcDbEntity
  8
0
  6
BYBLOCK
 62
     0
100
AcDbTrace
 10
335.4175
 20
319.416389
 30
0.0
 11
335.4175
 21
318.966389
 31
0.0
 12
334.0675
 22
319.191389
 32
0.0
 13
334.0675
 23
319.191389
 33
0.0
  0
SOLID
  5
1BC3
100
AcDbEntity
  8
0
  6
BYBLOCK
 62
     0
100
AcDbTrace
 10
327.7175
 20
319.416389
 30
0.0
 11
327.7175
 21
318.966389
 31
0.0
 12
329.0675
 22
319.191389
 32
0.0
 13
329.0675
 23
319.191389
 33
0.0
  0
MTEXT
  5
1BC4
100
AcDbEntity
  8
0
  6
BYBLOCK
 62
     0
100
AcDbMText
 10
313.88
 20
319.191389
 30
0.0
 40
2.25
 41
0.0
 71
     5
 72
     1
  1
\A1;5.00mm[0.197"]
  0
POINT
  5
1BC5
100
AcDbEntity
  8
DEFPOINTS
  6
BYBLOCK
 62
     0
100
AcDbPoint
 10
334.0675
 20
312.715609
 30
0.0
  0
POINT
  5
1BC6
100
AcDbEntity
  8
DEFPOINTS
  6
BYBLOCK
 62
     0
100
AcDbPoint
 10
329.0675
 20
310.225609
 30
0.0
  0
POINT
  5
1BC7
100
AcDbEntity
  8
DEFPOINTS
  6
BYBLOCK
 62
     0
100
AcDbPoint
 10
329.0675
 20
319.191389
 30
0.0
  0
ENDBLK
  5
1BC8
100
AcDbEntity
  8
0
100
AcDbBlockEnd
  0
BLOCK
  5
202F
100
AcDbEntity
  8
0
100
AcDbBlockBegin
  2
*D12
 70
    65
 10
0.0
 20
0.0
 30
0.0
  3
*D12
  1

  0
LINE
  5
2030
100
AcDbEntity
  8
0
  6
BYBLOCK
 62
     0
100
AcDbLine
 10
355.967453
 20
309.114359
 30
0.0
 11
355.967453
 21
329.962685
 31
0.0
  0
LINE
  5
2031
100
AcDbEntity
  8
0
  6
BYBLOCK
 62
     0
100
AcDbLine
 10
334.0675
 20
313.184359
 30
0.0
 11
334.0675
 21
329.962685
 31
0.0
  0
LINE
  5
2032
100
AcDbEntity
  8
0
  6
BYBLOCK
 62
     0
100
AcDbLine
 10
357.317453
 20
328.612685
 30
0.0
 11
358.667453
 21
328.612685
 31
0.0
  0
LINE
  5
2033
100
AcDbEntity
  8
0
  6
BYBLOCK
 62
     0
100
AcDbLine
 10
332.7175
 20
328.612685
 30
0.0
 11
331.3675
 21
328.612685
 31
0.0
  0
SOLID
  5
2034
100
AcDbEntity
  8
0
  6
BYBLOCK
 62
     0
100
AcDbTrace
 10
357.317453
 20
328.837685
 30
0.0
 11
357.317453
 21
328.387685
 31
0.0
 12
355.967453
 22
328.612685
 32
0.0
 13
355.967453
 23
328.612685
 33
0.0
  0
SOLID
  5
2035
100
AcDbEntity
  8
0
  6
BYBLOCK
 62
     0
100
AcDbTrace
 10
332.7175
 20
328.837685
 30
0.0
 11
332.7175
 21
328.387685
 31
0.0
 12
334.0675
 22
328.612685
 32
0.0
 13
334.0675
 23
328.612685
 33
0.0
  0
MTEXT
  5
2036
100
AcDbEntity
  8
0
  6
BYBLOCK
 62
     0
100
AcDbMText
 10
317.5675
 20
328.612685
 30
0.0
 40
2.25
 41
0.0
 71
     5
 72
     1
  1
\A1;21.90mm[0.862"]
  0
POINT
  5
2037
100
AcDbEntity
  8
DEFPOINTS
  6
BYBLOCK
 62
     0
100
AcDbPoint
 10
355.967453
 20
308.645609
 30
0.0
  0
POINT
  5
2038
100
AcDbEntity
  8
DEFPOINTS
  6
BYBLOCK
 62
     0
100
AcDbPoint
 10
334.0675
 20
312.715609
 30
0.0
  0
POINT
  5
2039
100
AcDbEntity
  8
DEFPOINTS
  6
BYBLOCK
 62
     0
100
AcDbPoint
 10
334.0675
 20
328.612685
 30
0.0
  0
ENDBLK
  5
203A
100
AcDbEntity
  8
0
100
AcDbBlockEnd
  0
BLOCK
  5
CBC
100
AcDbEntity
  8
0
100
AcDbBlockBegin
  2
*D13
 70
    65
 10
0.0
 20
0.0
 30
0.0
  3
*D13
  1

  0
LINE
  5
CBD
100
AcDbEntity
  8
0
  6
BYBLOCK
 62
     0
100
AcDbLine
 10
355.479653
 20
309.114359
 30
0.0
 11
355.479653
 21
317.783937
 31
0.0
  0
LINE
  5
CBE
100
AcDbEntity
  8
0
  6
BYBLOCK
 62
     0
100
AcDbLine
 10
360.479653
 20
308.414359
 30
0.0
 11
360.479653
 21
317.783937
 31
0.0
  0
LINE
  5
CBF
100
AcDbEntity
  8
0
  6
BYBLOCK
 62
     0
100
AcDbLine
 10
354.129653
 20
316.433937
 30
0.0
 11
352.779653
 21
316.433937
 31
0.0
  0
LINE
  5
CC0
100
AcDbEntity
  8
0
  6
BYBLOCK
 62
     0
100
AcDbLine
 10
361.829653
 20
316.433937
 30
0.0
 11
363.179653
 21
316.433937
 31
0.0
  0
SOLID
  5
CC1
100
AcDbEntity
  8
0
  6
BYBLOCK
 62
     0
100
AcDbTrace
 10
354.129653
 20
316.658937
 30
0.0
 11
354.129653
 21
316.208937
 31
0.0
 12
355.479653
 22
316.433937
 32
0.0
 13
355.479653
 23
316.433937
 33
0.0
  0
SOLID
  5
CC2
100
AcDbEntity
  8
0
  6
BYBLOCK
 62
     0
100
AcDbTrace
 10
361.829653
 20
316.658937
 30
0.0
 11
361.829653
 21
316.208937
 31
0.0
 12
360.479653
 22
316.433937
 32
0.0
 13
360.479653
 23
316.433937
 33
0.0
  0
MTEXT
  5
CC3
100
AcDbEntity
  8
0
  6
BYBLOCK
 62
     0
100
AcDbMText
 10
376.979653
 20
316.433937
 30
0.0
 40
2.25
 41
0.0
 71
     5
 72
     1
  1
\A1;5.00mm[0.197"]
  0
POINT
  5
CC4
100
AcDbEntity
  8
DEFPOINTS
  6
BYBLOCK
 62
     0
100
AcDbPoint
 10
355.479653
 20
308.645609
 30
0.0
  0
POINT
  5
CC5
100
AcDbEntity
  8
DEFPOINTS
  6
BYBLOCK
 62
     0
100
AcDbPoint
 10
360.479653
 20
307.945609
 30
0.0
  0
POINT
  5
CC6
100
AcDbEntity
  8
DEFPOINTS
  6
BYBLOCK
 62
     0
100
AcDbPoint
 10
360.479653
 20
316.433937
 30
0.0
  0
ENDBLK
  5
CC7
100
AcDbEntity
  8
0
100
AcDbBlockEnd
  0
BLOCK
  5
1EC8
100
AcDbEntity
  8
0
100
AcDbBlockBegin
  2
*X14
 70
    65
 10
0.0
 20
0.0
 30
0.0
  3
*X14
  1

  0
LINE
  5
1ECA
100
AcDbEntity
  8
0
 62
     0
100
AcDbLine
 10
247.055555
 20
110.9375
 30
0.0
 11
287.775555
 21
151.6575
 31
0.0
  0
LINE
  5
1ECB
100
AcDbEntity
  8
0
 62
     0
100
AcDbLine
 10
287.775555
 20
151.6575
 30
0.0
 11
313.525555
 21
177.4075
 31
0.0
  0
LINE
  5
1ECC
100
AcDbEntity
  8
0
 62
     0
100
AcDbLine
 10
245.287788
 20
110.9375
 30
0.0
 11
286.007788
 21
151.6575
 31
0.0
  0
LINE
  5
1ECD
100
AcDbEntity
  8
0
 62
     0
100
AcDbLine
 10
286.007788
 20
151.6575
 30
0.0
 11
311.757788
 21
177.4075
 31
0.0
  0
LINE
  5
1ECE
100
AcDbEntity
  8
0
 62
     0
100
AcDbLine
 10
243.520021
 20
110.9375
 30
0.0
 11
284.240021
 21
151.6575
 31
0.0
  0
LINE
  5
1ECF
100
AcDbEntity
  8
0
 62
     0
100
AcDbLine
 10
284.240021
 20
151.6575
 30
0.0
 11
309.990021
 21
177.4075
 31
0.0
  0
LINE
  5
1ED0
100
AcDbEntity
  8
0
 62
     0
100
AcDbLine
 10
241.752255
 20
110.9375
 30
0.0
 11
282.472255
 21
151.6575
 31
0.0
  0
LINE
  5
1ED1
100
AcDbEntity
  8
0
 62
     0
100
AcDbLine
 10
282.472255
 20
151.6575
 30
0.0
 11
308.222255
 21
177.4075
 31
0.0
  0
LINE
  5
1ED2
100
AcDbEntity
  8
0
 62
     0
100
AcDbLine
 10
239.984488
 20
110.9375
 30
0.0
 11
280.704488
 21
151.6575
 31
0.0
  0
LINE
  5
1ED3
100
AcDbEntity
  8
0
 62
     0
100
AcDbLine
 10
280.704488
 20
151.6575
 30
0.0
 11
306.454488
 21
177.4075
 31
0.0
  0
LINE
  5
1ED4
100
AcDbEntity
  8
0
 62
     0
100
AcDbLine
 10
238.216721
 20
110.9375
 30
0.0
 11
278.936721
 21
151.6575
 31
0.0
  0
LINE
  5
1ED5
100
AcDbEntity
  8
0
 62
     0
100
AcDbLine
 10
278.936721
 20
151.6575
 30
0.0
 11
304.686721
 21
177.4075
 31
0.0
  0
LINE
  5
1ED6
100
AcDbEntity
  8
0
 62
     0
100
AcDbLine
 10
236.448954
 20
110.9375
 30
0.0
 11
277.168954
 21
151.6575
 31
0.0
  0
LINE
  5
1ED7
100
AcDbEntity
  8
0
 62
     0
100
AcDbLine
 10
277.168954
 20
151.6575
 30
0.0
 11
302.918954
 21
177.4075
 31
0.0
  0
LINE
  5
1ED8
100
AcDbEntity
  8
0
 62
     0
100
AcDbLine
 10
234.681187
 20
110.9375
 30
0.0
 11
275.401187
 21
151.6575
 31
0.0
  0
LINE
  5
1ED9
100
AcDbEntity
  8
0
 62
     0
100
AcDbLine
 10
275.401187
 20
151.6575
 30
0.0
 11
301.151187
 21
177.4075
 31
0.0
  0
LINE
  5
1EDA
100
AcDbEntity
  8
0
 62
     0
100
AcDbLine
 10
232.91342
 20
110.9375
 30
0.0
 11
273.63342
 21
151.6575
 31
0.0
  0
LINE
  5
1EDB
100
AcDbEntity
  8
0
 62
     0
100
AcDbLine
 10
273.63342
 20
151.6575
 30
0.0
 11
299.38342
 21
177.4075
 31
0.0
  0
LINE
  5
1EDC
100
AcDbEntity
  8
0
 62
     0
100
AcDbLine
 10
231.145653
 20
110.9375
 30
0.0
 11
271.865653
 21
151.6575
 31
0.0
  0
LINE
  5
1EDD
100
AcDbEntity
  8
0
 62
     0
100
AcDbLine
 10
271.865653
 20
151.6575
 30
0.0
 11
297.615653
 21
177.4075
 31
0.0
  0
LINE
  5
1EDE
100
AcDbEntity
  8
0
 62
     0
100
AcDbLine
 10
229.377886
 20
110.9375
 30
0.0
 11
270.097886
 21
151.6575
 31
0.0
  0
LINE
  5
1EDF
100
AcDbEntity
  8
0
 62
     0
100
AcDbLine
 10
270.097886
 20
151.6575
 30
0.0
 11
295.847886
 21
177.4075
 31
0.0
  0
LINE
  5
1EE0
100
AcDbEntity
  8
0
 62
     0
100
AcDbLine
 10
227.610119
 20
110.9375
 30
0.0
 11
268.330119
 21
151.6575
 31
0.0
  0
LINE
  5
1EE1
100
AcDbEntity
  8
0
 62
     0
100
AcDbLine
 10
268.330119
 20
151.6575
 30
0.0
 11
294.080119
 21
177.4075
 31
0.0
  0
LINE
  5
1EE2
100
AcDbEntity
  8
0
 62
     0
100
AcDbLine
 10
225.842352
 20
110.9375
 30
0.0
 11
266.562352
 21
151.6575
 31
0.0
  0
LINE
  5
1EE3
100
AcDbEntity
  8
0
 62
     0
100
AcDbLine
 10
266.562352
 20
151.6575
 30
0.0
 11
292.312352
 21
177.4075
 31
0.0
  0
LINE
  5
1EE4
100
AcDbEntity
  8
0
 62
     0
100
AcDbLine
 10
224.074585
 20
110.9375
 30
0.0
 11
264.794585
 21
151.6575
 31
0.0
  0
LINE
  5
1EE5
100
AcDbEntity
  8
0
 62
     0
100
AcDbLine
 10
264.794585
 20
151.6575
 30
0.0
 11
290.544585
 21
177.4075
 31
0.0
  0
LINE
  5
1EE6
100
AcDbEntity
  8
0
 62
     0
100
AcDbLine
 10
222.306818
 20
110.9375
 30
0.0
 11
263.026818
 21
151.6575
 31
0.0
  0
LINE
  5
1EE7
100
AcDbEntity
  8
0
 62
     0
100
AcDbLine
 10
263.026818
 20
151.6575
 30
0.0
 11
288.776818
 21
177.4075
 31
0.0
  0
LINE
  5
1EE8
100
AcDbEntity
  8
0
 62
     0
100
AcDbLine
 10
220.539051
 20
110.9375
 30
0.0
 11
261.259051
 21
151.6575
 31
0.0
  0
LINE
  5
1EE9
100
AcDbEntity
  8
0
 62
     0
100
AcDbLine
 10
261.259051
 20
151.6575
 30
0.0
 11
287.009051
 21
177.4075
 31
0.0
  0
LINE
  5
1EEA
100
AcDbEntity
  8
0
 62
     0
100
AcDbLine
 10
218.771284
 20
110.9375
 30
0.0
 11
259.491284
 21
151.6575
 31
0.0
  0
LINE
  5
1EEB
100
AcDbEntity
  8
0
 62
     0
100
AcDbLine
 10
259.491284
 20
151.6575
 30
0.0
 11
285.241284
 21
177.4075
 31
0.0
  0
LINE
  5
1EEC
100
AcDbEntity
  8
0
 62
     0
100
AcDbLine
 10
217.003517
 20
110.9375
 30
0.0
 11
257.723517
 21
151.6575
 31
0.0
  0
LINE
  5
1EED
100
AcDbEntity
  8
0
 62
     0
100
AcDbLine
 10
257.723517
 20
151.6575
 30
0.0
 11
283.473517
 21
177.4075
 31
0.0
  0
LINE
  5
1EEE
100
AcDbEntity
  8
0
 62
     0
100
AcDbLine
 10
215.23575
 20
110.9375
 30
0.0
 11
255.95575
 21
151.6575
 31
0.0
  0
LINE
  5
1EEF
100
AcDbEntity
  8
0
 62
     0
100
AcDbLine
 10
255.95575
 20
151.6575
 30
0.0
 11
281.70575
 21
177.4075
 31
0.0
  0
LINE
  5
1EF0
100
AcDbEntity
  8
0
 62
     0
100
AcDbLine
 10
213.467983
 20
110.9375
 30
0.0
 11
254.187983
 21
151.6575
 31
0.0
  0
LINE
  5
1EF1
100
AcDbEntity
  8
0
 62
     0
100
AcDbLine
 10
254.187983
 20
151.6575
 30
0.0
 11
279.937983
 21
177.4075
 31
0.0
  0
LINE
  5
1EF2
100
AcDbEntity
  8
0
 62
     0
100
AcDbLine
 10
211.700216
 20
110.9375
 30
0.0
 11
252.420216
 21
151.6575
 31
0.0
  0
LINE
  5
1EF3
100
AcDbEntity
  8
0
 62
     0
100
AcDbLine
 10
252.420216
 20
151.6575
 30
0.0
 11
278.170216
 21
177.4075
 31
0.0
  0
LINE
  5
1EF4
100
AcDbEntity
  8
0
 62
     0
100
AcDbLine
 10
209.932449
 20
110.9375
 30
0.0
 11
250.652449
 21
151.6575
 31
0.0
  0
LINE
  5
1EF5
100
AcDbEntity
  8
0
 62
     0
100
AcDbLine
 10
250.652449
 20
151.6575
 30
0.0
 11
276.402449
 21
177.4075
 31
0.0
  0
LINE
  5
1EF6
100
AcDbEntity
  8
0
 62
     0
100
AcDbLine
 10
208.164682
 20
110.9375
 30
0.0
 11
248.884682
 21
151.6575
 31
0.0
  0
LINE
  5
1EF7
100
AcDbEntity
  8
0
 62
     0
100
AcDbLine
 10
248.884682
 20
151.6575
 30
0.0
 11
274.634682
 21
177.4075
 31
0.0
  0
LINE
  5
1EF8
100
AcDbEntity
  8
0
 62
     0
100
AcDbLine
 10
206.396915
 20
110.9375
 30
0.0
 11
247.116915
 21
151.6575
 31
0.0
  0
LINE
  5
1EF9
100
AcDbEntity
  8
0
 62
     0
100
AcDbLine
 10
247.116915
 20
151.6575
 30
0.0
 11
272.866915
 21
177.4075
 31
0.0
  0
LINE
  5
1EFA
100
AcDbEntity
  8
0
 62
     0
100
AcDbLine
 10
204.629149
 20
110.9375
 30
0.0
 11
245.349149
 21
151.6575
 31
0.0
  0
LINE
  5
1EFB
100
AcDbEntity
  8
0
 62
     0
100
AcDbLine
 10
245.349149
 20
151.6575
 30
0.0
 11
271.099149
 21
177.4075
 31
0.0
  0
LINE
  5
1EFC
100
AcDbEntity
  8
0
 62
     0
100
AcDbLine
 10
202.861382
 20
110.9375
 30
0.0
 11
243.581382
 21
151.6575
 31
0.0
  0
LINE
  5
1EFD
100
AcDbEntity
  8
0
 62
     0
100
AcDbLine
 10
243.581382
 20
151.6575
 30
0.0
 11
269.331382
 21
177.4075
 31
0.0
  0
LINE
  5
1EFE
100
AcDbEntity
  8
0
 62
     0
100
AcDbLine
 10
202.7175
 20
112.561385
 30
0.0
 11
241.813615
 21
151.6575
 31
0.0
  0
LINE
  5
1EFF
100
AcDbEntity
  8
0
 62
     0
100
AcDbLine
 10
241.813615
 20
151.6575
 30
0.0
 11
267.563615
 21
177.4075
 31
0.0
  0
LINE
  5
1F00
100
AcDbEntity
  8
0
 62
     0
100
AcDbLine
 10
202.7175
 20
114.329152
 30
0.0
 11
240.045848
 21
151.6575
 31
0.0
  0
LINE
  5
1F01
100
AcDbEntity
  8
0
 62
     0
100
AcDbLine
 10
240.045848
 20
151.6575
 30
0.0
 11
265.795848
 21
177.4075
 31
0.0
  0
LINE
  5
1F02
100
AcDbEntity
  8
0
 62
     0
100
AcDbLine
 10
202.7175
 20
116.096919
 30
0.0
 11
238.278081
 21
151.6575
 31
0.0
  0
LINE
  5
1F03
100
AcDbEntity
  8
0
 62
     0
100
AcDbLine
 10
238.278081
 20
151.6575
 30
0.0
 11
264.028081
 21
177.4075
 31
0.0
  0
LINE
  5
1F04
100
AcDbEntity
  8
0
 62
     0
100
AcDbLine
 10
202.7175
 20
117.864686
 30
0.0
 11
236.510314
 21
151.6575
 31
0.0
  0
LINE
  5
1F05
100
AcDbEntity
  8
0
 62
     0
100
AcDbLine
 10
236.510314
 20
151.6575
 30
0.0
 11
262.260314
 21
177.4075
 31
0.0
  0
LINE
  5
1F06
100
AcDbEntity
  8
0
 62
     0
100
AcDbLine
 10
202.7175
 20
119.632453
 30
0.0
 11
234.742547
 21
151.6575
 31
0.0
  0
LINE
  5
1F07
100
AcDbEntity
  8
0
 62
     0
100
AcDbLine
 10
234.742547
 20
151.6575
 30
0.0
 11
260.492547
 21
177.4075
 31
0.0
  0
LINE
  5
1F08
100
AcDbEntity
  8
0
 62
     0
100
AcDbLine
 10
202.7175
 20
121.40022
 30
0.0
 11
232.97478
 21
151.6575
 31
0.0
  0
LINE
  5
1F09
100
AcDbEntity
  8
0
 62
     0
100
AcDbLine
 10
232.97478
 20
151.6575
 30
0.0
 11
258.72478
 21
177.4075
 31
0.0
  0
LINE
  5
1F0A
100
AcDbEntity
  8
0
 62
     0
100
AcDbLine
 10
202.7175
 20
123.167987
 30
0.0
 11
231.207013
 21
151.6575
 31
0.0
  0
LINE
  5
1F0B
100
AcDbEntity
  8
0
 62
     0
100
AcDbLine
 10
231.207013
 20
151.6575
 30
0.0
 11
256.957013
 21
177.4075
 31
0.0
  0
LINE
  5
1F0C
100
AcDbEntity
  8
0
 62
     0
100
AcDbLine
 10
202.7175
 20
124.935754
 30
0.0
 11
229.439246
 21
151.6575
 31
0.0
  0
LINE
  5
1F0D
100
AcDbEntity
  8
0
 62
     0
100
AcDbLine
 10
229.439246
 20
151.6575
 30
0.0
 11
255.189246
 21
177.4075
 31
0.0
  0
LINE
  5
1F0E
100
AcDbEntity
  8
0
 62
     0
100
AcDbLine
 10
202.7175
 20
126.703521
 30
0.0
 11
227.671479
 21
151.6575
 31
0.0
  0
LINE
  5
1F0F
100
AcDbEntity
  8
0
 62
     0
100
AcDbLine
 10
227.671479
 20
151.6575
 30
0.0
 11
253.421479
 21
177.4075
 31
0.0
  0
LINE
  5
1F10
100
AcDbEntity
  8
0
 62
     0
100
AcDbLine
 10
202.7175
 20
128.471288
 30
0.0
 11
225.903712
 21
151.6575
 31
0.0
  0
LINE
  5
1F11
100
AcDbEntity
  8
0
 62
     0
100
AcDbLine
 10
225.903712
 20
151.6575
 30
0.0
 11
251.653712
 21
177.4075
 31
0.0
  0
LINE
  5
1F12
100
AcDbEntity
  8
0
 62
     0
100
AcDbLine
 10
202.7175
 20
130.239055
 30
0.0
 11
224.135945
 21
151.6575
 31
0.0
  0
LINE
  5
1F13
100
AcDbEntity
  8
0
 62
     0
100
AcDbLine
 10
224.135945
 20
151.6575
 30
0.0
 11
249.885945
 21
177.4075
 31
0.0
  0
LINE
  5
1F14
100
AcDbEntity
  8
0
 62
     0
100
AcDbLine
 10
202.7175
 20
132.006822
 30
0.0
 11
222.368178
 21
151.6575
 31
0.0
  0
LINE
  5
1F15
100
AcDbEntity
  8
0
 62
     0
100
AcDbLine
 10
222.368178
 20
151.6575
 30
0.0
 11
248.118178
 21
177.4075
 31
0.0
  0
LINE
  5
1F16
100
AcDbEntity
  8
0
 62
     0
100
AcDbLine
 10
202.7175
 20
133.774589
 30
0.0
 11
220.600411
 21
151.6575
 31
0.0
  0
LINE
  5
1F17
100
AcDbEntity
  8
0
 62
     0
100
AcDbLine
 10
220.600411
 20
151.6575
 30
0.0
 11
246.350411
 21
177.4075
 31
0.0
  0
LINE
  5
1F18
100
AcDbEntity
  8
0
 62
     0
100
AcDbLine
 10
202.7175
 20
135.542356
 30
0.0
 11
218.832644
 21
151.6575
 31
0.0
  0
LINE
  5
1F19
100
AcDbEntity
  8
0
 62
     0
100
AcDbLine
 10
218.832644
 20
151.6575
 30
0.0
 11
244.582644
 21
177.4075
 31
0.0
  0
LINE
  5
1F1A
100
AcDbEntity
  8
0
 62
     0
100
AcDbLine
 10
202.7175
 20
137.310123
 30
0.0
 11
217.064877
 21
151.6575
 31
0.0
  0
LINE
  5
1F1B
100
AcDbEntity
  8
0
 62
     0
100
AcDbLine
 10
217.064877
 20
151.6575
 30
0.0
 11
242.814877
 21
177.4075
 31
0.0
  0
LINE
  5
1F1C
100
AcDbEntity
  8
0
 62
     0
100
AcDbLine
 10
202.7175
 20
139.07789
 30
0.0
 11
215.29711
 21
151.6575
 31
0.0
  0
LINE
  5
1F1D
100
AcDbEntity
  8
0
 62
     0
100
AcDbLine
 10
215.29711
 20
151.6575
 30
0.0
 11
241.04711
 21
177.4075
 31
0.0
  0
LINE
  5
1F1E
100
AcDbEntity
  8
0
 62
     0
100
AcDbLine
 10
202.7175
 20
140.845657
 30
0.0
 11
213.529343
 21
151.6575
 31
0.0
  0
LINE
  5
1F1F
100
AcDbEntity
  8
0
 62
     0
100
AcDbLine
 10
213.529343
 20
151.6575
 30
0.0
 11
239.279343
 21
177.4075
 31
0.0
  0
LINE
  5
1F20
100
AcDbEntity
  8
0
 62
     0
100
AcDbLine
 10
202.7175
 20
142.613424
 30
0.0
 11
211.761576
 21
151.6575
 31
0.0
  0
LINE
  5
1F21
100
AcDbEntity
  8
0
 62
     0
100
AcDbLine
 10
211.761576
 20
151.6575
 30
0.0
 11
237.511576
 21
177.4075
 31
0.0
  0
LINE
  5
1F22
100
AcDbEntity
  8
0
 62
     0
100
AcDbLine
 10
202.7175
 20
144.381191
 30
0.0
 11
209.993809
 21
151.6575
 31
0.0
  0
LINE
  5
1F23
100
AcDbEntity
  8
0
 62
     0
100
AcDbLine
 10
209.993809
 20
151.6575
 30
0.0
 11
235.743809
 21
177.4075
 31
0.0
  0
LINE
  5
1F24
100
AcDbEntity
  8
0
 62
     0
100
AcDbLine
 10
202.7175
 20
146.148958
 30
0.0
 11
208.226042
 21
151.6575
 31
0.0
  0
LINE
  5
1F25
100
AcDbEntity
  8
0
 62
     0
100
AcDbLine
 10
208.226042
 20
151.6575
 30
0.0
 11
233.976042
 21
177.4075
 31
0.0
  0
LINE
  5
1F26
100
AcDbEntity
  8
0
 62
     0
100
AcDbLine
 10
202.7175
 20
147.916724
 30
0.0
 11
206.458276
 21
151.6575
 31
0.0
  0
LINE
  5
1F27
100
AcDbEntity
  8
0
 62
     0
100
AcDbLine
 10
206.458276
 20
151.6575
 30
0.0
 11
232.208276
 21
177.4075
 31
0.0
  0
LINE
  5
1F28
100
AcDbEntity
  8
0
 62
     0
100
AcDbLine
 10
202.7175
 20
149.684491
 30
0.0
 11
204.690509
 21
151.6575
 31
0.0
  0
LINE
  5
1F29
100
AcDbEntity
  8
0
 62
     0
100
AcDbLine
 10
204.690509
 20
151.6575
 30
0.0
 11
230.440509
 21
177.4075
 31
0.0
  0
LINE
  5
1F2A
100
AcDbEntity
  8
0
 62
     0
100
AcDbLine
 10
202.7175
 20
151.452258
 30
0.0
 11
202.922742
 21
151.6575
 31
0.0
  0
LINE
  5
1F2B
100
AcDbEntity
  8
0
 62
     0
100
AcDbLine
 10
202.922742
 20
151.6575
 30
0.0
 11
228.672742
 21
177.4075
 31
0.0
  0
LINE
  5
1F2C
100
AcDbEntity
  8
0
 62
     0
100
AcDbLine
 10
202.7175
 20
153.220025
 30
0.0
 11
226.904975
 21
177.4075
 31
0.0
  0
LINE
  5
1F2D
100
AcDbEntity
  8
0
 62
     0
100
AcDbLine
 10
202.7175
 20
154.987792
 30
0.0
 11
225.137208
 21
177.4075
 31
0.0
  0
LINE
  5
1F2E
100
AcDbEntity
  8
0
 62
     0
100
AcDbLine
 10
202.7175
 20
156.755559
 30
0.0
 11
223.369441
 21
177.4075
 31
0.0
  0
LINE
  5
1F2F
100
AcDbEntity
  8
0
 62
     0
100
AcDbLine
 10
202.7175
 20
158.523326
 30
0.0
 11
221.601674
 21
177.4075
 31
0.0
  0
LINE
  5
1F30
100
AcDbEntity
  8
0
 62
     0
100
AcDbLine
 10
202.7175
 20
160.291093
 30
0.0
 11
219.833907
 21
177.4075
 31
0.0
  0
LINE
  5
1F31
100
AcDbEntity
  8
0
 62
     0
100
AcDbLine
 10
202.7175
 20
162.05886
 30
0.0
 11
218.06614
 21
177.4075
 31
0.0
  0
LINE
  5
1F32
100
AcDbEntity
  8
0
 62
     0
100
AcDbLine
 10
202.7175
 20
163.826627
 30
0.0
 11
216.298373
 21
177.4075
 31
0.0
  0
LINE
  5
1F33
100
AcDbEntity
  8
0
 62
     0
100
AcDbLine
 10
202.7175
 20
165.594394
 30
0.0
 11
214.530606
 21
177.4075
 31
0.0
  0
LINE
  5
1F34
100
AcDbEntity
  8
0
 62
     0
100
AcDbLine
 10
202.7175
 20
167.362161
 30
0.0
 11
212.762839
 21
177.4075
 31
0.0
  0
LINE
  5
1F35
100
AcDbEntity
  8
0
 62
     0
100
AcDbLine
 10
202.7175
 20
169.129928
 30
0.0
 11
210.995072
 21
177.4075
 31
0.0
  0
LINE
  5
1F36
100
AcDbEntity
  8
0
 62
     0
100
AcDbLine
 10
202.7175
 20
170.897695
 30
0.0
 11
209.227305
 21
177.4075
 31
0.0
  0
LINE
  5
1F37
100
AcDbEntity
  8
0
 62
     0
100
AcDbLine
 10
202.7175
 20
172.665462
 30
0.0
 11
207.459538
 21
177.4075
 31
0.0
  0
LINE
  5
1F38
100
AcDbEntity
  8
0
 62
     0
100
AcDbLine
 10
202.7175
 20
174.433229
 30
0.0
 11
205.691771
 21
177.4075
 31
0.0
  0
LINE
  5
1F39
100
AcDbEntity
  8
0
 62
     0
100
AcDbLine
 10
202.7175
 20
176.200996
 30
0.0
 11
203.924004
 21
177.4075
 31
0.0
  0
LINE
  5
1F3A
100
AcDbEntity
  8
0
 62
     0
100
AcDbLine
 10
248.823322
 20
110.9375
 30
0.0
 11
289.543322
 21
151.6575
 31
0.0
  0
LINE
  5
1F3B
100
AcDbEntity
  8
0
 62
     0
100
AcDbLine
 10
289.543322
 20
151.6575
 30
0.0
 11
315.293322
 21
177.4075
 31
0.0
  0
LINE
  5
1F3C
100
AcDbEntity
  8
0
 62
     0
100
AcDbLine
 10
250.591089
 20
110.9375
 30
0.0
 11
291.311089
 21
151.6575
 31
0.0
  0
LINE
  5
1F3D
100
AcDbEntity
  8
0
 62
     0
100
AcDbLine
 10
291.311089
 20
151.6575
 30
0.0
 11
317.061089
 21
177.4075
 31
0.0
  0
LINE
  5
1F3E
100
AcDbEntity
  8
0
 62
     0
100
AcDbLine
 10
252.358856
 20
110.9375
 30
0.0
 11
293.078856
 21
151.6575
 31
0.0
  0
LINE
  5
1F3F
100
AcDbEntity
  8
0
 62
     0
100
AcDbLine
 10
293.078856
 20
151.6575
 30
0.0
 11
318.828856
 21
177.4075
 31
0.0
  0
LINE
  5
1F40
100
AcDbEntity
  8
0
 62
     0
100
AcDbLine
 10
254.126623
 20
110.9375
 30
0.0
 11
294.846623
 21
151.6575
 31
0.0
  0
LINE
  5
1F41
100
AcDbEntity
  8
0
 62
     0
100
AcDbLine
 10
294.846623
 20
151.6575
 30
0.0
 11
320.596623
 21
177.4075
 31
0.0
  0
LINE
  5
1F42
100
AcDbEntity
  8
0
 62
     0
100
AcDbLine
 10
255.89439
 20
110.9375
 30
0.0
 11
296.61439
 21
151.6575
 31
0.0
  0
LINE
  5
1F43
100
AcDbEntity
  8
0
 62
     0
100
AcDbLine
 10
296.61439
 20
151.6575
 30
0.0
 11
322.36439
 21
177.4075
 31
0.0
  0
LINE
  5
1F44
100
AcDbEntity
  8
0
 62
     0
100
AcDbLine
 10
257.662157
 20
110.9375
 30
0.0
 11
298.382157
 21
151.6575
 31
0.0
  0
LINE
  5
1F45
100
AcDbEntity
  8
0
 62
     0
100
AcDbLine
 10
298.382157
 20
151.6575
 30
0.0
 11
324.132157
 21
177.4075
 31
0.0
  0
LINE
  5
1F46
100
AcDbEntity
  8
0
 62
     0
100
AcDbLine
 10
259.429924
 20
110.9375
 30
0.0
 11
300.149924
 21
151.6575
 31
0.0
  0
LINE
  5
1F47
100
AcDbEntity
  8
0
 62
     0
100
AcDbLine
 10
300.149924
 20
151.6575
 30
0.0
 11
325.899924
 21
177.4075
 31
0.0
  0
LINE
  5
1F48
100
AcDbEntity
  8
0
 62
     0
100
AcDbLine
 10
261.197691
 20
110.9375
 30
0.0
 11
301.917691
 21
151.6575
 31
0.0
  0
LINE
  5
1F49
100
AcDbEntity
  8
0
 62
     0
100
AcDbLine
 10
301.917691
 20
151.6575
 30
0.0
 11
327.667691
 21
177.4075
 31
0.0
  0
LINE
  5
1F4A
100
AcDbEntity
  8
0
 62
     0
100
AcDbLine
 10
262.965458
 20
110.9375
 30
0.0
 11
303.685458
 21
151.6575
 31
0.0
  0
LINE
  5
1F4B
100
AcDbEntity
  8
0
 62
     0
100
AcDbLine
 10
303.685458
 20
151.6575
 30
0.0
 11
329.435458
 21
177.4075
 31
0.0
  0
LINE
  5
1F4C
100
AcDbEntity
  8
0
 62
     0
100
AcDbLine
 10
264.733225
 20
110.9375
 30
0.0
 11
305.453225
 21
151.6575
 31
0.0
  0
LINE
  5
1F4D
100
AcDbEntity
  8
0
 62
     0
100
AcDbLine
 10
305.453225
 20
151.6575
 30
0.0
 11
331.203225
 21
177.4075
 31
0.0
  0
LINE
  5
1F4E
100
AcDbEntity
  8
0
 62
     0
100
AcDbLine
 10
266.500992
 20
110.9375
 30
0.0
 11
307.220992
 21
151.6575
 31
0.0
  0
LINE
  5
1F4F
100
AcDbEntity
  8
0
 62
     0
100
AcDbLine
 10
307.220992
 20
151.6575
 30
0.0
 11
332.970992
 21
177.4075
 31
0.0
  0
LINE
  5
1F50
100
AcDbEntity
  8
0
 62
     0
100
AcDbLine
 10
268.268759
 20
110.9375
 30
0.0
 11
308.988759
 21
151.6575
 31
0.0
  0
LINE
  5
1F51
100
AcDbEntity
  8
0
 62
     0
100
AcDbLine
 10
308.988759
 20
151.6575
 30
0.0
 11
334.0675
 21
176.736241
 31
0.0
  0
LINE
  5
1F52
100
AcDbEntity
  8
0
 62
     0
100
AcDbLine
 10
270.036526
 20
110.9375
 30
0.0
 11
310.756526
 21
151.6575
 31
0.0
  0
LINE
  5
1F53
100
AcDbEntity
  8
0
 62
     0
100
AcDbLine
 10
310.756526
 20
151.6575
 30
0.0
 11
334.0675
 21
174.968474
 31
0.0
  0
LINE
  5
1F54
100
AcDbEntity
  8
0
 62
     0
100
AcDbLine
 10
271.804293
 20
110.9375
 30
0.0
 11
312.524293
 21
151.6575
 31
0.0
  0
LINE
  5
1F55
100
AcDbEntity
  8
0
 62
     0
100
AcDbLine
 10
312.524293
 20
151.6575
 30
0.0
 11
334.0675
 21
173.200707
 31
0.0
  0
LINE
  5
1F56
100
AcDbEntity
  8
0
 62
     0
100
AcDbLine
 10
273.57206
 20
110.9375
 30
0.0
 11
314.29206
 21
151.6575
 31
0.0
  0
LINE
  5
1F57
100
AcDbEntity
  8
0
 62
     0
100
AcDbLine
 10
314.29206
 20
151.6575
 30
0.0
 11
334.0675
 21
171.43294
 31
0.0
  0
LINE
  5
1F58
100
AcDbEntity
  8
0
 62
     0
100
AcDbLine
 10
275.339827
 20
110.9375
 30
0.0
 11
316.059827
 21
151.6575
 31
0.0
  0
LINE
  5
1F59
100
AcDbEntity
  8
0
 62
     0
100
AcDbLine
 10
316.059827
 20
151.6575
 30
0.0
 11
334.0675
 21
169.665173
 31
0.0
  0
LINE
  5
1F5A
100
AcDbEntity
  8
0
 62
     0
100
AcDbLine
 10
277.107594
 20
110.9375
 30
0.0
 11
317.827594
 21
151.6575
 31
0.0
  0
LINE
  5
1F5B
100
AcDbEntity
  8
0
 62
     0
100
AcDbLine
 10
317.827594
 20
151.6575
 30
0.0
 11
334.0675
 21
167.897406
 31
0.0
  0
LINE
  5
1F5C
100
AcDbEntity
  8
0
 62
     0
100
AcDbLine
 10
278.875361
 20
110.9375
 30
0.0
 11
319.595361
 21
151.6575
 31
0.0
  0
LINE
  5
1F5D
100
AcDbEntity
  8
0
 62
     0
100
AcDbLine
 10
319.595361
 20
151.6575
 30
0.0
 11
334.0675
 21
166.129639
 31
0.0
  0
LINE
  5
1F5E
100
AcDbEntity
  8
0
 62
     0
100
AcDbLine
 10
280.643127
 20
110.9375
 30
0.0
 11
321.363127
 21
151.6575
 31
0.0
  0
LINE
  5
1F5F
100
AcDbEntity
  8
0
 62
     0
100
AcDbLine
 10
321.363127
 20
151.6575
 30
0.0
 11
334.0675
 21
164.361873
 31
0.0
  0
LINE
  5
1F60
100
AcDbEntity
  8
0
 62
     0
100
AcDbLine
 10
282.410894
 20
110.9375
 30
0.0
 11
323.130894
 21
151.6575
 31
0.0
  0
LINE
  5
1F61
100
AcDbEntity
  8
0
 62
     0
100
AcDbLine
 10
323.130894
 20
151.6575
 30
0.0
 11
334.0675
 21
162.594106
 31
0.0
  0
LINE
  5
1F62
100
AcDbEntity
  8
0
 62
     0
100
AcDbLine
 10
284.178661
 20
110.9375
 30
0.0
 11
324.898661
 21
151.6575
 31
0.0
  0
LINE
  5
1F63
100
AcDbEntity
  8
0
 62
     0
100
AcDbLine
 10
324.898661
 20
151.6575
 30
0.0
 11
334.0675
 21
160.826339
 31
0.0
  0
LINE
  5
1F64
100
AcDbEntity
  8
0
 62
     0
100
AcDbLine
 10
285.946428
 20
110.9375
 30
0.0
 11
326.666428
 21
151.6575
 31
0.0
  0
LINE
  5
1F65
100
AcDbEntity
  8
0
 62
     0
100
AcDbLine
 10
326.666428
 20
151.6575
 30
0.0
 11
334.0675
 21
159.058572
 31
0.0
  0
LINE
  5
1F66
100
AcDbEntity
  8
0
 62
     0
100
AcDbLine
 10
287.714195
 20
110.9375
 30
0.0
 11
328.434195
 21
151.6575
 31
0.0
  0
LINE
  5
1F67
100
AcDbEntity
  8
0
 62
     0
100
AcDbLine
 10
328.434195
 20
151.6575
 30
0.0
 11
334.0675
 21
157.290805
 31
0.0
  0
LINE
  5
1F68
100
AcDbEntity
  8
0
 62
     0
100
AcDbLine
 10
289.481962
 20
110.9375
 30
0.0
 11
330.201962
 21
151.6575
 31
0.0
  0
LINE
  5
1F69
100
AcDbEntity
  8
0
 62
     0
100
AcDbLine
 10
355.967453
 20
177.42299
 30
0.0
 11
356.651962
 21
178.1075
 31
0.0
  0
LINE
  5
1F6A
100
AcDbEntity
  8
0
 62
     0
100
AcDbLine
 10
330.201962
 20
151.6575
 30
0.0
 11
334.0675
 21
155.523038
 31
0.0
  0
LINE
  5
1F6B
100
AcDbEntity
  8
0
 62
     0
100
AcDbLine
 10
291.249729
 20
110.9375
 30
0.0
 11
331.969729
 21
151.6575
 31
0.0
  0
LINE
  5
1F6C
100
AcDbEntity
  8
0
 62
     0
100
AcDbLine
 10
355.967453
 20
175.655224
 30
0.0
 11
358.419729
 21
178.1075
 31
0.0
  0
LINE
  5
1F6D
100
AcDbEntity
  8
0
 62
     0
100
AcDbLine
 10
331.969729
 20
151.6575
 30
0.0
 11
334.0675
 21
153.755271
 31
0.0
  0
LINE
  5
1F6E
100
AcDbEntity
  8
0
 62
     0
100
AcDbLine
 10
293.017496
 20
110.9375
 30
0.0
 11
333.737496
 21
151.6575
 31
0.0
  0
LINE
  5
1F6F
100
AcDbEntity
  8
0
 62
     0
100
AcDbLine
 10
355.967453
 20
173.887457
 30
0.0
 11
360.187496
 21
178.1075
 31
0.0
  0
LINE
  5
1F70
100
AcDbEntity
  8
0
 62
     0
100
AcDbLine
 10
333.737496
 20
151.6575
 30
0.0
 11
334.0675
 21
151.987504
 31
0.0
  0
LINE
  5
1F71
100
AcDbEntity
  8
0
 62
     0
100
AcDbLine
 10
294.785263
 20
110.9375
 30
0.0
 11
334.0675
 21
150.219737
 31
0.0
  0
LINE
  5
1F72
100
AcDbEntity
  8
0
 62
     0
100
AcDbLine
 10
355.967453
 20
172.11969
 30
0.0
 11
360.967453
 21
177.11969
 31
0.0
  0
LINE
  5
1F73
100
AcDbEntity
  8
0
 62
     0
100
AcDbLine
 10
296.55303
 20
110.9375
 30
0.0
 11
334.0675
 21
148.45197
 31
0.0
  0
LINE
  5
1F74
100
AcDbEntity
  8
0
 62
     0
100
AcDbLine
 10
355.967453
 20
170.351923
 30
0.0
 11
360.967453
 21
175.351923
 31
0.0
  0
LINE
  5
1F75
100
AcDbEntity
  8
0
 62
     0
100
AcDbLine
 10
298.320797
 20
110.9375
 30
0.0
 11
334.0675
 21
146.684203
 31
0.0
  0
LINE
  5
1F76
100
AcDbEntity
  8
0
 62
     0
100
AcDbLine
 10
355.967453
 20
168.584156
 30
0.0
 11
360.967453
 21
173.584156
 31
0.0
  0
LINE
  5
1F77
100
AcDbEntity
  8
0
 62
     0
100
AcDbLine
 10
300.088564
 20
110.9375
 30
0.0
 11
334.0675
 21
144.916436
 31
0.0
  0
LINE
  5
1F78
100
AcDbEntity
  8
0
 62
     0
100
AcDbLine
 10
355.967453
 20
166.816389
 30
0.0
 11
360.967453
 21
171.816389
 31
0.0
  0
LINE
  5
1F79
100
AcDbEntity
  8
0
 62
     0
100
AcDbLine
 10
301.856331
 20
110.9375
 30
0.0
 11
334.0675
 21
143.148669
 31
0.0
  0
LINE
  5
1F7A
100
AcDbEntity
  8
0
 62
     0
100
AcDbLine
 10
355.967453
 20
165.048622
 30
0.0
 11
360.967453
 21
170.048622
 31
0.0
  0
LINE
  5
1F7B
100
AcDbEntity
  8
0
 62
     0
100
AcDbLine
 10
303.624098
 20
110.9375
 30
0.0
 11
334.0675
 21
141.380902
 31
0.0
  0
LINE
  5
1F7C
100
AcDbEntity
  8
0
 62
     0
100
AcDbLine
 10
355.967453
 20
163.280855
 30
0.0
 11
360.967453
 21
168.280855
 31
0.0
  0
LINE
  5
1F7D
100
AcDbEntity
  8
0
 62
     0
100
AcDbLine
 10
305.391865
 20
110.9375
 30
0.0
 11
334.0675
 21
139.613135
 31
0.0
  0
LINE
  5
1F7E
100
AcDbEntity
  8
0
 62
     0
100
AcDbLine
 10
355.967453
 20
161.513088
 30
0.0
 11
360.967453
 21
166.513088
 31
0.0
  0
LINE
  5
1F7F
100
AcDbEntity
  8
0
 62
     0
100
AcDbLine
 10
307.159632
 20
110.9375
 30
0.0
 11
334.0675
 21
137.845368
 31
0.0
  0
LINE
  5
1F80
100
AcDbEntity
  8
0
 62
     0
100
AcDbLine
 10
355.967453
 20
159.745321
 30
0.0
 11
360.967453
 21
164.745321
 31
0.0
  0
LINE
  5
1F81
100
AcDbEntity
  8
0
 62
     0
100
AcDbLine
 10
308.927399
 20
110.9375
 30
0.0
 11
334.0675
 21
136.077601
 31
0.0
  0
LINE
  5
1F82
100
AcDbEntity
  8
0
 62
     0
100
AcDbLine
 10
355.967453
 20
157.977554
 30
0.0
 11
360.967453
 21
162.977554
 31
0.0
  0
LINE
  5
1F83
100
AcDbEntity
  8
0
 62
     0
100
AcDbLine
 10
310.695166
 20
110.9375
 30
0.0
 11
334.0675
 21
134.309834
 31
0.0
  0
LINE
  5
1F84
100
AcDbEntity
  8
0
 62
     0
100
AcDbLine
 10
355.967453
 20
156.209787
 30
0.0
 11
360.967453
 21
161.209787
 31
0.0
  0
LINE
  5
1F85
100
AcDbEntity
  8
0
 62
     0
100
AcDbLine
 10
312.462933
 20
110.9375
 30
0.0
 11
334.0675
 21
132.542067
 31
0.0
  0
LINE
  5
1F86
100
AcDbEntity
  8
0
 62
     0
100
AcDbLine
 10
355.967453
 20
154.44202
 30
0.0
 11
360.967453
 21
159.44202
 31
0.0
  0
LINE
  5
1F87
100
AcDbEntity
  8
0
 62
     0
100
AcDbLine
 10
314.2307
 20
110.9375
 30
0.0
 11
334.0675
 21
130.7743
 31
0.0
  0
LINE
  5
1F88
100
AcDbEntity
  8
0
 62
     0
100
AcDbLine
 10
355.967453
 20
152.674253
 30
0.0
 11
360.967453
 21
157.674253
 31
0.0
  0
LINE
  5
1F89
100
AcDbEntity
  8
0
 62
     0
100
AcDbLine
 10
315.998467
 20
110.9375
 30
0.0
 11
334.0675
 21
129.006533
 31
0.0
  0
LINE
  5
1F8A
100
AcDbEntity
  8
0
 62
     0
100
AcDbLine
 10
356.718467
 20
151.6575
 30
0.0
 11
360.967453
 21
155.906486
 31
0.0
  0
LINE
  5
1F8B
100
AcDbEntity
  8
0
 62
     0
100
AcDbLine
 10
355.967453
 20
150.906486
 30
0.0
 11
356.718467
 21
151.6575
 31
0.0
  0
LINE
  5
1F8C
100
AcDbEntity
  8
0
 62
     0
100
AcDbLine
 10
317.766233
 20
110.9375
 30
0.0
 11
334.0675
 21
127.238767
 31
0.0
  0
LINE
  5
1F8D
100
AcDbEntity
  8
0
 62
     0
100
AcDbLine
 10
358.486233
 20
151.6575
 30
0.0
 11
360.967453
 21
154.138719
 31
0.0
  0
LINE
  5
1F8E
100
AcDbEntity
  8
0
 62
     0
100
AcDbLine
 10
355.967453
 20
149.138719
 30
0.0
 11
358.486233
 21
151.6575
 31
0.0
  0
LINE
  5
1F8F
100
AcDbEntity
  8
0
 62
     0
100
AcDbLine
 10
319.534
 20
110.9375
 30
0.0
 11
334.0675
 21
125.471
 31
0.0
  0
LINE
  5
1F90
100
AcDbEntity
  8
0
 62
     0
100
AcDbLine
 10
360.254
 20
151.6575
 30
0.0
 11
360.967453
 21
152.370952
 31
0.0
  0
LINE
  5
1F91
100
AcDbEntity
  8
0
 62
     0
100
AcDbLine
 10
355.967453
 20
147.370952
 30
0.0
 11
360.254
 21
151.6575
 31
0.0
  0
LINE
  5
1F92
100
AcDbEntity
  8
0
 62
     0
100
AcDbLine
 10
321.301767
 20
110.9375
 30
0.0
 11
334.0675
 21
123.703233
 31
0.0
  0
LINE
  5
1F93
100
AcDbEntity
  8
0
 62
     0
100
AcDbLine
 10
355.967453
 20
145.603185
 30
0.0
 11
360.967453
 21
150.603185
 31
0.0
  0
LINE
  5
1F94
100
AcDbEntity
  8
0
 62
     0
100
AcDbLine
 10
323.069534
 20
110.9375
 30
0.0
 11
334.0675
 21
121.935466
 31
0.0
  0
LINE
  5
1F95
100
AcDbEntity
  8
0
 62
     0
100
AcDbLine
 10
355.967453
 20
143.835418
 30
0.0
 11
360.967453
 21
148.835418
 31
0.0
  0
LINE
  5
1F96
100
AcDbEntity
  8
0
 62
     0
100
AcDbLine
 10
324.837301
 20
110.9375
 30
0.0
 11
334.0675
 21
120.167699
 31
0.0
  0
LINE
  5
1F97
100
AcDbEntity
  8
0
 62
     0
100
AcDbLine
 10
355.967453
 20
142.067651
 30
0.0
 11
360.967453
 21
147.067651
 31
0.0
  0
LINE
  5
1F98
100
AcDbEntity
  8
0
 62
     0
100
AcDbLine
 10
326.605068
 20
110.9375
 30
0.0
 11
334.0675
 21
118.399932
 31
0.0
  0
LINE
  5
1F99
100
AcDbEntity
  8
0
 62
     0
100
AcDbLine
 10
355.967453
 20
140.299884
 30
0.0
 11
360.967453
 21
145.299884
 31
0.0
  0
LINE
  5
1F9A
100
AcDbEntity
  8
0
 62
     0
100
AcDbLine
 10
328.372835
 20
110.9375
 30
0.0
 11
334.0675
 21
116.632165
 31
0.0
  0
LINE
  5
1F9B
100
AcDbEntity
  8
0
 62
     0
100
AcDbLine
 10
355.967453
 20
138.532118
 30
0.0
 11
360.967453
 21
143.532118
 31
0.0
  0
LINE
  5
1F9C
100
AcDbEntity
  8
0
 62
     0
100
AcDbLine
 10
330.140602
 20
110.9375
 30
0.0
 11
334.0675
 21
114.864398
 31
0.0
  0
LINE
  5
1F9D
100
AcDbEntity
  8
0
 62
     0
100
AcDbLine
 10
355.967453
 20
136.764351
 30
0.0
 11
360.967453
 21
141.764351
 31
0.0
  0
LINE
  5
1F9E
100
AcDbEntity
  8
0
 62
     0
100
AcDbLine
 10
331.908369
 20
110.9375
 30
0.0
 11
334.0675
 21
113.096631
 31
0.0
  0
LINE
  5
1F9F
100
AcDbEntity
  8
0
 62
     0
100
AcDbLine
 10
355.967453
 20
134.996584
 30
0.0
 11
360.967453
 21
139.996584
 31
0.0
  0
LINE
  5
1FA0
100
AcDbEntity
  8
0
 62
     0
100
AcDbLine
 10
333.676136
 20
110.9375
 30
0.0
 11
334.0675
 21
111.328864
 31
0.0
  0
LINE
  5
1FA1
100
AcDbEntity
  8
0
 62
     0
100
AcDbLine
 10
355.967453
 20
133.228817
 30
0.0
 11
360.967453
 21
138.228817
 31
0.0
  0
LINE
  5
1FA2
100
AcDbEntity
  8
0
 62
     0
100
AcDbLine
 10
355.967453
 20
131.46105
 30
0.0
 11
360.967453
 21
136.46105
 31
0.0
  0
LINE
  5
1FA3
100
AcDbEntity
  8
0
 62
     0
100
AcDbLine
 10
355.967453
 20
129.693283
 30
0.0
 11
360.967453
 21
134.693283
 31
0.0
  0
LINE
  5
1FA4
100
AcDbEntity
  8
0
 62
     0
100
AcDbLine
 10
355.967453
 20
127.925516
 30
0.0
 11
360.967453
 21
132.925516
 31
0.0
  0
LINE
  5
1FA5
100
AcDbEntity
  8
0
 62
     0
100
AcDbLine
 10
355.967453
 20
126.157749
 30
0.0
 11
360.967453
 21
131.157749
 31
0.0
  0
LINE
  5
1FA6
100
AcDbEntity
  8
0
 62
     0
100
AcDbLine
 10
355.967453
 20
124.389982
 30
0.0
 11
360.967453
 21
129.389982
 31
0.0
  0
LINE
  5
1FA7
100
AcDbEntity
  8
0
 62
     0
100
AcDbLine
 10
355.967453
 20
122.622215
 30
0.0
 11
360.967453
 21
127.622215
 31
0.0
  0
LINE
  5
1FA8
100
AcDbEntity
  8
0
 62
     0
100
AcDbLine
 10
355.967453
 20
120.854448
 30
0.0
 11
360.967453
 21
125.854448
 31
0.0
  0
LINE
  5
1FA9
100
AcDbEntity
  8
0
 62
     0
100
AcDbLine
 10
355.967453
 20
119.086681
 30
0.0
 11
360.967453
 21
124.086681
 31
0.0
  0
LINE
  5
1FAA
100
AcDbEntity
  8
0
 62
     0
100
AcDbLine
 10
355.967453
 20
117.318914
 30
0.0
 11
360.967453
 21
122.318914
 31
0.0
  0
LINE
  5
1FAB
100
AcDbEntity
  8
0
 62
     0
100
AcDbLine
 10
355.967453
 20
115.551147
 30
0.0
 11
360.967453
 21
120.551147
 31
0.0
  0
LINE
  5
1FAC
100
AcDbEntity
  8
0
 62
     0
100
AcDbLine
 10
355.967453
 20
113.78338
 30
0.0
 11
360.967453
 21
118.78338
 31
0.0
  0
LINE
  5
1FAD
100
AcDbEntity
  8
0
 62
     0
100
AcDbLine
 10
357.15934
 20
113.2075
 30
0.0
 11
360.967453
 21
117.015613
 31
0.0
  0
LINE
  5
1FAE
100
AcDbEntity
  8
0
 62
     0
100
AcDbLine
 10
358.927106
 20
113.2075
 30
0.0
 11
360.967453
 21
115.247846
 31
0.0
  0
LINE
  5
1FAF
100
AcDbEntity
  8
0
 62
     0
100
AcDbLine
 10
360.694873
 20
113.2075
 30
0.0
 11
360.967453
 21
113.480079
 31
0.0
  0
ENDBLK
  5
1FB0
100
AcDbEntity
  8
0
100
AcDbBlockEnd
  0
BLOCK
  5
2054
100
AcDbEntity
  8
0
100
AcDbBlockBegin
  2
*X15
 70
    65
 10
0.0
 20
0.0
 30
0.0
  3
*X15
  1

  0
LINE
  5
2056
100
AcDbEntity
  8
0
 62
     0
100
AcDbLine
 10
360.967453
 20
259.518748
 30
0.0
 11
355.967453
 21
264.518748
 31
0.0
  0
LINE
  5
2057
100
AcDbEntity
  8
0
 62
     0
100
AcDbLine
 10
334.0675
 20
286.4187
 30
0.0
 11
329.0675
 21
291.4187
 31
0.0
  0
LINE
  5
2058
100
AcDbEntity
  8
0
 62
     0
100
AcDbLine
 10
360.967453
 20
257.750981
 30
0.0
 11
355.967453
 21
262.750981
 31
0.0
  0
LINE
  5
2059
100
AcDbEntity
  8
0
 62
     0
100
AcDbLine
 10
334.0675
 20
284.650934
 30
0.0
 11
329.0675
 21
289.650934
 31
0.0
  0
LINE
  5
205A
100
AcDbEntity
  8
0
 62
     0
100
AcDbLine
 10
360.967453
 20
255.983214
 30
0.0
 11
355.967453
 21
260.983214
 31
0.0
  0
LINE
  5
205B
100
AcDbEntity
  8
0
 62
     0
100
AcDbLine
 10
334.0675
 20
282.883167
 30
0.0
 11
329.0675
 21
287.883167
 31
0.0
  0
LINE
  5
205C
100
AcDbEntity
  8
0
 62
     0
100
AcDbLine
 10
360.967453
 20
254.215447
 30
0.0
 11
355.967453
 21
259.215447
 31
0.0
  0
LINE
  5
205D
100
AcDbEntity
  8
0
 62
     0
100
AcDbLine
 10
334.0675
 20
281.1154
 30
0.0
 11
329.0675
 21
286.1154
 31
0.0
  0
LINE
  5
205E
100
AcDbEntity
  8
0
 62
     0
100
AcDbLine
 10
360.967453
 20
252.44768
 30
0.0
 11
355.967453
 21
257.44768
 31
0.0
  0
LINE
  5
205F
100
AcDbEntity
  8
0
 62
     0
100
AcDbLine
 10
334.0675
 20
279.347633
 30
0.0
 11
329.0675
 21
284.347633
 31
0.0
  0
LINE
  5
2060
100
AcDbEntity
  8
0
 62
     0
100
AcDbLine
 10
360.967453
 20
250.679913
 30
0.0
 11
355.967453
 21
255.679913
 31
0.0
  0
LINE
  5
2061
100
AcDbEntity
  8
0
 62
     0
100
AcDbLine
 10
334.0675
 20
277.579866
 30
0.0
 11
329.0675
 21
282.579866
 31
0.0
  0
LINE
  5
2062
100
AcDbEntity
  8
0
 62
     0
100
AcDbLine
 10
360.967453
 20
248.912146
 30
0.0
 11
355.967453
 21
253.912146
 31
0.0
  0
LINE
  5
2063
100
AcDbEntity
  8
0
 62
     0
100
AcDbLine
 10
334.0675
 20
275.812099
 30
0.0
 11
329.0675
 21
280.812099
 31
0.0
  0
LINE
  5
2064
100
AcDbEntity
  8
0
 62
     0
100
AcDbLine
 10
360.967453
 20
247.144379
 30
0.0
 11
355.967453
 21
252.144379
 31
0.0
  0
LINE
  5
2065
100
AcDbEntity
  8
0
 62
     0
100
AcDbLine
 10
334.0675
 20
274.044332
 30
0.0
 11
329.0675
 21
279.044332
 31
0.0
  0
LINE
  5
2066
100
AcDbEntity
  8
0
 62
     0
100
AcDbLine
 10
360.967453
 20
245.376612
 30
0.0
 11
355.967453
 21
250.376612
 31
0.0
  0
LINE
  5
2067
100
AcDbEntity
  8
0
 62
     0
100
AcDbLine
 10
334.0675
 20
272.276565
 30
0.0
 11
329.0675
 21
277.276565
 31
0.0
  0
LINE
  5
2068
100
AcDbEntity
  8
0
 62
     0
100
AcDbLine
 10
360.967453
 20
243.608845
 30
0.0
 11
355.967453
 21
248.608845
 31
0.0
  0
LINE
  5
2069
100
AcDbEntity
  8
0
 62
     0
100
AcDbLine
 10
334.0675
 20
270.508798
 30
0.0
 11
329.0675
 21
275.508798
 31
0.0
  0
LINE
  5
206A
100
AcDbEntity
  8
0
 62
     0
100
AcDbLine
 10
359.762922
 20
243.045609
 30
0.0
 11
355.967453
 21
246.841078
 31
0.0
  0
LINE
  5
206B
100
AcDbEntity
  8
0
 62
     0
100
AcDbLine
 10
333.312922
 20
269.495609
 30
0.0
 11
329.0675
 21
273.741031
 31
0.0
  0
LINE
  5
206C
100
AcDbEntity
  8
0
 62
     0
100
AcDbLine
 10
334.0675
 20
268.741031
 30
0.0
 11
333.312922
 21
269.495609
 31
0.0
  0
LINE
  5
206D
100
AcDbEntity
  8
0
 62
     0
100
AcDbLine
 10
357.995155
 20
243.045609
 30
0.0
 11
355.967453
 21
245.073311
 31
0.0
  0
LINE
  5
206E
100
AcDbEntity
  8
0
 62
     0
100
AcDbLine
 10
331.545155
 20
269.495609
 30
0.0
 11
329.0675
 21
271.973264
 31
0.0
  0
LINE
  5
206F
100
AcDbEntity
  8
0
 62
     0
100
AcDbLine
 10
334.0675
 20
266.973264
 30
0.0
 11
331.545155
 21
269.495609
 31
0.0
  0
LINE
  5
2070
100
AcDbEntity
  8
0
 62
     0
100
AcDbLine
 10
356.227388
 20
243.045609
 30
0.0
 11
355.967453
 21
243.305544
 31
0.0
  0
LINE
  5
2071
100
AcDbEntity
  8
0
 62
     0
100
AcDbLine
 10
329.777388
 20
269.495609
 30
0.0
 11
329.0675
 21
270.205497
 31
0.0
  0
LINE
  5
2072
100
AcDbEntity
  8
0
 62
     0
100
AcDbLine
 10
334.0675
 20
265.205497
 30
0.0
 11
329.777388
 21
269.495609
 31
0.0
  0
LINE
  5
2073
100
AcDbEntity
  8
0
 62
     0
100
AcDbLine
 10
334.0675
 20
263.43773
 30
0.0
 11
329.0675
 21
268.43773
 31
0.0
  0
LINE
  5
2074
100
AcDbEntity
  8
0
 62
     0
100
AcDbLine
 10
334.0675
 20
261.669963
 30
0.0
 11
329.0675
 21
266.669963
 31
0.0
  0
LINE
  5
2075
100
AcDbEntity
  8
0
 62
     0
100
AcDbLine
 10
334.0675
 20
259.902196
 30
0.0
 11
329.0675
 21
264.902196
 31
0.0
  0
LINE
  5
2076
100
AcDbEntity
  8
0
 62
     0
100
AcDbLine
 10
334.0675
 20
258.134429
 30
0.0
 11
329.0675
 21
263.134429
 31
0.0
  0
LINE
  5
2077
100
AcDbEntity
  8
0
 62
     0
100
AcDbLine
 10
334.0675
 20
256.366662
 30
0.0
 11
329.0675
 21
261.366662
 31
0.0
  0
LINE
  5
2078
100
AcDbEntity
  8
0
 62
     0
100
AcDbLine
 10
334.0675
 20
254.598895
 30
0.0
 11
329.0675
 21
259.598895
 31
0.0
  0
LINE
  5
2079
100
AcDbEntity
  8
0
 62
     0
100
AcDbLine
 10
334.0675
 20
252.831128
 30
0.0
 11
329.0675
 21
257.831128
 31
0.0
  0
LINE
  5
207A
100
AcDbEntity
  8
0
 62
     0
100
AcDbLine
 10
334.0675
 20
251.063361
 30
0.0
 11
329.0675
 21
256.063361
 31
0.0
  0
LINE
  5
207B
100
AcDbEntity
  8
0
 62
     0
100
AcDbLine
 10
334.0675
 20
249.295594
 30
0.0
 11
329.0675
 21
254.295594
 31
0.0
  0
LINE
  5
207C
100
AcDbEntity
  8
0
 62
     0
100
AcDbLine
 10
334.0675
 20
247.527828
 30
0.0
 11
329.0675
 21
252.527828
 31
0.0
  0
LINE
  5
207D
100
AcDbEntity
  8
0
 62
     0
100
AcDbLine
 10
334.0675
 20
245.760061
 30
0.0
 11
329.0675
 21
250.760061
 31
0.0
  0
LINE
  5
207E
100
AcDbEntity
  8
0
 62
     0
100
AcDbLine
 10
334.0675
 20
243.992294
 30
0.0
 11
329.0675
 21
248.992294
 31
0.0
  0
LINE
  5
207F
100
AcDbEntity
  8
0
 62
     0
100
AcDbLine
 10
332.536418
 20
243.755609
 30
0.0
 11
329.0675
 21
247.224527
 31
0.0
  0
LINE
  5
2080
100
AcDbEntity
  8
0
 62
     0
100
AcDbLine
 10
330.768651
 20
243.755609
 30
0.0
 11
329.0675
 21
245.45676
 31
0.0
  0
LINE
  5
2081
100
AcDbEntity
  8
0
 62
     0
100
AcDbLine
 10
360.967453
 20
261.286515
 30
0.0
 11
355.967453
 21
266.286515
 31
0.0
  0
LINE
  5
2082
100
AcDbEntity
  8
0
 62
     0
100
AcDbLine
 10
334.0675
 20
288.186467
 30
0.0
 11
329.0675
 21
293.186467
 31
0.0
  0
LINE
  5
2083
100
AcDbEntity
  8
0
 62
     0
100
AcDbLine
 10
360.967453
 20
263.054282
 30
0.0
 11
355.967453
 21
268.054282
 31
0.0
  0
LINE
  5
2084
100
AcDbEntity
  8
0
 62
     0
100
AcDbLine
 10
334.0675
 20
289.954234
 30
0.0
 11
329.0675
 21
294.954234
 31
0.0
  0
LINE
  5
2085
100
AcDbEntity
  8
0
 62
     0
100
AcDbLine
 10
360.967453
 20
264.822049
 30
0.0
 11
356.293893
 21
269.495609
 31
0.0
  0
LINE
  5
2086
100
AcDbEntity
  8
0
 62
     0
100
AcDbLine
 10
334.0675
 20
291.722001
 30
0.0
 11
329.0675
 21
296.722001
 31
0.0
  0
LINE
  5
2087
100
AcDbEntity
  8
0
 62
     0
100
AcDbLine
 10
356.293893
 20
269.495609
 30
0.0
 11
355.967453
 21
269.822049
 31
0.0
  0
LINE
  5
2088
100
AcDbEntity
  8
0
 62
     0
100
AcDbLine
 10
360.967453
 20
266.589816
 30
0.0
 11
358.06166
 21
269.495609
 31
0.0
  0
LINE
  5
2089
100
AcDbEntity
  8
0
 62
     0
100
AcDbLine
 10
334.0675
 20
293.489768
 30
0.0
 11
329.0675
 21
298.489768
 31
0.0
  0
LINE
  5
208A
100
AcDbEntity
  8
0
 62
     0
100
AcDbLine
 10
358.06166
 20
269.495609
 30
0.0
 11
355.967453
 21
271.589816
 31
0.0
  0
LINE
  5
208B
100
AcDbEntity
  8
0
 62
     0
100
AcDbLine
 10
360.967453
 20
268.357583
 30
0.0
 11
359.829427
 21
269.495609
 31
0.0
  0
LINE
  5
208C
100
AcDbEntity
  8
0
 62
     0
100
AcDbLine
 10
334.0675
 20
295.257535
 30
0.0
 11
329.0675
 21
300.257535
 31
0.0
  0
LINE
  5
208D
100
AcDbEntity
  8
0
 62
     0
100
AcDbLine
 10
359.829427
 20
269.495609
 30
0.0
 11
355.967453
 21
273.357583
 31
0.0
  0
LINE
  5
208E
100
AcDbEntity
  8
0
 62
     0
100
AcDbLine
 10
360.967453
 20
270.125349
 30
0.0
 11
355.967453
 21
275.125349
 31
0.0
  0
LINE
  5
208F
100
AcDbEntity
  8
0
 62
     0
100
AcDbLine
 10
334.0675
 20
297.025302
 30
0.0
 11
329.0675
 21
302.025302
 31
0.0
  0
LINE
  5
2090
100
AcDbEntity
  8
0
 62
     0
100
AcDbLine
 10
360.967453
 20
271.893116
 30
0.0
 11
355.967453
 21
276.893116
 31
0.0
  0
LINE
  5
2091
100
AcDbEntity
  8
0
 62
     0
100
AcDbLine
 10
334.0675
 20
298.793069
 30
0.0
 11
329.0675
 21
303.793069
 31
0.0
  0
LINE
  5
2092
100
AcDbEntity
  8
0
 62
     0
100
AcDbLine
 10
360.967453
 20
273.660883
 30
0.0
 11
355.967453
 21
278.660883
 31
0.0
  0
LINE
  5
2093
100
AcDbEntity
  8
0
 62
     0
100
AcDbLine
 10
334.0675
 20
300.560836
 30
0.0
 11
329.0675
 21
305.560836
 31
0.0
  0
LINE
  5
2094
100
AcDbEntity
  8
0
 62
     0
100
AcDbLine
 10
360.967453
 20
275.42865
 30
0.0
 11
355.967453
 21
280.42865
 31
0.0
  0
LINE
  5
2095
100
AcDbEntity
  8
0
 62
     0
100
AcDbLine
 10
334.0675
 20
302.328603
 30
0.0
 11
329.0675
 21
307.328603
 31
0.0
  0
LINE
  5
2096
100
AcDbEntity
  8
0
 62
     0
100
AcDbLine
 10
360.967453
 20
277.196417
 30
0.0
 11
355.967453
 21
282.196417
 31
0.0
  0
LINE
  5
2097
100
AcDbEntity
  8
0
 62
     0
100
AcDbLine
 10
334.0675
 20
304.09637
 30
0.0
 11
329.0675
 21
309.09637
 31
0.0
  0
LINE
  5
2098
100
AcDbEntity
  8
0
 62
     0
100
AcDbLine
 10
360.967453
 20
278.964184
 30
0.0
 11
355.967453
 21
283.964184
 31
0.0
  0
LINE
  5
2099
100
AcDbEntity
  8
0
 62
     0
100
AcDbLine
 10
334.0675
 20
305.864137
 30
0.0
 11
329.706028
 21
310.225609
 31
0.0
  0
LINE
  5
209A
100
AcDbEntity
  8
0
 62
     0
100
AcDbLine
 10
360.967453
 20
280.731951
 30
0.0
 11
355.967453
 21
285.731951
 31
0.0
  0
LINE
  5
209B
100
AcDbEntity
  8
0
 62
     0
100
AcDbLine
 10
334.0675
 20
307.631904
 30
0.0
 11
331.473795
 21
310.225609
 31
0.0
  0
LINE
  5
209C
100
AcDbEntity
  8
0
 62
     0
100
AcDbLine
 10
360.967453
 20
282.499718
 30
0.0
 11
355.967453
 21
287.499718
 31
0.0
  0
LINE
  5
209D
100
AcDbEntity
  8
0
 62
     0
100
AcDbLine
 10
334.0675
 20
309.399671
 30
0.0
 11
333.241562
 21
310.225609
 31
0.0
  0
LINE
  5
209E
100
AcDbEntity
  8
0
 62
     0
100
AcDbLine
 10
360.967453
 20
284.267485
 30
0.0
 11
355.967453
 21
289.267485
 31
0.0
  0
LINE
  5
209F
100
AcDbEntity
  8
0
 62
     0
100
AcDbLine
 10
360.967453
 20
286.035252
 30
0.0
 11
355.967453
 21
291.035252
 31
0.0
  0
LINE
  5
20A0
100
AcDbEntity
  8
0
 62
     0
100
AcDbLine
 10
360.967453
 20
287.803019
 30
0.0
 11
355.967453
 21
292.803019
 31
0.0
  0
LINE
  5
20A1
100
AcDbEntity
  8
0
 62
     0
100
AcDbLine
 10
360.967453
 20
289.570786
 30
0.0
 11
355.967453
 21
294.570786
 31
0.0
  0
LINE
  5
20A2
100
AcDbEntity
  8
0
 62
     0
100
AcDbLine
 10
360.967453
 20
291.338553
 30
0.0
 11
355.967453
 21
296.338553
 31
0.0
  0
LINE
  5
20A3
100
AcDbEntity
  8
0
 62
     0
100
AcDbLine
 10
360.967453
 20
293.10632
 30
0.0
 11
355.967453
 21
298.10632
 31
0.0
  0
LINE
  5
20A4
100
AcDbEntity
  8
0
 62
     0
100
AcDbLine
 10
360.967453
 20
294.874087
 30
0.0
 11
355.967453
 21
299.874087
 31
0.0
  0
LINE
  5
20A5
100
AcDbEntity
  8
0
 62
     0
100
AcDbLine
 10
360.967453
 20
296.641854
 30
0.0
 11
355.967453
 21
301.641854
 31
0.0
  0
LINE
  5
20A6
100
AcDbEntity
  8
0
 62
     0
100
AcDbLine
 10
360.967453
 20
298.409621
 30
0.0
 11
355.967453
 21
303.409621
 31
0.0
  0
LINE
  5
20A7
100
AcDbEntity
  8
0
 62
     0
100
AcDbLine
 10
360.967453
 20
300.177388
 30
0.0
 11
355.967453
 21
305.177388
 31
0.0
  0
LINE
  5
20A8
100
AcDbEntity
  8
0
 62
     0
100
AcDbLine
 10
360.967453
 20
301.945155
 30
0.0
 11
355.967453
 21
306.945155
 31
0.0
  0
LINE
  5
20A9
100
AcDbEntity
  8
0
 62
     0
100
AcDbLine
 10
360.967453
 20
303.712922
 30
0.0
 11
356.73187
 21
307.948504
 31
0.0
  0
LINE
  5
20AA
100
AcDbEntity
  8
0
 62
     0
100
AcDbLine
 10
360.967453
 20
305.480689
 30
0.0
 11
358.500847
 21
307.947295
 31
0.0
  0
LINE
  5
20AB
100
AcDbEntity
  8
0
 62
     0
100
AcDbLine
 10
360.967453
 20
307.248455
 30
0.0
 11
360.269823
 21
307.946086
 31
0.0
  0
ENDBLK
  5
20AC
100
AcDbEntity
  8
0
100
AcDbBlockEnd
  0
BLOCK
  5
2119
100
AcDbEntity
  8
TEXT
100
AcDbBlockBegin
  2
*U16
 70
     1
 10
0.0
 20
0.0
 30
0.0
  3
*U16
  1

  0
ENDBLK
  5
211A
100
AcDbEntity
  8
TEXT
100
AcDbBlockEnd
  0
ENDSEC
  0
SECTION
  2
ENTITIES
  0
INSERT
  5
82
100
AcDbEntity
  8
0
100
AcDbBlockReference
  2
C-BORDER
 10
0.0
 20
0.0
 30
0.0
 41
25.4
 42
25.4
 43
25.4
  0
TEXT
  5
43E
100
AcDbEntity
  8
TEXT
100
AcDbText
 10
416.359335
 20
38.288169
 30
0.0
 40
3.0
  1
LAYER 3 FORWARD DETECTOR-HDI ASS'Y
100
AcDbText
  0
TEXT
  5
43F
100
AcDbEntity
  8
TEXT
100
AcDbText
 10
424.632676
 20
24.003265
 30
0.0
 40
3.0
  1
UPILEX
100
AcDbText
  0
TEXT
  5
440
100
AcDbEntity
  8
TEXT
100
AcDbText
 10
468.819839
 20
24.567144
 30
0.0
 40
3.0
  1
L3-UPI01
100
AcDbText
  0
TEXT
  5
441
100
AcDbEntity
  8
TEXT
100
AcDbText
 10
424.444646
 20
17.236732
 30
0.0
 40
3.0
  1
1=1
100
AcDbText
  0
TEXT
  5
442
100
AcDbEntity
  8
TEXT
100
AcDbText
 10
376.496873
 20
33.965106
 30
0.0
 40
3.0
  1
S. KYRE
100
AcDbText
  0
TEXT
  5
443
100
AcDbEntity
  8
TEXT
100
AcDbText
 10
400.188714
 20
33.777147
 30
0.0
 40
1.5
  1
10-05-95
100
AcDbText
  0
TEXT
  5
4D1
100
AcDbEntity
  8
TEXT
100
AcDbText
 10
223.8125
 20
89.4375
 30
0.0
 40
5.0
  1
LAYER 3 FORWARD
100
AcDbText
  0
TEXT
  5
4D2
100
AcDbEntity
  8
TEXT
100
AcDbText
 10
223.8125
 20
81.104167
 30
0.0
 40
5.0
  1
Z-SIDE
100
AcDbText
  0
TEXT
  5
4D3
100
AcDbEntity
  8
TEXT
100
AcDbText
 10
223.8125
 20
225.3125
 30
0.0
 40
5.0
  1
LAYER 3 FORWARD
100
AcDbText
  0
TEXT
  5
4D4
100
AcDbEntity
  8
TEXT
100
AcDbText
 10
223.8125
 20
216.791667
 30
0.0
 40
5.0
  1
PHI-SIDE
100
AcDbText
  0
TEXT
  5
4D6
100
AcDbEntity
  8
TEXT
100
AcDbText
 10
185.5
 20
338.5
 30
0.0
 40
5.0
  1
NOTE: HDI IS DRAWN IN EXTENDED POSITION
100
AcDbText
  0
LINE
  5
BDB
100
AcDbEntity
  8
CENTER
100
AcDbLine
 10
326.0675
 20
269.495609
 30
0.0
 11
156.858061
 21
269.495609
 31
0.0
1001
ACAD
1000
ASC_BOUNDS
1002
{
1070
    19
1005
0
1005
0
1005
0
1005
0
1005
0
1005
0
1005
0
1005
0
1005
0
1005
0
1005
0
1005
0
1005
0
1005
0
1005
0
1005
0
1005
0
1005
0
1005
0
1002
}
  0
INSERT
  5
BDC
100
AcDbEntity
  8
KEVLAR
100
AcDbBlockReference
  2
HYBR-3
 10
355.967453
 20
242.345609
 30
0.0
  0
LINE
  5
BDF
100
AcDbEntity
  8
CENTER
100
AcDbLine
 10
326.0675
 20
269.495609
 30
0.0
 11
384.71093
 21
269.495609
 31
0.0
1001
ACAD
1000
ASC_BOUNDS
1002
{
1070
    19
1005
2055
1005
0
1005
0
1005
0
1005
0
1005
0
1005
0
1005
0
1005
0
1005
0
1005
0
1005
0
1005
0
1005
2055
1005
2055
1005
2055
1002
}
  0
INSERT
  5
BE0
100
AcDbEntity
  8
BUSHING
100
AcDbBlockReference
  2
POST-3
 10
378.567453
 20
247.795609
 30
0.0
  0
INSERT
  5
BE1
100
AcDbEntity
  8
BUSHING
100
AcDbBlockReference
  2
POST-3
 10
378.567453
 20
290.495609
 30
0.0
  0
INSERT
  5
BE3
100
AcDbEntity
  8
KEVLAR
100
AcDbBlockReference
  2
HYBR-3
 10
355.967453
 20
178.8075
 30
0.0
 41
-1.0
 50
180.0
  0
LINE
  5
BE4
100
AcDbEntity
  8
CENTER
100
AcDbLine
 10
326.0675
 20
151.6575
 30
0.0
 11
157.875255
 21
151.6575
 31
0.0
1001
ACAD
1000
ASC_BOUNDS
1002
{
1070
    19
1005
0
1005
0
1005
0
1005
0
1005
0
1005
0
1005
0
1005
0
1005
0
1005
0
1005
0
1005
0
1005
0
1005
0
1005
0
1005
0
1005
0
1005
0
1005
0
1005
0
1005
0
1005
0
1005
0
1005
0
1005
0
1005
0
1005
0
1005
0
1005
0
1005
0
1005
0
1005
0
1005
0
1005
0
1005
0
1005
0
1005
0
1005
0
1005
0
1005
0
1005
0
1005
0
1005
0
1005
0
1005
0
1005
0
1005
0
1005
0
1005
0
1005
0
1005
0
1002
}
  0
INSERT
  5
BE5
100
AcDbEntity
  8
BUSHING
100
AcDbBlockReference
  2
POST-3
 10
378.567453
 20
173.3575
 30
0.0
 41
-1.0
 50
180.0
  0
LINE
  5
BE6
100
AcDbEntity
  8
CENTER
100
AcDbLine
 10
326.0675
 20
151.6575
 30
0.0
 11
384.40613
 21
151.6575
 31
0.0
1001
ACAD
1000
ASC_BOUNDS
1002
{
1070
    19
1005
0
1005
0
1005
0
1005
0
1005
0
1005
0
1005
0
1005
0
1005
0
1005
0
1005
0
1005
0
1002
}
  0
INSERT
  5
BE7
100
AcDbEntity
  8
BUSHING
100
AcDbBlockReference
  2
POST-3
 10
378.567453
 20
130.6575
 30
0.0
 41
-1.0
 50
180.0
  0
LINE
  5
BEB
100
AcDbEntity
  8
UPILEX
100
AcDbLine
 10
344.06749
 20
110.9375
 30
0.0
 11
202.7175
 21
110.9375
 31
0.0
1001
ACAD
1000
ASC_BOUNDS
1002
{
1070
    19
1005
0
1005
0
1005
0
1005
0
1005
0
1005
0
1005
0
1005
0
1002
}
  0
LINE
  5
BEC
100
AcDbEntity
  8
UPILEX
100
AcDbLine
 10
360.967453
 20
113.2075
 30
0.0
 11
346.33749
 21
113.2075
 31
0.0
1001
ACAD
1000
ASC_BOUNDS
1002
{
1070
    19
1002
}
  0
LINE
  5
BED
100
AcDbEntity
  8
UPILEX
100
AcDbLine
 10
344.06749
 20
110.9375
 30
0.0
 11
346.33749
 21
113.2075
 31
0.0
  0
LINE
  5
BEE
100
AcDbEntity
  8
UPILEX
100
AcDbLine
 10
202.7175
 20
177.4075
 30
0.0
 11
344.06749
 21
177.4075
 31
0.0
1001
ACAD
1000
ASC_BOUNDS
1002
{
1070
    19
1005
0
1005
0
1005
0
1005
0
1005
0
1005
0
1005
0
1005
0
1002
}
  0
LINE
  5
BEF
100
AcDbEntity
  8
UPILEX
100
AcDbLine
 10
344.77749
 20
178.1075
 30
0.0
 11
360.967453
 21
178.1075
 31
0.0
1001
ACAD
1000
ASC_BOUNDS
1002
{
1070
    19
1002
}
  0
LINE
  5
BF0
100
AcDbEntity
  8
UPILEX
100
AcDbLine
 10
344.06749
 20
177.3975
 30
0.0
 11
344.77749
 21
178.1075
 31
0.0
  0
LINE
  5
BF1
100
AcDbEntity
  8
UPILEX
100
AcDbLine
 10
360.967453
 20
178.1075
 30
0.0
 11
360.967453
 21
113.2075
 31
0.0
1001
ACAD
1000
ASC_BOUNDS
1002
{
1070
    19
1005
0
1005
0
1005
0
1005
0
1005
0
1005
0
1005
0
1005
0
1005
0
1005
0
1002
}
  0
LINE
  5
BF2
100
AcDbEntity
  8
UPILEX
100
AcDbLine
 10
355.967453
 20
113.2075
 30
0.0
 11
355.967453
 21
178.1075
 31
0.0
1001
ACAD
1000
ASC_BOUNDS
1002
{
1070
    19
1005
0
1005
0
1005
0
1005
0
1005
0
1005
0
1005
0
1005
0
1005
0
1005
0
1002
}
  0
LINE
  5
BF3
100
AcDbEntity
  8
UPILEX
100
AcDbLine
 10
202.7175
 20
110.9375
 30
0.0
 11
202.7175
 21
177.4075
 31
0.0
1001
ACAD
1000
ASC_BOUNDS
1002
{
1070
    19
1005
0
1005
0
1005
0
1005
0
1005
0
1005
0
1005
0
1005
0
1005
0
1005
0
1005
0
1005
0
1005
0
1005
0
1005
0
1005
0
1002
}
  0
LINE
  5
BF6
100
AcDbEntity
  8
UPILEX
100
AcDbLine
 10
329.0675
 20
310.225609
 30
0.0
 11
329.0675
 21
243.755609
 31
0.0
1001
ACAD
1000
ASC_BOUNDS
1002
{
1070
    19
1005
0
1005
0
1005
0
1005
2055
1005
0
1005
0
1005
0
1005
0
1005
2055
1002
}
  0
LINE
  5
BF7
100
AcDbEntity
  8
UPILEX
100
AcDbLine
 10
334.0675
 20
243.755609
 30
0.0
 11
334.0675
 21
310.225609
 31
0.0
1001
ACAD
1000
ASC_BOUNDS
1002
{
1070
    19
1005
0
1005
0
1005
0
1005
2055
1005
0
1005
0
1005
0
1005
0
1005
2055
1002
}
  0
LINE
  5
BF8
100
AcDbEntity
  8
UPILEX
100
AcDbLine
 10
355.967453
 20
307.945609
 30
0.0
 11
355.967453
 21
243.045609
 31
0.0
1001
ACAD
1000
ASC_BOUNDS
1002
{
1070
    19
1005
0
1005
0
1005
0
1005
2055
1005
0
1005
0
1005
0
1005
0
1005
2055
1002
}
  0
LINE
  5
BF9
100
AcDbEntity
  8
UPILEX
100
AcDbLine
 10
360.967453
 20
243.045609
 30
0.0
 11
360.967453
 21
307.945609
 31
0.0
1001
ACAD
1000
ASC_BOUNDS
1002
{
1070
    19
1005
0
1005
0
1005
0
1005
2055
1005
0
1005
0
1005
0
1005
0
1005
2055
1002
}
  0
LINE
  5
BFA
100
AcDbEntity
  8
UPILEX
100
AcDbLine
 10
329.0675
 20
243.755609
 30
0.0
 11
344.06749
 21
243.755609
 31
0.0
1001
ACAD
1000
ASC_BOUNDS
1002
{
1070
    19
1005
2055
1002
}
  0
LINE
  5
BFB
100
AcDbEntity
  8
UPILEX
100
AcDbLine
 10
344.77749
 20
243.045609
 30
0.0
 11
360.967453
 21
243.045609
 31
0.0
1001
ACAD
1000
ASC_BOUNDS
1002
{
1070
    19
1005
2055
1002
}
  0
LINE
  5
BFC
100
AcDbEntity
  8
UPILEX
100
AcDbLine
 10
344.06749
 20
243.755609
 30
0.0
 11
344.77749
 21
243.045609
 31
0.0
  0
LINE
  5
BFD
100
AcDbEntity
  8
UPILEX
100
AcDbLine
 10
344.06749
 20
310.225609
 30
0.0
 11
329.0675
 21
310.225609
 31
0.0
1001
ACAD
1000
ASC_BOUNDS
1002
{
1070
    19
1005
2055
1002
}
  0
LINE
  5
BFE
100
AcDbEntity
  8
UPILEX
100
AcDbLine
 10
360.967453
 20
307.945609
 30
0.0
 11
346.33749
 21
307.955609
 31
0.0
1001
ACAD
1000
ASC_BOUNDS
1002
{
1070
    19
1005
2055
1002
}
  0
LINE
  5
BFF
100
AcDbEntity
  8
UPILEX
100
AcDbLine
 10
344.06749
 20
310.225609
 30
0.0
 11
346.33749
 21
307.955609
 31
0.0
  0
DIMENSION
  5
C39
100
AcDbEntity
  8
DIM
100
AcDbDimension
  2
*D9
 10
334.0675
 20
195.631236
 30
0.0
 11
317.5675
 21
195.631236
 31
0.0
 70
    32
  3
STANDARD
100
AcDbAlignedDimension
 13
355.967453
 23
178.8075
 33
0.0
 14
334.0675
 24
179.8975
 34
0.0
100
AcDbRotatedDimension
1001
ACAD
1000
DSTYLE
1002
{
1070
   140
1040
0.3
1070
   272
1070
     2
1070
    40
1040
7.5
1070
     3
1000
mm
1070
   287
1070
     0
1070
   271
1070
     2
1070
     4
1000
"
1070
   143
1040
0.03937
1070
   171
1070
     3
1070
   170
1070
     1
1002
}
  0
DIMENSION
  5
C47
100
AcDbEntity
  8
DIM
100
AcDbDimension
  2
*D10
 10
360.967453
 20
187.129092
 30
0.0
 11
377.284453
 21
187.129092
 31
0.0
 12
0.183
 22
-19.0625
 32
0.0
 70
    32
  3
STANDARD
100
AcDbAlignedDimension
 13
355.967453
 23
178.8075
 33
0.0
 14
360.967453
 24
178.1075
 34
0.0
100
AcDbRotatedDimension
1001
ACAD
1000
DSTYLE
1002
{
1070
   140
1040
0.3
1070
   272
1070
     2
1070
    40
1040
7.5
1070
     3
1000
mm
1070
   287
1070
     0
1070
   271
1070
     2
1070
     4
1000
"
1070
   143
1040
0.03937
1070
   171
1070
     3
1070
   170
1070
     1
1002
}
  0
DIMENSION
  5
C56
100
AcDbEntity
  8
DIM
100
AcDbDimension
  2
*D11
 10
329.0675
 20
319.191389
 30
0.0
 11
313.88
 21
319.191389
 31
0.0
 70
    32
  3
STANDARD
100
AcDbAlignedDimension
 13
334.0675
 23
312.715609
 33
0.0
 14
329.0675
 24
310.225609
 34
0.0
100
AcDbRotatedDimension
1001
ACAD
1000
DSTYLE
1002
{
1070
   140
1040
0.3
1070
   272
1070
     2
1070
    40
1040
7.5
1070
     3
1000
mm
1070
   287
1070
     0
1070
   271
1070
     2
1070
     4
1000
"
1070
   143
1040
0.03937
1070
   171
1070
     3
1070
   170
1070
     1
1002
}
  0
DIMENSION
  5
C64
100
AcDbEntity
  8
DIM
100
AcDbDimension
  2
*D12
 10
334.0675
 20
328.612685
 30
0.0
 11
317.5675
 21
328.612685
 31
0.0
 70
    32
  3
STANDARD
100
AcDbAlignedDimension
 13
355.967453
 23
308.645609
 33
0.0
 14
334.0675
 24
312.715609
 34
0.0
100
AcDbRotatedDimension
1001
ACAD
1000
DSTYLE
1002
{
1070
   140
1040
0.3
1070
   272
1070
     2
1070
    40
1040
7.5
1070
     3
1000
mm
1070
   287
1070
     0
1070
   271
1070
     2
1070
     4
1000
"
1070
   143
1040
0.03937
1070
   171
1070
     3
1070
   170
1070
     1
1002
}
  0
DIMENSION
  5
C72
100
AcDbEntity
  8
DIM
100
AcDbDimension
  2
*D13
 10
360.967453
 20
316.433937
 30
0.0
 11
376.979653
 21
316.433937
 31
0.0
 12
0.4878
 22
0.0
 32
0.0
 70
    32
  3
STANDARD
100
AcDbAlignedDimension
 13
355.967453
 23
308.645609
 33
0.0
 14
360.967453
 24
307.945609
 34
0.0
100
AcDbRotatedDimension
1001
ACAD
1000
DSTYLE
1002
{
1070
   140
1040
0.3
1070
   272
1070
     2
1070
    40
1040
7.5
1070
     3
1000
mm
1070
   287
1070
     0
1070
   271
1070
     2
1070
     4
1000
"
1070
   143
1040
0.03937
1070
   171
1070
     3
1070
   170
1070
     1
1002
}
  0
POLYLINE
  5
CFF
100
AcDbEntity
  8
L3_
100
AcDb2dPolyline
 66
     1
 10
0.0
 20
0.0
 30
0.0
 70
     1
1001
ACAD
1000
ASC_BOUNDS
1002
{
1070
    19
1005
0
1002
}
  0
VERTEX
  5
D00
100
AcDbEntity
  8
L3_
100
AcDbVertex
100
AcDb2dVertex
 10
290.1675
 20
108.4375
 30
0.0
  0
VERTEX
  5
D01
100
AcDbEntity
  8
L3_
100
AcDbVertex
100
AcDb2dVertex
 10
290.1675
 20
179.9075
 30
0.0
  0
VERTEX
  5
D02
100
AcDbEntity
  8
L3_
100
AcDbVertex
100
AcDb2dVertex
 10
334.0675
 20
179.9075
 30
0.0
  0
VERTEX
  5
D03
100
AcDbEntity
  8
L3_
100
AcDbVertex
100
AcDb2dVertex
 10
334.0675
 20
108.4375
 30
0.0
  0
SEQEND
  5
D04
100
AcDbEntity
  8
L3_
  0
POLYLINE
  5
D05
100
AcDbEntity
  8
L3_
100
AcDb2dPolyline
 66
     1
 10
0.0
 20
0.0
 30
0.0
 70
     1
1001
ACAD
1000
ASC_BOUNDS
1002
{
1070
    19
1005
0
1002
}
  0
VERTEX
  5
D06
100
AcDbEntity
  8
L3_
100
AcDbVertex
100
AcDb2dVertex
 10
290.0925
 20
108.4375
 30
0.0
  0
VERTEX
  5
D07
100
AcDbEntity
  8
L3_
100
AcDbVertex
100
AcDb2dVertex
 10
290.0925
 20
179.9075
 30
0.0
  0
VERTEX
  5
D08
100
AcDbEntity
  8
L3_
100
AcDbVertex
100
AcDb2dVertex
 10
246.1925
 20
179.9075
 30
0.0
  0
VERTEX
  5
D09
100
AcDbEntity
  8
L3_
100
AcDbVertex
100
AcDb2dVertex
 10
246.1925
 20
108.4375
 30
0.0
  0
SEQEND
  5
D0A
100
AcDbEntity
  8
L3_
  0
POLYLINE
  5
D0B
100
AcDbEntity
  8
L3_
100
AcDb2dPolyline
 66
     1
 10
0.0
 20
0.0
 30
0.0
 70
     1
1001
ACAD
1000
ASC_BOUNDS
1002
{
1070
    19
1005
0
1002
}
  0
VERTEX
  5
D0C
100
AcDbEntity
  8
L3_
100
AcDbVertex
100
AcDb2dVertex
 10
202.2175
 20
108.4375
 30
0.0
  0
VERTEX
  5
D0D
100
AcDbEntity
  8
L3_
100
AcDbVertex
100
AcDb2dVertex
 10
202.2175
 20
179.9075
 30
0.0
  0
VERTEX
  5
D0E
100
AcDbEntity
  8
L3_
100
AcDbVertex
100
AcDb2dVertex
 10
246.1175
 20
179.9075
 30
0.0
  0
VERTEX
  5
D0F
100
AcDbEntity
  8
L3_
100
AcDbVertex
100
AcDb2dVertex
 10
246.1175
 20
108.4375
 30
0.0
  0
SEQEND
  5
D10
100
AcDbEntity
  8
L3_
  0
POLYLINE
  5
D13
100
AcDbEntity
  8
L3_
100
AcDb2dPolyline
 66
     1
 10
0.0
 20
0.0
 30
0.0
 70
     1
  0
VERTEX
  5
D14
100
AcDbEntity
  8
L3_
100
AcDbVertex
100
AcDb2dVertex
 10
202.2175
 20
241.255609
 30
0.0
  0
VERTEX
  5
D15
100
AcDbEntity
  8
L3_
100
AcDbVertex
100
AcDb2dVertex
 10
202.2175
 20
312.725609
 30
0.0
  0
VERTEX
  5
D16
100
AcDbEntity
  8
L3_
100
AcDbVertex
100
AcDb2dVertex
 10
246.1175
 20
312.725609
 30
0.0
  0
VERTEX
  5
D17
100
AcDbEntity
  8
L3_
100
AcDbVertex
100
AcDb2dVertex
 10
246.1175
 20
241.255609
 30
0.0
  0
SEQEND
  5
D18
100
AcDbEntity
  8
L3_
  0
POLYLINE
  5
D19
100
AcDbEntity
  8
L3_
100
AcDb2dPolyline
 66
     1
 10
0.0
 20
0.0
 30
0.0
 70
     1
  0
VERTEX
  5
D1A
100
AcDbEntity
  8
L3_
100
AcDbVertex
100
AcDb2dVertex
 10
290.0925
 20
241.255609
 30
0.0
  0
VERTEX
  5
D1B
100
AcDbEntity
  8
L3_
100
AcDbVertex
100
AcDb2dVertex
 10
290.0925
 20
312.725609
 30
0.0
  0
VERTEX
  5
D1C
100
AcDbEntity
  8
L3_
100
AcDbVertex
100
AcDb2dVertex
 10
246.1925
 20
312.725609
 30
0.0
  0
VERTEX
  5
D1D
100
AcDbEntity
  8
L3_
100
AcDbVertex
100
AcDb2dVertex
 10
246.1925
 20
241.255609
 30
0.0
  0
SEQEND
  5
D1E
100
AcDbEntity
  8
L3_
  0
POLYLINE
  5
D1F
100
AcDbEntity
  8
L3_
100
AcDb2dPolyline
 66
     1
 10
0.0
 20
0.0
 30
0.0
 70
     1
  0
VERTEX
  5
D20
100
AcDbEntity
  8
L3_
100
AcDbVertex
100
AcDb2dVertex
 10
290.1675
 20
241.255609
 30
0.0
  0
VERTEX
  5
D21
100
AcDbEntity
  8
L3_
100
AcDbVertex
100
AcDb2dVertex
 10
290.1675
 20
312.725609
 30
0.0
  0
VERTEX
  5
D22
100
AcDbEntity
  8
L3_
100
AcDbVertex
100
AcDb2dVertex
 10
334.0675
 20
312.725609
 30
0.0
  0
VERTEX
  5
D23
100
AcDbEntity
  8
L3_
100
AcDbVertex
100
AcDb2dVertex
 10
334.0675
 20
241.255609
 30
0.0
  0
SEQEND
  5
D24
100
AcDbEntity
  8
L3_
  0
INSERT
  5
1EC9
100
AcDbEntity
  8
UPILEX
100
AcDbBlockReference
  2
*X14
 10
0.0
 20
0.0
 30
0.0
1001
ACAD
1000
HATCH
1002
{
1070
    19
1000
ANSI31
1040
10.0
1040
0.0
1002
}
  0
INSERT
  5
2055
100
AcDbEntity
  8
UPILEX
100
AcDbBlockReference
  2
*X15
 10
0.0
 20
0.0
 30
0.0
1001
ACAD
1000
HATCH
1002
{
1070
    19
1000
ANSI31
1040
10.0
1040
1.570796
1000
ASC_BOUNDS
1070
     4
1070
     1
1070
     4
1005
BFD
1005
BF6
1005
BDF
1005
BF7
1070
     1
1070
     4
1005
BDF
1005
BF6
1005
BFA
1005
BF7
1070
     1
1070
     4
1005
BDF
1005
BF8
1005
BFB
1005
BF9
1070
     1
1070
     4
1005
BFE
1005
BF8
1005
BDF
1005
BF9
1000
ASC_SEEDPOINT
1011
358.467453
1021
262.018748
1031
0.0
1002
}
  0
LINE
  5
20AD
100
AcDbEntity
  8
TEXT
100
AcDbLine
 10
392.32062
 20
375.127405
 30
0.0
 11
392.32062
 21
348.077582
 31
0.0
  0
LINE
  5
20AE
100
AcDbEntity
  8
TEXT
100
AcDbLine
 10
402.233031
 20
375.127405
 30
0.0
 11
402.233031
 21
348.077582
 31
0.0
  0
LINE
  5
20AF
100
AcDbEntity
  8
TEXT
100
AcDbLine
 10
471.829031
 20
375.127405
 30
0.0
 11
471.829031
 21
348.077582
 31
0.0
  0
LINE
  5
20B0
100
AcDbEntity
  8
TEXT
100
AcDbLine
 10
494.181031
 20
375.127405
 30
0.0
 11
494.181031
 21
348.077582
 31
0.0
  0
TEXT
  5
20B1
100
AcDbEntity
  8
TEXT
100
AcDbText
 10
396.0
 20
370.0
 30
0.0
 40
2.0
  1
01
100
AcDbText
  0
TEXT
  5
20B2
100
AcDbEntity
  8
TEXT
100
AcDbText
 10
406.0
 20
370.0
 30
0.0
 40
2.0
  1
UPDATE FOR NEW DETECTOR LENGHT
100
AcDbText
  0
TEXT
  5
20B4
100
AcDbEntity
  8
TEXT
100
AcDbText
 10
476.0
 20
370.0
 30
0.0
 40
2.0
  1
04-24-96
100
AcDbText
  0
TEXT
  5
20B5
100
AcDbEntity
  8
TEXT
100
AcDbText
 10
396.0
 20
366.0
 30
0.0
 40
2.0
  1
02
100
AcDbText
  0
TEXT
  5
20B6
100
AcDbEntity
  8
TEXT
100
AcDbText
 10
406.0
 20
366.0
 30
0.0
 40
2.0
  1
UPDATE FOR NEW UPILEX LENGTH
100
AcDbText
  0
TEXT
  5
20B7
100
AcDbEntity
  8
TEXT
100
AcDbText
 10
476.0
 20
366.0
 30
0.0
 40
2.0
  1
04-24-96
100
AcDbText
  0
LINE
  5
20BD
100
AcDbEntity
  8
CENTER
100
AcDbLine
 10
171.4375
 20
131.525375
 30
0.0
 11
171.4375
 21
171.963756
 31
0.0
  0
TEXT
  5
20BE
100
AcDbEntity
  8
CENTER
100
AcDbText
 10
168.040275
 20
177.651481
 30
0.0
 40
5.0
  1
I.P.
100
AcDbText
  0
TEXT
  5
20C3
100
AcDbEntity
  8
TEXT
100
AcDbText
 10
208.594913
 20
137.495084
 30
0.0
 40
5.0
  1
LAYER 3
100
AcDbText
  0
TEXT
  5
20C4
100
AcDbEntity
  8
TEXT
100
AcDbText
 10
208.594913
 20
129.161751
 30
0.0
 40
5.0
  1
FORWARD
100
AcDbText
  0
TEXT
  5
20C5
100
AcDbEntity
  8
TEXT
100
AcDbText
 10
208.594913
 20
120.828417
 30
0.0
 40
5.0
  1
Z-SIDE
100
AcDbText
  0
TEXT
  5
20C6
100
AcDbEntity
  8
TEXT
100
AcDbText
 10
211.150007
 20
301.621114
 30
0.0
 40
5.0
  1
LAYER 3
100
AcDbText
  0
TEXT
  5
20C7
100
AcDbEntity
  8
TEXT
100
AcDbText
 10
211.150007
 20
293.287781
 30
0.0
 40
5.0
  1
FORWARD
100
AcDbText
  0
TEXT
  5
20C8
100
AcDbEntity
  8
TEXT
100
AcDbText
 10
211.150007
 20
284.954447
 30
0.0
 40
5.0
  1
PHI-SIDE
100
AcDbText
  0
TEXT
  5
20C9
100
AcDbEntity
  8
CENTER
100
AcDbText
 10
168.040275
 20
293.766528
 30
0.0
 40
5.0
  1
I.P.
100
AcDbText
  0
LINE
  5
20CA
100
AcDbEntity
  8
CENTER
100
AcDbLine
 10
171.4375
 20
247.640422
 30
0.0
 11
171.4375
 21
288.078802
 31
0.0
  0
ENDSEC
  0
SECTION
  2
OBJECTS
  0
DICTIONARY
  5
C
100
AcDbDictionary
  3
ACAD_GROUP
350
D
  3
ACAD_MLINESTYLE
350
E
  3
ACME_SCOPE_NAME
350
20D7
  3
ACME_COMMAND_HISTORY
350
20D8
  3
ACGREF_MASTER
350
20DA
  3
AMI_MASTER
350
20DB
  3
ACASGREF_MASTER
350
20DC
  3
ADSYSVARMGR
350
20E1
  3
AD_APPL
350
20EB
  3
AD_HOLENOTE_REPOSITORY
350
20F2
  3
AD_GREF_MODULE
350
20F3
  3
ACDMSYSVARMGR
350
20F8
  3
AD_DRAWMGR_NAME
350
210B
  3
DESIGNER_ASSEMBLIES_SYSVARS
350
2112
  3
AUTOCAD_ASSEMBLIES_PROJECT
350
2117
  3
ACASAPPOBJECT
350
2128
  3
ACCELVIEW
350
212C
  0
DICTIONARY
  5
D
102
{ACAD_REACTORS
330
C
102
}
100
AcDbDictionary
  0
DICTIONARY
  5
E
102
{ACAD_REACTORS
330
C
102
}
100
AcDbDictionary
  3
STANDARD
350
13
  0
NAMEDAPPL
  5
20EB
102
{ACAD_REACTORS
330
C
102
}
  0
AM_HNTEMPLATE_MGR_NAME
  5
20F2
102
{ACAD_REACTORS
330
C
102
}
  0
ASAPP
  5
2128
102
{ACAD_REACTORS
330
C
102
}
100
AcAsAppObject
 70
     0
360
2126
  0
AGDICTIONARY
  5
212C
102
{ACAD_REACTORS
330
C
102
}
100
AcDbDictionary
  0
MLINESTYLE
  5
13
102
{ACAD_REACTORS
330
E
102
}
100
AcDbMlineStyle
  2
STANDARD
 70
     0
  3

 62
     0
 51
90.0
 52
90.0
 71
     2
 49
0.5
 62
   256
  6
BYLAYER
 49
-0.5
 62
   256
  6
BYLAYER
  0
ASSYSVARS
  5
2126
100
AcAsSysVars
 70
     0
  1
M.1.16
 40
2.617994
 40
0.5
 40
0.01
 70
     0
 40
0.01
  1
ASG
 40
0.01
 40
99999999.0
 70
    25
 70
     5
 70
     3
 40
0.5
 40
0.001
 40
99999999.0
  0
ENDSEC
  0
EOF
