  0
SECTION
  2
HEADER
  9
$ACADVER
  1
AC1012
  9
$DWGCODEPAGE
  3
ansi_1252
  9
$INSBASE
 10
0.0
 20
0.0
 30
0.0
  9
$EXTMIN
 10
25.4
 20
15.875
 30
0.0
  9
$EXTMAX
 10
813.97907
 20
519.368925
 30
0.0
  9
$LIMMIN
 10
0.0
 20
0.0
  9
$LIMMAX
 10
814.0
 20
534.0
  9
$ORTHOMODE
 70
     1
  9
$REGENMODE
 70
     1
  9
$FILLMODE
 70
     1
  9
$QTEXTMODE
 70
     0
  9
$MIRRTEXT
 70
     1
  9
$DRAGMODE
 70
     2
  9
$LTSCALE
 40
15.0
  9
$OSMODE
 70
     0
  9
$ATTMODE
 70
     1
  9
$TEXTSIZE
 40
3.0
  9
$TRACEWID
 40
0.05
  9
$TEXTSTYLE
  7
STANDARD
  9
$CLAYER
  8
DIM
  9
$CELTYPE
  6
BYLAYER
  9
$CECOLOR
 62
   256
  9
$CELTSCALE
 40
1.0
  9
$DELOBJ
 70
     1
  9
$DISPSILH
 70
     0
  9
$DIMSCALE
 40
15.0
  9
$DIMASZ
 40
0.18
  9
$DIMEXO
 40
0.063
  9
$DIMDLI
 40
0.38
  9
$DIMRND
 40
0.0
  9
$DIMDLE
 40
0.0
  9
$DIMEXE
 40
0.18
  9
$DIMTP
 40
0.03
  9
$DIMTM
 40
0.03
  9
$DIMTXT
 40
0.18
  9
$DIMCEN
 40
0.09
  9
$DIMTSZ
 40
0.0
  9
$DIMTOL
 70
     0
  9
$DIMLIM
 70
     0
  9
$DIMTIH
 70
     1
  9
$DIMTOH
 70
     1
  9
$DIMSE1
 70
     0
  9
$DIMSE2
 70
     1
  9
$DIMTAD
 70
     0
  9
$DIMZIN
 70
     0
  9
$DIMBLK
  1

  9
$DIMASO
 70
     1
  9
$DIMSHO
 70
     1
  9
$DIMPOST
  1
mm
  9
$DIMAPOST
  1
"
  9
$DIMALT
 70
     1
  9
$DIMALTD
 70
     3
  9
$DIMALTF
 40
0.03937
  9
$DIMLFAC
 40
1.0
  9
$DIMTOFL
 70
     0
  9
$DIMTVP
 40
0.0
  9
$DIMTIX
 70
     0
  9
$DIMSOXD
 70
     0
  9
$DIMSAH
 70
     0
  9
$DIMBLK1
  1

  9
$DIMBLK2
  1

  9
$DIMSTYLE
  2
STANDARD
  9
$DIMCLRD
 70
     0
  9
$DIMCLRE
 70
     0
  9
$DIMCLRT
 70
     0
  9
$DIMTFAC
 40
1.0
  9
$DIMGAP
 40
0.09
  9
$DIMJUST
 70
     0
  9
$DIMSD1
 70
     0
  9
$DIMSD2
 70
     0
  9
$DIMTOLJ
 70
     1
  9
$DIMTZIN
 70
     0
  9
$DIMALTZ
 70
     0
  9
$DIMALTTZ
 70
     0
  9
$DIMFIT
 70
     0
  9
$DIMUPT
 70
     0
  9
$DIMUNIT
 70
     2
  9
$DIMDEC
 70
     2
  9
$DIMTDEC
 70
     2
  9
$DIMALTU
 70
     2
  9
$DIMALTTD
 70
     3
  9
$DIMTXSTY
  7
STANDARD
  9
$DIMAUNIT
 70
     0
  9
$LUNITS
 70
     2
  9
$LUPREC
 70
     4
  9
$SKETCHINC
 40
0.1
  9
$FILLETRAD
 40
2.0
  9
$AUNITS
 70
     0
  9
$AUPREC
 70
     0
  9
$MENU
  1
c:/cim/acad
  9
$ELEVATION
 40
0.0
  9
$PELEVATION
 40
0.0
  9
$THICKNESS
 40
0.0
  9
$LIMCHECK
 70
     0
  9
$BLIPMODE
 70
     1
  9
$CHAMFERA
 40
0.0
  9
$CHAMFERB
 40
0.0
  9
$CHAMFERC
 40
0.0
  9
$CHAMFERD
 40
0.0
  9
$SKPOLY
 70
     0
  9
$TDCREATE
 40
2449735.679403472
  9
$TDUPDATE
 40
2450457.692177593
  9
$TDINDWG
 40
0.2717547569
  9
$TDUSRTIMER
 40
0.2717547569
  9
$USRTIMER
 70
     1
  9
$ANGBASE
 50
0.0
  9
$ANGDIR
 70
     0
  9
$PDMODE
 70
     0
  9
$PDSIZE
 40
0.0
  9
$PLINEWID
 40
0.0
  9
$COORDS
 70
     1
  9
$SPLFRAME
 70
     0
  9
$SPLINETYPE
 70
     6
  9
$SPLINESEGS
 70
     8
  9
$ATTDIA
 70
     0
  9
$ATTREQ
 70
     1
  9
$HANDLING
 70
     1
  9
$HANDSEED
  5
859B
  9
$SURFTAB1
 70
     6
  9
$SURFTAB2
 70
     6
  9
$SURFTYPE
 70
     6
  9
$SURFU
 70
     6
  9
$SURFV
 70
     6
  9
$UCSNAME
  2

  9
$UCSORG
 10
0.0
 20
0.0
 30
0.0
  9
$UCSXDIR
 10
1.0
 20
0.0
 30
0.0
  9
$UCSYDIR
 10
0.0
 20
1.0
 30
0.0
  9
$PUCSNAME
  2

  9
$PUCSORG
 10
0.0
 20
0.0
 30
0.0
  9
$PUCSXDIR
 10
1.0
 20
0.0
 30
0.0
  9
$PUCSYDIR
 10
0.0
 20
1.0
 30
0.0
  9
$USERI1
 70
     0
  9
$USERI2
 70
     0
  9
$USERI3
 70
     0
  9
$USERI4
 70
     0
  9
$USERI5
 70
     0
  9
$USERR1
 40
0.0
  9
$USERR2
 40
0.0
  9
$USERR3
 40
0.0
  9
$USERR4
 40
0.0
  9
$USERR5
 40
0.0
  9
$WORLDVIEW
 70
     1
  9
$SHADEDGE
 70
     3
  9
$SHADEDIF
 70
    70
  9
$TILEMODE
 70
     1
  9
$MAXACTVP
 70
    16
  9
$PINSBASE
 10
0.0
 20
0.0
 30
0.0
  9
$PLIMCHECK
 70
     0
  9
$PEXTMIN
 10
1.000000E+20
 20
1.000000E+20
 30
1.000000E+20
  9
$PEXTMAX
 10
-1.000000E+20
 20
-1.000000E+20
 30
-1.000000E+20
  9
$PLIMMIN
 10
0.0
 20
0.0
  9
$PLIMMAX
 10
12.0
 20
9.0
  9
$UNITMODE
 70
     0
  9
$VISRETAIN
 70
     0
  9
$PLINEGEN
 70
     0
  9
$PSLTSCALE
 70
     1
  9
$TREEDEPTH
 70
  3020
  9
$PICKSTYLE
 70
     1
  9
$CMLSTYLE
  2
STANDARD
  9
$CMLJUST
 70
     0
  9
$CMLSCALE
 40
1.0
  9
$SAVEIMAGES
 70
     0
  0
ENDSEC
  0
SECTION
  2
CLASSES
  0
CLASS
  1
ACMESCOPE
  2
AcMeScope
  3
ACME_MODULE_NAME
 90
        0
280
     0
281
     0
  0
CLASS
  1
ACMECOMMANDHISTORY
  2
AcMeCommandHistory
  3
ACME_MODULE_NAME
 90
        0
280
     0
281
     0
  0
CLASS
  1
AcRfInsAdjusterMgr
  2
AcRfInsAdjusterMgr
  3
ACME_MODULE_NAME
 90
        0
280
     0
281
     0
  0
CLASS
  1
ACGREFMASTER
  2
AcGrefMaster
  3
"AcadRfServer"
 90
        0
280
     0
281
     0
  0
CLASS
  1
AmiMaster
  2
AmiMaster
  3
"AmiServices"
 90
        0
280
     0
281
     0
  0
CLASS
  1
ACASGREFMASTER
  2
AcAsGrefMaster
  3
"AutoSurfResolver"
 90
        0
280
     0
281
     0
  0
CLASS
  1
ADAPPL
  2
AcAdAppl
  3
"DesignerServices"
 90
        0
280
     0
281
     0
  0
CLASS
  1
DEPMGR
  2
AcAdDepMgr
  3
"DesignerServices"
 90
        0
280
     0
281
     0
  0
CLASS
  1
PARAMMGR
  2
AcAdParamMgr
  3
"DesignerServices"
 90
        0
280
     0
281
     0
  0
CLASS
  1
PARAMSCOPE
  2
AcAdParamScope
  3
"DesignerServices"
 90
        0
280
     0
281
     0
  0
CLASS
  1
"IM_SYSVAR_MAN"
  2
AcImSysVarManager
  3
"ADAM"
 90
        0
280
     0
281
     0
  0
CLASS
  1
SYSTEM_VAR_INT
  2
AcImIntSysVar
  3
"ADAM"
 90
        0
280
     0
281
     0
  0
CLASS
  1
SYSTEM_VAR_REAL
  2
AcImRealSysVar
  3
"ADAM"
 90
        0
280
     0
281
     0
  0
CLASS
  1
SYSTEM_VAR_STR
  2
AcImStrSysVar
  3
"ADAM"
 90
        0
280
     0
281
     0
  0
CLASS
  1
NAMEDAPPL
  2
AcAdNamedAppl
  3
"DesignerServices"
 90
        0
280
     0
281
     0
  0
CLASS
  1
ADPART
  2
AcAdPart
  3
"DesignerServices"
 90
        0
280
     0
281
     1
  0
CLASS
  1
ADBASE
  2
AcAdBase
  3
"DesignerServices"
 90
        0
280
     0
281
     0
  0
CLASS
  1
BODYID
  2
AcAdBodyId
  3
"DesignerServices"
 90
        0
280
     0
281
     0
  0
CLASS
  1
WORKPLANEDISPLAYMGR
  2
AcAdDisplayMgr
  3
"DesignerServices"
 90
        0
280
     0
281
     0
  0
CLASS
  1
ADHNTMPLT
  2
AdHoleNoteTemplateMgr
  3
"DesignerServices"
 90
        0
280
     0
281
     0
  0
CLASS
  1
AM_HNTEMPLATE_MGR_NAME
  2
AdHoleNoteTemplateMgrName
  3
"DesignerServices"
 90
        0
280
     0
281
     0
  0
CLASS
  1
AcAdGrefModule
  2
AcAdGrefModule
  3
AD_GREF_SERVICES_NSTR
 90
        0
280
     0
281
     0
  0
CLASS
  1
AM_DRAWING_MGR
  2
AcDmDwgMgr
  3
"Designer_Drawing_Mgmt"
 90
        0
280
     0
281
     0
  0
CLASS
  1
AM_DWG_DOCUMENT
  2
AcDmDwgDocument
  3
"Designer_Drawing_Mgmt"
 90
        0
280
     0
281
     0
  0
CLASS
  1
AM_DWG_SHEET
  2
AcDmSheet
  3
"Designer_Drawing_Mgmt"
 90
        0
280
     0
281
     0
  0
CLASS
  1
AM_VIEWDIMPARMAP
  2
AcDmViewDimParMap
  3
"Designer_Drawing_Mgmt"
 90
        0
280
     0
281
     0
  0
CLASS
  1
AM_DWGMGR_NAME
  2
AcDmDwgMgrName
  3
"Designer_Drawing_Mgmt"
 90
        0
280
     0
281
     0
  0
CLASS
  1
ACAMPROJECT
  2
AcAmProject
  3
"DesignerAssemblies"
 90
        0
280
     0
281
     0
  0
CLASS
  1
ACAMGRCOMPDEF
  2
AcAmGrCompDef
  3
"DesignerAssemblies"
 90
        0
280
     0
281
     0
  0
CLASS
  1
ACAMCOMPDEF
  2
AcAmCompDef
  3
"DesignerAssemblies"
 90
        0
280
     0
281
     0
  0
CLASS
  1
ACAMCOMPDEFMGR
  2
AcAmCompDefMgr
  3
"DesignerAssemblies"
 90
        0
280
     0
281
     0
  0
CLASS
  1
AMCONTEXTMGR
  2
AcAmContextMgr
  3
"DesignerAssemblies"
 90
        0
280
     0
281
     0
  0
CLASS
  1
AcAmContextModeler
  2
AcAmContextModeler
  3
"DesignerAssemblies"
 90
        0
280
     0
281
     0
  0
CLASS
  1
ACAMDRAWINGMAN
  2
AcAmDrawingMan
  3
"DesignerAssemblies"
 90
        0
280
     0
281
     0
  0
CLASS
  1
ASSYSVARS
  2
AcAsSysVars
  3
"AutoSurf"
 90
        0
280
     0
281
     0
  0
CLASS
  1
ASSTATICVARS
  2
AcAsStaticVars
  3
"AutoSurf"
 90
        0
280
     0
281
     0
  0
CLASS
  1
ASAPP
  2
AcAsAppObject
  3
"AutoSurf"
 90
        0
280
     0
281
     0
  0
CLASS
  1
AGDICTIONARY
  2
AgDictionary
  3
"AccelView"
 90
        1
280
     0
281
     0
  0
CLASS
  1
ACRFATTGENMGR
  2
AcRfAttGeneralMgr
  3
"AcadRfServer"
 90
        0
280
     0
281
     0
  0
ENDSEC
  0
SECTION
  2
TABLES
  0
TABLE
  2
VPORT
  5
65FE
100
AcDbSymbolTable
 70
     2
  0
VPORT
  5
859A
100
AcDbSymbolTableRecord
100
AcDbViewportTableRecord
  2
*ACTIVE
 70
     0
 10
0.0
 20
0.0
 11
1.0
 21
1.0
 12
449.486738
 22
267.621963
 13
0.0
 23
0.0
 14
1.0
 24
1.0
 15
10.0
 25
10.0
 16
0.0
 26
0.0
 36
1.0
 17
0.0
 27
0.0
 37
0.0
 40
503.493925
 41
1.684575
 42
50.0
 43
0.0
 44
0.0
 50
0.0
 51
0.0
 71
     0
 72
   100
 73
     1
 74
     1
 75
     0
 76
     1
 77
     0
 78
     0
  0
ENDTAB
  0
TABLE
  2
LTYPE
  5
65FB
100
AcDbSymbolTable
 70
    27
  0
LTYPE
  5
6608
100
AcDbSymbolTableRecord
100
AcDbLinetypeTableRecord
  2
BYBLOCK
 70
     0
  3

 72
    65
 73
     0
 40
0.0
  0
LTYPE
  5
6609
100
AcDbSymbolTableRecord
100
AcDbLinetypeTableRecord
  2
BYLAYER
 70
     0
  3

 72
    65
 73
     0
 40
0.0
  0
LTYPE
  5
660A
100
AcDbSymbolTableRecord
100
AcDbLinetypeTableRecord
  2
CONTINUOUS
 70
    64
  3
Solid line
 72
    65
 73
     0
 40
0.0
  0
LTYPE
  5
6636
100
AcDbSymbolTableRecord
100
AcDbLinetypeTableRecord
  2
DASHED
 70
     0
  3
__ __ __ __ __ __ __ __ __ __ __ __ __ __ __ __
 72
    65
 73
     2
 40
0.75
 49
0.5
 74
     0
 49
-0.25
 74
     0
  0
LTYPE
  5
6637
100
AcDbSymbolTableRecord
100
AcDbLinetypeTableRecord
  2
HIDDEN
 70
    64
  3
__ __ __ __ __ __ __ __ __ __ __ __ __ __ __ __
 72
    65
 73
     2
 40
0.375
 49
0.25
 74
     0
 49
-0.125
 74
     0
  0
LTYPE
  5
6638
100
AcDbSymbolTableRecord
100
AcDbLinetypeTableRecord
  2
CENTER
 70
    64
  3
____ _ ____ _ ____ _ ____ _ ____ _ ____ _ ____ 
 72
    65
 73
     4
 40
2.0
 49
1.25
 74
     0
 49
-0.25
 74
     0
 49
0.25
 74
     0
 49
-0.25
 74
     0
  0
LTYPE
  5
6639
100
AcDbSymbolTableRecord
100
AcDbLinetypeTableRecord
  2
PHANTOM
 70
     0
  3
______  __  __  ______  __  __  ______  __  __ 
 72
    65
 73
     6
 40
2.5
 49
1.25
 74
     0
 49
-0.25
 74
     0
 49
0.25
 74
     0
 49
-0.25
 74
     0
 49
0.25
 74
     0
 49
-0.25
 74
     0
  0
LTYPE
  5
663A
100
AcDbSymbolTableRecord
100
AcDbLinetypeTableRecord
  2
DOT
 70
     0
  3
. . . . . . . . . . . . . . . . . . . . . . . .
 72
    65
 73
     2
 40
0.25
 49
0.0
 74
     0
 49
-0.25
 74
     0
  0
LTYPE
  5
663B
100
AcDbSymbolTableRecord
100
AcDbLinetypeTableRecord
  2
DASHDOT
 70
     0
  3
__ . __ . __ . __ . __ . __ . __ . __ . __ . __
 72
    65
 73
     4
 40
1.0
 49
0.5
 74
     0
 49
-0.25
 74
     0
 49
0.0
 74
     0
 49
-0.25
 74
     0
  0
LTYPE
  5
663C
100
AcDbSymbolTableRecord
100
AcDbLinetypeTableRecord
  2
BORDER
 70
     0
  3
__ __ . __ __ . __ __ . __ __ . __ __ . __ __ .
 72
    65
 73
     6
 40
1.75
 49
0.5
 74
     0
 49
-0.25
 74
     0
 49
0.5
 74
     0
 49
-0.25
 74
     0
 49
0.0
 74
     0
 49
-0.25
 74
     0
  0
LTYPE
  5
663D
100
AcDbSymbolTableRecord
100
AcDbLinetypeTableRecord
  2
DIVIDE
 70
     0
  3
____ . . ____ . . ____ . . ____ . . ____ . . __
 72
    65
 73
     6
 40
1.25
 49
0.5
 74
     0
 49
-0.25
 74
     0
 49
0.0
 74
     0
 49
-0.25
 74
     0
 49
0.0
 74
     0
 49
-0.25
 74
     0
  0
LTYPE
  5
663E
100
AcDbSymbolTableRecord
100
AcDbLinetypeTableRecord
  2
BORDER2
 70
     0
  3
__.__.__.__.__.__.__.__.__.__.__.__.__.__.__.__
 72
    65
 73
     6
 40
0.875
 49
0.25
 74
     0
 49
-0.125
 74
     0
 49
0.25
 74
     0
 49
-0.125
 74
     0
 49
0.0
 74
     0
 49
-0.125
 74
     0
  0
LTYPE
  5
663F
100
AcDbSymbolTableRecord
100
AcDbLinetypeTableRecord
  2
BORDERX2
 70
     0
  3
____  ____  .  ____  ____  .  ____  ____  .  __
 72
    65
 73
     6
 40
3.5
 49
1.0
 74
     0
 49
-0.5
 74
     0
 49
1.0
 74
     0
 49
-0.5
 74
     0
 49
0.0
 74
     0
 49
-0.5
 74
     0
  0
LTYPE
  5
6640
100
AcDbSymbolTableRecord
100
AcDbLinetypeTableRecord
  2
CENTER2
 70
     0
  3
___ _ ___ _ ___ _ ___ _ ___ _ ___ _ ___ _ ___ _
 72
    65
 73
     4
 40
1.125
 49
0.75
 74
     0
 49
-0.125
 74
     0
 49
0.125
 74
     0
 49
-0.125
 74
     0
  0
LTYPE
  5
6641
100
AcDbSymbolTableRecord
100
AcDbLinetypeTableRecord
  2
CENTERX2
 70
     0
  3
________  __  ________  __  ________  __  _____
 72
    65
 73
     4
 40
4.0
 49
2.5
 74
     0
 49
-0.5
 74
     0
 49
0.5
 74
     0
 49
-0.5
 74
     0
  0
LTYPE
  5
6642
100
AcDbSymbolTableRecord
100
AcDbLinetypeTableRecord
  2
DASHDOT2
 70
     0
  3
_._._._._._._._._._._._._._._._._._._._._._._._
 72
    65
 73
     4
 40
0.5
 49
0.25
 74
     0
 49
-0.125
 74
     0
 49
0.0
 74
     0
 49
-0.125
 74
     0
  0
LTYPE
  5
6643
100
AcDbSymbolTableRecord
100
AcDbLinetypeTableRecord
  2
DASHDOTX2
 70
     0
  3
____  .  ____  .  ____  .  ____  .  ____  .  __
 72
    65
 73
     4
 40
2.0
 49
1.0
 74
     0
 49
-0.5
 74
     0
 49
0.0
 74
     0
 49
-0.5
 74
     0
  0
LTYPE
  5
6644
100
AcDbSymbolTableRecord
100
AcDbLinetypeTableRecord
  2
DASHED2
 70
     0
  3
_ _ _ _ _ _ _ _ _ _ _ _ _ _ _ _ _ _ _ _ _ _ _ _
 72
    65
 73
     2
 40
0.375
 49
0.25
 74
     0
 49
-0.125
 74
     0
  0
LTYPE
  5
6645
100
AcDbSymbolTableRecord
100
AcDbLinetypeTableRecord
  2
DASHEDX2
 70
     0
  3
____  ____  ____  ____  ____  ____  ____  ____ 
 72
    65
 73
     2
 40
1.5
 49
1.0
 74
     0
 49
-0.5
 74
     0
  0
LTYPE
  5
6646
100
AcDbSymbolTableRecord
100
AcDbLinetypeTableRecord
  2
DIVIDE2
 70
     0
  3
__..__..__..__..__..__..__..__..__..__..__..__.
 72
    65
 73
     6
 40
0.625
 49
0.25
 74
     0
 49
-0.125
 74
     0
 49
0.0
 74
     0
 49
-0.125
 74
     0
 49
0.0
 74
     0
 49
-0.125
 74
     0
  0
LTYPE
  5
6647
100
AcDbSymbolTableRecord
100
AcDbLinetypeTableRecord
  2
DIVIDEX2
 70
     0
  3
________  .  .  ________  .  .  ________  .  . 
 72
    65
 73
     6
 40
2.5
 49
1.0
 74
     0
 49
-0.5
 74
     0
 49
0.0
 74
     0
 49
-0.5
 74
     0
 49
0.0
 74
     0
 49
-0.5
 74
     0
  0
LTYPE
  5
6648
100
AcDbSymbolTableRecord
100
AcDbLinetypeTableRecord
  2
DOT2
 70
     0
  3
...............................................
 72
    65
 73
     2
 40
0.125
 49
0.0
 74
     0
 49
-0.125
 74
     0
  0
LTYPE
  5
6649
100
AcDbSymbolTableRecord
100
AcDbLinetypeTableRecord
  2
DOTX2
 70
     0
  3
.  .  .  .  .  .  .  .  .  .  .  .  .  .  .  . 
 72
    65
 73
     2
 40
0.5
 49
0.0
 74
     0
 49
-0.5
 74
     0
  0
LTYPE
  5
664A
100
AcDbSymbolTableRecord
100
AcDbLinetypeTableRecord
  2
HIDDEN2
 70
     0
  3
_ _ _ _ _ _ _ _ _ _ _ _ _ _ _ _ _ _ _ _ _ _ _ _
 72
    65
 73
     2
 40
0.1875
 49
0.125
 74
     0
 49
-0.0625
 74
     0
  0
LTYPE
  5
664B
100
AcDbSymbolTableRecord
100
AcDbLinetypeTableRecord
  2
HIDDENX2
 70
     0
  3
____ ____ ____ ____ ____ ____ ____ ____ ____ __
 72
    65
 73
     2
 40
0.75
 49
0.5
 74
     0
 49
-0.25
 74
     0
  0
LTYPE
  5
664C
100
AcDbSymbolTableRecord
100
AcDbLinetypeTableRecord
  2
PHANTOM2
 70
     0
  3
___ _ _ ___ _ _ ___ _ _ ___ _ _ ___ _ _ ___ _ _
 72
    65
 73
     6
 40
1.25
 49
0.625
 74
     0
 49
-0.125
 74
     0
 49
0.125
 74
     0
 49
-0.125
 74
     0
 49
0.125
 74
     0
 49
-0.125
 74
     0
  0
LTYPE
  5
664D
100
AcDbSymbolTableRecord
100
AcDbLinetypeTableRecord
  2
PHANTOMX2
 70
     0
  3
____________    ____    ____    ____________   
 72
    65
 73
     6
 40
5.0
 49
2.5
 74
     0
 49
-0.5
 74
     0
 49
0.5
 74
     0
 49
-0.5
 74
     0
 49
0.5
 74
     0
 49
-0.5
 74
     0
  0
LTYPE
  5
800B
100
AcDbSymbolTableRecord
100
AcDbLinetypeTableRecord
  2
ASULTYPE
 70
     0
  3
Solid line
 72
    65
 73
     2
 40
3.0
 49
2.5
 74
     0
 49
0.5
 74
     0
  0
LTYPE
  5
800C
100
AcDbSymbolTableRecord
100
AcDbLinetypeTableRecord
  2
ASVLTYPE
 70
     0
  3
__ __ __ __ __ __ __ __ __ __ __ __ __ __ __ __ __ __ __ __ __
 72
    65
 73
     2
 40
0.75
 49
0.5
 74
     0
 49
-0.25
 74
     0
  0
ENDTAB
  0
TABLE
  2
LAYER
  5
65F8
100
AcDbSymbolTable
 70
    21
  0
LAYER
  5
6605
100
AcDbSymbolTableRecord
100
AcDbLayerTableRecord
  2
0
 70
    65
 62
     7
  6
CONTINUOUS
  0
LAYER
  5
6652
100
AcDbSymbolTableRecord
100
AcDbLayerTableRecord
  2
HIDDEN
 70
    64
 62
     7
  6
HIDDEN
  0
LAYER
  5
6653
100
AcDbSymbolTableRecord
100
AcDbLayerTableRecord
  2
CENTER
 70
    64
 62
     1
  6
CENTER
  0
LAYER
  5
6655
100
AcDbSymbolTableRecord
100
AcDbLayerTableRecord
  2
DIM
 70
    64
 62
     3
  6
CONTINUOUS
  0
LAYER
  5
6656
100
AcDbSymbolTableRecord
100
AcDbLayerTableRecord
  2
TEXT
 70
    64
 62
     7
  6
CONTINUOUS
  0
LAYER
  5
6658
100
AcDbSymbolTableRecord
100
AcDbLayerTableRecord
  2
BORDER
 70
    64
 62
     6
  6
CONTINUOUS
  0
LAYER
  5
665B
100
AcDbSymbolTableRecord
100
AcDbLayerTableRecord
  2
DEFPOINTS
 70
    64
 62
     7
  6
CONTINUOUS
  0
LAYER
  5
6687
100
AcDbSymbolTableRecord
100
AcDbLayerTableRecord
  2
KEVLAR
 70
    64
 62
     7
  6
CONTINUOUS
  0
LAYER
  5
739D
100
AcDbSymbolTableRecord
100
AcDbLayerTableRecord
  2
BEAMS
 70
    64
 62
     7
  6
CONTINUOUS
  0
LAYER
  5
79C5
100
AcDbSymbolTableRecord
100
AcDbLayerTableRecord
  2
REDTEXT
 70
    64
 62
     1
  6
CONTINUOUS
  0
LAYER
  5
7D06
100
AcDbSymbolTableRecord
100
AcDbLayerTableRecord
  2
BEAMS-B
 70
    64
 62
     7
  6
CONTINUOUS
  0
LAYER
  5
7FEF
100
AcDbSymbolTableRecord
100
AcDbLayerTableRecord
  2
AM_VIEWS
 70
     0
 62
    -7
  6
CONTINUOUS
  0
LAYER
  5
7FF0
100
AcDbSymbolTableRecord
100
AcDbLayerTableRecord
  2
AM_PARDIM
 70
     0
 62
     3
  6
CONTINUOUS
  0
LAYER
  5
7FF1
100
AcDbSymbolTableRecord
100
AcDbLayerTableRecord
  2
AM_REFDIM
 70
     0
 62
     4
  6
CONTINUOUS
  0
LAYER
  5
7FF2
100
AcDbSymbolTableRecord
100
AcDbLayerTableRecord
  2
AM_VIS
 70
     0
 62
     7
  6
CONTINUOUS
  0
LAYER
  5
7FF3
100
AcDbSymbolTableRecord
100
AcDbLayerTableRecord
  2
AM_HID
 70
    64
 62
     7
  6
HIDDEN
  0
LAYER
  5
8002
100
AcDbSymbolTableRecord
100
AcDbLayerTableRecord
  2
AM_TR
 70
     0
 62
     7
  6
CONTINUOUS
  0
LAYER
  5
8003
100
AcDbSymbolTableRecord
100
AcDbLayerTableRecord
  2
AM_BM
 70
     0
 62
     7
  6
CONTINUOUS
  0
LAYER
  5
8004
100
AcDbSymbolTableRecord
100
AcDbLayerTableRecord
  2
AM_BL
 70
     0
 62
     7
  6
CONTINUOUS
  0
LAYER
  5
8363
100
AcDbSymbolTableRecord
100
AcDbLayerTableRecord
  2
C-FIBER
 70
    64
 62
     5
  6
CONTINUOUS
  0
LAYER
  5
8582
100
AcDbSymbolTableRecord
100
AcDbLayerTableRecord
  2
ASHADE
 70
    68
 62
     7
  6
CONTINUOUS
  0
ENDTAB
  0
TABLE
  2
STYLE
  5
65F9
100
AcDbSymbolTable
 70
    13
  0
STYLE
  5
6606
100
AcDbSymbolTableRecord
100
AcDbTextStyleTableRecord
  2
STANDARD
 70
    64
 40
0.0
 41
1.0
 50
0.0
 71
     0
 42
3.0
  3
txt
  4

  0
STYLE
  5
662C
100
AcDbSymbolTableRecord
100
AcDbTextStyleTableRecord
  2
GEOTOL
 70
     0
 40
0.0
 41
1.0
 50
0.0
 71
     0
 42
0.2
  3
romans
  4

  0
STYLE
  5
662D
100
AcDbSymbolTableRecord
100
AcDbTextStyleTableRecord
  2
BMAT
 70
     0
 40
0.0
 41
1.0
 50
0.0
 71
     0
 42
0.2
  3
romans
  4

  0
STYLE
  5
662E
100
AcDbSymbolTableRecord
100
AcDbTextStyleTableRecord
  2
DDIM
 70
     0
 40
0.0
 41
1.0
 50
0.0
 71
     0
 42
0.2
  3
romans
  4

  0
STYLE
  5
662F
100
AcDbSymbolTableRecord
100
AcDbTextStyleTableRecord
  2
HCHART
 70
     0
 40
0.0
 41
1.0
 50
0.0
 71
     0
 42
0.2
  3
romans
  4

  0
STYLE
  5
6630
100
AcDbSymbolTableRecord
100
AcDbTextStyleTableRecord
  2
PTDIM
 70
     0
 40
0.0
 41
1.0
 50
0.0
 71
     0
 42
0.2
  3
romans
  4

  0
STYLE
  5
6631
100
AcDbSymbolTableRecord
100
AcDbTextStyleTableRecord
  2
SECTION
 70
     0
 40
0.0
 41
1.0
 50
0.0
 71
     0
 42
0.2
  3
romans
  4

  0
STYLE
  5
6632
100
AcDbSymbolTableRecord
100
AcDbTextStyleTableRecord
  2
LNOTE
 70
     0
 40
0.0
 41
1.0
 50
0.0
 71
     0
 42
0.2
  3
romans
  4

  0
STYLE
  5
6633
100
AcDbSymbolTableRecord
100
AcDbTextStyleTableRecord
  2
HDIM
 70
     0
 40
0.0
 41
1.0
 50
0.0
 71
     0
 42
0.2
  3
romans
  4

  0
STYLE
  5
6634
100
AcDbSymbolTableRecord
100
AcDbTextStyleTableRecord
  2
CHARTRC
 70
     0
 40
0.0
 41
1.0
 50
0.0
 71
     0
 42
0.2
  3
romans
  4

  0
STYLE
  5
6635
100
AcDbSymbolTableRecord
100
AcDbTextStyleTableRecord
  2
ADESK2
 70
    64
 40
0.0
 41
1.0
 50
0.0
 71
     0
 42
0.065
  3
romans
  4

  0
STYLE
  5
6686
100
AcDbSymbolTableRecord
100
AcDbTextStyleTableRecord
  2
CIM_TB
 70
    64
 40
0.0
 41
1.0
 50
0.0
 71
     0
 42
0.18
  3
romans
  4

  0
STYLE
  5
857F
100
AcDbSymbolTableRecord
100
AcDbTextStyleTableRecord
  2
ASHADE
 70
    64
 40
0.2
 41
1.0
 50
0.0
 71
     0
 42
3.0
  3
simplex
  4

  0
ENDTAB
  0
TABLE
  2
VIEW
  5
65FC
100
AcDbSymbolTable
 70
     0
  0
ENDTAB
  0
TABLE
  2
UCS
  5
65FD
100
AcDbSymbolTable
 70
     0
  0
ENDTAB
  0
TABLE
  2
APPID
  5
65FF
100
AcDbSymbolTable
 70
    12
  0
APPID
  5
6607
100
AcDbSymbolTableRecord
100
AcDbRegAppTableRecord
  2
ACAD
 70
    64
  0
APPID
  5
6650
100
AcDbSymbolTableRecord
100
AcDbRegAppTableRecord
  2
AME_SOL
 70
    64
  0
APPID
  5
6664
100
AcDbSymbolTableRecord
100
AcDbRegAppTableRecord
  2
TB_S_MPD
 70
     0
  0
APPID
  5
7FEE
100
AcDbSymbolTableRecord
100
AcDbRegAppTableRecord
  2
AD_DRAW
 70
     0
  0
APPID
  5
8006
100
AcDbSymbolTableRecord
100
AcDbRegAppTableRecord
  2
DESIGNERASSEMBLIES
 70
     0
  0
APPID
  5
8007
100
AcDbSymbolTableRecord
100
AcDbRegAppTableRecord
  2
MCAD_NO_VIS
 70
     0
  0
APPID
  5
800D
100
AcDbSymbolTableRecord
100
AcDbRegAppTableRecord
  2
ASURF_PCURVE_APPNAME
 70
     0
  0
APPID
  5
8580
100
AcDbSymbolTableRecord
100
AcDbRegAppTableRecord
  2
AVE_RENDER
 70
     0
  0
APPID
  5
8581
100
AcDbSymbolTableRecord
100
AcDbRegAppTableRecord
  2
AVE_ENTITY_MATERIAL
 70
     0
  0
APPID
  5
858E
100
AcDbSymbolTableRecord
100
AcDbRegAppTableRecord
  2
AVE_FINISH
 70
     0
  0
APPID
  5
858F
100
AcDbSymbolTableRecord
100
AcDbRegAppTableRecord
  2
AVE_MATERIAL
 70
     0
  0
APPID
  5
8590
100
AcDbSymbolTableRecord
100
AcDbRegAppTableRecord
  2
AVE_GLOBAL
 70
     0
  0
ENDTAB
  0
TABLE
  2
DIMSTYLE
  5
6600
100
AcDbSymbolTable
 70
     2
  0
DIMSTYLE
105
6660
100
AcDbSymbolTableRecord
100
AcDbDimStyleTableRecord
  2
STANDARD
 70
     0
  3
mm
  4
"
  5

  6

  7

 40
15.0
 41
0.18
 42
0.063
 43
0.38
 44
0.18
 45
0.0
 46
0.0
 47
0.0
 48
0.0
140
0.18
141
0.09
142
0.0
143
0.03937
144
1.0
145
0.0
146
1.0
147
0.09
 71
     0
 72
     0
 73
     1
 74
     1
 75
     0
 76
     0
 77
     0
 78
     0
170
     1
171
     3
172
     0
173
     0
174
     0
175
     0
176
     0
177
     0
178
     0
270
     2
271
     2
272
     1
273
     2
274
     1
340
6606
275
     0
280
     0
281
     0
282
     0
283
     1
284
     0
285
     0
286
     0
287
     0
288
     1
  0
DIMSTYLE
105
6A59
100
AcDbSymbolTableRecord
100
AcDbDimStyleTableRecord
  2
STANDARD$2
 70
     0
  3

  4
"
  5

  6

  7

 40
15.0
 41
0.18
 42
0.063
 43
0.38
 44
0.18
 45
0.0
 46
0.0
 47
0.0
 48
0.0
140
0.18
141
0.09
142
0.0
143
0.03937
144
1.0
145
0.0
146
1.0
147
0.09
 71
     0
 72
     0
 73
     1
 74
     1
 75
     0
 76
     0
 77
     0
 78
     0
170
     1
171
     3
172
     0
173
     0
174
     0
175
     0
176
     0
177
     0
178
     0
270
     2
271
     2
272
     1
273
     2
274
     1
340
6606
275
     0
280
     0
281
     0
282
     0
283
     1
284
     0
285
     0
286
     0
287
     0
288
     1
  0
ENDTAB
  0
TABLE
  2
BLOCK_RECORD
  5
65F7
100
AcDbSymbolTable
 70
    50
  0
BLOCK_RECORD
  5
660E
100
AcDbSymbolTableRecord
100
AcDbBlockTableRecord
  2
*MODEL_SPACE
  0
BLOCK_RECORD
  5
660B
100
AcDbSymbolTableRecord
100
AcDbBlockTableRecord
  2
*PAPER_SPACE
  0
BLOCK_RECORD
  5
661D
100
AcDbSymbolTableRecord
100
AcDbBlockTableRecord
  2
C-BORDER
  0
BLOCK_RECORD
  5
673F
100
AcDbSymbolTableRecord
100
AcDbBlockTableRecord
  2
D-BORDER
  0
BLOCK_RECORD
  5
6E02
100
AcDbSymbolTableRecord
100
AcDbBlockTableRecord
  2
*D2
  0
BLOCK_RECORD
  5
739E
100
AcDbSymbolTableRecord
100
AcDbBlockTableRecord
  2
BEAMS-1
  0
BLOCK_RECORD
  5
7F86
100
AcDbSymbolTableRecord
100
AcDbBlockTableRecord
  2
*D4
  0
BLOCK_RECORD
  5
7FFA
100
AcDbSymbolTableRecord
100
AcDbBlockTableRecord
  2
*U5
  0
BLOCK_RECORD
  5
80F5
100
AcDbSymbolTableRecord
100
AcDbBlockTableRecord
  2
*D6
  0
BLOCK_RECORD
  5
8102
100
AcDbSymbolTableRecord
100
AcDbBlockTableRecord
  2
*D7
  0
BLOCK_RECORD
  5
810F
100
AcDbSymbolTableRecord
100
AcDbBlockTableRecord
  2
*D8
  0
BLOCK_RECORD
  5
811C
100
AcDbSymbolTableRecord
100
AcDbBlockTableRecord
  2
*D9
  0
BLOCK_RECORD
  5
8129
100
AcDbSymbolTableRecord
100
AcDbBlockTableRecord
  2
*D10
  0
BLOCK_RECORD
  5
8136
100
AcDbSymbolTableRecord
100
AcDbBlockTableRecord
  2
*D11
  0
BLOCK_RECORD
  5
8143
100
AcDbSymbolTableRecord
100
AcDbBlockTableRecord
  2
*D12
  0
BLOCK_RECORD
  5
81A8
100
AcDbSymbolTableRecord
100
AcDbBlockTableRecord
  2
*D13
  0
BLOCK_RECORD
  5
81B5
100
AcDbSymbolTableRecord
100
AcDbBlockTableRecord
  2
*D14
  0
BLOCK_RECORD
  5
81C2
100
AcDbSymbolTableRecord
100
AcDbBlockTableRecord
  2
*D15
  0
BLOCK_RECORD
  5
81CF
100
AcDbSymbolTableRecord
100
AcDbBlockTableRecord
  2
*D16
  0
BLOCK_RECORD
  5
81DC
100
AcDbSymbolTableRecord
100
AcDbBlockTableRecord
  2
*D17
  0
BLOCK_RECORD
  5
81E9
100
AcDbSymbolTableRecord
100
AcDbBlockTableRecord
  2
*D18
  0
BLOCK_RECORD
  5
81F6
100
AcDbSymbolTableRecord
100
AcDbBlockTableRecord
  2
*D19
  0
BLOCK_RECORD
  5
8249
100
AcDbSymbolTableRecord
100
AcDbBlockTableRecord
  2
*D21
  0
BLOCK_RECORD
  5
8256
100
AcDbSymbolTableRecord
100
AcDbBlockTableRecord
  2
*D22
  0
BLOCK_RECORD
  5
8264
100
AcDbSymbolTableRecord
100
AcDbBlockTableRecord
  2
*D23
  0
BLOCK_RECORD
  5
828F
100
AcDbSymbolTableRecord
100
AcDbBlockTableRecord
  2
*D25
  0
BLOCK_RECORD
  5
829D
100
AcDbSymbolTableRecord
100
AcDbBlockTableRecord
  2
*D26
  0
BLOCK_RECORD
  5
82AB
100
AcDbSymbolTableRecord
100
AcDbBlockTableRecord
  2
*D27
  0
BLOCK_RECORD
  5
82D5
100
AcDbSymbolTableRecord
100
AcDbBlockTableRecord
  2
*D30
  0
BLOCK_RECORD
  5
82E3
100
AcDbSymbolTableRecord
100
AcDbBlockTableRecord
  2
*D31
  0
BLOCK_RECORD
  5
82F2
100
AcDbSymbolTableRecord
100
AcDbBlockTableRecord
  2
*D32
  0
BLOCK_RECORD
  5
82FF
100
AcDbSymbolTableRecord
100
AcDbBlockTableRecord
  2
*D33
  0
BLOCK_RECORD
  5
830C
100
AcDbSymbolTableRecord
100
AcDbBlockTableRecord
  2
*D34
  0
BLOCK_RECORD
  5
831B
100
AcDbSymbolTableRecord
100
AcDbBlockTableRecord
  2
*D35
  0
BLOCK_RECORD
  5
8364
100
AcDbSymbolTableRecord
100
AcDbBlockTableRecord
  2
A$C255
  0
BLOCK_RECORD
  5
8384
100
AcDbSymbolTableRecord
100
AcDbBlockTableRecord
  2
*D37
  0
BLOCK_RECORD
  5
8391
100
AcDbSymbolTableRecord
100
AcDbBlockTableRecord
  2
*D38
  0
BLOCK_RECORD
  5
839E
100
AcDbSymbolTableRecord
100
AcDbBlockTableRecord
  2
*D39
  0
BLOCK_RECORD
  5
83AB
100
AcDbSymbolTableRecord
100
AcDbBlockTableRecord
  2
*D40
  0
BLOCK_RECORD
  5
83D6
100
AcDbSymbolTableRecord
100
AcDbBlockTableRecord
  2
*D41
  0
BLOCK_RECORD
  5
83E3
100
AcDbSymbolTableRecord
100
AcDbBlockTableRecord
  2
*D42
  0
BLOCK_RECORD
  5
83F0
100
AcDbSymbolTableRecord
100
AcDbBlockTableRecord
  2
*D43
  0
BLOCK_RECORD
  5
83FD
100
AcDbSymbolTableRecord
100
AcDbBlockTableRecord
  2
*D44
  0
BLOCK_RECORD
  5
84FD
100
AcDbSymbolTableRecord
100
AcDbBlockTableRecord
  2
*D45
  0
BLOCK_RECORD
  5
852F
100
AcDbSymbolTableRecord
100
AcDbBlockTableRecord
  2
*D46
  0
BLOCK_RECORD
  5
854B
100
AcDbSymbolTableRecord
100
AcDbBlockTableRecord
  2
*D47
  0
BLOCK_RECORD
  5
8583
100
AcDbSymbolTableRecord
100
AcDbBlockTableRecord
  2
AVE_RENDER
  0
BLOCK_RECORD
  5
8591
100
AcDbSymbolTableRecord
100
AcDbBlockTableRecord
  2
AVE_GLOBAL
  0
ENDTAB
  0
ENDSEC
  0
SECTION
  2
BLOCKS
  0
BLOCK
  5
665E
100
AcDbEntity
  8
DIM
100
AcDbBlockBegin
  2
*MODEL_SPACE
 70
     0
 10
0.0
 20
0.0
 30
0.0
  3
*MODEL_SPACE
  1

  0
ENDBLK
  5
665F
100
AcDbEntity
  8
DIM
100
AcDbBlockEnd
  0
BLOCK
  5
665C
100
AcDbEntity
 67
     1
  8
DIM
100
AcDbBlockBegin
  2
*PAPER_SPACE
 70
     0
 10
0.0
 20
0.0
 30
0.0
  3
*PAPER_SPACE
  1

  0
ENDBLK
  5
665D
100
AcDbEntity
 67
     1
  8
DIM
100
AcDbBlockEnd
  0
BLOCK
  5
4538
100
AcDbEntity
  8
0
100
AcDbBlockBegin
  2
C-BORDER
 70
    64
 10
0.0
 20
0.0
 30
0.0
  3
C-BORDER
  1

  0
TEXT
  5
453A
100
AcDbEntity
  8
TEXT
100
AcDbText
 10
15.40792
 20
1.861505
 30
0.0
 40
0.065
  1
  %%P 0.5%%D
  7
ADESK2
100
AcDbText
  0
TEXT
  5
453B
100
AcDbEntity
  8
TEXT
100
AcDbText
 10
15.40792
 20
1.966743
 30
0.0
 40
0.065
  1
ANGULAR
  7
ADESK2
100
AcDbText
  0
TEXT
  5
453C
100
AcDbEntity
  8
TEXT
100
AcDbText
 10
14.61466
 20
1.653744
 30
0.0
 40
0.065
  1
DO NOT SCALE DRAWING
  7
ADESK2
 72
     1
 11
15.229065
 21
1.653744
 31
0.0
100
AcDbText
  0
TEXT
  5
453D
100
AcDbEntity
  8
TEXT
100
AcDbText
 10
14.544023
 20
1.756267
 30
0.0
 40
0.065
  1
.XXX %%P .005
  7
ADESK2
100
AcDbText
  0
TEXT
  5
453E
100
AcDbEntity
  8
TEXT
100
AcDbText
 10
14.544023
 20
1.861505
 30
0.0
 40
0.065
  1
.XX  %%P .05
  7
ADESK2
100
AcDbText
  0
TEXT
  5
453F
100
AcDbEntity
  8
TEXT
100
AcDbText
 10
14.544023
 20
1.966743
 30
0.0
 40
0.065
  1
DECIMALS
  7
ADESK2
100
AcDbText
  0
TEXT
  5
4540
100
AcDbEntity
  8
TEXT
100
AcDbText
 10
14.930375
 20
2.074613
 30
0.0
 40
0.065
  1
TOLERANCES
  7
ADESK2
 72
     1
 11
15.229065
 21
2.074613
 31
0.0
100
AcDbText
  0
TEXT
  5
4541
100
AcDbEntity
  8
TEXT
100
AcDbText
 10
14.532636
 20
2.179851
 30
0.0
 40
0.065
  1
DIMENSIONS ARE IN INCHES
  7
ADESK2
 72
     1
 11
15.229065
 21
2.179851
 31
0.0
100
AcDbText
  0
TEXT
  5
4542
100
AcDbEntity
  8
TEXT
100
AcDbText
 10
14.458351
 20
2.285089
 30
0.0
 40
0.065
  1
UNLESS OTHERWISE SPECIFIED:
  7
ADESK2
 72
     1
 11
15.229065
 21
2.285089
 31
0.0
100
AcDbText
  0
TEXT
  5
4543
100
AcDbEntity
  8
BORDER
100
AcDbText
 10
16.916608
 20
2.075566
 30
0.0
 40
0.15
  1
HIGH ENERGY PHYSICS
100
AcDbText
  0
LINE
  5
4544
100
AcDbEntity
  8
BORDER
100
AcDbLine
 10
0.5
 20
15.375
 30
0.0
 11
20.5
 21
15.375
 31
0.0
  0
TEXT
  5
4545
100
AcDbEntity
  8
TEXT
100
AcDbText
 10
16.680137
 20
1.165354
 30
0.0
 40
0.075
  1
FILE #
100
AcDbText
  0
TEXT
  5
4546
100
AcDbEntity
  8
BORDER
100
AcDbText
 10
16.367704
 20
0.951962
 30
0.0
 40
0.15
  1
C
100
AcDbText
  0
LINE
  5
4547
100
AcDbEntity
  8
BORDER
100
AcDbLine
 10
0.5
 20
0.625
 30
0.0
 11
20.5
 21
0.625
 31
0.0
  0
LINE
  5
4548
100
AcDbEntity
  8
BORDER
100
AcDbLine
 10
0.5
 20
15.375
 30
0.0
 11
0.5
 21
0.625
 31
0.0
  0
LINE
  5
4549
100
AcDbEntity
  8
BORDER
100
AcDbLine
 10
20.5
 20
0.625
 30
0.0
 11
20.5
 21
15.375
 31
0.0
  0
TEXT
  5
454A
100
AcDbEntity
  8
BORDER
100
AcDbText
 10
17.970611
 20
2.549228
 30
0.0
 40
0.15
  1
@
100
AcDbText
  0
TEXT
  5
454B
100
AcDbEntity
  8
BORDER
100
AcDbText
 10
18.246053
 20
2.549228
 30
0.0
 40
0.15
  1
SANTA BARBARA
100
AcDbText
  0
LINE
  5
454C
100
AcDbEntity
  8
BORDER
100
AcDbLine
 10
14.228025
 20
2.824147
 30
0.0
 11
20.500862
 21
2.824147
 31
0.0
  0
TEXT
  5
454D
100
AcDbEntity
  8
BORDER
100
AcDbText
 10
14.407029
 20
2.549228
 30
0.0
 40
0.15
  1
UNIVERSITY OF CALIFORNIA
100
AcDbText
  0
TEXT
  5
454E
100
AcDbEntity
  8
TEXT
100
AcDbText
 10
14.297375
 20
1.479964
 30
0.0
 40
0.065
  1
DRAWN
  7
ADESK2
100
AcDbText
  0
LINE
  5
454F
100
AcDbEntity
  8
BORDER
100
AcDbLine
 10
14.229065
 20
0.625
 30
0.0
 11
14.229065
 21
2.824147
 31
0.0
  0
LINE
  5
4550
100
AcDbEntity
  8
BORDER
100
AcDbLine
 10
14.229065
 20
2.401501
 30
0.0
 11
20.500862
 21
2.401501
 31
0.0
  0
LINE
  5
4551
100
AcDbEntity
  8
TEXT
100
AcDbLine
 10
14.229065
 20
0.966501
 30
0.0
 11
16.229065
 21
0.966501
 31
0.0
  0
LINE
  5
4552
100
AcDbEntity
  8
TEXT
100
AcDbLine
 10
14.229065
 20
1.281501
 30
0.0
 11
20.500862
 21
1.281501
 31
0.0
  0
LINE
  5
4553
100
AcDbEntity
  8
TEXT
100
AcDbLine
 10
16.229065
 20
0.901501
 30
0.0
 11
20.500862
 21
0.901501
 31
0.0
  0
LINE
  5
4554
100
AcDbEntity
  8
BORDER
100
AcDbLine
 10
16.229065
 20
1.901501
 30
0.0
 11
20.500862
 21
1.901501
 31
0.0
  0
LINE
  5
4555
100
AcDbEntity
  8
BORDER
100
AcDbLine
 10
16.229065
 20
0.625
 30
0.0
 11
16.229065
 21
2.401501
 31
0.0
  0
LINE
  5
4556
100
AcDbEntity
  8
TEXT
100
AcDbLine
 10
17.229065
 20
0.625
 30
0.0
 11
17.229065
 21
0.901501
 31
0.0
  0
LINE
  5
4557
100
AcDbEntity
  8
TEXT
100
AcDbLine
 10
18.729065
 20
0.625
 30
0.0
 11
18.729065
 21
0.901501
 31
0.0
  0
LINE
  5
4558
100
AcDbEntity
  8
TEXT
100
AcDbLine
 10
16.609065
 20
0.901501
 30
0.0
 11
16.609065
 21
1.281501
 31
0.0
  0
LINE
  5
4559
100
AcDbEntity
  8
TEXT
100
AcDbLine
 10
17.729065
 20
0.901501
 30
0.0
 11
17.729065
 21
1.281501
 31
0.0
  0
LINE
  5
455A
100
AcDbEntity
  8
TEXT
100
AcDbLine
 10
20.099065
 20
0.901501
 30
0.0
 11
20.099065
 21
1.281501
 31
0.0
  0
TEXT
  5
455B
100
AcDbEntity
  8
TEXT
100
AcDbText
 10
16.281365
 20
0.744001
 30
0.0
 40
0.065
  1
SCALE
  7
ADESK2
100
AcDbText
  0
TEXT
  5
455C
100
AcDbEntity
  8
TEXT
100
AcDbText
 10
18.781865
 20
0.744001
 30
0.0
 40
0.065
  1
SHEET
  7
ADESK2
100
AcDbText
  0
TEXT
  5
455D
100
AcDbEntity
  8
TEXT
100
AcDbText
 10
16.316965
 20
1.167401
 30
0.0
 40
0.065
  1
SIZE
  7
ADESK2
100
AcDbText
  0
TEXT
  5
455E
100
AcDbEntity
  8
TEXT
100
AcDbText
 10
17.800065
 20
1.167401
 30
0.0
 40
0.065
  1
DWG NO.
  7
ADESK2
100
AcDbText
  0
TEXT
  5
455F
100
AcDbEntity
  8
TEXT
100
AcDbText
 10
20.179565
 20
1.167401
 30
0.0
 40
0.065
  1
REV
  7
ADESK2
100
AcDbText
  0
LINE
  5
4560
100
AcDbEntity
  8
TEXT
100
AcDbLine
 10
15.445694
 20
15.018795
 30
0.0
 11
20.5
 21
15.018795
 31
0.0
  0
LINE
  5
4561
100
AcDbEntity
  8
TEXT
100
AcDbLine
 10
15.445694
 20
14.768795
 30
0.0
 11
20.5
 21
14.768795
 31
0.0
  0
LINE
  5
4562
100
AcDbEntity
  8
TEXT
100
AcDbLine
 10
15.445694
 20
15.328859
 30
0.0
 11
15.445694
 21
14.768795
 31
0.0
  0
LINE
  5
4563
100
AcDbEntity
  8
TEXT
100
AcDbLine
 10
15.835946
 20
14.768795
 30
0.0
 11
15.835946
 21
15.018795
 31
0.0
  0
LINE
  5
4564
100
AcDbEntity
  8
TEXT
100
AcDbLine
 10
18.575946
 20
14.768795
 30
0.0
 11
18.575946
 21
15.018795
 31
0.0
  0
LINE
  5
4565
100
AcDbEntity
  8
TEXT
100
AcDbLine
 10
19.455946
 20
14.768795
 30
0.0
 11
19.455946
 21
15.018795
 31
0.0
  0
TEXT
  5
4566
100
AcDbEntity
  8
TEXT
100
AcDbText
 10
17.666146
 20
15.101295
 30
0.0
 40
0.065
  1
REVISIONS
  7
ADESK2
100
AcDbText
  0
TEXT
  5
4567
100
AcDbEntity
  8
TEXT
100
AcDbText
 10
15.536046
 20
14.859095
 30
0.0
 40
0.065
  1
REV
  7
ADESK2
100
AcDbText
  0
TEXT
  5
4568
100
AcDbEntity
  8
TEXT
100
AcDbText
 10
16.837946
 20
14.859095
 30
0.0
 40
0.065
  1
DESCRIPTION
  7
ADESK2
100
AcDbText
  0
TEXT
  5
4569
100
AcDbEntity
  8
TEXT
100
AcDbText
 10
18.903646
 20
14.859095
 30
0.0
 40
0.065
  1
DATE
  7
ADESK2
100
AcDbText
  0
TEXT
  5
456A
100
AcDbEntity
  8
TEXT
100
AcDbText
 10
19.697346
 20
14.859095
 30
0.0
 40
0.065
  1
APPROVED
  7
ADESK2
100
AcDbText
  0
LINE
  5
456B
100
AcDbEntity
  8
TEXT
100
AcDbLine
 10
14.229065
 20
1.591501
 30
0.0
 11
16.229065
 21
1.591501
 31
0.0
  0
TEXT
  5
456C
100
AcDbEntity
  8
TEXT
100
AcDbText
 10
14.309065
 20
1.171501
 30
0.0
 40
0.065
  1
CHECKED
  7
ADESK2
100
AcDbText
  0
TEXT
  5
456D
100
AcDbEntity
  8
TEXT
100
AcDbText
 10
14.309065
 20
0.856501
 30
0.0
 40
0.065
  1
DESIGN
  7
ADESK2
100
AcDbText
  0
LINE
  5
456E
100
AcDbEntity
  8
TEXT
100
AcDbLine
 10
15.729049
 20
1.591501
 30
0.0
 11
15.729049
 21
0.625
 31
0.0
  0
TEXT
  5
456F
100
AcDbEntity
  8
TEXT
100
AcDbText
 10
15.852468
 20
1.474951
 30
0.0
 40
0.065
  1
DATE
  7
ADESK2
100
AcDbText
  0
TEXT
  5
4570
100
AcDbEntity
  8
TEXT
100
AcDbText
 10
19.612036
 20
0.744377
 30
0.0
 40
0.065
  1
OF
  7
ADESK2
100
AcDbText
  0
ENDBLK
  5
4BBA
100
AcDbEntity
  8
0
100
AcDbBlockEnd
  0
BLOCK
  5
6775
100
AcDbEntity
  8
0
100
AcDbBlockBegin
  2
D-BORDER
 70
     0
 10
0.0
 20
0.0
 30
0.0
  3
D-BORDER
  1

  0
LINE
  5
7AE3
100
AcDbEntity
  8
TEXT
100
AcDbLine
 10
1.0
 20
19.947595
 30
0.0
 11
3.5625
 21
19.947595
 31
0.0
  0
LINE
  5
7AE4
100
AcDbEntity
  8
TEXT
100
AcDbLine
 10
3.5625
 20
19.947595
 30
0.0
 11
3.5625
 21
20.447595
 31
0.0
  0
CIRCLE
  5
7AE5
100
AcDbEntity
  8
TEXT
100
AcDbCircle
 10
1.677871
 20
20.184056
 30
0.0
 40
0.1875
  0
CIRCLE
  5
7AE6
100
AcDbEntity
  8
TEXT
100
AcDbCircle
 10
1.677871
 20
20.184056
 30
0.0
 40
0.09375
  0
LINE
  5
7AE7
100
AcDbEntity
  8
TEXT
  6
CENTER
100
AcDbLine
 10
1.443951
 20
20.184056
 30
0.0
 11
2.896621
 21
20.184056
 31
0.0
  0
LINE
  5
7AE8
100
AcDbEntity
  8
TEXT
  6
CENTER
100
AcDbLine
 10
1.677871
 20
19.955375
 30
0.0
 11
1.677871
 21
20.423251
 31
0.0
  0
LINE
  5
7AE9
100
AcDbEntity
  8
TEXT
100
AcDbLine
 10
2.146621
 20
20.277806
 30
0.0
 11
2.631263
 21
20.371556
 31
0.0
  0
LINE
  5
7AEA
100
AcDbEntity
  8
TEXT
100
AcDbLine
 10
2.146621
 20
20.090306
 30
0.0
 11
2.631263
 21
19.996556
 31
0.0
  0
LINE
  5
7AEB
100
AcDbEntity
  8
TEXT
100
AcDbLine
 10
2.146621
 20
20.090306
 30
0.0
 11
2.146621
 21
20.277806
 31
0.0
  0
LINE
  5
7AEC
100
AcDbEntity
  8
TEXT
100
AcDbLine
 10
2.631263
 20
20.371556
 30
0.0
 11
2.631263
 21
19.996556
 31
0.0
  0
TEXT
  5
7AED
100
AcDbEntity
  8
TEXT
100
AcDbText
 10
1.1875
 20
19.762423
 30
0.0
 40
0.1
  1
THIRD ANGLE PROJECTION
100
AcDbText
  0
LINE
  5
7AEE
100
AcDbEntity
  8
TEXT
100
AcDbLine
 10
3.5625
 20
19.947595
 30
0.0
 11
3.5625
 21
19.697595
 31
0.0
  0
LINE
  5
7AEF
100
AcDbEntity
  8
TEXT
100
AcDbLine
 10
3.5625
 20
19.697595
 30
0.0
 11
1.0
 21
19.697595
 31
0.0
  0
TEXT
  5
7AF0
100
AcDbEntity
  8
TEXT
100
AcDbText
 10
31.135292
 20
0.744377
 30
0.0
 40
0.065
  1
OF
  7
ADESK2
100
AcDbText
  0
TEXT
  5
7AF1
100
AcDbEntity
  8
TEXT
100
AcDbText
 10
27.375724
 20
1.474951
 30
0.0
 40
0.065
  1
DATE
  7
ADESK2
100
AcDbText
  0
LINE
  5
7AF2
100
AcDbEntity
  8
TEXT
100
AcDbLine
 10
27.252305
 20
1.591501
 30
0.0
 11
27.252305
 21
0.625
 31
0.0
  0
TEXT
  5
7AF3
100
AcDbEntity
  8
TEXT
100
AcDbText
 10
25.832321
 20
0.856501
 30
0.0
 40
0.065
  1
DESIGN
  7
ADESK2
100
AcDbText
  0
TEXT
  5
7AF4
100
AcDbEntity
  8
TEXT
100
AcDbText
 10
25.832321
 20
1.171501
 30
0.0
 40
0.065
  1
CHECKED
  7
ADESK2
100
AcDbText
  0
LINE
  5
7AF5
100
AcDbEntity
  8
TEXT
100
AcDbLine
 10
25.752321
 20
1.591501
 30
0.0
 11
27.752321
 21
1.591501
 31
0.0
  0
TEXT
  5
7AF6
100
AcDbEntity
  8
TEXT
100
AcDbText
 10
31.234702
 20
19.965196
 30
0.0
 40
0.065
  1
APPROVED
  7
ADESK2
100
AcDbText
  0
TEXT
  5
7AF7
100
AcDbEntity
  8
TEXT
100
AcDbText
 10
30.441002
 20
19.965196
 30
0.0
 40
0.065
  1
DATE
  7
ADESK2
100
AcDbText
  0
TEXT
  5
7AF8
100
AcDbEntity
  8
TEXT
100
AcDbText
 10
28.375302
 20
19.965196
 30
0.0
 40
0.065
  1
DESCRIPTION
  7
ADESK2
100
AcDbText
  0
TEXT
  5
7AF9
100
AcDbEntity
  8
TEXT
100
AcDbText
 10
27.073402
 20
19.965196
 30
0.0
 40
0.065
  1
REV
  7
ADESK2
100
AcDbText
  0
TEXT
  5
7AFA
100
AcDbEntity
  8
TEXT
100
AcDbText
 10
29.203502
 20
20.207396
 30
0.0
 40
0.065
  1
REVISIONS
  7
ADESK2
100
AcDbText
  0
LINE
  5
7AFB
100
AcDbEntity
  8
TEXT
100
AcDbLine
 10
30.993302
 20
19.874896
 30
0.0
 11
30.993302
 21
20.124896
 31
0.0
  0
LINE
  5
7AFC
100
AcDbEntity
  8
TEXT
100
AcDbLine
 10
30.113302
 20
19.874896
 30
0.0
 11
30.113302
 21
20.124896
 31
0.0
  0
LINE
  5
7AFD
100
AcDbEntity
  8
TEXT
100
AcDbLine
 10
27.373302
 20
19.874896
 30
0.0
 11
27.373302
 21
20.124896
 31
0.0
  0
LINE
  5
7AFE
100
AcDbEntity
  8
TEXT
100
AcDbLine
 10
26.983049
 20
20.434959
 30
0.0
 11
26.983049
 21
19.874896
 31
0.0
  0
LINE
  5
7AFF
100
AcDbEntity
  8
TEXT
100
AcDbLine
 10
26.983049
 20
19.874896
 30
0.0
 11
32.037356
 21
19.874896
 31
0.0
  0
LINE
  5
7B00
100
AcDbEntity
  8
TEXT
100
AcDbLine
 10
26.983049
 20
20.124896
 30
0.0
 11
32.037356
 21
20.124896
 31
0.0
  0
TEXT
  5
7B01
100
AcDbEntity
  8
TEXT
100
AcDbText
 10
31.702821
 20
1.167401
 30
0.0
 40
0.065
  1
REV
  7
ADESK2
100
AcDbText
  0
TEXT
  5
7B02
100
AcDbEntity
  8
TEXT
100
AcDbText
 10
29.323321
 20
1.167401
 30
0.0
 40
0.065
  1
DWG NO.
  7
ADESK2
100
AcDbText
  0
TEXT
  5
7B03
100
AcDbEntity
  8
TEXT
100
AcDbText
 10
27.840221
 20
1.167401
 30
0.0
 40
0.065
  1
SIZE
  7
ADESK2
100
AcDbText
  0
TEXT
  5
7B04
100
AcDbEntity
  8
TEXT
100
AcDbText
 10
30.305121
 20
0.744001
 30
0.0
 40
0.065
  1
SHEET
  7
ADESK2
100
AcDbText
  0
TEXT
  5
7B05
100
AcDbEntity
  8
TEXT
100
AcDbText
 10
27.804621
 20
0.744001
 30
0.0
 40
0.065
  1
SCALE
  7
ADESK2
100
AcDbText
  0
LINE
  5
7B06
100
AcDbEntity
  8
TEXT
100
AcDbLine
 10
31.622321
 20
0.901501
 30
0.0
 11
31.622321
 21
1.281501
 31
0.0
  0
LINE
  5
7B07
100
AcDbEntity
  8
TEXT
100
AcDbLine
 10
29.252321
 20
0.901501
 30
0.0
 11
29.252321
 21
1.281501
 31
0.0
  0
LINE
  5
7B08
100
AcDbEntity
  8
TEXT
100
AcDbLine
 10
28.132321
 20
0.901501
 30
0.0
 11
28.132321
 21
1.281501
 31
0.0
  0
LINE
  5
7B09
100
AcDbEntity
  8
TEXT
100
AcDbLine
 10
30.252321
 20
0.625
 30
0.0
 11
30.252321
 21
0.901501
 31
0.0
  0
LINE
  5
7B0A
100
AcDbEntity
  8
TEXT
100
AcDbLine
 10
28.752321
 20
0.625
 30
0.0
 11
28.752321
 21
0.901501
 31
0.0
  0
LINE
  5
7B0B
100
AcDbEntity
  8
BORDER
100
AcDbLine
 10
27.752321
 20
0.625
 30
0.0
 11
27.752321
 21
2.401501
 31
0.0
  0
LINE
  5
7B0C
100
AcDbEntity
  8
BORDER
100
AcDbLine
 10
27.752321
 20
1.901501
 30
0.0
 11
32.024118
 21
1.901501
 31
0.0
  0
LINE
  5
7B0D
100
AcDbEntity
  8
TEXT
100
AcDbLine
 10
27.752321
 20
0.901501
 30
0.0
 11
32.024118
 21
0.901501
 31
0.0
  0
LINE
  5
7B0E
100
AcDbEntity
  8
TEXT
100
AcDbLine
 10
25.752321
 20
1.281501
 30
0.0
 11
32.024118
 21
1.281501
 31
0.0
  0
LINE
  5
7B0F
100
AcDbEntity
  8
TEXT
100
AcDbLine
 10
25.752321
 20
0.966501
 30
0.0
 11
27.752321
 21
0.966501
 31
0.0
  0
LINE
  5
7B10
100
AcDbEntity
  8
BORDER
100
AcDbLine
 10
25.752321
 20
2.401501
 30
0.0
 11
32.024118
 21
2.401501
 31
0.0
  0
LINE
  5
7B11
100
AcDbEntity
  8
BORDER
100
AcDbLine
 10
25.752321
 20
0.625
 30
0.0
 11
25.752321
 21
2.824147
 31
0.0
  0
TEXT
  5
7B12
100
AcDbEntity
  8
TEXT
100
AcDbText
 10
25.820631
 20
1.479964
 30
0.0
 40
0.065
  1
DRAWN
  7
ADESK2
100
AcDbText
  0
TEXT
  5
7B13
100
AcDbEntity
  8
BORDER
100
AcDbText
 10
25.930285
 20
2.549228
 30
0.0
 40
0.15
  1
UNIVERSITY OF CALIFORNIA @ SANTA BARBARA
100
AcDbText
  0
LINE
  5
7B14
100
AcDbEntity
  8
BORDER
100
AcDbLine
 10
25.75128
 20
2.824147
 30
0.0
 11
32.024118
 21
2.824147
 31
0.0
  0
LINE
  5
7B15
100
AcDbEntity
  8
BORDER
100
AcDbLine
 10
32.04642
 20
0.625
 30
0.0
 11
32.04642
 21
20.447595
 31
0.0
  0
LINE
  5
7B16
100
AcDbEntity
  8
BORDER
100
AcDbLine
 10
1.0
 20
20.447595
 30
0.0
 11
1.0
 21
0.625
 31
0.0
  0
LINE
  5
7B17
100
AcDbEntity
  8
BORDER
100
AcDbLine
 10
1.0
 20
0.625
 30
0.0
 11
32.04642
 21
0.625
 31
0.0
  0
TEXT
  5
7B18
100
AcDbEntity
  8
TEXT
100
AcDbText
 10
28.203393
 20
1.165354
 30
0.0
 40
0.075
  1
DIRECTORY
100
AcDbText
  0
LINE
  5
7B19
100
AcDbEntity
  8
BORDER
100
AcDbLine
 10
1.0
 20
20.447595
 30
0.0
 11
32.04642
 21
20.447595
 31
0.0
  0
TEXT
  5
7B1A
100
AcDbEntity
  8
BORDER
100
AcDbText
 10
28.439864
 20
2.075566
 30
0.0
 40
0.15
  1
HIGH ENERGY PHYSICS
100
AcDbText
  0
TEXT
  5
7B1B
100
AcDbEntity
  8
BORDER
100
AcDbText
 10
27.876167
 20
0.934778
 30
0.0
 40
0.2
  1
D
100
AcDbText
  0
TEXT
  5
7B1C
100
AcDbEntity
  8
TEXT
100
AcDbText
 10
25.981606
 20
2.285089
 30
0.0
 40
0.065
  1
UNLESS OTHERWISE SPECIFIED:
  7
ADESK2
 72
     1
 11
26.752321
 21
2.285089
 31
0.0
100
AcDbText
  0
TEXT
  5
7B1D
100
AcDbEntity
  8
TEXT
100
AcDbText
 10
26.055892
 20
2.179851
 30
0.0
 40
0.065
  1
DIMENSIONS ARE IN INCHES
  7
ADESK2
 72
     1
 11
26.752321
 21
2.179851
 31
0.0
100
AcDbText
  0
TEXT
  5
7B1E
100
AcDbEntity
  8
TEXT
100
AcDbText
 10
26.45363
 20
2.074613
 30
0.0
 40
0.065
  1
TOLERANCES
  7
ADESK2
 72
     1
 11
26.752321
 21
2.074613
 31
0.0
100
AcDbText
  0
TEXT
  5
7B1F
100
AcDbEntity
  8
TEXT
100
AcDbText
 10
26.067279
 20
1.966743
 30
0.0
 40
0.065
  1
DECIMALS
  7
ADESK2
100
AcDbText
  0
TEXT
  5
7B20
100
AcDbEntity
  8
TEXT
100
AcDbText
 10
26.067279
 20
1.861505
 30
0.0
 40
0.065
  1
.XX  %%P .05
  7
ADESK2
100
AcDbText
  0
TEXT
  5
7B21
100
AcDbEntity
  8
TEXT
100
AcDbText
 10
26.067279
 20
1.756267
 30
0.0
 40
0.065
  1
.XXX %%P .005
  7
ADESK2
100
AcDbText
  0
TEXT
  5
7B22
100
AcDbEntity
  8
TEXT
100
AcDbText
 10
26.137916
 20
1.653744
 30
0.0
 40
0.065
  1
DO NOT SCALE DRAWING
  7
ADESK2
 72
     1
 11
26.752321
 21
1.653744
 31
0.0
100
AcDbText
  0
TEXT
  5
7B23
100
AcDbEntity
  8
TEXT
100
AcDbText
 10
26.931176
 20
1.966743
 30
0.0
 40
0.065
  1
ANGULAR
  7
ADESK2
100
AcDbText
  0
TEXT
  5
7B24
100
AcDbEntity
  8
TEXT
100
AcDbText
 10
26.931176
 20
1.861505
 30
0.0
 40
0.065
  1
  %%P 0.5%%D
  7
ADESK2
100
AcDbText
  0
ENDBLK
  5
6776
100
AcDbEntity
  8
0
100
AcDbBlockEnd
  0
BLOCK
  5
745F
100
AcDbEntity
  8
0
100
AcDbBlockBegin
  2
*D2
 70
    65
 10
0.0
 20
0.0
 30
0.0
  3
*D2
  1

  0
LINE
  5
7460
100
AcDbEntity
  8
0
  6
BYBLOCK
 62
     0
100
AcDbLine
 10
310.672487
 20
271.243141
 30
0.0
 11
322.56604
 21
305.82686
 31
0.0
  0
LINE
  5
7461
100
AcDbEntity
  8
0
  6
BYBLOCK
 62
     0
100
AcDbLine
 10
322.56604
 20
305.82686
 30
0.0
 11
325.26604
 21
305.82686
 31
0.0
  0
SOLID
  5
7462
100
AcDbEntity
  8
0
  6
BYBLOCK
 62
     0
100
AcDbTrace
 10
310.246949
 20
271.389486
 30
0.0
 11
311.098026
 21
271.096796
 31
0.0
 12
309.794416
 22
268.68991
 32
0.0
 13
309.794416
 23
268.68991
 33
0.0
  0
MTEXT
  5
7463
100
AcDbEntity
  8
0
  6
BYBLOCK
 62
     0
100
AcDbMText
 10
345.06604
 20
305.82686
 30
0.0
 40
2.7
 41
0.0
 71
     5
 72
     1
  1
\A1;R2.00mm[R0.079"]
  0
LINE
  5
7464
100
AcDbEntity
  8
0
  6
BYBLOCK
 62
     0
100
AcDbLine
 10
307.793992
 20
266.798627
 30
0.0
 11
310.493992
 21
266.798627
 31
0.0
  0
LINE
  5
7465
100
AcDbEntity
  8
0
  6
BYBLOCK
 62
     0
100
AcDbLine
 10
309.143992
 20
265.448627
 30
0.0
 11
309.143992
 21
268.148627
 31
0.0
  0
POINT
  5
7466
100
AcDbEntity
  8
DEFPOINTS
  6
BYBLOCK
 62
     0
100
AcDbPoint
 10
309.794416
 20
268.68991
 30
0.0
  0
POINT
  5
7467
100
AcDbEntity
  8
DEFPOINTS
  6
BYBLOCK
 62
     0
100
AcDbPoint
 10
309.143992
 20
266.798627
 30
0.0
  0
ENDBLK
  5
7468
100
AcDbEntity
  8
0
100
AcDbBlockEnd
  0
BLOCK
  5
73E1
100
AcDbEntity
  8
KEVLAR
100
AcDbBlockBegin
  2
BEAMS-1
 70
     0
 10
0.0
 20
0.0
 30
0.0
  3
BEAMS-1
  1

  0
LINE
  5
7F21
100
AcDbEntity
  8
KEVLAR
100
AcDbLine
 10
102.68
 20
39.6468
 30
0.0
 11
102.68
 21
33.225
 31
0.0
1001
ACAD
1000
ASC_BOUNDS
1002
{
1070
    19
1002
}
  0
LINE
  5
7F22
100
AcDbEntity
  8
KEVLAR
100
AcDbLine
 10
-102.632579
 20
65.280019
 30
0.0
 11
-92.145
 21
59.225
 31
0.0
1001
ACAD
1000
ASC_BOUNDS
1002
{
1070
    19
1002
}
  0
LINE
  5
7F23
100
AcDbEntity
  8
KEVLAR
100
AcDbLine
 10
-60.761749
 20
39.6468
 30
0.0
 11
102.68
 21
39.6468
 31
0.0
1001
ACAD
1000
ASC_BOUNDS
1002
{
1070
    19
1002
}
  0
LINE
  5
7F24
100
AcDbEntity
  8
KEVLAR
100
AcDbLine
 10
-119.337293
 20
51.10099
 30
0.0
 11
-119.337293
 21
54.566523
 31
0.0
1001
ACAD
1000
ASC_BOUNDS
1002
{
1070
    19
1002
}
  0
LINE
  5
7F25
100
AcDbEntity
  8
KEVLAR
100
AcDbLine
 10
-117.337293
 20
56.566523
 30
0.0
 11
155.164462
 21
56.566523
 31
0.0
1001
ACAD
1000
ASC_BOUNDS
1002
{
1070
    19
1002
}
  0
LINE
  5
7F26
100
AcDbEntity
  8
KEVLAR
100
AcDbLine
 10
-119.337293
 20
51.10099
 30
0.0
 11
-79.982659
 21
51.100949
 31
0.0
1001
ACAD
1000
ASC_BOUNDS
1002
{
1070
    19
1002
}
  0
LINE
  5
7F27
100
AcDbEntity
  8
KEVLAR
100
AcDbLine
 10
157.164462
 20
51.100951
 30
0.0
 11
157.164462
 21
54.566523
 31
0.0
  0
LINE
  5
7F28
100
AcDbEntity
  8
KEVLAR
100
AcDbLine
 10
-61.145
 20
40.225
 30
0.0
 11
-28.7075
 21
40.225
 31
0.0
1001
ACAD
1000
ASC_BOUNDS
1002
{
1070
    19
1002
}
  0
LINE
  5
7F29
100
AcDbEntity
  8
KEVLAR
100
AcDbLine
 10
157.164462
 20
51.100951
 30
0.0
 11
123.572637
 21
51.100951
 31
0.0
1001
ACAD
1000
ASC_BOUNDS
1002
{
1070
    19
1002
}
  0
LINE
  5
7F2A
100
AcDbEntity
  8
KEVLAR
100
AcDbLine
 10
102.68
 20
40.225
 30
0.0
 11
123.572637
 21
51.100951
 31
0.0
1001
ACAD
1000
ASC_BOUNDS
1002
{
1070
    19
1002
}
  0
LINE
  5
7F2B
100
AcDbEntity
  8
KEVLAR
100
AcDbLine
 10
-60.761749
 20
39.6468
 30
0.0
 11
-49.145
 21
33.225
 31
0.0
1001
ACAD
1000
ASC_BOUNDS
1002
{
1070
    19
1005
0
1002
}
  0
LINE
  5
7F2C
100
AcDbEntity
  8
KEVLAR
100
AcDbLine
 10
43.052726
 20
40.225
 30
0.0
 11
43.052726
 21
40.225
 31
0.0
  0
LINE
  5
7F2D
100
AcDbEntity
  8
KEVLAR
100
AcDbLine
 10
59.177726
 20
40.225
 30
0.0
 11
59.177726
 21
40.225
 31
0.0
  0
LINE
  5
7F2E
100
AcDbEntity
  8
KEVLAR
100
AcDbLine
 10
-26.7075
 20
42.225
 30
0.0
 11
-22.7075
 21
42.225
 31
0.0
1001
ACAD
1000
ASC_BOUNDS
1002
{
1070
    19
1002
}
  0
LINE
  5
7F2F
100
AcDbEntity
  8
KEVLAR
100
AcDbLine
 10
-20.7075
 20
40.225
 30
0.0
 11
62.2425
 21
40.225
 31
0.0
1001
ACAD
1000
ASC_BOUNDS
1002
{
1070
    19
1005
0
1005
0
1002
}
  0
ARC
  5
7F30
100
AcDbEntity
  8
KEVLAR
100
AcDbCircle
 10
-26.7075
 20
40.225
 30
0.0
 40
2.0
100
AcDbArc
 50
90.0
 51
180.0
1001
ACAD
1000
ASC_BOUNDS
1002
{
1070
    19
1002
}
  0
ARC
  5
7F31
100
AcDbEntity
  8
KEVLAR
100
AcDbCircle
 10
-22.7075
 20
40.225
 30
0.0
 40
2.0
100
AcDbArc
 50
0.0
 51
90.0
1001
ACAD
1000
ASC_BOUNDS
1002
{
1070
    19
1002
}
  0
LINE
  5
7F32
100
AcDbEntity
  8
KEVLAR
100
AcDbLine
 10
-13.7075
 20
35.225
 30
0.0
 11
-17.7075
 21
35.225
 31
0.0
1001
ACAD
1000
ASC_BOUNDS
1002
{
1070
    19
1002
}
  0
LINE
  5
7F33
100
AcDbEntity
  8
KEVLAR
100
AcDbLine
 10
-19.7075
 20
33.225
 30
0.0
 11
-49.145
 21
33.225
 31
0.0
1001
ACAD
1000
ASC_BOUNDS
1002
{
1070
    19
1002
}
  0
ARC
  5
7F34
100
AcDbEntity
  8
KEVLAR
100
AcDbCircle
 10
-13.7075
 20
33.225
 30
0.0
 40
2.0
100
AcDbArc
 50
0.0
 51
90.0
1001
ACAD
1000
ASC_BOUNDS
1002
{
1070
    19
1002
}
  0
ARC
  5
7F35
100
AcDbEntity
  8
KEVLAR
100
AcDbCircle
 10
-17.7075
 20
33.225
 30
0.0
 40
2.0
100
AcDbArc
 50
90.0
 51
180.0
1001
ACAD
1000
ASC_BOUNDS
1002
{
1070
    19
1002
}
  0
LINE
  5
7F36
100
AcDbEntity
  8
KEVLAR
100
AcDbLine
 10
47.081321
 20
33.225
 30
0.0
 11
47.081321
 21
33.225
 31
0.0
  0
LINE
  5
7F37
100
AcDbEntity
  8
KEVLAR
100
AcDbLine
 10
63.086321
 20
33.225
 30
0.0
 11
63.086321
 21
33.225
 31
0.0
  0
LINE
  5
7F38
100
AcDbEntity
  8
KEVLAR
100
AcDbLine
 10
102.68
 20
33.225
 30
0.0
 11
73.2425
 21
33.225
 31
0.0
1001
ACAD
1000
ASC_BOUNDS
1002
{
1070
    19
1002
}
  0
LINE
  5
7F39
100
AcDbEntity
  8
KEVLAR
100
AcDbLine
 10
-149.262862
 20
65.280019
 30
0.0
 11
-149.262862
 21
77.225
 31
0.0
  0
LINE
  5
7F3A
100
AcDbEntity
  8
KEVLAR
100
AcDbLine
 10
-149.262862
 20
65.280019
 30
0.0
 11
-102.632579
 21
65.280019
 31
0.0
  0
LINE
  5
7F3B
100
AcDbEntity
  8
KEVLAR
100
AcDbLine
 10
-79.982659
 20
51.100949
 30
0.0
 11
-61.145
 21
40.225
 31
0.0
1001
ACAD
1000
ASC_BOUNDS
1002
{
1070
    19
1002
}
  0
LINE
  5
7F3C
100
AcDbEntity
  8
KEVLAR
100
AcDbLine
 10
153.63
 20
59.225
 30
0.0
 11
153.63
 21
59.666627
 31
0.0
  0
LINE
  5
7F3D
100
AcDbEntity
  8
KEVLAR
100
AcDbLine
 10
156.0125
 20
62.049127
 30
0.0
 11
174.203512
 21
62.049127
 31
0.0
  0
LINE
  5
7F3E
100
AcDbEntity
  8
KEVLAR
100
AcDbLine
 10
114.6925
 20
59.225
 30
0.0
 11
78.7175
 21
59.225
 31
0.0
  0
LINE
  5
7F3F
100
AcDbEntity
  8
KEVLAR
100
AcDbLine
 10
192.098017
 20
79.225
 30
0.0
 11
-147.262862
 21
79.225
 31
0.0
  0
ARC
  5
7F40
100
AcDbEntity
  8
KEVLAR
100
AcDbCircle
 10
-147.262862
 20
77.225
 30
0.0
 40
2.0
100
AcDbArc
 50
90.0
 51
180.0
  0
ARC
  5
7F41
100
AcDbEntity
  8
KEVLAR
100
AcDbCircle
 10
-117.337293
 20
54.566523
 30
0.0
 40
2.0
100
AcDbArc
 50
90.0
 51
180.0
1001
ACAD
1000
ASC_BOUNDS
1002
{
1070
    19
1002
}
  0
ARC
  5
7F42
100
AcDbEntity
  8
KEVLAR
100
AcDbCircle
 10
155.164462
 20
54.566523
 30
0.0
 40
2.0
100
AcDbArc
 50
0.0
 51
90.0
  0
LINE
  5
7F43
100
AcDbEntity
  8
KEVLAR
100
AcDbLine
 10
-55.2075
 20
61.225
 30
0.0
 11
-59.2075
 21
61.225
 31
0.0
  0
LINE
  5
7F44
100
AcDbEntity
  8
KEVLAR
100
AcDbLine
 10
-61.2075
 20
59.225
 30
0.0
 11
-61.2075
 21
59.225
 31
0.0
  0
LINE
  5
7F45
100
AcDbEntity
  8
KEVLAR
100
AcDbLine
 10
-53.2075
 20
59.225
 30
0.0
 11
-53.2075
 21
59.225
 31
0.0
  0
LINE
  5
7F46
100
AcDbEntity
  8
KEVLAR
100
AcDbLine
 10
-61.2075
 20
59.225
 30
0.0
 11
-92.145
 21
59.225
 31
0.0
  0
ARC
  5
7F47
100
AcDbEntity
  8
KEVLAR
100
AcDbCircle
 10
-55.2075
 20
59.225
 30
0.0
 40
2.0
100
AcDbArc
 50
0.0
 51
90.0
  0
ARC
  5
7F48
100
AcDbEntity
  8
KEVLAR
100
AcDbCircle
 10
-59.2075
 20
59.225
 30
0.0
 40
2.0
100
AcDbArc
 50
90.0
 51
180.0
  0
ARC
  5
7F49
100
AcDbEntity
  8
KEVLAR
100
AcDbCircle
 10
-11.2325
 20
59.225
 30
0.0
 40
2.0
100
AcDbArc
 50
0.0
 51
90.0
  0
LINE
  5
7F4A
100
AcDbEntity
  8
KEVLAR
100
AcDbLine
 10
-11.2325
 20
61.225
 30
0.0
 11
-15.2325
 21
61.225
 31
0.0
  0
ARC
  5
7F4B
100
AcDbEntity
  8
KEVLAR
100
AcDbCircle
 10
-15.2325
 20
59.225
 30
0.0
 40
2.0
100
AcDbArc
 50
90.0
 51
180.0
  0
ARC
  5
7F4C
100
AcDbEntity
  8
KEVLAR
100
AcDbCircle
 10
76.7175
 20
59.225
 30
0.0
 40
2.0
100
AcDbArc
 50
0.0
 51
90.0
  0
LINE
  5
7F4D
100
AcDbEntity
  8
KEVLAR
100
AcDbLine
 10
76.7175
 20
61.225
 30
0.0
 11
72.7175
 21
61.225
 31
0.0
  0
ARC
  5
7F4E
100
AcDbEntity
  8
KEVLAR
100
AcDbCircle
 10
72.7175
 20
59.225
 30
0.0
 40
2.0
100
AcDbArc
 50
90.0
 51
180.0
  0
ARC
  5
7F4F
100
AcDbEntity
  8
KEVLAR
100
AcDbCircle
 10
116.6925
 20
59.225
 30
0.0
 40
2.0
100
AcDbArc
 50
90.0
 51
180.0
  0
LINE
  5
7F50
100
AcDbEntity
  8
KEVLAR
100
AcDbLine
 10
120.6925
 20
61.225
 30
0.0
 11
116.6925
 21
61.225
 31
0.0
  0
ARC
  5
7F51
100
AcDbEntity
  8
KEVLAR
100
AcDbCircle
 10
120.6925
 20
59.225
 30
0.0
 40
2.0
100
AcDbArc
 50
0.0
 51
90.0
  0
LINE
  5
7F52
100
AcDbEntity
  8
KEVLAR
100
AcDbLine
 10
122.6925
 20
59.225
 30
0.0
 11
153.63
 21
59.225
 31
0.0
  0
LINE
  5
7F53
100
AcDbEntity
  8
KEVLAR
100
AcDbLine
 10
70.7175
 20
59.225
 30
0.0
 11
-9.2325
 21
59.225
 31
0.0
  0
LINE
  5
7F54
100
AcDbEntity
  8
KEVLAR
100
AcDbLine
 10
-17.2325
 20
59.225
 30
0.0
 11
-53.2075
 21
59.225
 31
0.0
  0
LINE
  5
7F55
100
AcDbEntity
  8
KEVLAR
100
AcDbLine
 10
174.203512
 20
62.049127
 30
0.0
 11
211.080959
 21
75.507877
 31
0.0
  0
LINE
  5
7F56
100
AcDbEntity
  8
KEVLAR
100
AcDbLine
 10
211.080959
 20
75.507877
 30
0.0
 11
208.338254
 21
83.022985
 31
0.0
  0
LINE
  5
7F57
100
AcDbEntity
  8
KEVLAR
100
AcDbLine
 10
205.773786
 20
84.216093
 30
0.0
 11
192.098017
 21
79.225
 31
0.0
  0
ARC
  5
7F58
100
AcDbEntity
  8
KEVLAR
100
AcDbCircle
 10
206.459467
 20
82.337305
 30
0.0
 40
2.0
100
AcDbArc
 50
20.05
 51
110.05
  0
LINE
  5
7F59
100
AcDbEntity
  8
KEVLAR
100
AcDbLine
 10
71.2425
 20
35.225
 30
0.0
 11
67.2425
 21
35.225
 31
0.0
1001
ACAD
1000
ASC_BOUNDS
1002
{
1070
    19
1002
}
  0
ARC
  5
7F5A
100
AcDbEntity
  8
KEVLAR
100
AcDbCircle
 10
67.2425
 20
33.225
 30
0.0
 40
2.0
100
AcDbArc
 50
90.0
 51
180.0
1001
ACAD
1000
ASC_BOUNDS
1002
{
1070
    19
1002
}
  0
ARC
  5
7F5B
100
AcDbEntity
  8
KEVLAR
100
AcDbCircle
 10
71.2425
 20
33.225
 30
0.0
 40
2.0
100
AcDbArc
 50
0.0
 51
90.0
1001
ACAD
1000
ASC_BOUNDS
1002
{
1070
    19
1002
}
  0
ARC
  5
7F5C
100
AcDbEntity
  8
KEVLAR
100
AcDbCircle
 10
64.2425
 20
40.225
 30
0.0
 40
2.0
100
AcDbArc
 50
90.0
 51
180.0
1001
ACAD
1000
ASC_BOUNDS
1002
{
1070
    19
1002
}
  0
ARC
  5
7F5D
100
AcDbEntity
  8
KEVLAR
100
AcDbCircle
 10
68.2425
 20
40.225
 30
0.0
 40
2.0
100
AcDbArc
 50
0.0
 51
90.0
1001
ACAD
1000
ASC_BOUNDS
1002
{
1070
    19
1002
}
  0
LINE
  5
7F5E
100
AcDbEntity
  8
KEVLAR
100
AcDbLine
 10
64.2425
 20
42.225
 30
0.0
 11
68.2425
 21
42.225
 31
0.0
1001
ACAD
1000
ASC_BOUNDS
1002
{
1070
    19
1002
}
  0
LINE
  5
7F5F
100
AcDbEntity
  8
KEVLAR
100
AcDbLine
 10
65.2425
 20
33.225
 30
0.0
 11
-11.7075
 21
33.225
 31
0.0
1001
ACAD
1000
ASC_BOUNDS
1002
{
1070
    19
1002
}
  0
LINE
  5
7F60
100
AcDbEntity
  8
KEVLAR
100
AcDbLine
 10
70.2425
 20
40.225
 30
0.0
 11
102.68
 21
40.225
 31
0.0
1001
ACAD
1000
ASC_BOUNDS
1002
{
1070
    19
1005
0
1005
0
1002
}
  0
CIRCLE
  5
7F61
100
AcDbEntity
  8
KEVLAR
100
AcDbCircle
 10
116.0
 20
52.0
 30
0.0
 40
1.5875
  0
CIRCLE
  5
7F62
100
AcDbEntity
  8
KEVLAR
100
AcDbCircle
 10
100.0
 20
44.0
 30
0.0
 40
1.5875
  0
CIRCLE
  5
7F63
100
AcDbEntity
  8
KEVLAR
100
AcDbCircle
 10
-73.0
 20
52.0
 30
0.0
 40
1.5875
  0
CIRCLE
  5
7F64
100
AcDbEntity
  8
KEVLAR
100
AcDbCircle
 10
-59.0
 20
44.0
 30
0.0
 40
1.5875
  0
CIRCLE
  5
7F65
100
AcDbEntity
  8
KEVLAR
100
AcDbCircle
 10
-111.0
 20
74.0
 30
0.0
 40
1.5875
  0
CIRCLE
  5
7F66
100
AcDbEntity
  8
KEVLAR
100
AcDbCircle
 10
-87.0
 20
64.0
 30
0.0
 40
1.5875
  0
CIRCLE
  5
7F67
100
AcDbEntity
  8
KEVLAR
100
AcDbCircle
 10
185.0
 20
74.0
 30
0.0
 40
1.5875
  0
CIRCLE
  5
7F68
100
AcDbEntity
  8
KEVLAR
100
AcDbCircle
 10
148.0
 20
64.0
 30
0.0
 40
1.5875
  0
ARC
  5
7F69
100
AcDbEntity
  8
KEVLAR
100
AcDbCircle
 10
156.0125
 20
59.666627
 30
0.0
 40
2.3825
100
AcDbArc
 50
90.0
 51
180.0
  0
ENDBLK
  5
73E2
100
AcDbEntity
  8
KEVLAR
100
AcDbBlockEnd
  0
BLOCK
  5
80B9
100
AcDbEntity
  8
0
100
AcDbBlockBegin
  2
*D4
 70
    65
 10
0.0
 20
0.0
 30
0.0
  3
*D4
  1

  0
LINE
  5
80BA
100
AcDbEntity
  8
0
  6
BYBLOCK
 62
     0
100
AcDbLine
 10
504.63207
 20
232.689272
 30
0.0
 11
481.978987
 21
253.267374
 31
0.0
  0
LINE
  5
80BB
100
AcDbEntity
  8
0
  6
BYBLOCK
 62
     0
100
AcDbLine
 10
481.978987
 20
253.267374
 30
0.0
 11
479.278987
 21
253.267374
 31
0.0
  0
SOLID
  5
80BC
100
AcDbEntity
  8
0
  6
BYBLOCK
 62
     0
100
AcDbTrace
 10
504.934647
 20
233.02236
 30
0.0
 11
504.329493
 21
232.356185
 31
0.0
 12
506.630593
 22
230.87381
 32
0.0
 13
506.630593
 23
230.87381
 33
0.0
  0
MTEXT
  5
80BD
100
AcDbEntity
  8
0
  6
BYBLOCK
 62
     0
100
AcDbMText
 10
460.378987
 20
253.267374
 30
0.0
 40
2.7
 41
0.0
 71
     5
 72
     1
  1
\A1;R2.38mm[R0.094"]
  0
LINE
  5
80BE
100
AcDbEntity
  8
0
  6
BYBLOCK
 62
     0
100
AcDbLine
 10
507.044105
 20
229.271833
 30
0.0
 11
509.744105
 21
229.271833
 31
0.0
  0
LINE
  5
80BF
100
AcDbEntity
  8
0
  6
BYBLOCK
 62
     0
100
AcDbLine
 10
508.394105
 20
227.921833
 30
0.0
 11
508.394105
 21
230.621833
 31
0.0
  0
POINT
  5
80C0
100
AcDbEntity
  8
DEFPOINTS
  6
BYBLOCK
 62
     0
100
AcDbPoint
 10
506.630593
 20
230.87381
 30
0.0
  0
POINT
  5
80C1
100
AcDbEntity
  8
DEFPOINTS
  6
BYBLOCK
 62
     0
100
AcDbPoint
 10
508.394105
 20
229.271833
 30
0.0
  0
ENDBLK
  5
80C2
100
AcDbEntity
  8
0
100
AcDbBlockEnd
  0
BLOCK
  5
7FFB
100
AcDbEntity
  8
KEVLAR
100
AcDbBlockBegin
  2
*U5
 70
     1
 10
0.0
 20
0.0
 30
0.0
  3
*U5
  1

  0
ENDBLK
  5
7FFC
100
AcDbEntity
  8
KEVLAR
100
AcDbBlockEnd
  0
BLOCK
  5
80F6
100
AcDbEntity
  8
0
100
AcDbBlockBegin
  2
*D6
 70
    65
 10
0.0
 20
0.0
 30
0.0
  3
*D6
  1
*TB
  0
LINE
  5
80F7
100
AcDbEntity
  8
0
  6
BYBLOCK
 62
     0
100
AcDbLine
 10
473.074105
 20
226.908091
 30
0.0
 11
473.074105
 21
174.889769
 31
0.0
  0
LINE
  5
80F8
100
AcDbEntity
  8
0
  6
BYBLOCK
 62
     0
100
AcDbLine
 10
470.374105
 20
177.589769
 30
0.0
 11
467.674105
 21
177.589769
 31
0.0
  0
LINE
  5
80F9
100
AcDbEntity
  8
0
  6
BYBLOCK
 62
     0
100
AcDbLine
 10
506.546505
 20
177.589769
 30
0.0
 11
509.246505
 21
177.589769
 31
0.0
  0
SOLID
  5
80FA
100
AcDbEntity
  8
0
  6
BYBLOCK
 62
     0
100
AcDbTrace
 10
470.374105
 20
178.039769
 30
0.0
 11
470.374105
 21
177.139769
 31
0.0
 12
473.074105
 22
177.589769
 32
0.0
 13
473.074105
 23
177.589769
 33
0.0
  0
SOLID
  5
80FB
100
AcDbEntity
  8
0
  6
BYBLOCK
 62
     0
100
AcDbTrace
 10
506.546505
 20
178.039769
 30
0.0
 11
506.546505
 21
177.139769
 31
0.0
 12
503.846505
 22
177.589769
 32
0.0
 13
503.846505
 23
177.589769
 33
0.0
  0
MTEXT
  5
80FC
100
AcDbEntity
  8
0
  6
BYBLOCK
 62
     0
100
AcDbMText
 10
526.121505
 20
177.589769
 30
0.0
 40
2.7
 41
0.0
 71
     5
 72
     1
  1
\A1;30.77mm[1.212"]
  0
POINT
  5
80FD
100
AcDbEntity
  8
DEFPOINTS
  6
BYBLOCK
 62
     0
100
AcDbPoint
 10
473.074105
 20
227.853091
 30
0.0
  0
POINT
  5
80FE
100
AcDbEntity
  8
DEFPOINTS
  6
BYBLOCK
 62
     0
100
AcDbPoint
 10
503.846505
 20
36.306892
 30
0.0
  0
POINT
  5
80FF
100
AcDbEntity
  8
DEFPOINTS
  6
BYBLOCK
 62
     0
100
AcDbPoint
 10
503.846505
 20
177.589769
 30
0.0
  0
ENDBLK
  5
8100
100
AcDbEntity
  8
0
100
AcDbBlockEnd
  0
BLOCK
  5
8103
100
AcDbEntity
  8
0
100
AcDbBlockBegin
  2
*D7
 70
    65
 10
0.0
 20
0.0
 30
0.0
  3
*D7
  1
*TB
  0
LINE
  5
8104
100
AcDbEntity
  8
0
  6
BYBLOCK
 62
     0
100
AcDbLine
 10
469.074105
 20
226.908091
 30
0.0
 11
469.074105
 21
164.26587
 31
0.0
  0
LINE
  5
8105
100
AcDbEntity
  8
0
  6
BYBLOCK
 62
     0
100
AcDbLine
 10
466.374105
 20
166.96587
 30
0.0
 11
463.674105
 21
166.96587
 31
0.0
  0
LINE
  5
8106
100
AcDbEntity
  8
0
  6
BYBLOCK
 62
     0
100
AcDbLine
 10
506.546505
 20
166.96587
 30
0.0
 11
509.246505
 21
166.96587
 31
0.0
  0
SOLID
  5
8107
100
AcDbEntity
  8
0
  6
BYBLOCK
 62
     0
100
AcDbTrace
 10
466.374105
 20
167.41587
 30
0.0
 11
466.374105
 21
166.51587
 31
0.0
 12
469.074105
 22
166.96587
 32
0.0
 13
469.074105
 23
166.96587
 33
0.0
  0
SOLID
  5
8108
100
AcDbEntity
  8
0
  6
BYBLOCK
 62
     0
100
AcDbTrace
 10
506.546505
 20
167.41587
 30
0.0
 11
506.546505
 21
166.51587
 31
0.0
 12
503.846505
 22
166.96587
 32
0.0
 13
503.846505
 23
166.96587
 33
0.0
  0
MTEXT
  5
8109
100
AcDbEntity
  8
0
  6
BYBLOCK
 62
     0
100
AcDbMText
 10
526.796505
 20
166.96587
 30
0.0
 40
2.7
 41
0.0
 71
     5
 72
     1
  1
\A1;34.77mm[1.369"]
  0
POINT
  5
810A
100
AcDbEntity
  8
DEFPOINTS
  6
BYBLOCK
 62
     0
100
AcDbPoint
 10
469.074105
 20
227.853091
 30
0.0
  0
POINT
  5
810B
100
AcDbEntity
  8
DEFPOINTS
  6
BYBLOCK
 62
     0
100
AcDbPoint
 10
503.846505
 20
36.306892
 30
0.0
  0
POINT
  5
810C
100
AcDbEntity
  8
DEFPOINTS
  6
BYBLOCK
 62
     0
100
AcDbPoint
 10
503.846505
 20
166.96587
 30
0.0
  0
ENDBLK
  5
810D
100
AcDbEntity
  8
0
100
AcDbBlockEnd
  0
BLOCK
  5
819D
100
AcDbEntity
  8
0
100
AcDbBlockBegin
  2
*D8
 70
    65
 10
0.0
 20
0.0
 30
0.0
  3
*D8
  1

  0
LINE
  5
819E
100
AcDbEntity
  8
0
  6
BYBLOCK
 62
     0
100
AcDbLine
 10
429.099105
 20
226.908091
 30
0.0
 11
429.099105
 21
155.766751
 31
0.0
  0
LINE
  5
819F
100
AcDbEntity
  8
0
  6
BYBLOCK
 62
     0
100
AcDbLine
 10
431.799105
 20
158.466751
 30
0.0
 11
448.472805
 21
158.466751
 31
0.0
  0
LINE
  5
81A0
100
AcDbEntity
  8
0
  6
BYBLOCK
 62
     0
100
AcDbLine
 10
501.146505
 20
158.466751
 30
0.0
 11
484.472805
 21
158.466751
 31
0.0
  0
SOLID
  5
81A1
100
AcDbEntity
  8
0
  6
BYBLOCK
 62
     0
100
AcDbTrace
 10
431.799105
 20
158.916751
 30
0.0
 11
431.799105
 21
158.016751
 31
0.0
 12
429.099105
 22
158.466751
 32
0.0
 13
429.099105
 23
158.466751
 33
0.0
  0
SOLID
  5
81A2
100
AcDbEntity
  8
0
  6
BYBLOCK
 62
     0
100
AcDbTrace
 10
501.146505
 20
158.916751
 30
0.0
 11
501.146505
 21
158.016751
 31
0.0
 12
503.846505
 22
158.466751
 32
0.0
 13
503.846505
 23
158.466751
 33
0.0
  0
MTEXT
  5
81A3
100
AcDbEntity
  8
0
  6
BYBLOCK
 62
     0
100
AcDbMText
 10
466.472805
 20
158.466751
 30
0.0
 40
2.7
 41
0.0
 71
     5
 72
     1
  1
\A1;74.75mm[2.943"]
  0
POINT
  5
81A4
100
AcDbEntity
  8
DEFPOINTS
  6
BYBLOCK
 62
     0
100
AcDbPoint
 10
429.099105
 20
227.853091
 30
0.0
  0
POINT
  5
81A5
100
AcDbEntity
  8
DEFPOINTS
  6
BYBLOCK
 62
     0
100
AcDbPoint
 10
503.846505
 20
36.306892
 30
0.0
  0
POINT
  5
81A6
100
AcDbEntity
  8
DEFPOINTS
  6
BYBLOCK
 62
     0
100
AcDbPoint
 10
503.846505
 20
158.466751
 30
0.0
  0
ENDBLK
  5
81A7
100
AcDbEntity
  8
0
100
AcDbBlockEnd
  0
BLOCK
  5
8192
100
AcDbEntity
  8
0
100
AcDbBlockBegin
  2
*D9
 70
    65
 10
0.0
 20
0.0
 30
0.0
  3
*D9
  1

  0
LINE
  5
8193
100
AcDbEntity
  8
0
  6
BYBLOCK
 62
     0
100
AcDbLine
 10
425.099105
 20
226.908091
 30
0.0
 11
425.099105
 21
147.621761
 31
0.0
  0
LINE
  5
8194
100
AcDbEntity
  8
0
  6
BYBLOCK
 62
     0
100
AcDbLine
 10
427.799105
 20
150.321761
 30
0.0
 11
447.372805
 21
150.321761
 31
0.0
  0
LINE
  5
8195
100
AcDbEntity
  8
0
  6
BYBLOCK
 62
     0
100
AcDbLine
 10
501.146505
 20
150.321761
 30
0.0
 11
481.572805
 21
150.321761
 31
0.0
  0
SOLID
  5
8196
100
AcDbEntity
  8
0
  6
BYBLOCK
 62
     0
100
AcDbTrace
 10
427.799105
 20
150.771761
 30
0.0
 11
427.799105
 21
149.871761
 31
0.0
 12
425.099105
 22
150.321761
 32
0.0
 13
425.099105
 23
150.321761
 33
0.0
  0
SOLID
  5
8197
100
AcDbEntity
  8
0
  6
BYBLOCK
 62
     0
100
AcDbTrace
 10
501.146505
 20
150.771761
 30
0.0
 11
501.146505
 21
149.871761
 31
0.0
 12
503.846505
 22
150.321761
 32
0.0
 13
503.846505
 23
150.321761
 33
0.0
  0
MTEXT
  5
8198
100
AcDbEntity
  8
0
  6
BYBLOCK
 62
     0
100
AcDbMText
 10
464.472805
 20
150.321761
 30
0.0
 40
2.7
 41
0.0
 71
     5
 72
     1
  1
\A1;78.75mm[3.100"]
  0
POINT
  5
8199
100
AcDbEntity
  8
DEFPOINTS
  6
BYBLOCK
 62
     0
100
AcDbPoint
 10
425.099105
 20
227.853091
 30
0.0
  0
POINT
  5
819A
100
AcDbEntity
  8
DEFPOINTS
  6
BYBLOCK
 62
     0
100
AcDbPoint
 10
503.846505
 20
36.306892
 30
0.0
  0
POINT
  5
819B
100
AcDbEntity
  8
DEFPOINTS
  6
BYBLOCK
 62
     0
100
AcDbPoint
 10
503.846505
 20
150.321761
 30
0.0
  0
ENDBLK
  5
819C
100
AcDbEntity
  8
0
100
AcDbBlockEnd
  0
BLOCK
  5
8187
100
AcDbEntity
  8
0
100
AcDbBlockBegin
  2
*D10
 70
    65
 10
0.0
 20
0.0
 30
0.0
  3
*D10
  1

  0
LINE
  5
8188
100
AcDbEntity
  8
0
  6
BYBLOCK
 62
     0
100
AcDbLine
 10
341.149105
 20
226.908091
 30
0.0
 11
341.149105
 21
138.768514
 31
0.0
  0
LINE
  5
8189
100
AcDbEntity
  8
0
  6
BYBLOCK
 62
     0
100
AcDbLine
 10
343.849105
 20
141.468514
 30
0.0
 11
404.047805
 21
141.468514
 31
0.0
  0
LINE
  5
818A
100
AcDbEntity
  8
0
  6
BYBLOCK
 62
     0
100
AcDbLine
 10
501.146505
 20
141.468514
 30
0.0
 11
440.947805
 21
141.468514
 31
0.0
  0
SOLID
  5
818B
100
AcDbEntity
  8
0
  6
BYBLOCK
 62
     0
100
AcDbTrace
 10
343.849105
 20
141.918514
 30
0.0
 11
343.849105
 21
141.018514
 31
0.0
 12
341.149105
 22
141.468514
 32
0.0
 13
341.149105
 23
141.468514
 33
0.0
  0
SOLID
  5
818C
100
AcDbEntity
  8
0
  6
BYBLOCK
 62
     0
100
AcDbTrace
 10
501.146505
 20
141.918514
 30
0.0
 11
501.146505
 21
141.018514
 31
0.0
 12
503.846505
 22
141.468514
 32
0.0
 13
503.846505
 23
141.468514
 33
0.0
  0
MTEXT
  5
818D
100
AcDbEntity
  8
0
  6
BYBLOCK
 62
     0
100
AcDbMText
 10
422.497805
 20
141.468514
 30
0.0
 40
2.7
 41
0.0
 71
     5
 72
     1
  1
\A1;162.70mm[6.405"]
  0
POINT
  5
818E
100
AcDbEntity
  8
DEFPOINTS
  6
BYBLOCK
 62
     0
100
AcDbPoint
 10
341.149105
 20
227.853091
 30
0.0
  0
POINT
  5
818F
100
AcDbEntity
  8
DEFPOINTS
  6
BYBLOCK
 62
     0
100
AcDbPoint
 10
503.846505
 20
36.306892
 30
0.0
  0
POINT
  5
8190
100
AcDbEntity
  8
DEFPOINTS
  6
BYBLOCK
 62
     0
100
AcDbPoint
 10
503.846505
 20
141.468514
 30
0.0
  0
ENDBLK
  5
8191
100
AcDbEntity
  8
0
100
AcDbBlockEnd
  0
BLOCK
  5
817C
100
AcDbEntity
  8
0
100
AcDbBlockBegin
  2
*D11
 70
    65
 10
0.0
 20
0.0
 30
0.0
  3
*D11
  1

  0
LINE
  5
817D
100
AcDbEntity
  8
0
  6
BYBLOCK
 62
     0
100
AcDbLine
 10
337.149105
 20
226.908091
 30
0.0
 11
337.149105
 21
128.852874
 31
0.0
  0
LINE
  5
817E
100
AcDbEntity
  8
0
  6
BYBLOCK
 62
     0
100
AcDbLine
 10
339.849105
 20
131.552874
 30
0.0
 11
401.822805
 21
131.552874
 31
0.0
  0
LINE
  5
817F
100
AcDbEntity
  8
0
  6
BYBLOCK
 62
     0
100
AcDbLine
 10
501.146505
 20
131.552874
 30
0.0
 11
439.172805
 21
131.552874
 31
0.0
  0
SOLID
  5
8180
100
AcDbEntity
  8
0
  6
BYBLOCK
 62
     0
100
AcDbTrace
 10
339.849105
 20
132.002874
 30
0.0
 11
339.849105
 21
131.102874
 31
0.0
 12
337.149105
 22
131.552874
 32
0.0
 13
337.149105
 23
131.552874
 33
0.0
  0
SOLID
  5
8181
100
AcDbEntity
  8
0
  6
BYBLOCK
 62
     0
100
AcDbTrace
 10
501.146505
 20
132.002874
 30
0.0
 11
501.146505
 21
131.102874
 31
0.0
 12
503.846505
 22
131.552874
 32
0.0
 13
503.846505
 23
131.552874
 33
0.0
  0
MTEXT
  5
8182
100
AcDbEntity
  8
0
  6
BYBLOCK
 62
     0
100
AcDbMText
 10
420.497805
 20
131.552874
 30
0.0
 40
2.7
 41
0.0
 71
     5
 72
     1
  1
\A1;166.70mm[6.563"]
  0
POINT
  5
8183
100
AcDbEntity
  8
DEFPOINTS
  6
BYBLOCK
 62
     0
100
AcDbPoint
 10
337.149105
 20
227.853091
 30
0.0
  0
POINT
  5
8184
100
AcDbEntity
  8
DEFPOINTS
  6
BYBLOCK
 62
     0
100
AcDbPoint
 10
503.846505
 20
36.306892
 30
0.0
  0
POINT
  5
8185
100
AcDbEntity
  8
DEFPOINTS
  6
BYBLOCK
 62
     0
100
AcDbPoint
 10
503.846505
 20
131.552874
 30
0.0
  0
ENDBLK
  5
8186
100
AcDbEntity
  8
0
100
AcDbBlockEnd
  0
BLOCK
  5
8171
100
AcDbEntity
  8
0
100
AcDbBlockBegin
  2
*D12
 70
    65
 10
0.0
 20
0.0
 30
0.0
  3
*D12
  1

  0
LINE
  5
8172
100
AcDbEntity
  8
0
  6
BYBLOCK
 62
     0
100
AcDbLine
 10
297.174105
 20
226.535206
 30
0.0
 11
297.174105
 21
119.291365
 31
0.0
  0
LINE
  5
8173
100
AcDbEntity
  8
0
  6
BYBLOCK
 62
     0
100
AcDbLine
 10
299.874105
 20
121.991365
 30
0.0
 11
381.835305
 21
121.991365
 31
0.0
  0
LINE
  5
8174
100
AcDbEntity
  8
0
  6
BYBLOCK
 62
     0
100
AcDbLine
 10
501.146505
 20
121.991365
 30
0.0
 11
419.185305
 21
121.991365
 31
0.0
  0
SOLID
  5
8175
100
AcDbEntity
  8
0
  6
BYBLOCK
 62
     0
100
AcDbTrace
 10
299.874105
 20
122.441365
 30
0.0
 11
299.874105
 21
121.541365
 31
0.0
 12
297.174105
 22
121.991365
 32
0.0
 13
297.174105
 23
121.991365
 33
0.0
  0
SOLID
  5
8176
100
AcDbEntity
  8
0
  6
BYBLOCK
 62
     0
100
AcDbTrace
 10
501.146505
 20
122.441365
 30
0.0
 11
501.146505
 21
121.541365
 31
0.0
 12
503.846505
 22
121.991365
 32
0.0
 13
503.846505
 23
121.991365
 33
0.0
  0
MTEXT
  5
8177
100
AcDbEntity
  8
0
  6
BYBLOCK
 62
     0
100
AcDbMText
 10
400.510305
 20
121.991365
 30
0.0
 40
2.7
 41
0.0
 71
     5
 72
     1
  1
\A1;206.67mm[8.137"]
  0
POINT
  5
8178
100
AcDbEntity
  8
DEFPOINTS
  6
BYBLOCK
 62
     0
100
AcDbPoint
 10
297.174105
 20
227.480206
 30
0.0
  0
POINT
  5
8179
100
AcDbEntity
  8
DEFPOINTS
  6
BYBLOCK
 62
     0
100
AcDbPoint
 10
503.846505
 20
36.306892
 30
0.0
  0
POINT
  5
817A
100
AcDbEntity
  8
DEFPOINTS
  6
BYBLOCK
 62
     0
100
AcDbPoint
 10
503.846505
 20
121.991365
 30
0.0
  0
ENDBLK
  5
817B
100
AcDbEntity
  8
0
100
AcDbBlockEnd
  0
BLOCK
  5
81A9
100
AcDbEntity
  8
0
100
AcDbBlockBegin
  2
*D13
 70
    65
 10
0.0
 20
0.0
 30
0.0
  3
*D13
  1

  0
LINE
  5
81AA
100
AcDbEntity
  8
0
  6
BYBLOCK
 62
     0
100
AcDbLine
 10
293.174105
 20
226.908091
 30
0.0
 11
293.174105
 21
109.729855
 31
0.0
  0
LINE
  5
81AB
100
AcDbEntity
  8
0
  6
BYBLOCK
 62
     0
100
AcDbLine
 10
295.874105
 20
112.429855
 30
0.0
 11
379.835305
 21
112.429855
 31
0.0
  0
LINE
  5
81AC
100
AcDbEntity
  8
0
  6
BYBLOCK
 62
     0
100
AcDbLine
 10
501.146505
 20
112.429855
 30
0.0
 11
417.185305
 21
112.429855
 31
0.0
  0
SOLID
  5
81AD
100
AcDbEntity
  8
0
  6
BYBLOCK
 62
     0
100
AcDbTrace
 10
295.874105
 20
112.879855
 30
0.0
 11
295.874105
 21
111.979855
 31
0.0
 12
293.174105
 22
112.429855
 32
0.0
 13
293.174105
 23
112.429855
 33
0.0
  0
SOLID
  5
81AE
100
AcDbEntity
  8
0
  6
BYBLOCK
 62
     0
100
AcDbTrace
 10
501.146505
 20
112.879855
 30
0.0
 11
501.146505
 21
111.979855
 31
0.0
 12
503.846505
 22
112.429855
 32
0.0
 13
503.846505
 23
112.429855
 33
0.0
  0
MTEXT
  5
81AF
100
AcDbEntity
  8
0
  6
BYBLOCK
 62
     0
100
AcDbMText
 10
398.510305
 20
112.429855
 30
0.0
 40
2.7
 41
0.0
 71
     5
 72
     1
  1
\A1;210.67mm[8.294"]
  0
POINT
  5
81B0
100
AcDbEntity
  8
DEFPOINTS
  6
BYBLOCK
 62
     0
100
AcDbPoint
 10
293.174105
 20
227.853091
 30
0.0
  0
POINT
  5
81B1
100
AcDbEntity
  8
DEFPOINTS
  6
BYBLOCK
 62
     0
100
AcDbPoint
 10
503.846505
 20
36.306892
 30
0.0
  0
POINT
  5
81B2
100
AcDbEntity
  8
DEFPOINTS
  6
BYBLOCK
 62
     0
100
AcDbPoint
 10
503.846505
 20
112.429855
 30
0.0
  0
ENDBLK
  5
81B3
100
AcDbEntity
  8
0
100
AcDbBlockEnd
  0
BLOCK
  5
81B6
100
AcDbEntity
  8
0
100
AcDbBlockBegin
  2
*D14
 70
    65
 10
0.0
 20
0.0
 30
0.0
  3
*D14
  1

  0
LINE
  5
81B7
100
AcDbEntity
  8
0
  6
BYBLOCK
 62
     0
100
AcDbLine
 10
260.236605
 20
227.885206
 30
0.0
 11
260.236605
 21
99.814215
 31
0.0
  0
LINE
  5
81B8
100
AcDbEntity
  8
0
  6
BYBLOCK
 62
     0
100
AcDbLine
 10
262.936605
 20
102.514215
 30
0.0
 11
363.591555
 21
102.514215
 31
0.0
  0
LINE
  5
81B9
100
AcDbEntity
  8
0
  6
BYBLOCK
 62
     0
100
AcDbLine
 10
501.146505
 20
102.514215
 30
0.0
 11
400.491555
 21
102.514215
 31
0.0
  0
SOLID
  5
81BA
100
AcDbEntity
  8
0
  6
BYBLOCK
 62
     0
100
AcDbTrace
 10
262.936605
 20
102.964215
 30
0.0
 11
262.936605
 21
102.064215
 31
0.0
 12
260.236605
 22
102.514215
 32
0.0
 13
260.236605
 23
102.514215
 33
0.0
  0
SOLID
  5
81BB
100
AcDbEntity
  8
0
  6
BYBLOCK
 62
     0
100
AcDbTrace
 10
501.146505
 20
102.964215
 30
0.0
 11
501.146505
 21
102.064215
 31
0.0
 12
503.846505
 22
102.514215
 32
0.0
 13
503.846505
 23
102.514215
 33
0.0
  0
MTEXT
  5
81BC
100
AcDbEntity
  8
0
  6
BYBLOCK
 62
     0
100
AcDbMText
 10
382.041555
 20
102.514215
 30
0.0
 40
2.7
 41
0.0
 71
     5
 72
     1
  1
\A1;243.61mm[9.591"]
  0
POINT
  5
81BD
100
AcDbEntity
  8
DEFPOINTS
  6
BYBLOCK
 62
     0
100
AcDbPoint
 10
260.236605
 20
228.830206
 30
0.0
  0
POINT
  5
81BE
100
AcDbEntity
  8
DEFPOINTS
  6
BYBLOCK
 62
     0
100
AcDbPoint
 10
503.846505
 20
36.306892
 30
0.0
  0
POINT
  5
81BF
100
AcDbEntity
  8
DEFPOINTS
  6
BYBLOCK
 62
     0
100
AcDbPoint
 10
503.846505
 20
102.514215
 30
0.0
  0
ENDBLK
  5
81C0
100
AcDbEntity
  8
0
100
AcDbBlockEnd
  0
BLOCK
  5
81C3
100
AcDbEntity
  8
0
100
AcDbBlockBegin
  2
*D15
 70
    65
 10
0.0
 20
0.0
 30
0.0
  3
*D15
  1

  0
LINE
  5
81C4
100
AcDbEntity
  8
0
  6
BYBLOCK
 62
     0
100
AcDbLine
 10
249.749026
 20
233.940224
 30
0.0
 11
249.749026
 21
89.544446
 31
0.0
  0
LINE
  5
81C5
100
AcDbEntity
  8
0
  6
BYBLOCK
 62
     0
100
AcDbLine
 10
252.449026
 20
92.244446
 30
0.0
 11
357.897766
 21
92.244446
 31
0.0
  0
LINE
  5
81C6
100
AcDbEntity
  8
0
  6
BYBLOCK
 62
     0
100
AcDbLine
 10
501.146505
 20
92.244446
 30
0.0
 11
395.697766
 21
92.244446
 31
0.0
  0
SOLID
  5
81C7
100
AcDbEntity
  8
0
  6
BYBLOCK
 62
     0
100
AcDbTrace
 10
252.449026
 20
92.694446
 30
0.0
 11
252.449026
 21
91.794446
 31
0.0
 12
249.749026
 22
92.244446
 32
0.0
 13
249.749026
 23
92.244446
 33
0.0
  0
SOLID
  5
81C8
100
AcDbEntity
  8
0
  6
BYBLOCK
 62
     0
100
AcDbTrace
 10
501.146505
 20
92.694446
 30
0.0
 11
501.146505
 21
91.794446
 31
0.0
 12
503.846505
 22
92.244446
 32
0.0
 13
503.846505
 23
92.244446
 33
0.0
  0
MTEXT
  5
81C9
100
AcDbEntity
  8
0
  6
BYBLOCK
 62
     0
100
AcDbMText
 10
376.797766
 20
92.244446
 30
0.0
 40
2.7
 41
0.0
 71
     5
 72
     1
  1
\A1;254.10mm[10.004"]
  0
POINT
  5
81CA
100
AcDbEntity
  8
DEFPOINTS
  6
BYBLOCK
 62
     0
100
AcDbPoint
 10
249.749026
 20
234.885224
 30
0.0
  0
POINT
  5
81CB
100
AcDbEntity
  8
DEFPOINTS
  6
BYBLOCK
 62
     0
100
AcDbPoint
 10
503.846505
 20
36.306892
 30
0.0
  0
POINT
  5
81CC
100
AcDbEntity
  8
DEFPOINTS
  6
BYBLOCK
 62
     0
100
AcDbPoint
 10
503.846505
 20
92.244446
 30
0.0
  0
ENDBLK
  5
81CD
100
AcDbEntity
  8
0
100
AcDbBlockEnd
  0
BLOCK
  5
81D0
100
AcDbEntity
  8
0
100
AcDbBlockBegin
  2
*D16
 70
    65
 10
0.0
 20
0.0
 30
0.0
  3
*D16
  1

  0
LINE
  5
81D1
100
AcDbEntity
  8
0
  6
BYBLOCK
 62
     0
100
AcDbLine
 10
203.118743
 20
233.940224
 30
0.0
 11
203.118743
 21
78.781959
 31
0.0
  0
LINE
  5
81D2
100
AcDbEntity
  8
0
  6
BYBLOCK
 62
     0
100
AcDbLine
 10
205.818743
 20
81.481959
 30
0.0
 11
334.357624
 21
81.481959
 31
0.0
  0
LINE
  5
81D3
100
AcDbEntity
  8
0
  6
BYBLOCK
 62
     0
100
AcDbLine
 10
501.146505
 20
81.481959
 30
0.0
 11
372.607624
 21
81.481959
 31
0.0
  0
SOLID
  5
81D4
100
AcDbEntity
  8
0
  6
BYBLOCK
 62
     0
100
AcDbTrace
 10
205.818743
 20
81.931959
 30
0.0
 11
205.818743
 21
81.031959
 31
0.0
 12
203.118743
 22
81.481959
 32
0.0
 13
203.118743
 23
81.481959
 33
0.0
  0
SOLID
  5
81D5
100
AcDbEntity
  8
0
  6
BYBLOCK
 62
     0
100
AcDbTrace
 10
501.146505
 20
81.931959
 30
0.0
 11
501.146505
 21
81.031959
 31
0.0
 12
503.846505
 22
81.481959
 32
0.0
 13
503.846505
 23
81.481959
 33
0.0
  0
MTEXT
  5
81D6
100
AcDbEntity
  8
0
  6
BYBLOCK
 62
     0
100
AcDbMText
 10
353.482624
 20
81.481959
 30
0.0
 40
2.7
 41
0.0
 71
     5
 72
     1
  1
\A1;300.73mm[11.840"]
  0
POINT
  5
81D7
100
AcDbEntity
  8
DEFPOINTS
  6
BYBLOCK
 62
     0
100
AcDbPoint
 10
203.118743
 20
234.885224
 30
0.0
  0
POINT
  5
81D8
100
AcDbEntity
  8
DEFPOINTS
  6
BYBLOCK
 62
     0
100
AcDbPoint
 10
503.846505
 20
36.306892
 30
0.0
  0
POINT
  5
81D9
100
AcDbEntity
  8
DEFPOINTS
  6
BYBLOCK
 62
     0
100
AcDbPoint
 10
503.846505
 20
81.481959
 30
0.0
  0
ENDBLK
  5
81DA
100
AcDbEntity
  8
0
100
AcDbBlockEnd
  0
BLOCK
  5
81DD
100
AcDbEntity
  8
0
100
AcDbBlockBegin
  2
*D17
 70
    65
 10
0.0
 20
0.0
 30
0.0
  3
*D17
  1

  0
LINE
  5
81DE
100
AcDbEntity
  8
0
  6
BYBLOCK
 62
     0
100
AcDbLine
 10
563.462565
 20
244.168082
 30
0.0
 11
563.462565
 21
184.153396
 31
0.0
  0
LINE
  5
81DF
100
AcDbEntity
  8
0
  6
BYBLOCK
 62
     0
100
AcDbLine
 10
506.546505
 20
186.853396
 30
0.0
 11
515.654535
 21
186.853396
 31
0.0
  0
LINE
  5
81E0
100
AcDbEntity
  8
0
  6
BYBLOCK
 62
     0
100
AcDbLine
 10
560.762565
 20
186.853396
 30
0.0
 11
551.654535
 21
186.853396
 31
0.0
  0
SOLID
  5
81E1
100
AcDbEntity
  8
0
  6
BYBLOCK
 62
     0
100
AcDbTrace
 10
506.546505
 20
187.303396
 30
0.0
 11
506.546505
 21
186.403396
 31
0.0
 12
503.846505
 22
186.853396
 32
0.0
 13
503.846505
 23
186.853396
 33
0.0
  0
SOLID
  5
81E2
100
AcDbEntity
  8
0
  6
BYBLOCK
 62
     0
100
AcDbTrace
 10
560.762565
 20
187.303396
 30
0.0
 11
560.762565
 21
186.403396
 31
0.0
 12
563.462565
 22
186.853396
 32
0.0
 13
563.462565
 23
186.853396
 33
0.0
  0
MTEXT
  5
81E3
100
AcDbEntity
  8
0
  6
BYBLOCK
 62
     0
100
AcDbMText
 10
533.654535
 20
186.853396
 30
0.0
 40
2.7
 41
0.0
 71
     5
 72
     1
  1
\A1;59.62mm[2.347"]
  0
POINT
  5
81E4
100
AcDbEntity
  8
DEFPOINTS
  6
BYBLOCK
 62
     0
100
AcDbPoint
 10
503.846505
 20
321.836616
 30
0.0
  0
POINT
  5
81E5
100
AcDbEntity
  8
DEFPOINTS
  6
BYBLOCK
 62
     0
100
AcDbPoint
 10
563.462565
 20
245.113082
 30
0.0
  0
POINT
  5
81E6
100
AcDbEntity
  8
DEFPOINTS
  6
BYBLOCK
 62
     0
100
AcDbPoint
 10
563.462565
 20
186.853396
 30
0.0
  0
ENDBLK
  5
81E7
100
AcDbEntity
  8
0
100
AcDbBlockEnd
  0
BLOCK
  5
8219
100
AcDbEntity
  8
0
100
AcDbBlockBegin
  2
*D18
 70
    65
 10
0.0
 20
0.0
 30
0.0
  3
*D18
  1

  0
LINE
  5
821A
100
AcDbEntity
  8
0
  6
BYBLOCK
 62
     0
100
AcDbLine
 10
526.585117
 20
230.709333
 30
0.0
 11
526.585117
 21
202.037187
 31
0.0
  0
LINE
  5
821B
100
AcDbEntity
  8
0
  6
BYBLOCK
 62
     0
100
AcDbLine
 10
501.146505
 20
204.737187
 30
0.0
 11
498.446505
 21
204.737187
 31
0.0
  0
LINE
  5
821C
100
AcDbEntity
  8
0
  6
BYBLOCK
 62
     0
100
AcDbLine
 10
529.285117
 20
204.737187
 30
0.0
 11
531.985117
 21
204.737187
 31
0.0
  0
SOLID
  5
821D
100
AcDbEntity
  8
0
  6
BYBLOCK
 62
     0
100
AcDbTrace
 10
501.146505
 20
205.187187
 30
0.0
 11
501.146505
 21
204.287187
 31
0.0
 12
503.846505
 22
204.737187
 32
0.0
 13
503.846505
 23
204.737187
 33
0.0
  0
SOLID
  5
821E
100
AcDbEntity
  8
0
  6
BYBLOCK
 62
     0
100
AcDbTrace
 10
529.285117
 20
205.187187
 30
0.0
 11
529.285117
 21
204.287187
 31
0.0
 12
526.585117
 22
204.737187
 32
0.0
 13
526.585117
 23
204.737187
 33
0.0
  0
MTEXT
  5
821F
100
AcDbEntity
  8
0
  6
BYBLOCK
 62
     0
100
AcDbMText
 10
549.760117
 20
204.737187
 30
0.0
 40
2.7
 41
0.0
 71
     5
 72
     1
  1
\A1;22.74mm[0.895"]
  0
POINT
  5
8220
100
AcDbEntity
  8
DEFPOINTS
  6
BYBLOCK
 62
     0
100
AcDbPoint
 10
503.846505
 20
321.836616
 30
0.0
  0
POINT
  5
8221
100
AcDbEntity
  8
DEFPOINTS
  6
BYBLOCK
 62
     0
100
AcDbPoint
 10
526.585117
 20
231.654333
 30
0.0
  0
POINT
  5
8222
100
AcDbEntity
  8
DEFPOINTS
  6
BYBLOCK
 62
     0
100
AcDbPoint
 10
526.585117
 20
204.737187
 30
0.0
  0
ENDBLK
  5
8223
100
AcDbEntity
  8
0
100
AcDbBlockEnd
  0
BLOCK
  5
820E
100
AcDbEntity
  8
0
100
AcDbBlockBegin
  2
*D19
 70
    65
 10
0.0
 20
0.0
 30
0.0
  3
*D19
  1

  0
LINE
  5
820F
100
AcDbEntity
  8
0
  6
BYBLOCK
 62
     0
100
AcDbLine
 10
508.394105
 20
226.976833
 30
0.0
 11
508.394105
 21
193.627039
 31
0.0
  0
LINE
  5
8210
100
AcDbEntity
  8
0
  6
BYBLOCK
 62
     0
100
AcDbLine
 10
501.146505
 20
196.327039
 30
0.0
 11
498.446505
 21
196.327039
 31
0.0
  0
LINE
  5
8211
100
AcDbEntity
  8
0
  6
BYBLOCK
 62
     0
100
AcDbLine
 10
511.094105
 20
196.327039
 30
0.0
 11
513.794105
 21
196.327039
 31
0.0
  0
SOLID
  5
8212
100
AcDbEntity
  8
0
  6
BYBLOCK
 62
     0
100
AcDbTrace
 10
501.146505
 20
196.777039
 30
0.0
 11
501.146505
 21
195.877039
 31
0.0
 12
503.846505
 22
196.327039
 32
0.0
 13
503.846505
 23
196.327039
 33
0.0
  0
SOLID
  5
8213
100
AcDbEntity
  8
0
  6
BYBLOCK
 62
     0
100
AcDbTrace
 10
511.094105
 20
196.777039
 30
0.0
 11
511.094105
 21
195.877039
 31
0.0
 12
508.394105
 22
196.327039
 32
0.0
 13
508.394105
 23
196.327039
 33
0.0
  0
MTEXT
  5
8214
100
AcDbEntity
  8
0
  6
BYBLOCK
 62
     0
100
AcDbMText
 10
529.769105
 20
196.327039
 30
0.0
 40
2.7
 41
0.0
 71
     5
 72
     1
  1
\A1;4.55mm[0.179"]
  0
POINT
  5
8215
100
AcDbEntity
  8
DEFPOINTS
  6
BYBLOCK
 62
     0
100
AcDbPoint
 10
503.846505
 20
321.836616
 30
0.0
  0
POINT
  5
8216
100
AcDbEntity
  8
DEFPOINTS
  6
BYBLOCK
 62
     0
100
AcDbPoint
 10
508.394105
 20
227.921833
 30
0.0
  0
POINT
  5
8217
100
AcDbEntity
  8
DEFPOINTS
  6
BYBLOCK
 62
     0
100
AcDbPoint
 10
508.394105
 20
196.327039
 30
0.0
  0
ENDBLK
  5
8218
100
AcDbEntity
  8
0
100
AcDbBlockEnd
  0
BLOCK
  5
824A
100
AcDbEntity
  8
0
100
AcDbBlockBegin
  2
*D21
 70
    65
 10
0.0
 20
0.0
 30
0.0
  3
*D21
  1

  0
LINE
  5
824B
100
AcDbEntity
  8
0
  6
BYBLOCK
 62
     0
100
AcDbLine
 10
549.928005
 20
248.45473
 30
0.0
 11
549.928005
 21
289.885042
 31
0.0
  0
LINE
  5
824C
100
AcDbEntity
  8
0
  6
BYBLOCK
 62
     0
100
AcDbLine
 10
552.628005
 20
287.185042
 30
0.0
 11
555.328005
 21
287.185042
 31
0.0
  0
LINE
  5
824D
100
AcDbEntity
  8
0
  6
BYBLOCK
 62
     0
100
AcDbLine
 10
501.146505
 20
287.185042
 30
0.0
 11
498.446505
 21
287.185042
 31
0.0
  0
SOLID
  5
824E
100
AcDbEntity
  8
0
  6
BYBLOCK
 62
     0
100
AcDbTrace
 10
552.628005
 20
287.635042
 30
0.0
 11
552.628005
 21
286.735042
 31
0.0
 12
549.928005
 22
287.185042
 32
0.0
 13
549.928005
 23
287.185042
 33
0.0
  0
SOLID
  5
824F
100
AcDbEntity
  8
0
  6
BYBLOCK
 62
     0
100
AcDbTrace
 10
501.146505
 20
287.635042
 30
0.0
 11
501.146505
 21
286.735042
 31
0.0
 12
503.846505
 22
287.185042
 32
0.0
 13
503.846505
 23
287.185042
 33
0.0
  0
MTEXT
  5
8250
100
AcDbEntity
  8
0
  6
BYBLOCK
 62
     0
100
AcDbMText
 10
466.496505
 20
287.185042
 30
0.0
 40
2.7
 41
0.0
 71
     5
 72
     1
  1
\A1;46.08mm±0.03mm[1.814"±0.001"]
  0
POINT
  5
8251
100
AcDbEntity
  8
DEFPOINTS
  6
BYBLOCK
 62
     0
100
AcDbPoint
 10
549.928005
 20
247.50973
 30
0.0
  0
POINT
  5
8252
100
AcDbEntity
  8
DEFPOINTS
  6
BYBLOCK
 62
     0
100
AcDbPoint
 10
503.846505
 20
321.836616
 30
0.0
  0
POINT
  5
8253
100
AcDbEntity
  8
DEFPOINTS
  6
BYBLOCK
 62
     0
100
AcDbPoint
 10
503.846505
 20
287.185042
 30
0.0
  0
ENDBLK
  5
8254
100
AcDbEntity
  8
0
100
AcDbBlockEnd
  0
BLOCK
  5
8523
100
AcDbEntity
  8
0
100
AcDbBlockBegin
  2
*D22
 70
    65
 10
0.0
 20
0.0
 30
0.0
  3
*D22
  1

  0
LINE
  5
8524
100
AcDbEntity
  8
0
  6
BYBLOCK
 62
     0
100
AcDbLine
 10
506.956605
 20
228.830206
 30
0.0
 11
645.058579
 21
228.830206
 31
0.0
  0
LINE
  5
8525
100
AcDbEntity
  8
0
  6
BYBLOCK
 62
     0
100
AcDbLine
 10
642.358579
 20
238.214606
 30
0.0
 11
642.358579
 21
240.914606
 31
0.0
  0
LINE
  5
8526
100
AcDbEntity
  8
0
  6
BYBLOCK
 62
     0
100
AcDbLine
 10
642.358579
 20
226.130206
 30
0.0
 11
642.358579
 21
223.430206
 31
0.0
  0
LINE
  5
8527
100
AcDbEntity
  8
0
  6
BYBLOCK
 62
     0
100
AcDbLine
 10
642.358579
 20
223.430206
 30
0.0
 11
639.658579
 21
223.430206
 31
0.0
  0
SOLID
  5
8528
100
AcDbEntity
  8
0
  6
BYBLOCK
 62
     0
100
AcDbTrace
 10
641.908579
 20
238.214606
 30
0.0
 11
642.808579
 21
238.214606
 31
0.0
 12
642.358579
 22
235.514606
 32
0.0
 13
642.358579
 23
235.514606
 33
0.0
  0
SOLID
  5
8529
100
AcDbEntity
  8
0
  6
BYBLOCK
 62
     0
100
AcDbTrace
 10
641.908579
 20
226.130206
 30
0.0
 11
642.808579
 21
226.130206
 31
0.0
 12
642.358579
 22
228.830206
 32
0.0
 13
642.358579
 23
228.830206
 33
0.0
  0
MTEXT
  5
852A
100
AcDbEntity
  8
0
  6
BYBLOCK
 62
     0
100
AcDbMText
 10
604.918579
 20
223.430206
 30
0.0
 40
2.7
 41
0.0
 71
     5
 72
     1
  1
\A1;6.68mm\S 0.00mm^ -0.05mm;{\o\l\H6.480000;[}0.263"\S 0.000"^ -0.002";{\o\l\H6.480000;]}
  0
POINT
  5
852B
100
AcDbEntity
  8
DEFPOINTS
  6
BYBLOCK
 62
     0
100
AcDbPoint
 10
797.624851
 20
235.514606
 30
0.0
  0
POINT
  5
852C
100
AcDbEntity
  8
DEFPOINTS
  6
BYBLOCK
 62
     0
100
AcDbPoint
 10
506.011605
 20
228.830206
 30
0.0
  0
POINT
  5
852D
100
AcDbEntity
  8
DEFPOINTS
  6
BYBLOCK
 62
     0
100
AcDbPoint
 10
642.358579
 20
228.830206
 30
0.0
  0
ENDBLK
  5
852E
100
AcDbEntity
  8
0
100
AcDbBlockEnd
  0
BLOCK
  5
8517
100
AcDbEntity
  8
0
100
AcDbBlockBegin
  2
*D23
 70
    65
 10
0.0
 20
0.0
 30
0.0
  3
*D23
  1

  0
LINE
  5
8518
100
AcDbEntity
  8
0
  6
BYBLOCK
 62
     0
100
AcDbLine
 10
527.530117
 20
231.654333
 30
0.0
 11
685.925014
 21
231.654333
 31
0.0
  0
LINE
  5
8519
100
AcDbEntity
  8
0
  6
BYBLOCK
 62
     0
100
AcDbLine
 10
683.225014
 20
238.214606
 30
0.0
 11
683.225014
 21
240.914606
 31
0.0
  0
LINE
  5
851A
100
AcDbEntity
  8
0
  6
BYBLOCK
 62
     0
100
AcDbLine
 10
683.225014
 20
228.954333
 30
0.0
 11
683.225014
 21
226.254333
 31
0.0
  0
LINE
  5
851B
100
AcDbEntity
  8
0
  6
BYBLOCK
 62
     0
100
AcDbLine
 10
683.225014
 20
226.254333
 30
0.0
 11
680.525014
 21
226.254333
 31
0.0
  0
SOLID
  5
851C
100
AcDbEntity
  8
0
  6
BYBLOCK
 62
     0
100
AcDbTrace
 10
682.775014
 20
238.214606
 30
0.0
 11
683.675014
 21
238.214606
 31
0.0
 12
683.225014
 22
235.514606
 32
0.0
 13
683.225014
 23
235.514606
 33
0.0
  0
SOLID
  5
851D
100
AcDbEntity
  8
0
  6
BYBLOCK
 62
     0
100
AcDbTrace
 10
682.775014
 20
228.954333
 30
0.0
 11
683.675014
 21
228.954333
 31
0.0
 12
683.225014
 22
231.654333
 32
0.0
 13
683.225014
 23
231.654333
 33
0.0
  0
MTEXT
  5
851E
100
AcDbEntity
  8
0
  6
BYBLOCK
 62
     0
100
AcDbMText
 10
664.550014
 20
226.254333
 30
0.0
 40
2.7
 41
0.0
 71
     5
 72
     1
  1
\A1;3.86mm[0.152"]
  0
POINT
  5
851F
100
AcDbEntity
  8
DEFPOINTS
  6
BYBLOCK
 62
     0
100
AcDbPoint
 10
797.624851
 20
235.514606
 30
0.0
  0
POINT
  5
8520
100
AcDbEntity
  8
DEFPOINTS
  6
BYBLOCK
 62
     0
100
AcDbPoint
 10
526.585117
 20
231.654333
 30
0.0
  0
POINT
  5
8521
100
AcDbEntity
  8
DEFPOINTS
  6
BYBLOCK
 62
     0
100
AcDbPoint
 10
683.225014
 20
231.654333
 30
0.0
  0
ENDBLK
  5
8522
100
AcDbEntity
  8
0
100
AcDbBlockEnd
  0
BLOCK
  5
8290
100
AcDbEntity
  8
0
100
AcDbBlockBegin
  2
*D25
 70
    65
 10
0.0
 20
0.0
 30
0.0
  3
*D25
  1

  0
LINE
  5
8291
100
AcDbEntity
  8
0
  6
BYBLOCK
 62
     0
100
AcDbLine
 10
204.173743
 20
248.830206
 30
0.0
 11
75.485623
 21
248.830206
 31
0.0
  0
LINE
  5
8292
100
AcDbEntity
  8
0
  6
BYBLOCK
 62
     0
100
AcDbLine
 10
78.185623
 20
251.530206
 30
0.0
 11
78.185623
 21
254.230206
 31
0.0
  0
LINE
  5
8293
100
AcDbEntity
  8
0
  6
BYBLOCK
 62
     0
100
AcDbLine
 10
78.185623
 20
232.814606
 30
0.0
 11
78.185623
 21
230.114606
 31
0.0
  0
LINE
  5
8294
100
AcDbEntity
  8
0
  6
BYBLOCK
 62
     0
100
AcDbLine
 10
78.185623
 20
230.114606
 30
0.0
 11
75.485623
 21
230.114606
 31
0.0
  0
SOLID
  5
8295
100
AcDbEntity
  8
0
  6
BYBLOCK
 62
     0
100
AcDbTrace
 10
77.735623
 20
251.530206
 30
0.0
 11
78.635623
 21
251.530206
 31
0.0
 12
78.185623
 22
248.830206
 32
0.0
 13
78.185623
 23
248.830206
 33
0.0
  0
SOLID
  5
8296
100
AcDbEntity
  8
0
  6
BYBLOCK
 62
     0
100
AcDbTrace
 10
77.735623
 20
232.814606
 30
0.0
 11
78.635623
 21
232.814606
 31
0.0
 12
78.185623
 22
235.514606
 32
0.0
 13
78.185623
 23
235.514606
 33
0.0
  0
MTEXT
  5
8297
100
AcDbEntity
  8
0
  6
BYBLOCK
 62
     0
100
AcDbMText
 10
58.160623
 20
230.114606
 30
0.0
 40
2.7
 41
0.0
 71
     5
 72
     1
  1
\A1;13.32mm[0.524"]
  0
POINT
  5
8298
100
AcDbEntity
  8
DEFPOINTS
  6
BYBLOCK
 62
     0
100
AcDbPoint
 10
205.118743
 20
248.830206
 30
0.0
  0
POINT
  5
8299
100
AcDbEntity
  8
DEFPOINTS
  6
BYBLOCK
 62
     0
100
AcDbPoint
 10
74.989534
 20
235.514606
 30
0.0
  0
POINT
  5
829A
100
AcDbEntity
  8
DEFPOINTS
  6
BYBLOCK
 62
     0
100
AcDbPoint
 10
78.185623
 20
235.514606
 30
0.0
  0
ENDBLK
  5
829B
100
AcDbEntity
  8
0
100
AcDbBlockEnd
  0
BLOCK
  5
829E
100
AcDbEntity
  8
0
100
AcDbBlockBegin
  2
*D26
 70
    65
 10
0.0
 20
0.0
 30
0.0
  3
*D26
  1

  0
LINE
  5
829F
100
AcDbEntity
  8
0
  6
BYBLOCK
 62
     0
100
AcDbLine
 10
212.571766
 20
242.238906
 30
0.0
 11
98.990502
 21
242.238906
 31
0.0
  0
LINE
  5
82A0
100
AcDbEntity
  8
0
  6
BYBLOCK
 62
     0
100
AcDbLine
 10
101.690502
 20
244.938906
 30
0.0
 11
101.690502
 21
247.638906
 31
0.0
  0
LINE
  5
82A1
100
AcDbEntity
  8
0
  6
BYBLOCK
 62
     0
100
AcDbLine
 10
101.690502
 20
232.814606
 30
0.0
 11
101.690502
 21
220.816723
 31
0.0
  0
LINE
  5
82A2
100
AcDbEntity
  8
0
  6
BYBLOCK
 62
     0
100
AcDbLine
 10
101.690502
 20
220.816723
 30
0.0
 11
98.990502
 21
220.816723
 31
0.0
  0
SOLID
  5
82A3
100
AcDbEntity
  8
0
  6
BYBLOCK
 62
     0
100
AcDbTrace
 10
101.240502
 20
244.938906
 30
0.0
 11
102.140502
 21
244.938906
 31
0.0
 12
101.690502
 22
242.238906
 32
0.0
 13
101.690502
 23
242.238906
 33
0.0
  0
SOLID
  5
82A4
100
AcDbEntity
  8
0
  6
BYBLOCK
 62
     0
100
AcDbTrace
 10
101.240502
 20
232.814606
 30
0.0
 11
102.140502
 21
232.814606
 31
0.0
 12
101.690502
 22
235.514606
 32
0.0
 13
101.690502
 23
235.514606
 33
0.0
  0
MTEXT
  5
82A5
100
AcDbEntity
  8
0
  6
BYBLOCK
 62
     0
100
AcDbMText
 10
67.490502
 20
220.816723
 30
0.0
 40
2.7
 41
0.0
 71
     5
 72
     1
  1
\A1;6.72mm±0.03mm[0.265"±0.001"]
  0
POINT
  5
82A6
100
AcDbEntity
  8
DEFPOINTS
  6
BYBLOCK
 62
     0
100
AcDbPoint
 10
213.516766
 20
242.238906
 30
0.0
  0
POINT
  5
82A7
100
AcDbEntity
  8
DEFPOINTS
  6
BYBLOCK
 62
     0
100
AcDbPoint
 10
74.989534
 20
235.514606
 30
0.0
  0
POINT
  5
82A8
100
AcDbEntity
  8
DEFPOINTS
  6
BYBLOCK
 62
     0
100
AcDbPoint
 10
101.690502
 20
235.514606
 30
0.0
  0
ENDBLK
  5
82A9
100
AcDbEntity
  8
0
100
AcDbBlockEnd
  0
BLOCK
  5
82AC
100
AcDbEntity
  8
0
100
AcDbBlockBegin
  2
*D27
 70
    65
 10
0.0
 20
0.0
 30
0.0
  3
*D27
  1

  0
LINE
  5
82AD
100
AcDbEntity
  8
0
  6
BYBLOCK
 62
     0
100
AcDbLine
 10
202.173743
 20
234.885224
 30
0.0
 11
191.140307
 21
234.885224
 31
0.0
  0
LINE
  5
82AE
100
AcDbEntity
  8
0
  6
BYBLOCK
 62
     0
100
AcDbLine
 10
193.840307
 20
238.214606
 30
0.0
 11
193.840307
 21
240.914606
 31
0.0
  0
LINE
  5
82AF
100
AcDbEntity
  8
0
  6
BYBLOCK
 62
     0
100
AcDbLine
 10
193.840307
 20
232.185224
 30
0.0
 11
193.840307
 21
227.223994
 31
0.0
  0
LINE
  5
82B0
100
AcDbEntity
  8
0
  6
BYBLOCK
 62
     0
100
AcDbLine
 10
193.840307
 20
227.223994
 30
0.0
 11
191.140307
 21
227.223994
 31
0.0
  0
SOLID
  5
82B1
100
AcDbEntity
  8
0
  6
BYBLOCK
 62
     0
100
AcDbTrace
 10
193.390307
 20
238.214606
 30
0.0
 11
194.290307
 21
238.214606
 31
0.0
 12
193.840307
 22
235.514606
 32
0.0
 13
193.840307
 23
235.514606
 33
0.0
  0
SOLID
  5
82B2
100
AcDbEntity
  8
0
  6
BYBLOCK
 62
     0
100
AcDbTrace
 10
193.390307
 20
232.185224
 30
0.0
 11
194.290307
 21
232.185224
 31
0.0
 12
193.840307
 22
234.885224
 32
0.0
 13
193.840307
 23
234.885224
 33
0.0
  0
MTEXT
  5
82B3
100
AcDbEntity
  8
0
  6
BYBLOCK
 62
     0
100
AcDbMText
 10
156.850307
 20
227.223994
 30
0.0
 40
2.7
 41
0.0
 71
     5
 72
     1
  1
\A1;0.63mm\S 0.00mm^ -0.05mm;{\o\l\H6.480000;[}0.025"\S 0.000"^ -0.002";{\o\l\H6.480000;]}
  0
POINT
  5
82B4
100
AcDbEntity
  8
DEFPOINTS
  6
BYBLOCK
 62
     0
100
AcDbPoint
 10
74.989534
 20
235.514606
 30
0.0
  0
POINT
  5
82B5
100
AcDbEntity
  8
DEFPOINTS
  6
BYBLOCK
 62
     0
100
AcDbPoint
 10
203.118743
 20
234.885224
 30
0.0
  0
POINT
  5
82B6
100
AcDbEntity
  8
DEFPOINTS
  6
BYBLOCK
 62
     0
100
AcDbPoint
 10
193.840307
 20
234.885224
 30
0.0
  0
ENDBLK
  5
82B7
100
AcDbEntity
  8
0
100
AcDbBlockEnd
  0
BLOCK
  5
82D6
100
AcDbEntity
  8
0
100
AcDbBlockBegin
  2
*D30
 70
    65
 10
0.0
 20
0.0
 30
0.0
  3
*D30
  1

  0
LINE
  5
82D7
100
AcDbEntity
  8
0
  6
BYBLOCK
 62
     0
100
AcDbLine
 10
564.350292
 20
245.437066
 30
0.0
 11
616.475779
 21
264.460722
 31
0.0
  0
LINE
  5
82D8
100
AcDbEntity
  8
0
  6
BYBLOCK
 62
     0
100
AcDbLine
 10
614.865084
 20
260.998691
 30
0.0
 11
615.790752
 21
258.462328
 31
0.0
  0
LINE
  5
82D9
100
AcDbEntity
  8
0
  6
BYBLOCK
 62
     0
100
AcDbLine
 10
609.09782
 20
276.801195
 30
0.0
 11
608.172152
 21
279.337558
 31
0.0
  0
LINE
  5
82DA
100
AcDbEntity
  8
0
  6
BYBLOCK
 62
     0
100
AcDbLine
 10
608.172152
 20
279.337558
 30
0.0
 11
610.708515
 21
280.263227
 31
0.0
  0
SOLID
  5
82DB
100
AcDbEntity
  8
0
  6
BYBLOCK
 62
     0
100
AcDbTrace
 10
614.442356
 20
260.844413
 30
0.0
 11
615.287811
 21
261.152969
 31
0.0
 12
613.939416
 22
263.535054
 32
0.0
 13
613.939416
 23
263.535054
 33
0.0
  0
SOLID
  5
82DC
100
AcDbEntity
  8
0
  6
BYBLOCK
 62
     0
100
AcDbTrace
 10
608.675093
 20
276.646917
 30
0.0
 11
609.520548
 21
276.955473
 31
0.0
 12
610.023489
 22
274.264832
 32
0.0
 13
610.023489
 23
274.264832
 33
0.0
  0
MTEXT
  5
82DD
100
AcDbEntity
  8
0
  6
BYBLOCK
 62
     0
100
AcDbMText
 10
643.554419
 20
292.250629
 30
0.0
 40
2.7
 41
0.0
 71
     5
 72
     1
  1
\A1;11.42mm\S 0.00mm^ -0.05mm;{\o\l\H6.480000;[}0.450"\S 0.000"^ -0.002";{\o\l\H6.480000;]}
 11
0.939394
 21
0.34284
 31
0.0
  0
POINT
  5
82DE
100
AcDbEntity
  8
DEFPOINTS
  6
BYBLOCK
 62
     0
100
AcDbPoint
 10
563.462565
 20
245.113082
 30
0.0
 50
339.95
  0
POINT
  5
82DF
100
AcDbEntity
  8
DEFPOINTS
  6
BYBLOCK
 62
     0
100
AcDbPoint
 10
662.026281
 20
293.24371
 30
0.0
 50
339.95
  0
POINT
  5
82E0
100
AcDbEntity
  8
DEFPOINTS
  6
BYBLOCK
 62
     0
100
AcDbPoint
 10
610.023489
 20
274.264832
 30
0.0
 50
339.95
  0
ENDBLK
  5
82E1
100
AcDbEntity
  8
0
100
AcDbBlockEnd
  0
BLOCK
  5
82E4
100
AcDbEntity
  8
0
100
AcDbBlockBegin
  2
*D31
 70
    65
 10
0.0
 20
0.0
 30
0.0
  3
*D31
  1

  0
LINE
  5
82E5
100
AcDbEntity
  8
0
  6
BYBLOCK
 62
     0
100
AcDbLine
 10
479.229903
 20
302.964962
 30
0.0
 11
476.495567
 21
310.457138
 31
0.0
  0
ARC
  5
82E6
100
AcDbEntity
  8
0
  6
BYBLOCK
 62
     0
100
AcDbCircle
 10
503.846505
 20
235.514606
 30
0.0
 40
77.077547
100
AcDbArc
 50
92.007154
 51
94.626817
  0
ARC
  5
82E7
100
AcDbEntity
  8
0
  6
BYBLOCK
 62
     0
100
AcDbCircle
 10
503.846505
 20
235.514606
 30
0.0
 40
77.077547
100
AcDbArc
 50
105.514978
 51
108.042846
  0
SOLID
  5
82E8
100
AcDbEntity
  8
0
  6
BYBLOCK
 62
     0
100
AcDbTrace
 10
501.139038
 20
312.994793
 30
0.0
 11
501.154801
 21
312.094931
 31
0.0
 12
503.846505
 22
312.592152
 32
0.0
 13
503.846505
 23
312.592152
 33
0.0
  0
SOLID
  5
82E9
100
AcDbEntity
  8
0
  6
BYBLOCK
 62
     0
100
AcDbTrace
 10
480.120273
 20
308.376512
 30
0.0
 11
479.826572
 21
309.227241
 31
0.0
 12
477.421235
 22
307.920775
 32
0.0
 13
477.421235
 23
307.920775
 33
0.0
  0
MTEXT
  5
82EA
100
AcDbEntity
  8
0
  6
BYBLOCK
 62
     0
100
AcDbMText
 10
490.429011
 20
311.415324
 30
0.0
 40
2.7
 41
0.0
 71
     5
 72
     1
  1
\A1;20.05°
  0
POINT
  5
82EB
100
AcDbEntity
  8
DEFPOINTS
  6
BYBLOCK
 62
     0
100
AcDbPoint
 10
494.876079
 20
312.068375
 30
0.0
  0
POINT
  5
82EC
100
AcDbEntity
  8
DEFPOINTS
  6
BYBLOCK
 62
     0
100
AcDbPoint
 10
479.553887
 20
302.077234
 30
0.0
  0
POINT
  5
82ED
100
AcDbEntity
  8
DEFPOINTS
  6
BYBLOCK
 62
     0
100
AcDbPoint
 10
503.846505
 20
321.836616
 30
0.0
  0
POINT
  5
82EE
100
AcDbEntity
  8
DEFPOINTS
  6
BYBLOCK
 62
     0
100
AcDbPoint
 10
503.846505
 20
36.306892
 30
0.0
  0
POINT
  5
82EF
100
AcDbEntity
  8
DEFPOINTS
  6
BYBLOCK
 62
     0
100
AcDbPoint
 10
515.209727
 20
204.378977
 30
0.0
  0
ENDBLK
  5
82F0
100
AcDbEntity
  8
0
100
AcDbBlockEnd
  0
BLOCK
  5
82F3
100
AcDbEntity
  8
0
100
AcDbBlockBegin
  2
*D32
 70
    65
 10
0.0
 20
0.0
 30
0.0
  3
*D32
  1

  0
LINE
  5
82F4
100
AcDbEntity
  8
0
  6
BYBLOCK
 62
     0
100
AcDbLine
 10
344.491785
 20
376.701047
 30
0.0
 11
344.491785
 21
444.838221
 31
0.0
  0
LINE
  5
82F5
100
AcDbEntity
  8
0
  6
BYBLOCK
 62
     0
100
AcDbLine
 10
347.191785
 20
442.138221
 30
0.0
 11
349.375619
 21
442.138221
 31
0.0
  0
LINE
  5
82F6
100
AcDbEntity
  8
0
  6
BYBLOCK
 62
     0
100
AcDbLine
 10
420.409452
 20
442.138221
 30
0.0
 11
418.225619
 21
442.138221
 31
0.0
  0
SOLID
  5
82F7
100
AcDbEntity
  8
0
  6
BYBLOCK
 62
     0
100
AcDbTrace
 10
347.191785
 20
442.588221
 30
0.0
 11
347.191785
 21
441.688221
 31
0.0
 12
344.491785
 22
442.138221
 32
0.0
 13
344.491785
 23
442.138221
 33
0.0
  0
SOLID
  5
82F8
100
AcDbEntity
  8
0
  6
BYBLOCK
 62
     0
100
AcDbTrace
 10
420.409452
 20
442.588221
 30
0.0
 11
420.409452
 21
441.688221
 31
0.0
 12
423.109452
 22
442.138221
 32
0.0
 13
423.109452
 23
442.138221
 33
0.0
  0
MTEXT
  5
82F9
100
AcDbEntity
  8
0
  6
BYBLOCK
 62
     0
100
AcDbMText
 10
383.800619
 20
442.138221
 30
0.0
 40
2.7
 41
0.0
 71
     5
 72
     1
  1
\A1;{238.39mm±0.03mm[9.385"±0.001"]}
  0
POINT
  5
82FA
100
AcDbEntity
  8
DEFPOINTS
  6
BYBLOCK
 62
     0
100
AcDbPoint
 10
344.491785
 20
375.756047
 30
0.0
  0
POINT
  5
82FB
100
AcDbEntity
  8
DEFPOINTS
  6
BYBLOCK
 62
     0
100
AcDbPoint
 10
423.109452
 20
495.942648
 30
0.0
  0
POINT
  5
82FC
100
AcDbEntity
  8
DEFPOINTS
  6
BYBLOCK
 62
     0
100
AcDbPoint
 10
423.109452
 20
442.138221
 30
0.0
  0
ENDBLK
  5
82FD
100
AcDbEntity
  8
0
100
AcDbBlockEnd
  0
BLOCK
  5
8300
100
AcDbEntity
  8
0
100
AcDbBlockBegin
  2
*D33
 70
    65
 10
0.0
 20
0.0
 30
0.0
  3
*D33
  1

  0
LINE
  5
8301
100
AcDbEntity
  8
0
  6
BYBLOCK
 62
     0
100
AcDbLine
 10
343.729785
 20
376.701047
 30
0.0
 11
343.729785
 21
452.487695
 31
0.0
  0
LINE
  5
8302
100
AcDbEntity
  8
0
  6
BYBLOCK
 62
     0
100
AcDbLine
 10
346.429785
 20
449.787695
 30
0.0
 11
349.444619
 21
449.787695
 31
0.0
  0
LINE
  5
8303
100
AcDbEntity
  8
0
  6
BYBLOCK
 62
     0
100
AcDbLine
 10
420.409452
 20
449.787695
 30
0.0
 11
417.394619
 21
449.787695
 31
0.0
  0
SOLID
  5
8304
100
AcDbEntity
  8
0
  6
BYBLOCK
 62
     0
100
AcDbTrace
 10
346.429785
 20
450.237695
 30
0.0
 11
346.429785
 21
449.337695
 31
0.0
 12
343.729785
 22
449.787695
 32
0.0
 13
343.729785
 23
449.787695
 33
0.0
  0
SOLID
  5
8305
100
AcDbEntity
  8
0
  6
BYBLOCK
 62
     0
100
AcDbTrace
 10
420.409452
 20
450.237695
 30
0.0
 11
420.409452
 21
449.337695
 31
0.0
 12
423.109452
 22
449.787695
 32
0.0
 13
423.109452
 23
449.787695
 33
0.0
  0
MTEXT
  5
8306
100
AcDbEntity
  8
0
  6
BYBLOCK
 62
     0
100
AcDbMText
 10
383.419619
 20
449.787695
 30
0.0
 40
2.7
 41
0.0
 71
     5
 72
     1
  1
\A1;{238.54mm±0.03mm[9.391"±0.001"]}
  0
POINT
  5
8307
100
AcDbEntity
  8
DEFPOINTS
  6
BYBLOCK
 62
     0
100
AcDbPoint
 10
343.729785
 20
375.756047
 30
0.0
  0
POINT
  5
8308
100
AcDbEntity
  8
DEFPOINTS
  6
BYBLOCK
 62
     0
100
AcDbPoint
 10
423.109452
 20
495.942648
 30
0.0
  0
POINT
  5
8309
100
AcDbEntity
  8
DEFPOINTS
  6
BYBLOCK
 62
     0
100
AcDbPoint
 10
423.109452
 20
449.787695
 30
0.0
  0
ENDBLK
  5
830A
100
AcDbEntity
  8
0
100
AcDbBlockEnd
  0
BLOCK
  5
830D
100
AcDbEntity
  8
0
100
AcDbBlockBegin
  2
*D34
 70
    65
 10
0.0
 20
0.0
 30
0.0
  3
*D34
  1

  0
LINE
  5
830E
100
AcDbEntity
  8
0
  6
BYBLOCK
 62
     0
100
AcDbLine
 10
96.679285
 20
410.322547
 30
0.0
 11
96.679285
 21
462.615997
 31
0.0
  0
LINE
  5
830F
100
AcDbEntity
  8
0
  6
BYBLOCK
 62
     0
100
AcDbLine
 10
99.379285
 20
459.915997
 30
0.0
 11
225.019369
 21
459.915997
 31
0.0
  0
LINE
  5
8310
100
AcDbEntity
  8
0
  6
BYBLOCK
 62
     0
100
AcDbLine
 10
420.409452
 20
459.915997
 30
0.0
 11
294.769369
 21
459.915997
 31
0.0
  0
SOLID
  5
8311
100
AcDbEntity
  8
0
  6
BYBLOCK
 62
     0
100
AcDbTrace
 10
99.379285
 20
460.365997
 30
0.0
 11
99.379285
 21
459.465997
 31
0.0
 12
96.679285
 22
459.915997
 32
0.0
 13
96.679285
 23
459.915997
 33
0.0
  0
SOLID
  5
8312
100
AcDbEntity
  8
0
  6
BYBLOCK
 62
     0
100
AcDbTrace
 10
420.409452
 20
460.365997
 30
0.0
 11
420.409452
 21
459.465997
 31
0.0
 12
423.109452
 22
459.915997
 32
0.0
 13
423.109452
 23
459.915997
 33
0.0
  0
MTEXT
  5
8313
100
AcDbEntity
  8
0
  6
BYBLOCK
 62
     0
100
AcDbMText
 10
259.894369
 20
459.915997
 30
0.0
 40
2.7
 41
0.0
 71
     5
 72
     1
  1
\A1;{287.95mm±0.03mm[11.337"±0.001"]}
  0
POINT
  5
8314
100
AcDbEntity
  8
DEFPOINTS
  6
BYBLOCK
 62
     0
100
AcDbPoint
 10
96.679285
 20
409.377547
 30
0.0
  0
POINT
  5
8315
100
AcDbEntity
  8
DEFPOINTS
  6
BYBLOCK
 62
     0
100
AcDbPoint
 10
423.109452
 20
495.942648
 30
0.0
  0
POINT
  5
8316
100
AcDbEntity
  8
DEFPOINTS
  6
BYBLOCK
 62
     0
100
AcDbPoint
 10
423.109452
 20
459.915997
 30
0.0
  0
ENDBLK
  5
8317
100
AcDbEntity
  8
0
100
AcDbBlockEnd
  0
BLOCK
  5
831C
100
AcDbEntity
  8
0
100
AcDbBlockBegin
  2
*D35
 70
    65
 10
0.0
 20
0.0
 30
0.0
  3
*D35
  1

  0
LINE
  5
831D
100
AcDbEntity
  8
0
  6
BYBLOCK
 62
     0
100
AcDbLine
 10
95.917285
 20
410.322547
 30
0.0
 11
95.917285
 21
472.441204
 31
0.0
  0
LINE
  5
831E
100
AcDbEntity
  8
0
  6
BYBLOCK
 62
     0
100
AcDbLine
 10
98.617285
 20
469.741204
 30
0.0
 11
225.313369
 21
469.741204
 31
0.0
  0
LINE
  5
831F
100
AcDbEntity
  8
0
  6
BYBLOCK
 62
     0
100
AcDbLine
 10
420.409452
 20
469.741204
 30
0.0
 11
293.713369
 21
469.741204
 31
0.0
  0
SOLID
  5
8320
100
AcDbEntity
  8
0
  6
BYBLOCK
 62
     0
100
AcDbTrace
 10
98.617285
 20
470.191204
 30
0.0
 11
98.617285
 21
469.291204
 31
0.0
 12
95.917285
 22
469.741204
 32
0.0
 13
95.917285
 23
469.741204
 33
0.0
  0
SOLID
  5
8321
100
AcDbEntity
  8
0
  6
BYBLOCK
 62
     0
100
AcDbTrace
 10
420.409452
 20
470.191204
 30
0.0
 11
420.409452
 21
469.291204
 31
0.0
 12
423.109452
 22
469.741204
 32
0.0
 13
423.109452
 23
469.741204
 33
0.0
  0
MTEXT
  5
8322
100
AcDbEntity
  8
0
  6
BYBLOCK
 62
     0
100
AcDbMText
 10
259.513369
 20
469.741204
 30
0.0
 40
2.7
 41
0.0
 71
     5
 72
     1
  1
\A1;{288.10mm±0.03mm[11.343"±0.001"]}
  0
POINT
  5
8323
100
AcDbEntity
  8
DEFPOINTS
  6
BYBLOCK
 62
     0
100
AcDbPoint
 10
95.917285
 20
409.377547
 30
0.0
  0
POINT
  5
8324
100
AcDbEntity
  8
DEFPOINTS
  6
BYBLOCK
 62
     0
100
AcDbPoint
 10
423.109452
 20
495.942648
 30
0.0
  0
POINT
  5
8325
100
AcDbEntity
  8
DEFPOINTS
  6
BYBLOCK
 62
     0
100
AcDbPoint
 10
423.109452
 20
469.741204
 30
0.0
  0
ENDBLK
  5
8326
100
AcDbEntity
  8
0
100
AcDbBlockEnd
  0
BLOCK
  5
8382
100
AcDbEntity
  8
TEXT
100
AcDbBlockBegin
  2
A$C255
 70
     0
 10
0.0
 20
0.0
 30
0.0
  3
A$C255
  1

  0
MTEXT
  5
8365
100
AcDbEntity
  8
TEXT
100
AcDbMText
 10
89.832292
 20
59.020783
 30
0.0
 40
3.0
 41
0.0
 71
     4
 72
     1
  1
{KEVLAR}
  0
LEADER
  5
8366
100
AcDbEntity
  8
TEXT
100
AcDbLeader
  3
STANDARD
 73
     0
 74
     0
 75
     1
 40
3.0
 41
18.0
 76
     3
 10
70.058397
 20
34.470931
 30
0.0
 10
87.132292
 20
59.020783
 30
0.0
 10
88.932292
 20
59.020783
 30
0.0
 77
   256
1001
ACAD
1000
DSTYLE
1002
{
1070
   140
1040
0.3
1070
    47
1040
0.03
1070
    71
1070
     1
1070
    48
1040
0.03
1070
   272
1070
     2
1070
    40
1040
10.0
1070
     3
1000
mm
1070
   144
1040
0.2
1070
   287
1070
     0
1070
   271
1070
     2
1070
     4
1000
"
1070
   274
1070
     3
1070
   143
1040
0.03937
1070
   171
1070
     3
1070
   170
1070
     1
1002
}
  0
LEADER
  5
8367
100
AcDbEntity
  8
TEXT
100
AcDbLeader
  3
STANDARD
 76
     2
 10
68.765663
 20
72.458595
 30
0.0
 10
89.200663
 20
90.031121
 30
0.0
 77
   256
1001
ACAD
1000
DSTYLE
1002
{
1070
   140
1040
0.3
1070
    47
1040
0.03
1070
    71
1070
     1
1070
    48
1040
0.03
1070
   272
1070
     2
1070
    40
1040
10.0
1070
     3
1000
mm
1070
   144
1040
0.2
1070
   287
1070
     0
1070
   271
1070
     2
1070
     4
1000
"
1070
   274
1070
     3
1070
   143
1040
0.03937
1070
   171
1070
     3
1070
   170
1070
     1
1002
}
  0
MTEXT
  5
8368
100
AcDbEntity
  8
TEXT
100
AcDbMText
 10
91.900663
 20
90.031121
 30
0.0
 40
3.0
 41
0.0
 71
     4
 72
     1
  1
{CARBON FIBER}
  0
LEADER
  5
8369
100
AcDbEntity
  8
TEXT
100
AcDbLeader
  3
STANDARD
 73
     0
 74
     0
 75
     1
 40
3.0
 41
34.0
 76
     3
 10
71.092583
 20
68.582304
 30
0.0
 10
89.200663
 20
90.031121
 30
0.0
 10
91.000663
 20
90.031121
 30
0.0
 77
   256
1001
ACAD
1000
DSTYLE
1002
{
1070
   140
1040
0.3
1070
    47
1040
0.03
1070
    71
1070
     1
1070
    48
1040
0.03
1070
   272
1070
     2
1070
    40
1040
10.0
1070
     3
1000
mm
1070
   144
1040
0.2
1070
   287
1070
     0
1070
   271
1070
     2
1070
     4
1000
"
1070
   274
1070
     3
1070
   143
1040
0.03937
1070
   171
1070
     3
1070
   170
1070
     1
1002
}
  0
DIMENSION
  5
836A
100
AcDbEntity
  8
DIM
100
AcDbDimension
  2
*D37
 10
68.597245
 20
129.012386
 30
0.0
 11
32.097245
 21
129.012386
 31
0.0
 12
-609.055644
 22
-287.609212
 32
0.0
 70
    32
  3
STANDARD
100
AcDbAlignedDimension
 13
69.105245
 23
108.518836
 33
0.0
 14
68.597245
 24
108.518836
 34
0.0
100
AcDbRotatedDimension
1001
ACAD
1000
DSTYLE
1002
{
1070
   140
1040
0.3
1070
    47
1040
0.03
1070
    71
1070
     1
1070
    48
1040
0.03
1070
   272
1070
     2
1070
    40
1040
10.0
1070
     3
1000
mm
1070
   144
1040
0.2
1070
   287
1070
     0
1070
   271
1070
     2
1070
     4
1000
"
1070
   274
1070
     3
1070
   143
1040
0.03937
1070
   171
1070
     3
1070
   170
1070
     1
1002
}
  0
DIMENSION
  5
836B
100
AcDbEntity
  8
DIM
100
AcDbDimension
  2
*D38
 10
71.113245
 20
121.759494
 30
0.0
 11
107.613245
 21
121.759494
 31
0.0
 12
-609.055644
 22
-287.609212
 32
0.0
 70
    32
  3
STANDARD
100
AcDbAlignedDimension
 13
70.605245
 23
108.518836
 33
0.0
 14
71.113245
 24
108.518836
 34
0.0
100
AcDbRotatedDimension
1001
ACAD
1000
DSTYLE
1002
{
1070
   140
1040
0.3
1070
    47
1040
0.03
1070
    71
1070
     1
1070
    48
1040
0.03
1070
   272
1070
     2
1070
    40
1040
10.0
1070
     3
1000
mm
1070
   144
1040
0.2
1070
   287
1070
     0
1070
   271
1070
     2
1070
     4
1000
"
1070
   274
1070
     3
1070
   143
1040
0.03937
1070
   171
1070
     3
1070
   170
1070
     1
1002
}
  0
DIMENSION
  5
836C
100
AcDbEntity
  8
DIM
100
AcDbDimension
  2
*D39
 10
97.720729
 20
26.811336
 30
0.0
 11
97.720729
 21
34.311336
 31
0.0
 12
-609.055644
 22
-287.609212
 32
0.0
 70
    32
  3
STANDARD
100
AcDbAlignedDimension
 13
71.113245
 23
41.811336
 33
0.0
 14
70.605245
 24
26.811336
 34
0.0
 50
90.0
100
AcDbRotatedDimension
1001
ACAD
1000
DSTYLE
1002
{
1070
   140
1040
0.3
1070
    47
1040
0.03
1070
    48
1040
0.03
1070
   272
1070
     2
1070
    40
1040
10.0
1070
     3
1000
mm
1070
   144
1040
0.2
1070
   287
1070
     0
1070
   271
1070
     2
1070
     4
1000
"
1070
   274
1070
     3
1070
   143
1040
0.03937
1070
   171
1070
     3
1070
   170
1070
     1
1002
}
  0
DIMENSION
  5
836D
100
AcDbEntity
  8
DIM
100
AcDbDimension
  2
*D40
 10
71.113245
 20
113.953217
 30
0.0
 11
108.113245
 21
113.953217
 31
0.0
 12
-609.055644
 22
-287.609212
 32
0.0
 70
    32
  3
STANDARD
100
AcDbAlignedDimension
 13
68.597245
 23
108.518836
 33
0.0
 14
71.113245
 24
108.518836
 34
0.0
100
AcDbRotatedDimension
1001
ACAD
1000
DSTYLE
1002
{
1070
   140
1040
0.3
1070
    47
1040
0.03
1070
    71
1070
     1
1070
    48
1040
0.03
1070
   272
1070
     2
1070
    40
1040
10.0
1070
     3
1000
mm
1070
   144
1040
0.2
1070
   287
1070
     0
1070
   271
1070
     2
1070
     4
1000
"
1070
   274
1070
     3
1070
   143
1040
0.03937
1070
   171
1070
     3
1070
   170
1070
     1
1002
}
  0
TEXT
  5
836E
100
AcDbEntity
  8
TEXT
100
AcDbText
 10
50.613277
 20
9.837622
 30
0.0
 40
6.0
  1
ENDVIEW
100
AcDbText
  0
TEXT
  5
836F
100
AcDbEntity
  8
TEXT
100
AcDbText
 10
47.901615
 20
0.075736
 30
0.0
 40
6.0
  1
SCALE 5:1
100
AcDbText
  0
POLYLINE
  5
8370
100
AcDbEntity
  8
C-FIBER
100
AcDb2dPolyline
 66
     1
 10
0.0
 20
0.0
 30
0.0
 70
     1
  0
VERTEX
  5
8371
100
AcDbEntity
  8
C-FIBER
100
AcDbVertex
100
AcDb2dVertex
 10
69.105245
 20
108.518836
 30
0.0
  0
VERTEX
  5
8372
100
AcDbEntity
  8
C-FIBER
100
AcDbVertex
100
AcDb2dVertex
 10
69.105245
 20
41.811336
 30
0.0
  0
VERTEX
  5
8373
100
AcDbEntity
  8
C-FIBER
100
AcDbVertex
100
AcDb2dVertex
 10
68.597245
 20
41.811336
 30
0.0
  0
VERTEX
  5
8374
100
AcDbEntity
  8
C-FIBER
100
AcDbVertex
100
AcDb2dVertex
 10
68.597245
 20
108.518836
 30
0.0
  0
SEQEND
  5
8375
100
AcDbEntity
  8
C-FIBER
  0
POLYLINE
  5
8376
100
AcDbEntity
  8
C-FIBER
100
AcDb2dPolyline
 66
     1
 10
0.0
 20
0.0
 30
0.0
 70
     1
  0
VERTEX
  5
8377
100
AcDbEntity
  8
C-FIBER
100
AcDbVertex
100
AcDb2dVertex
 10
70.605245
 20
108.518836
 30
0.0
  0
VERTEX
  5
8378
100
AcDbEntity
  8
C-FIBER
100
AcDbVertex
100
AcDb2dVertex
 10
70.605245
 20
41.811336
 30
0.0
  0
VERTEX
  5
8379
100
AcDbEntity
  8
C-FIBER
100
AcDbVertex
100
AcDb2dVertex
 10
71.113245
 20
41.811336
 30
0.0
  0
VERTEX
  5
837A
100
AcDbEntity
  8
C-FIBER
100
AcDbVertex
100
AcDb2dVertex
 10
71.113245
 20
108.518836
 30
0.0
  0
SEQEND
  5
837B
100
AcDbEntity
  8
C-FIBER
  0
POLYLINE
  5
837C
100
AcDbEntity
  8
KEVLAR
100
AcDb2dPolyline
 66
     1
 10
0.0
 20
0.0
 30
0.0
 70
     1
  0
VERTEX
  5
837D
100
AcDbEntity
  8
KEVLAR
100
AcDbVertex
100
AcDb2dVertex
 10
69.105245
 20
26.811336
 30
0.0
  0
VERTEX
  5
837E
100
AcDbEntity
  8
KEVLAR
100
AcDbVertex
100
AcDb2dVertex
 10
69.105245
 20
108.518836
 30
0.0
  0
VERTEX
  5
837F
100
AcDbEntity
  8
KEVLAR
100
AcDbVertex
100
AcDb2dVertex
 10
70.605245
 20
108.518836
 30
0.0
  0
VERTEX
  5
8380
100
AcDbEntity
  8
KEVLAR
100
AcDbVertex
100
AcDb2dVertex
 10
70.605245
 20
26.811336
 30
0.0
  0
SEQEND
  5
8381
100
AcDbEntity
  8
KEVLAR
  0
ENDBLK
  5
8383
100
AcDbEntity
  8
TEXT
100
AcDbBlockEnd
  0
BLOCK
  5
8385
100
AcDbEntity
  8
0
100
AcDbBlockBegin
  2
*D37
 70
    65
 10
0.0
 20
0.0
 30
0.0
  3
*D37
  1

  0
LINE
  5
8386
100
AcDbEntity
  8
0
  6
BYBLOCK
 62
     0
100
AcDbLine
 10
678.160889
 20
396.758048
 30
0.0
 11
678.160889
 21
418.421598
 31
0.0
  0
LINE
  5
8387
100
AcDbEntity
  8
0
  6
BYBLOCK
 62
     0
100
AcDbLine
 10
677.652889
 20
396.758048
 30
0.0
 11
677.652889
 21
418.421598
 31
0.0
  0
LINE
  5
8388
100
AcDbEntity
  8
0
  6
BYBLOCK
 62
     0
100
AcDbLine
 10
679.960889
 20
416.621598
 30
0.0
 11
681.760889
 21
416.621598
 31
0.0
  0
LINE
  5
8389
100
AcDbEntity
  8
0
  6
BYBLOCK
 62
     0
100
AcDbLine
 10
675.852889
 20
416.621598
 30
0.0
 11
674.052889
 21
416.621598
 31
0.0
  0
SOLID
  5
838A
100
AcDbEntity
  8
0
  6
BYBLOCK
 62
     0
100
AcDbTrace
 10
679.960889
 20
416.921598
 30
0.0
 11
679.960889
 21
416.321598
 31
0.0
 12
678.160889
 22
416.621598
 32
0.0
 13
678.160889
 23
416.621598
 33
0.0
  0
SOLID
  5
838B
100
AcDbEntity
  8
0
  6
BYBLOCK
 62
     0
100
AcDbTrace
 10
675.852889
 20
416.921598
 30
0.0
 11
675.852889
 21
416.321598
 31
0.0
 12
677.652889
 22
416.621598
 32
0.0
 13
677.652889
 23
416.621598
 33
0.0
  0
MTEXT
  5
838C
100
AcDbEntity
  8
0
  6
BYBLOCK
 62
     0
100
AcDbMText
 10
641.152889
 20
416.621598
 30
0.0
 40
3.0
 41
0.0
 71
     5
 72
     1
  1
\A1;0.10mm±0.03mm[0.004"±0.001"]
  0
POINT
  5
838D
100
AcDbEntity
  8
DEFPOINTS
  6
BYBLOCK
 62
     0
100
AcDbPoint
 10
678.160889
 20
396.128048
 30
0.0
  0
POINT
  5
838E
100
AcDbEntity
  8
DEFPOINTS
  6
BYBLOCK
 62
     0
100
AcDbPoint
 10
677.652889
 20
396.128048
 30
0.0
  0
POINT
  5
838F
100
AcDbEntity
  8
DEFPOINTS
  6
BYBLOCK
 62
     0
100
AcDbPoint
 10
677.652889
 20
416.621598
 30
0.0
  0
ENDBLK
  5
8390
100
AcDbEntity
  8
0
100
AcDbBlockEnd
  0
BLOCK
  5
8392
100
AcDbEntity
  8
0
100
AcDbBlockBegin
  2
*D38
 70
    65
 10
0.0
 20
0.0
 30
0.0
  3
*D38
  1

  0
LINE
  5
8393
100
AcDbEntity
  8
0
  6
BYBLOCK
 62
     0
100
AcDbLine
 10
679.660889
 20
396.758048
 30
0.0
 11
679.660889
 21
411.168705
 31
0.0
  0
LINE
  5
8394
100
AcDbEntity
  8
0
  6
BYBLOCK
 62
     0
100
AcDbLine
 10
680.168889
 20
396.758048
 30
0.0
 11
680.168889
 21
411.168705
 31
0.0
  0
LINE
  5
8395
100
AcDbEntity
  8
0
  6
BYBLOCK
 62
     0
100
AcDbLine
 10
677.860889
 20
409.368705
 30
0.0
 11
676.060889
 21
409.368705
 31
0.0
  0
LINE
  5
8396
100
AcDbEntity
  8
0
  6
BYBLOCK
 62
     0
100
AcDbLine
 10
681.968889
 20
409.368705
 30
0.0
 11
683.768889
 21
409.368705
 31
0.0
  0
SOLID
  5
8397
100
AcDbEntity
  8
0
  6
BYBLOCK
 62
     0
100
AcDbTrace
 10
677.860889
 20
409.668705
 30
0.0
 11
677.860889
 21
409.068705
 31
0.0
 12
679.660889
 22
409.368705
 32
0.0
 13
679.660889
 23
409.368705
 33
0.0
  0
SOLID
  5
8398
100
AcDbEntity
  8
0
  6
BYBLOCK
 62
     0
100
AcDbTrace
 10
681.968889
 20
409.668705
 30
0.0
 11
681.968889
 21
409.068705
 31
0.0
 12
680.168889
 22
409.368705
 32
0.0
 13
680.168889
 23
409.368705
 33
0.0
  0
MTEXT
  5
8399
100
AcDbEntity
  8
0
  6
BYBLOCK
 62
     0
100
AcDbMText
 10
716.668889
 20
409.368705
 30
0.0
 40
3.0
 41
0.0
 71
     5
 72
     1
  1
\A1;0.10mm±0.03mm[0.004"±0.001"]
  0
POINT
  5
839A
100
AcDbEntity
  8
DEFPOINTS
  6
BYBLOCK
 62
     0
100
AcDbPoint
 10
679.660889
 20
396.128048
 30
0.0
  0
POINT
  5
839B
100
AcDbEntity
  8
DEFPOINTS
  6
BYBLOCK
 62
     0
100
AcDbPoint
 10
680.168889
 20
396.128048
 30
0.0
  0
POINT
  5
839C
100
AcDbEntity
  8
DEFPOINTS
  6
BYBLOCK
 62
     0
100
AcDbPoint
 10
680.168889
 20
409.368705
 30
0.0
  0
ENDBLK
  5
839D
100
AcDbEntity
  8
0
100
AcDbBlockEnd
  0
BLOCK
  5
839F
100
AcDbEntity
  8
0
100
AcDbBlockBegin
  2
*D39
 70
    65
 10
0.0
 20
0.0
 30
0.0
  3
*D39
  1

  0
LINE
  5
83A0
100
AcDbEntity
  8
0
  6
BYBLOCK
 62
     0
100
AcDbLine
 10
680.798889
 20
329.420548
 30
0.0
 11
708.576373
 21
329.420548
 31
0.0
  0
LINE
  5
83A1
100
AcDbEntity
  8
0
  6
BYBLOCK
 62
     0
100
AcDbLine
 10
680.290889
 20
314.420548
 30
0.0
 11
708.576373
 21
314.420548
 31
0.0
  0
LINE
  5
83A2
100
AcDbEntity
  8
0
  6
BYBLOCK
 62
     0
100
AcDbLine
 10
706.776373
 20
327.620548
 30
0.0
 11
706.776373
 21
324.320548
 31
0.0
  0
LINE
  5
83A3
100
AcDbEntity
  8
0
  6
BYBLOCK
 62
     0
100
AcDbLine
 10
706.776373
 20
316.220548
 30
0.0
 11
706.776373
 21
319.520548
 31
0.0
  0
SOLID
  5
83A4
100
AcDbEntity
  8
0
  6
BYBLOCK
 62
     0
100
AcDbTrace
 10
706.476373
 20
327.620548
 30
0.0
 11
707.076373
 21
327.620548
 31
0.0
 12
706.776373
 22
329.420548
 32
0.0
 13
706.776373
 23
329.420548
 33
0.0
  0
SOLID
  5
83A5
100
AcDbEntity
  8
0
  6
BYBLOCK
 62
     0
100
AcDbTrace
 10
706.476373
 20
316.220548
 30
0.0
 11
707.076373
 21
316.220548
 31
0.0
 12
706.776373
 22
314.420548
 32
0.0
 13
706.776373
 23
314.420548
 33
0.0
  0
MTEXT
  5
83A6
100
AcDbEntity
  8
0
  6
BYBLOCK
 62
     0
100
AcDbMText
 10
706.776373
 20
321.920548
 30
0.0
 40
3.0
 41
0.0
 71
     5
 72
     1
  1
\A1;3.00mm[0.118"]
  0
POINT
  5
83A7
100
AcDbEntity
  8
DEFPOINTS
  6
BYBLOCK
 62
     0
100
AcDbPoint
 10
680.168889
 20
329.420548
 30
0.0
  0
POINT
  5
83A8
100
AcDbEntity
  8
DEFPOINTS
  6
BYBLOCK
 62
     0
100
AcDbPoint
 10
679.660889
 20
314.420548
 30
0.0
  0
POINT
  5
83A9
100
AcDbEntity
  8
DEFPOINTS
  6
BYBLOCK
 62
     0
100
AcDbPoint
 10
706.776373
 20
314.420548
 30
0.0
  0
ENDBLK
  5
83AA
100
AcDbEntity
  8
0
100
AcDbBlockEnd
  0
BLOCK
  5
83AC
100
AcDbEntity
  8
0
100
AcDbBlockBegin
  2
*D40
 70
    65
 10
0.0
 20
0.0
 30
0.0
  3
*D40
  1

  0
LINE
  5
83AD
100
AcDbEntity
  8
0
  6
BYBLOCK
 62
     0
100
AcDbLine
 10
677.652889
 20
396.758048
 30
0.0
 11
677.652889
 21
403.362429
 31
0.0
  0
LINE
  5
83AE
100
AcDbEntity
  8
0
  6
BYBLOCK
 62
     0
100
AcDbLine
 10
680.168889
 20
396.758048
 30
0.0
 11
680.168889
 21
403.362429
 31
0.0
  0
LINE
  5
83AF
100
AcDbEntity
  8
0
  6
BYBLOCK
 62
     0
100
AcDbLine
 10
675.852889
 20
401.562429
 30
0.0
 11
674.052889
 21
401.562429
 31
0.0
  0
LINE
  5
83B0
100
AcDbEntity
  8
0
  6
BYBLOCK
 62
     0
100
AcDbLine
 10
681.968889
 20
401.562429
 30
0.0
 11
683.768889
 21
401.562429
 31
0.0
  0
SOLID
  5
83B1
100
AcDbEntity
  8
0
  6
BYBLOCK
 62
     0
100
AcDbTrace
 10
675.852889
 20
401.862429
 30
0.0
 11
675.852889
 21
401.262429
 31
0.0
 12
677.652889
 22
401.562429
 32
0.0
 13
677.652889
 23
401.562429
 33
0.0
  0
SOLID
  5
83B2
100
AcDbEntity
  8
0
  6
BYBLOCK
 62
     0
100
AcDbTrace
 10
681.968889
 20
401.862429
 30
0.0
 11
681.968889
 21
401.262429
 31
0.0
 12
680.168889
 22
401.562429
 32
0.0
 13
680.168889
 23
401.562429
 33
0.0
  0
MTEXT
  5
83B3
100
AcDbEntity
  8
0
  6
BYBLOCK
 62
     0
100
AcDbMText
 10
717.168889
 20
401.562429
 30
0.0
 40
3.0
 41
0.0
 71
     5
 72
     1
  1
\A1;0.50mm±0.03mm[0.020"±0.001"]
  0
POINT
  5
83B4
100
AcDbEntity
  8
DEFPOINTS
  6
BYBLOCK
 62
     0
100
AcDbPoint
 10
677.652889
 20
396.128048
 30
0.0
  0
POINT
  5
83B5
100
AcDbEntity
  8
DEFPOINTS
  6
BYBLOCK
 62
     0
100
AcDbPoint
 10
680.168889
 20
396.128048
 30
0.0
  0
POINT
  5
83B6
100
AcDbEntity
  8
DEFPOINTS
  6
BYBLOCK
 62
     0
100
AcDbPoint
 10
680.168889
 20
401.562429
 30
0.0
  0
ENDBLK
  5
83B7
100
AcDbEntity
  8
0
100
AcDbBlockEnd
  0
BLOCK
  5
84DD
100
AcDbEntity
  8
0
100
AcDbBlockBegin
  2
*D41
 70
    65
 10
0.0
 20
0.0
 30
0.0
  3
*D41
  1

  0
LINE
  5
84DE
100
AcDbEntity
  8
0
  6
BYBLOCK
 62
     0
100
AcDbLine
 10
696.357313
 20
419.609924
 30
0.0
 11
696.357313
 21
441.273474
 31
0.0
  0
LINE
  5
84DF
100
AcDbEntity
  8
0
  6
BYBLOCK
 62
     0
100
AcDbLine
 10
695.595313
 20
419.609924
 30
0.0
 11
695.595313
 21
441.273474
 31
0.0
  0
LINE
  5
84E0
100
AcDbEntity
  8
0
  6
BYBLOCK
 62
     0
100
AcDbLine
 10
698.157313
 20
439.473474
 30
0.0
 11
699.957313
 21
439.473474
 31
0.0
  0
LINE
  5
84E1
100
AcDbEntity
  8
0
  6
BYBLOCK
 62
     0
100
AcDbLine
 10
693.795313
 20
439.473474
 30
0.0
 11
691.995313
 21
439.473474
 31
0.0
  0
SOLID
  5
84E2
100
AcDbEntity
  8
0
  6
BYBLOCK
 62
     0
100
AcDbTrace
 10
698.157313
 20
439.773474
 30
0.0
 11
698.157313
 21
439.173474
 31
0.0
 12
696.357313
 22
439.473474
 32
0.0
 13
696.357313
 23
439.473474
 33
0.0
  0
SOLID
  5
84E3
100
AcDbEntity
  8
0
  6
BYBLOCK
 62
     0
100
AcDbTrace
 10
693.795313
 20
439.773474
 30
0.0
 11
693.795313
 21
439.173474
 31
0.0
 12
695.595313
 22
439.473474
 32
0.0
 13
695.595313
 23
439.473474
 33
0.0
  0
MTEXT
  5
84E4
100
AcDbEntity
  8
0
  6
BYBLOCK
 62
     0
100
AcDbMText
 10
658.845313
 20
439.473474
 30
0.0
 40
3.0
 41
0.0
 71
     5
 72
     1
  1
\A1;0.15mm±0.03mm[0.006"±0.001"]
  0
POINT
  5
84E5
100
AcDbEntity
  8
DEFPOINTS
  6
BYBLOCK
 62
     0
100
AcDbPoint
 10
696.357313
 20
418.979924
 30
0.0
  0
POINT
  5
84E6
100
AcDbEntity
  8
DEFPOINTS
  6
BYBLOCK
 62
     0
100
AcDbPoint
 10
695.595313
 20
418.979924
 30
0.0
  0
POINT
  5
84E7
100
AcDbEntity
  8
DEFPOINTS
  6
BYBLOCK
 62
     0
100
AcDbPoint
 10
695.595313
 20
439.473474
 30
0.0
  0
ENDBLK
  5
84E8
100
AcDbEntity
  8
0
100
AcDbBlockEnd
  0
BLOCK
  5
8571
100
AcDbEntity
  8
0
100
AcDbBlockBegin
  2
*D42
 70
    65
 10
0.0
 20
0.0
 30
0.0
  3
*D42
  1

  0
LINE
  5
8572
100
AcDbEntity
  8
0
  6
BYBLOCK
 62
     0
100
AcDbLine
 10
697.373313
 20
419.609924
 30
0.0
 11
697.373313
 21
434.020581
 31
0.0
  0
LINE
  5
8573
100
AcDbEntity
  8
0
  6
BYBLOCK
 62
     0
100
AcDbLine
 10
698.135313
 20
419.609924
 30
0.0
 11
698.135313
 21
434.020581
 31
0.0
  0
LINE
  5
8574
100
AcDbEntity
  8
0
  6
BYBLOCK
 62
     0
100
AcDbLine
 10
695.573313
 20
432.220581
 30
0.0
 11
693.773313
 21
432.220581
 31
0.0
  0
LINE
  5
8575
100
AcDbEntity
  8
0
  6
BYBLOCK
 62
     0
100
AcDbLine
 10
699.935313
 20
432.220581
 30
0.0
 11
701.735313
 21
432.220581
 31
0.0
  0
SOLID
  5
8576
100
AcDbEntity
  8
0
  6
BYBLOCK
 62
     0
100
AcDbTrace
 10
695.573313
 20
432.520581
 30
0.0
 11
695.573313
 21
431.920581
 31
0.0
 12
697.373313
 22
432.220581
 32
0.0
 13
697.373313
 23
432.220581
 33
0.0
  0
SOLID
  5
8577
100
AcDbEntity
  8
0
  6
BYBLOCK
 62
     0
100
AcDbTrace
 10
699.935313
 20
432.520581
 30
0.0
 11
699.935313
 21
431.920581
 31
0.0
 12
698.135313
 22
432.220581
 32
0.0
 13
698.135313
 23
432.220581
 33
0.0
  0
MTEXT
  5
8578
100
AcDbEntity
  8
0
  6
BYBLOCK
 62
     0
100
AcDbMText
 10
734.885313
 20
432.220581
 30
0.0
 40
3.0
 41
0.0
 71
     5
 72
     1
  1
\A1;0.15mm±0.03mm[0.006"±0.001"]
  0
POINT
  5
8579
100
AcDbEntity
  8
DEFPOINTS
  6
BYBLOCK
 62
     0
100
AcDbPoint
 10
697.373313
 20
418.979924
 30
0.0
  0
POINT
  5
857A
100
AcDbEntity
  8
DEFPOINTS
  6
BYBLOCK
 62
     0
100
AcDbPoint
 10
698.135313
 20
418.979924
 30
0.0
  0
POINT
  5
857B
100
AcDbEntity
  8
DEFPOINTS
  6
BYBLOCK
 62
     0
100
AcDbPoint
 10
698.135313
 20
432.220581
 30
0.0
  0
ENDBLK
  5
857C
100
AcDbEntity
  8
0
100
AcDbBlockEnd
  0
BLOCK
  5
8565
100
AcDbEntity
  8
0
100
AcDbBlockBegin
  2
*D43
 70
    65
 10
0.0
 20
0.0
 30
0.0
  3
*D43
  1

  0
LINE
  5
8566
100
AcDbEntity
  8
0
  6
BYBLOCK
 62
     0
100
AcDbLine
 10
698.765313
 20
368.528816
 30
0.0
 11
726.772797
 21
368.528816
 31
0.0
  0
LINE
  5
8567
100
AcDbEntity
  8
0
  6
BYBLOCK
 62
     0
100
AcDbLine
 10
698.003313
 20
353.528816
 30
0.0
 11
726.772797
 21
353.528816
 31
0.0
  0
LINE
  5
8568
100
AcDbEntity
  8
0
  6
BYBLOCK
 62
     0
100
AcDbLine
 10
724.972797
 20
366.728816
 30
0.0
 11
724.972797
 21
363.428816
 31
0.0
  0
LINE
  5
8569
100
AcDbEntity
  8
0
  6
BYBLOCK
 62
     0
100
AcDbLine
 10
724.972797
 20
355.328816
 30
0.0
 11
724.972797
 21
358.628816
 31
0.0
  0
SOLID
  5
856A
100
AcDbEntity
  8
0
  6
BYBLOCK
 62
     0
100
AcDbTrace
 10
724.672797
 20
366.728816
 30
0.0
 11
725.272797
 21
366.728816
 31
0.0
 12
724.972797
 22
368.528816
 32
0.0
 13
724.972797
 23
368.528816
 33
0.0
  0
SOLID
  5
856B
100
AcDbEntity
  8
0
  6
BYBLOCK
 62
     0
100
AcDbTrace
 10
724.672797
 20
355.328816
 30
0.0
 11
725.272797
 21
355.328816
 31
0.0
 12
724.972797
 22
353.528816
 32
0.0
 13
724.972797
 23
353.528816
 33
0.0
  0
MTEXT
  5
856C
100
AcDbEntity
  8
0
  6
BYBLOCK
 62
     0
100
AcDbMText
 10
724.972797
 20
361.028816
 30
0.0
 40
3.0
 41
0.0
 71
     5
 72
     1
  1
\A1;3.00mm[0.118"]
  0
POINT
  5
856D
100
AcDbEntity
  8
DEFPOINTS
  6
BYBLOCK
 62
     0
100
AcDbPoint
 10
698.135313
 20
368.528816
 30
0.0
  0
POINT
  5
856E
100
AcDbEntity
  8
DEFPOINTS
  6
BYBLOCK
 62
     0
100
AcDbPoint
 10
697.373313
 20
353.528816
 30
0.0
  0
POINT
  5
856F
100
AcDbEntity
  8
DEFPOINTS
  6
BYBLOCK
 62
     0
100
AcDbPoint
 10
724.972797
 20
353.528816
 30
0.0
  0
ENDBLK
  5
8570
100
AcDbEntity
  8
0
100
AcDbBlockEnd
  0
BLOCK
  5
8559
100
AcDbEntity
  8
0
100
AcDbBlockBegin
  2
*D44
 70
    65
 10
0.0
 20
0.0
 30
0.0
  3
*D44
  1

  0
LINE
  5
855A
100
AcDbEntity
  8
0
  6
BYBLOCK
 62
     0
100
AcDbLine
 10
695.595313
 20
419.609924
 30
0.0
 11
695.595313
 21
426.214305
 31
0.0
  0
LINE
  5
855B
100
AcDbEntity
  8
0
  6
BYBLOCK
 62
     0
100
AcDbLine
 10
698.135313
 20
419.609924
 30
0.0
 11
698.135313
 21
426.214305
 31
0.0
  0
LINE
  5
855C
100
AcDbEntity
  8
0
  6
BYBLOCK
 62
     0
100
AcDbLine
 10
693.795313
 20
424.414305
 30
0.0
 11
691.995313
 21
424.414305
 31
0.0
  0
LINE
  5
855D
100
AcDbEntity
  8
0
  6
BYBLOCK
 62
     0
100
AcDbLine
 10
699.935313
 20
424.414305
 30
0.0
 11
701.735313
 21
424.414305
 31
0.0
  0
SOLID
  5
855E
100
AcDbEntity
  8
0
  6
BYBLOCK
 62
     0
100
AcDbTrace
 10
693.795313
 20
424.714305
 30
0.0
 11
693.795313
 21
424.114305
 31
0.0
 12
695.595313
 22
424.414305
 32
0.0
 13
695.595313
 23
424.414305
 33
0.0
  0
SOLID
  5
855F
100
AcDbEntity
  8
0
  6
BYBLOCK
 62
     0
100
AcDbTrace
 10
699.935313
 20
424.714305
 30
0.0
 11
699.935313
 21
424.114305
 31
0.0
 12
698.135313
 22
424.414305
 32
0.0
 13
698.135313
 23
424.414305
 33
0.0
  0
MTEXT
  5
8560
100
AcDbEntity
  8
0
  6
BYBLOCK
 62
     0
100
AcDbMText
 10
734.885313
 20
424.414305
 30
0.0
 40
3.0
 41
0.0
 71
     5
 72
     1
  1
\A1;0.51mm±0.03mm[0.020"±0.001"]
  0
POINT
  5
8561
100
AcDbEntity
  8
DEFPOINTS
  6
BYBLOCK
 62
     0
100
AcDbPoint
 10
695.595313
 20
418.979924
 30
0.0
  0
POINT
  5
8562
100
AcDbEntity
  8
DEFPOINTS
  6
BYBLOCK
 62
     0
100
AcDbPoint
 10
698.135313
 20
418.979924
 30
0.0
  0
POINT
  5
8563
100
AcDbEntity
  8
DEFPOINTS
  6
BYBLOCK
 62
     0
100
AcDbPoint
 10
698.135313
 20
424.414305
 30
0.0
  0
ENDBLK
  5
8564
100
AcDbEntity
  8
0
100
AcDbBlockEnd
  0
BLOCK
  5
850B
100
AcDbEntity
  8
0
100
AcDbBlockBegin
  2
*D45
 70
    65
 10
0.0
 20
0.0
 30
0.0
  3
*D45
  1

  0
LINE
  5
850C
100
AcDbEntity
  8
0
  6
BYBLOCK
 62
     0
100
AcDbLine
 10
553.131782
 20
245.152706
 30
0.0
 11
757.454394
 21
245.152706
 31
0.0
  0
LINE
  5
850D
100
AcDbEntity
  8
0
  6
BYBLOCK
 62
     0
100
AcDbLine
 10
754.754394
 20
247.852706
 30
0.0
 11
754.754394
 21
250.552706
 31
0.0
  0
LINE
  5
850E
100
AcDbEntity
  8
0
  6
BYBLOCK
 62
     0
100
AcDbLine
 10
754.754394
 20
232.814606
 30
0.0
 11
754.754394
 21
230.114606
 31
0.0
  0
LINE
  5
850F
100
AcDbEntity
  8
0
  6
BYBLOCK
 62
     0
100
AcDbLine
 10
754.754394
 20
230.114606
 30
0.0
 11
752.054394
 21
230.114606
 31
0.0
  0
SOLID
  5
8510
100
AcDbEntity
  8
0
  6
BYBLOCK
 62
     0
100
AcDbTrace
 10
754.304394
 20
247.852706
 30
0.0
 11
755.204394
 21
247.852706
 31
0.0
 12
754.754394
 22
245.152706
 32
0.0
 13
754.754394
 23
245.152706
 33
0.0
  0
SOLID
  5
8511
100
AcDbEntity
  8
0
  6
BYBLOCK
 62
     0
100
AcDbTrace
 10
754.304394
 20
232.814606
 30
0.0
 11
755.204394
 21
232.814606
 31
0.0
 12
754.754394
 22
235.514606
 32
0.0
 13
754.754394
 23
235.514606
 33
0.0
  0
MTEXT
  5
8512
100
AcDbEntity
  8
0
  6
BYBLOCK
 62
     0
100
AcDbMText
 10
720.554394
 20
230.114606
 30
0.0
 40
2.7
 41
0.0
 71
     5
 72
     1
  1
\A1;9.64mm±0.03mm[0.379"±0.001"]
  0
POINT
  5
8513
100
AcDbEntity
  8
DEFPOINTS
  6
BYBLOCK
 62
     0
100
AcDbPoint
 10
552.186782
 20
245.152706
 30
0.0
  0
POINT
  5
8514
100
AcDbEntity
  8
DEFPOINTS
  6
BYBLOCK
 62
     0
100
AcDbPoint
 10
797.624851
 20
235.514606
 30
0.0
  0
POINT
  5
8515
100
AcDbEntity
  8
DEFPOINTS
  6
BYBLOCK
 62
     0
100
AcDbPoint
 10
754.754394
 20
235.514606
 30
0.0
  0
ENDBLK
  5
8516
100
AcDbEntity
  8
0
100
AcDbBlockEnd
  0
BLOCK
  5
8530
100
AcDbEntity
  8
0
100
AcDbBlockBegin
  2
*D46
 70
    65
 10
0.0
 20
0.0
 30
0.0
  3
*D46
  1

  0
LINE
  5
8531
100
AcDbEntity
  8
0
  6
BYBLOCK
 62
     0
100
AcDbLine
 10
563.050968
 20
248.830206
 30
0.0
 11
797.754501
 21
248.830206
 31
0.0
  0
LINE
  5
8532
100
AcDbEntity
  8
0
  6
BYBLOCK
 62
     0
100
AcDbLine
 10
795.054501
 20
251.530206
 30
0.0
 11
795.054501
 21
254.230206
 31
0.0
  0
LINE
  5
8533
100
AcDbEntity
  8
0
  6
BYBLOCK
 62
     0
100
AcDbLine
 10
795.054501
 20
232.814606
 30
0.0
 11
795.054501
 21
230.114606
 31
0.0
  0
LINE
  5
8534
100
AcDbEntity
  8
0
  6
BYBLOCK
 62
     0
100
AcDbLine
 10
795.054501
 20
230.114606
 30
0.0
 11
792.354501
 21
230.114606
 31
0.0
  0
SOLID
  5
8535
100
AcDbEntity
  8
0
  6
BYBLOCK
 62
     0
100
AcDbTrace
 10
794.604501
 20
251.530206
 30
0.0
 11
795.504501
 21
251.530206
 31
0.0
 12
795.054501
 22
248.830206
 32
0.0
 13
795.054501
 23
248.830206
 33
0.0
  0
SOLID
  5
8536
100
AcDbEntity
  8
0
  6
BYBLOCK
 62
     0
100
AcDbTrace
 10
794.604501
 20
232.814606
 30
0.0
 11
795.504501
 21
232.814606
 31
0.0
 12
795.054501
 22
235.514606
 32
0.0
 13
795.054501
 23
235.514606
 33
0.0
  0
MTEXT
  5
8537
100
AcDbEntity
  8
0
  6
BYBLOCK
 62
     0
100
AcDbMText
 10
775.029501
 20
230.114606
 30
0.0
 40
2.7
 41
0.0
 71
     5
 72
     1
  1
\A1;13.32mm[0.524"]
  0
POINT
  5
8538
100
AcDbEntity
  8
DEFPOINTS
  6
BYBLOCK
 62
     0
100
AcDbPoint
 10
562.105968
 20
248.830206
 30
0.0
  0
POINT
  5
8539
100
AcDbEntity
  8
DEFPOINTS
  6
BYBLOCK
 62
     0
100
AcDbPoint
 10
797.624851
 20
235.514606
 30
0.0
  0
POINT
  5
853A
100
AcDbEntity
  8
DEFPOINTS
  6
BYBLOCK
 62
     0
100
AcDbPoint
 10
795.054501
 20
235.514606
 30
0.0
  0
ENDBLK
  5
853B
100
AcDbEntity
  8
0
100
AcDbBlockEnd
  0
BLOCK
  5
854C
100
AcDbEntity
  8
0
100
AcDbBlockBegin
  2
*D47
 70
    65
 10
0.0
 20
0.0
 30
0.0
  3
*D47
  1

  0
LINE
  5
854D
100
AcDbEntity
  8
0
  6
BYBLOCK
 62
     0
100
AcDbLine
 10
562.993695
 20
249.154189
 30
0.0
 11
576.711916
 21
254.160775
 31
0.0
  0
LINE
  5
854E
100
AcDbEntity
  8
0
  6
BYBLOCK
 62
     0
100
AcDbLine
 10
575.101221
 20
250.698744
 30
0.0
 11
576.026889
 21
248.162381
 31
0.0
  0
LINE
  5
854F
100
AcDbEntity
  8
0
  6
BYBLOCK
 62
     0
100
AcDbLine
 10
570.690555
 20
262.784125
 30
0.0
 11
569.764887
 21
265.320488
 31
0.0
  0
LINE
  5
8550
100
AcDbEntity
  8
0
  6
BYBLOCK
 62
     0
100
AcDbLine
 10
569.764887
 20
265.320488
 30
0.0
 11
572.30125
 21
266.246156
 31
0.0
  0
SOLID
  5
8551
100
AcDbEntity
  8
0
  6
BYBLOCK
 62
     0
100
AcDbTrace
 10
574.678494
 20
250.544466
 30
0.0
 11
575.523948
 21
250.853022
 31
0.0
 12
574.175553
 22
253.235107
 32
0.0
 13
574.175553
 23
253.235107
 33
0.0
  0
SOLID
  5
8552
100
AcDbEntity
  8
0
  6
BYBLOCK
 62
     0
100
AcDbTrace
 10
570.267828
 20
262.629847
 30
0.0
 11
571.113282
 21
262.938403
 31
0.0
 12
571.616223
 22
260.247762
 32
0.0
 13
571.616223
 23
260.247762
 33
0.0
  0
MTEXT
  5
8553
100
AcDbEntity
  8
0
  6
BYBLOCK
 62
     0
100
AcDbMText
 10
587.730793
 20
271.877304
 30
0.0
 40
2.7
 41
0.0
 71
     5
 72
     1
  1
\A1;7.47mm[0.294"]
 11
0.939394
 21
0.34284
 31
0.0
  0
POINT
  5
8554
100
AcDbEntity
  8
DEFPOINTS
  6
BYBLOCK
 62
     0
100
AcDbPoint
 10
562.105968
 20
248.830206
 30
0.0
 50
339.95
  0
POINT
  5
8555
100
AcDbEntity
  8
DEFPOINTS
  6
BYBLOCK
 62
     0
100
AcDbPoint
 10
662.026281
 20
293.24371
 30
0.0
 50
339.95
  0
POINT
  5
8556
100
AcDbEntity
  8
DEFPOINTS
  6
BYBLOCK
 62
     0
100
AcDbPoint
 10
571.616223
 20
260.247762
 30
0.0
 50
339.95
  0
ENDBLK
  5
8557
100
AcDbEntity
  8
0
100
AcDbBlockEnd
  0
BLOCK
  5
8584
100
AcDbEntity
  8
ASHADE
100
AcDbBlockBegin
  2
AVE_RENDER
 70
    64
 10
0.0
 20
0.0
 30
0.0
  3
AVE_RENDER
  1
AVE_RENDER
  0
ENDBLK
  5
8585
100
AcDbEntity
  8
0
100
AcDbBlockEnd
  0
BLOCK
  5
8592
100
AcDbEntity
  8
ASHADE
100
AcDbBlockBegin
  2
AVE_GLOBAL
 70
    64
 10
0.0
 20
0.0
 30
0.0
  3
AVE_GLOBAL
  1
AVE_GLOBAL
  0
ENDBLK
  5
8593
100
AcDbEntity
  8
0
100
AcDbBlockEnd
  0
ENDSEC
  0
SECTION
  2
ENTITIES
  0
LINE
  5
66DB
100
AcDbEntity
  8
KEVLAR
100
AcDbLine
 10
249.749026
 20
234.885224
 30
0.0
 11
260.236605
 21
228.830206
 31
0.0
1001
ACAD
1000
ASC_BOUNDS
1002
{
1070
    19
1002
}
  0
LINE
  5
66FE
100
AcDbEntity
  8
KEVLAR
100
AcDbLine
 10
203.118743
 20
234.885224
 30
0.0
 11
203.118743
 21
246.830206
 31
0.0
  0
LINE
  5
66FF
100
AcDbEntity
  8
KEVLAR
100
AcDbLine
 10
203.118743
 20
234.885224
 30
0.0
 11
249.749026
 21
234.885224
 31
0.0
  0
LINE
  5
6701
100
AcDbEntity
  8
KEVLAR
100
AcDbLine
 10
506.011605
 20
228.830206
 30
0.0
 11
506.011605
 21
229.271833
 31
0.0
  0
LINE
  5
6705
100
AcDbEntity
  8
KEVLAR
100
AcDbLine
 10
508.394105
 20
231.654333
 30
0.0
 11
526.585117
 21
231.654333
 31
0.0
  0
LINE
  5
6707
100
AcDbEntity
  8
KEVLAR
100
AcDbLine
 10
467.074105
 20
228.830206
 30
0.0
 11
431.099105
 21
228.830206
 31
0.0
  0
LINE
  5
6708
100
AcDbEntity
  8
KEVLAR
100
AcDbLine
 10
562.105968
 20
248.830206
 30
0.0
 11
205.118743
 21
248.830206
 31
0.0
  0
ARC
  5
6709
100
AcDbEntity
  8
KEVLAR
100
AcDbCircle
 10
205.118743
 20
246.830206
 30
0.0
 40
2.0
100
AcDbArc
 50
90.0
 51
180.0
  0
LINE
  5
670D
100
AcDbEntity
  8
KEVLAR
100
AcDbLine
 10
297.174105
 20
230.830206
 30
0.0
 11
293.174105
 21
230.830206
 31
0.0
  0
LINE
  5
670E
100
AcDbEntity
  8
KEVLAR
100
AcDbLine
 10
291.174105
 20
228.830206
 30
0.0
 11
291.174105
 21
228.830206
 31
0.0
  0
LINE
  5
670F
100
AcDbEntity
  8
KEVLAR
100
AcDbLine
 10
299.174105
 20
228.830206
 30
0.0
 11
299.174105
 21
228.830206
 31
0.0
  0
LINE
  5
6710
100
AcDbEntity
  8
KEVLAR
100
AcDbLine
 10
291.174105
 20
228.830206
 30
0.0
 11
260.236605
 21
228.830206
 31
0.0
  0
ARC
  5
6711
100
AcDbEntity
  8
KEVLAR
100
AcDbCircle
 10
297.174105
 20
228.830206
 30
0.0
 40
2.0
100
AcDbArc
 50
0.0
 51
90.0
  0
ARC
  5
6712
100
AcDbEntity
  8
KEVLAR
100
AcDbCircle
 10
293.174105
 20
228.830206
 30
0.0
 40
2.0
100
AcDbArc
 50
90.0
 51
180.0
  0
ARC
  5
6713
100
AcDbEntity
  8
KEVLAR
100
AcDbCircle
 10
341.149105
 20
228.830206
 30
0.0
 40
2.0
100
AcDbArc
 50
0.0
 51
90.0
  0
LINE
  5
6714
100
AcDbEntity
  8
KEVLAR
100
AcDbLine
 10
341.149105
 20
230.830206
 30
0.0
 11
337.149105
 21
230.830206
 31
0.0
  0
ARC
  5
6715
100
AcDbEntity
  8
KEVLAR
100
AcDbCircle
 10
337.149105
 20
228.830206
 30
0.0
 40
2.0
100
AcDbArc
 50
90.0
 51
180.0
  0
ARC
  5
671C
100
AcDbEntity
  8
KEVLAR
100
AcDbCircle
 10
429.099105
 20
228.830206
 30
0.0
 40
2.0
100
AcDbArc
 50
0.0
 51
90.0
  0
LINE
  5
671D
100
AcDbEntity
  8
KEVLAR
100
AcDbLine
 10
429.099105
 20
230.830206
 30
0.0
 11
425.099105
 21
230.830206
 31
0.0
  0
ARC
  5
671E
100
AcDbEntity
  8
KEVLAR
100
AcDbCircle
 10
425.099105
 20
228.830206
 30
0.0
 40
2.0
100
AcDbArc
 50
90.0
 51
180.0
  0
ARC
  5
671F
100
AcDbEntity
  8
KEVLAR
100
AcDbCircle
 10
469.074105
 20
228.830206
 30
0.0
 40
2.0
100
AcDbArc
 50
90.0
 51
180.0
  0
LINE
  5
6720
100
AcDbEntity
  8
KEVLAR
100
AcDbLine
 10
473.074105
 20
230.830206
 30
0.0
 11
469.074105
 21
230.830206
 31
0.0
  0
ARC
  5
6721
100
AcDbEntity
  8
KEVLAR
100
AcDbCircle
 10
473.074105
 20
228.830206
 30
0.0
 40
2.0
100
AcDbArc
 50
0.0
 51
90.0
  0
LINE
  5
6722
100
AcDbEntity
  8
KEVLAR
100
AcDbLine
 10
475.074105
 20
228.830206
 30
0.0
 11
506.011605
 21
228.830206
 31
0.0
  0
LINE
  5
6724
100
AcDbEntity
  8
KEVLAR
100
AcDbLine
 10
423.099105
 20
228.830206
 30
0.0
 11
343.149105
 21
228.830206
 31
0.0
  0
LINE
  5
6726
100
AcDbEntity
  8
KEVLAR
100
AcDbLine
 10
335.149105
 20
228.830206
 30
0.0
 11
299.174105
 21
228.830206
 31
0.0
  0
LINE
  5
6727
100
AcDbEntity
  8
CENTER
100
AcDbLine
 10
293.174105
 20
227.853091
 30
0.0
 11
293.174105
 21
230.161374
 31
0.0
  0
LINE
  5
6728
100
AcDbEntity
  8
CENTER
100
AcDbLine
 10
294.172028
 20
228.830206
 30
0.0
 11
291.766655
 21
228.830206
 31
0.0
  0
LINE
  5
6729
100
AcDbEntity
  8
CENTER
100
AcDbLine
 10
297.174105
 20
227.853091
 30
0.0
 11
297.174105
 21
230.161374
 31
0.0
  0
LINE
  5
672A
100
AcDbEntity
  8
CENTER
100
AcDbLine
 10
296.176183
 20
228.830206
 30
0.0
 11
298.581556
 21
228.830206
 31
0.0
  0
LINE
  5
672B
100
AcDbEntity
  8
CENTER
100
AcDbLine
 10
337.149105
 20
227.853091
 30
0.0
 11
337.149105
 21
230.161374
 31
0.0
  0
LINE
  5
672C
100
AcDbEntity
  8
CENTER
100
AcDbLine
 10
338.147028
 20
228.830206
 30
0.0
 11
335.741655
 21
228.830206
 31
0.0
  0
LINE
  5
672D
100
AcDbEntity
  8
CENTER
100
AcDbLine
 10
341.149105
 20
227.853091
 30
0.0
 11
341.149105
 21
230.161374
 31
0.0
  0
LINE
  5
672E
100
AcDbEntity
  8
CENTER
100
AcDbLine
 10
340.151183
 20
228.830206
 30
0.0
 11
342.556556
 21
228.830206
 31
0.0
  0
LINE
  5
6737
100
AcDbEntity
  8
CENTER
100
AcDbLine
 10
425.099105
 20
227.853091
 30
0.0
 11
425.099105
 21
230.161374
 31
0.0
  0
LINE
  5
6738
100
AcDbEntity
  8
CENTER
100
AcDbLine
 10
426.097028
 20
228.830206
 30
0.0
 11
423.691655
 21
228.830206
 31
0.0
  0
LINE
  5
6739
100
AcDbEntity
  8
CENTER
100
AcDbLine
 10
429.099105
 20
227.853091
 30
0.0
 11
429.099105
 21
230.161374
 31
0.0
  0
LINE
  5
673A
100
AcDbEntity
  8
CENTER
100
AcDbLine
 10
428.101183
 20
228.830206
 30
0.0
 11
430.506556
 21
228.830206
 31
0.0
  0
LINE
  5
673B
100
AcDbEntity
  8
CENTER
100
AcDbLine
 10
469.074105
 20
227.853091
 30
0.0
 11
469.074105
 21
230.161374
 31
0.0
  0
LINE
  5
673C
100
AcDbEntity
  8
CENTER
100
AcDbLine
 10
470.072028
 20
228.830206
 30
0.0
 11
467.666655
 21
228.830206
 31
0.0
  0
LINE
  5
673D
100
AcDbEntity
  8
CENTER
100
AcDbLine
 10
473.074105
 20
227.853091
 30
0.0
 11
473.074105
 21
230.161374
 31
0.0
  0
LINE
  5
673E
100
AcDbEntity
  8
CENTER
100
AcDbLine
 10
472.076183
 20
228.830206
 30
0.0
 11
474.481556
 21
228.830206
 31
0.0
  0
INSERT
  5
6777
100
AcDbEntity
  8
TEXT
100
AcDbBlockReference
  2
D-BORDER
 10
0.0
 20
0.0
 30
0.0
 41
25.4
 42
25.4
 43
25.4
  0
LINE
  5
67B2
100
AcDbEntity
  8
CENTER
100
AcDbLine
 10
509.392028
 20
229.271833
 30
0.0
 11
506.986655
 21
229.271833
 31
0.0
  0
LINE
  5
67B3
100
AcDbEntity
  8
CENTER
100
AcDbLine
 10
508.394105
 20
228.294718
 30
0.0
 11
508.394105
 21
230.603001
 31
0.0
  0
DIMENSION
  5
6E0D
100
AcDbEntity
  8
DIM
100
AcDbDimension
  2
*D2
 10
297.174105
 20
228.830206
 30
0.0
 11
333.096153
 21
267.858439
 31
0.0
 12
-11.969887
 22
-37.968422
 32
0.0
 70
   164
  3
STANDARD
100
AcDbRadialDimension
 15
297.824529
 25
230.721488
 35
0.0
 40
0.0
  0
TEXT
  5
6E10
100
AcDbEntity
  8
DIM
100
AcDbText
 10
314.633895
 20
261.711947
 30
0.0
 40
2.7
  1
8X
100
AcDbText
  0
TEXT
  5
6E9D
100
AcDbEntity
  8
TEXT
100
AcDbText
 10
727.718888
 20
38.402037
 30
0.0
 40
3.0
  1
LAYER 3 SUPPORT RIB
100
AcDbText
  0
TEXT
  5
6E9E
100
AcDbEntity
  8
TEXT
100
AcDbText
 10
715.953744
 20
24.520571
 30
0.0
 40
3.0
  1
C:\B-FAC
100
AcDbText
  0
TEXT
  5
6E9F
100
AcDbEntity
  8
TEXT
100
AcDbText
 10
763.207188
 20
24.906168
 30
0.0
 40
3.0
  1
L3-RIB01
100
AcDbText
  0
TEXT
  5
6EA0
100
AcDbEntity
  8
TEXT
100
AcDbText
 10
716.532356
 20
17.001444
 30
0.0
 40
3.0
  1
1=1
100
AcDbText
  0
TEXT
  5
6EA1
100
AcDbEntity
  8
TEXT
100
AcDbText
 10
670.43614
 20
34.160479
 30
0.0
 40
3.0
  1
S. KYRE
100
AcDbText
  0
TEXT
  5
6EA2
100
AcDbEntity
  8
TEXT
100
AcDbText
 10
693.194942
 20
33.96768
 30
0.0
 40
1.5
  1
01-31-96
100
AcDbText
  0
LINE
  5
71C2
100
AcDbEntity
  8
KEVLAR
100
AcDbLine
 10
526.585117
 20
231.654333
 30
0.0
 11
563.462565
 21
245.113082
 31
0.0
  0
LINE
  5
71C3
100
AcDbEntity
  8
KEVLAR
100
AcDbLine
 10
563.462565
 20
245.113082
 30
0.0
 11
562.105968
 21
248.830206
 31
0.0
  0
INSERT
  5
793A
100
AcDbEntity
  8
0
100
AcDbBlockReference
  2
BEAMS-1
 10
352.381605
 20
169.605206
 30
0.0
  0
LINE
  5
79AC
100
AcDbEntity
  8
CENTER
100
AcDbLine
 10
503.846505
 20
321.836616
 30
0.0
 11
503.846505
 21
36.306892
 31
0.0
  0
LINE
  5
79AD
100
AcDbEntity
  8
CENTER
100
AcDbLine
 10
797.624851
 20
235.514606
 30
0.0
 11
74.989534
 21
235.514606
 31
0.0
  0
POLYLINE
  5
79C6
100
AcDbEntity
  8
REDTEXT
100
AcDb2dPolyline
 66
     1
 10
0.0
 20
0.0
 30
0.0
 70
     1
  0
VERTEX
  5
79C7
100
AcDbEntity
  8
REDTEXT
100
AcDbVertex
100
AcDb2dVertex
 10
500.346505
 20
324.220601
 30
0.0
  0
VERTEX
  5
79C8
100
AcDbEntity
  8
REDTEXT
100
AcDbVertex
100
AcDb2dVertex
 10
500.346505
 20
331.220601
 30
0.0
  0
VERTEX
  5
79C9
100
AcDbEntity
  8
REDTEXT
100
AcDbVertex
100
AcDb2dVertex
 10
507.346505
 20
331.220601
 30
0.0
  0
VERTEX
  5
79CA
100
AcDbEntity
  8
REDTEXT
100
AcDbVertex
100
AcDb2dVertex
 10
507.346505
 20
324.220601
 30
0.0
  0
SEQEND
  5
79CB
100
AcDbEntity
  8
REDTEXT
  0
TEXT
  5
79CC
100
AcDbEntity
  8
REDTEXT
100
AcDbText
 10
502.346505
 20
325.220601
 30
0.0
 40
5.0
  1
0
100
AcDbText
  0
POLYLINE
  5
79CD
100
AcDbEntity
  8
REDTEXT
100
AcDb2dPolyline
 66
     1
 10
0.0
 20
0.0
 30
0.0
 70
     1
  0
VERTEX
  5
79CE
100
AcDbEntity
  8
REDTEXT
100
AcDbVertex
100
AcDb2dVertex
 10
800.988206
 20
231.014606
 30
0.0
  0
VERTEX
  5
79CF
100
AcDbEntity
  8
REDTEXT
100
AcDbVertex
100
AcDb2dVertex
 10
800.988206
 20
238.014606
 30
0.0
  0
VERTEX
  5
79D0
100
AcDbEntity
  8
REDTEXT
100
AcDbVertex
100
AcDb2dVertex
 10
807.988206
 20
238.014606
 30
0.0
  0
VERTEX
  5
79D1
100
AcDbEntity
  8
REDTEXT
100
AcDbVertex
100
AcDb2dVertex
 10
807.988206
 20
231.014606
 30
0.0
  0
SEQEND
  5
79D2
100
AcDbEntity
  8
REDTEXT
  0
TEXT
  5
79D3
100
AcDbEntity
  8
REDTEXT
100
AcDbText
 10
802.988206
 20
232.014606
 30
0.0
 40
5.0
  1
0
100
AcDbText
  0
LINE
  5
7CD7
100
AcDbEntity
  8
CENTER
100
AcDbLine
 10
564.611689
 20
364.803717
 30
0.0
 11
28.069588
 21
364.803717
 31
0.0
  0
LINE
  5
7E37
100
AcDbEntity
  8
CENTER
100
AcDbLine
 10
423.109452
 20
281.546446
 30
0.0
 11
423.109452
 21
495.942648
 31
0.0
  0
POLYLINE
  5
7E38
100
AcDbEntity
  8
REDTEXT
100
AcDb2dPolyline
 66
     1
 10
0.0
 20
0.0
 30
0.0
 70
     1
  0
VERTEX
  5
7E39
100
AcDbEntity
  8
REDTEXT
100
AcDbVertex
100
AcDb2dVertex
 10
419.609452
 20
498.900942
 30
0.0
  0
VERTEX
  5
7E3A
100
AcDbEntity
  8
REDTEXT
100
AcDbVertex
100
AcDb2dVertex
 10
419.609452
 20
505.900942
 30
0.0
  0
VERTEX
  5
7E3B
100
AcDbEntity
  8
REDTEXT
100
AcDbVertex
100
AcDb2dVertex
 10
426.609452
 20
505.900942
 30
0.0
  0
VERTEX
  5
7E3C
100
AcDbEntity
  8
REDTEXT
100
AcDbVertex
100
AcDb2dVertex
 10
426.609452
 20
498.900942
 30
0.0
  0
SEQEND
  5
7E3D
100
AcDbEntity
  8
REDTEXT
  0
TEXT
  5
7E3E
100
AcDbEntity
  8
REDTEXT
100
AcDbText
 10
421.609452
 20
499.900942
 30
0.0
 40
5.0
  1
0
100
AcDbText
  0
POLYLINE
  5
7E3F
100
AcDbEntity
  8
REDTEXT
100
AcDb2dPolyline
 66
     1
 10
0.0
 20
0.0
 30
0.0
 70
     1
  0
VERTEX
  5
7E40
100
AcDbEntity
  8
REDTEXT
100
AcDbVertex
100
AcDb2dVertex
 10
571.540266
 20
361.303717
 30
0.0
  0
VERTEX
  5
7E41
100
AcDbEntity
  8
REDTEXT
100
AcDbVertex
100
AcDb2dVertex
 10
571.540266
 20
368.303717
 30
0.0
  0
VERTEX
  5
7E42
100
AcDbEntity
  8
REDTEXT
100
AcDbVertex
100
AcDb2dVertex
 10
578.540266
 20
368.303717
 30
0.0
  0
VERTEX
  5
7E43
100
AcDbEntity
  8
REDTEXT
100
AcDbVertex
100
AcDb2dVertex
 10
578.540266
 20
361.303717
 30
0.0
  0
SEQEND
  5
7E44
100
AcDbEntity
  8
REDTEXT
  0
TEXT
  5
7E45
100
AcDbEntity
  8
REDTEXT
100
AcDbText
 10
573.540266
 20
362.303717
 30
0.0
 40
5.0
  1
0
100
AcDbText
  0
LEADER
  5
7EE0
100
AcDbEntity
  8
TEXT
100
AcDbLeader
  3
STANDARD
 73
     0
 75
     1
 40
2.7
 41
27.0
 76
     3
 10
217.609461
 20
260.231547
 30
0.0
 10
206.44159
 20
280.187039
 30
0.0
 10
203.74159
 20
280.187039
 30
0.0
 77
   256
1001
ACAD
1000
DSTYLE
1002
{
1070
   288
1070
     0
1070
    47
1040
0.03
1070
    48
1040
0.03
1070
   272
1070
     2
1070
    76
1070
     1
1070
   274
1070
     3
1002
}
  0
MTEXT
  5
7EE1
100
AcDbEntity
  8
TEXT
100
AcDbMText
 10
202.39159
 20
280.187039
 30
0.0
 40
2.7
 41
0.0
 71
     6
 72
     1
  1
{SEE VIEW A}
  0
TEXT
  5
7EE2
100
AcDbEntity
  8
TEXT
100
AcDbText
 10
242.97646
 20
316.92312
 30
0.0
 40
8.490074
  1
VIEW
100
AcDbText
  0
TEXT
  5
7EE3
100
AcDbEntity
  8
TEXT
100
AcDbText
 10
242.97646
 20
302.772997
 30
0.0
 40
8.490074
  1
SCALE: 5:1
100
AcDbText
  0
TEXT
  5
7EE4
100
AcDbEntity
  8
TEXT
100
AcDbText
 10
285.929137
 20
316.92312
 30
0.0
 40
15.093465
  1
A
100
AcDbText
  0
MTEXT
  5
7EE6
100
AcDbEntity
  8
DIM
100
AcDbMText
 10
137.213379
 20
341.513495
 30
0.0
 40
2.7
 41
0.0
 71
     4
 72
     1
  1
{SLOT, %%c3.18mm [0.125"]}\P{0.13mm[0.006"] CENTER TO CENTER}\P{2X}
  0
LEADER
  5
7F08
100
AcDbEntity
  8
DIM
100
AcDbLeader
  3
STANDARD
 73
     0
 75
     1
 40
2.7
 41
9.0
 76
     3
 10
503.373939
 20
236.841086
 30
0.0
 10
478.723062
 20
261.365982
 30
0.0
 10
476.023062
 20
261.365982
 30
0.0
 77
   256
1001
ACAD
1000
DSTYLE
1002
{
1070
   288
1070
     0
1070
    47
1040
0.03
1070
    48
1040
0.03
1070
   272
1070
     2
1070
    76
1070
     1
1070
   274
1070
     3
1002
}
  0
MTEXT
  5
7F09
100
AcDbEntity
  8
DIM
100
AcDbMText
 10
474.673062
 20
261.365982
 30
0.0
 40
2.7
 41
0.0
 71
     6
 72
     1
  1
{%%c2.38mm±0.03mm[%%c0.094"±0.001"]}\P{2X}
  0
LINE
  5
7F0F
100
AcDbEntity
  8
TEXT
100
AcDbLine
 10
685.369457
 20
504.822347
 30
0.0
 11
685.369457
 21
477.396958
 31
0.0
  0
LINE
  5
7F10
100
AcDbEntity
  8
TEXT
100
AcDbLine
 10
695.281868
 20
504.822347
 30
0.0
 11
695.281868
 21
477.396958
 31
0.0
  0
LINE
  5
7F11
100
AcDbEntity
  8
TEXT
100
AcDbLine
 10
764.877868
 20
504.822347
 30
0.0
 11
764.877868
 21
477.396958
 31
0.0
  0
LINE
  5
7F12
100
AcDbEntity
  8
TEXT
100
AcDbLine
 10
787.229868
 20
504.822347
 30
0.0
 11
787.229868
 21
477.396958
 31
0.0
  0
TEXT
  5
7F13
100
AcDbEntity
  8
TEXT
100
AcDbText
 10
688.0
 20
500.0
 30
0.0
 40
2.0
  1
01
100
AcDbText
  0
TEXT
  5
7F14
100
AcDbEntity
  8
TEXT
100
AcDbText
 10
688.0
 20
496.666667
 30
0.0
 40
2.0
  1
02
100
AcDbText
  0
TEXT
  5
7F15
100
AcDbEntity
  8
TEXT
100
AcDbText
 10
697.0
 20
500.0
 30
0.0
 40
2.0
  1
NEW DETECTOR LENGHT
100
AcDbText
  0
TEXT
  5
7F16
100
AcDbEntity
  8
TEXT
100
AcDbText
 10
697.0
 20
496.666667
 30
0.0
 40
2.0
  1
8.5mm CLEARANCE FROM END OF DET. TO
100
AcDbText
  0
TEXT
  5
7F17
100
AcDbEntity
  8
TEXT
100
AcDbText
 10
697.0
 20
493.333333
 30
0.0
 40
2.0
  1
END OF RIB
100
AcDbText
  0
TEXT
  5
7F18
100
AcDbEntity
  8
TEXT
100
AcDbText
 10
697.0
 20
490.0
 30
0.0
 40
2.0
  1
9.0mm CLEARANCE, ADD LOCATING HOLES
100
AcDbText
  0
TEXT
  5
7F19
100
AcDbEntity
  8
TEXT
100
AcDbText
 10
688.0
 20
490.0
 30
0.0
 40
2.0
  1
03
100
AcDbText
  0
TEXT
  5
7F1A
100
AcDbEntity
  8
TEXT
100
AcDbText
 10
770.0
 20
500.0
 30
0.0
 40
2.0
  1
11-13-95
100
AcDbText
  0
TEXT
  5
7F1B
100
AcDbEntity
  8
TEXT
100
AcDbText
 10
770.0
 20
496.666667
 30
0.0
 40
2.0
  1
11-13-95
100
AcDbText
  0
TEXT
  5
7F1C
100
AcDbEntity
  8
TEXT
100
AcDbText
 10
770.0
 20
490.0
 30
0.0
 40
2.0
  1
01-31-96
100
AcDbText
  0
ARC
  5
7F6F
100
AcDbEntity
  8
KEVLAR
100
AcDbCircle
 10
508.394105
 20
229.271833
 30
0.0
 40
2.3825
100
AcDbArc
 50
90.0
 51
180.0
  0
DIMENSION
  5
7F91
100
AcDbEntity
  8
DIM
100
AcDbDimension
  2
*D4
 10
508.394105
 20
229.271833
 30
0.0
 11
460.378987
 21
253.267374
 31
0.0
 70
   164
  3
STANDARD
100
AcDbRadialDimension
 15
506.630593
 25
230.87381
 35
0.0
 40
0.0
1001
ACAD
1000
DSTYLE
1002
{
1070
    47
1040
0.03
1070
    48
1040
0.03
1070
   272
1070
     2
1070
    76
1070
     1
1070
   274
1070
     3
1002
}
  0
ACAD_ZOMBIE_ENTITY
  5
7FCF
100
AcDbEntity
  8
KEVLAR
100
AcDbZombieEntity
 90
      498
 91
      515
 92
        8
310
0800000000000000
 93
       97
310
D28000000020290400007802CC
330
7FD0
330
7FD1
330
7FD2
330
7FD3
330
7FD0
 94
        0
  0
LINE
  5
8012
100
AcDbEntity
  8
CENTER
100
AcDbLine
 10
506.105282
 20
235.514606
 30
0.0
 11
501.620566
 21
235.514606
 31
0.0
  0
LINE
  5
8013
100
AcDbEntity
  8
CENTER
100
AcDbLine
 10
503.846505
 20
237.87163
 30
0.0
 11
503.846505
 21
233.517945
 31
0.0
  0
CIRCLE
  5
8014
100
AcDbEntity
  8
KEVLAR
100
AcDbCircle
 10
503.846505
 20
235.514606
 30
0.0
 40
1.19125
  0
LINE
  5
8015
100
AcDbEntity
  8
CENTER
100
AcDbLine
 10
552.186782
 20
245.152706
 30
0.0
 11
547.702066
 21
245.152706
 31
0.0
  0
LINE
  5
8016
100
AcDbEntity
  8
CENTER
100
AcDbLine
 10
549.928005
 20
247.50973
 30
0.0
 11
549.928005
 21
243.156045
 31
0.0
  0
CIRCLE
  5
8017
100
AcDbEntity
  8
KEVLAR
100
AcDbCircle
 10
549.928005
 20
245.152706
 30
0.0
 40
1.19125
  0
ARC
  5
8018
100
AcDbEntity
  8
KEVLAR
100
AcDbCircle
 10
265.305205
 20
235.514606
 30
0.0
 40
1.19125
100
AcDbArc
 50
90.0
 51
270.0
  0
LINE
  5
8019
100
AcDbEntity
  8
CENTER
100
AcDbLine
 10
265.305205
 20
237.705071
 30
0.0
 11
265.305205
 21
233.351386
 31
0.0
  0
LINE
  5
801A
100
AcDbEntity
  8
CENTER
100
AcDbLine
 10
267.640182
 20
235.514606
 30
0.0
 11
263.155466
 21
235.514606
 31
0.0
  0
LINE
  5
801B
100
AcDbEntity
  8
CENTER
100
AcDbLine
 10
218.001482
 20
242.238906
 30
0.0
 11
213.516766
 21
242.238906
 31
0.0
  0
ARC
  5
801F
100
AcDbEntity
  8
KEVLAR
100
AcDbCircle
 10
265.457605
 20
235.514606
 30
0.0
 40
1.19125
100
AcDbArc
 50
270.0
 51
90.0
  0
LINE
  5
8020
100
AcDbEntity
  8
KEVLAR
100
AcDbLine
 10
265.305205
 20
236.705856
 30
0.0
 11
265.457605
 21
236.705856
 31
0.0
  0
LINE
  5
8021
100
AcDbEntity
  8
KEVLAR
100
AcDbLine
 10
265.305205
 20
234.323356
 30
0.0
 11
265.457605
 21
234.323356
 31
0.0
  0
LINE
  5
8022
100
AcDbEntity
  8
CENTER
100
AcDbLine
 10
265.457605
 20
237.705071
 30
0.0
 11
265.457605
 21
233.351386
 31
0.0
  0
LINE
  5
8023
100
AcDbEntity
  8
CENTER
100
AcDbLine
 10
215.895105
 20
244.429371
 30
0.0
 11
215.895105
 21
240.075686
 31
0.0
  0
LINE
  5
8024
100
AcDbEntity
  8
KEVLAR
100
AcDbLine
 10
215.742705
 20
241.047656
 30
0.0
 11
215.895105
 21
241.047656
 31
0.0
  0
LINE
  5
8025
100
AcDbEntity
  8
KEVLAR
100
AcDbLine
 10
215.742705
 20
243.430156
 30
0.0
 11
215.895105
 21
243.430156
 31
0.0
  0
ARC
  5
8026
100
AcDbEntity
  8
KEVLAR
100
AcDbCircle
 10
215.895105
 20
242.238906
 30
0.0
 40
1.19125
100
AcDbArc
 50
270.0
 51
90.0
  0
LINE
  5
8028
100
AcDbEntity
  8
CENTER
100
AcDbLine
 10
215.742705
 20
244.429371
 30
0.0
 11
215.742705
 21
240.075686
 31
0.0
  0
ARC
  5
8029
100
AcDbEntity
  8
KEVLAR
100
AcDbCircle
 10
215.742705
 20
242.238906
 30
0.0
 40
1.19125
100
AcDbArc
 50
90.0
 51
270.0
  0
CIRCLE
  5
802A
100
AcDbEntity
  8
TEXT
  6
BORDER2
100
AcDbCircle
 10
240.505606
 20
242.301985
 30
0.0
 40
29.345601
  0
CIRCLE
  5
802E
100
AcDbEntity
  8
KEVLAR
100
AcDbCircle
 10
423.109452
 20
364.803717
 30
0.0
 40
5.95625
  0
LINE
  5
802F
100
AcDbEntity
  8
CENTER
100
AcDbLine
 10
423.109452
 20
376.58884
 30
0.0
 11
423.109452
 21
354.820413
 31
0.0
  0
LINE
  5
8030
100
AcDbEntity
  8
CENTER
100
AcDbLine
 10
434.403334
 20
364.803717
 30
0.0
 11
411.979757
 21
364.803717
 31
0.0
  0
ARC
  5
8031
100
AcDbEntity
  8
KEVLAR
100
AcDbCircle
 10
445.847452
 20
333.589853
 30
0.0
 40
11.9125
100
AcDbArc
 50
90.0
 51
180.0
  0
LINE
  5
8035
100
AcDbEntity
  8
KEVLAR
100
AcDbLine
 10
536.802512
 20
345.502353
 30
0.0
 11
557.193134
 21
352.94409
 31
0.0
  0
LINE
  5
8036
100
AcDbEntity
  8
CENTER
100
AcDbLine
 10
445.847452
 20
328.704281
 30
0.0
 11
445.847452
 21
340.245695
 31
0.0
  0
LINE
  5
8037
100
AcDbEntity
  8
CENTER
100
AcDbLine
 10
450.837063
 20
333.589853
 30
0.0
 11
438.810199
 21
333.589853
 31
0.0
  0
LINE
  5
8038
100
AcDbEntity
  8
KEVLAR
100
AcDbLine
 10
445.847452
 20
345.502353
 30
0.0
 11
536.802512
 21
345.502353
 31
0.0
  0
LINE
  5
8039
100
AcDbEntity
  8
KEVLAR
100
AcDbLine
 10
433.934952
 20
331.381717
 30
0.0
 11
433.934952
 21
333.589853
 31
0.0
  0
LINE
  5
803A
100
AcDbEntity
  8
KEVLAR
100
AcDbLine
 10
484.324098
 20
431.381717
 30
0.0
 11
411.68603
 21
431.381717
 31
0.0
  0
LINE
  5
803B
100
AcDbEntity
  8
KEVLAR
100
AcDbLine
 10
404.134883
 20
331.381717
 30
0.0
 11
433.934952
 21
331.381717
 31
0.0
  0
LINE
  5
803C
100
AcDbEntity
  8
KEVLAR
100
AcDbLine
 10
411.68603
 20
431.381717
 30
0.0
 11
406.542483
 21
418.015062
 31
0.0
  0
LINE
  5
803D
100
AcDbEntity
  8
KEVLAR
100
AcDbLine
 10
406.542483
 20
418.015062
 30
0.0
 11
410.729089
 21
404.206044
 31
0.0
  0
LINE
  5
803E
100
AcDbEntity
  8
KEVLAR
100
AcDbLine
 10
410.729089
 20
404.206044
 30
0.0
 11
402.774534
 21
385.375564
 31
0.0
  0
LINE
  5
803F
100
AcDbEntity
  8
KEVLAR
100
AcDbLine
 10
402.774534
 20
385.375564
 30
0.0
 11
409.891766
 21
374.077269
 31
0.0
  0
LINE
  5
8040
100
AcDbEntity
  8
KEVLAR
100
AcDbLine
 10
409.891766
 20
374.077269
 30
0.0
 11
400.68123
 21
355.665246
 31
0.0
  0
LINE
  5
8041
100
AcDbEntity
  8
KEVLAR
100
AcDbLine
 10
400.68123
 20
355.665246
 30
0.0
 11
409.054443
 21
341.019324
 31
0.0
  0
LINE
  5
8042
100
AcDbEntity
  8
KEVLAR
100
AcDbLine
 10
409.054443
 20
341.019324
 30
0.0
 11
404.134883
 21
331.381717
 31
0.0
  0
ARC
  5
8049
100
AcDbEntity
  8
KEVLAR
100
AcDbCircle
 10
95.917285
 20
398.425217
 30
0.0
 40
5.95625
100
AcDbArc
 50
90.0
 51
270.0
  0
LINE
  5
804A
100
AcDbEntity
  8
CENTER
100
AcDbLine
 10
95.917285
 20
409.377547
 30
0.0
 11
95.917285
 21
387.60912
 31
0.0
  0
ARC
  5
804B
100
AcDbEntity
  8
KEVLAR
100
AcDbCircle
 10
96.679285
 20
398.425217
 30
0.0
 40
5.95625
100
AcDbArc
 50
270.0
 51
90.0
  0
LINE
  5
804C
100
AcDbEntity
  8
KEVLAR
100
AcDbLine
 10
95.917285
 20
404.381467
 30
0.0
 11
96.679285
 21
404.381467
 31
0.0
  0
LINE
  5
804D
100
AcDbEntity
  8
KEVLAR
100
AcDbLine
 10
95.917285
 20
392.468967
 30
0.0
 11
96.679285
 21
392.468967
 31
0.0
  0
LINE
  5
804E
100
AcDbEntity
  8
CENTER
100
AcDbLine
 10
96.679285
 20
409.377547
 30
0.0
 11
96.679285
 21
387.60912
 31
0.0
  0
LINE
  5
804F
100
AcDbEntity
  8
CENTER
100
AcDbLine
 10
344.491785
 20
375.756047
 30
0.0
 11
344.491785
 21
353.98762
 31
0.0
  0
LINE
  5
8050
100
AcDbEntity
  8
KEVLAR
100
AcDbLine
 10
343.729785
 20
358.847467
 30
0.0
 11
344.491785
 21
358.847467
 31
0.0
  0
LINE
  5
8051
100
AcDbEntity
  8
KEVLAR
100
AcDbLine
 10
343.729785
 20
370.759967
 30
0.0
 11
344.491785
 21
370.759967
 31
0.0
  0
ARC
  5
8052
100
AcDbEntity
  8
KEVLAR
100
AcDbCircle
 10
344.491785
 20
364.803717
 30
0.0
 40
5.95625
100
AcDbArc
 50
270.0
 51
90.0
  0
LINE
  5
8053
100
AcDbEntity
  8
CENTER
100
AcDbLine
 10
107.211167
 20
398.425217
 30
0.0
 11
84.78759
 21
398.425217
 31
0.0
  0
LINE
  5
8054
100
AcDbEntity
  8
CENTER
100
AcDbLine
 10
355.404667
 20
364.803717
 30
0.0
 11
332.98109
 21
364.803717
 31
0.0
  0
LINE
  5
8055
100
AcDbEntity
  8
CENTER
100
AcDbLine
 10
343.729785
 20
375.756047
 30
0.0
 11
343.729785
 21
353.98762
 31
0.0
  0
ARC
  5
8056
100
AcDbEntity
  8
KEVLAR
100
AcDbCircle
 10
343.729785
 20
364.803717
 30
0.0
 40
5.95625
100
AcDbArc
 50
90.0
 51
270.0
  0
LINE
  5
8058
100
AcDbEntity
  8
KEVLAR
100
AcDbLine
 10
73.96381
 20
361.65681
 30
0.0
 11
265.948891
 21
361.65681
 31
0.0
  0
LINE
  5
805A
100
AcDbEntity
  8
KEVLAR
100
AcDbLine
 10
265.948891
 20
361.65681
 30
0.0
 11
318.386785
 21
331.381717
 31
0.0
1001
ACAD
1000
ASC_BOUNDS
1002
{
1070
    19
1002
}
  0
LINE
  5
805B
100
AcDbEntity
  8
KEVLAR
100
AcDbLine
 10
359.204947
 20
431.381717
 30
0.0
 11
80.773221
 21
431.381717
 31
0.0
  0
LINE
  5
805C
100
AcDbEntity
  8
KEVLAR
100
AcDbLine
 10
360.92403
 20
331.381717
 30
0.0
 11
318.386785
 21
331.381717
 31
0.0
  0
LINE
  5
805D
100
AcDbEntity
  8
KEVLAR
100
AcDbLine
 10
360.92403
 20
331.381717
 30
0.0
 11
354.511782
 21
341.529457
 31
0.0
  0
LINE
  5
805E
100
AcDbEntity
  8
KEVLAR
100
AcDbLine
 10
354.511782
 20
341.529457
 30
0.0
 11
361.61339
 21
356.472861
 31
0.0
  0
LINE
  5
805F
100
AcDbEntity
  8
KEVLAR
100
AcDbLine
 10
361.61339
 20
356.472861
 30
0.0
 11
354.138017
 21
372.910599
 31
0.0
  0
LINE
  5
8060
100
AcDbEntity
  8
KEVLAR
100
AcDbLine
 10
354.138017
 20
372.910599
 30
0.0
 11
363.856001
 21
390.095512
 31
0.0
  0
LINE
  5
8061
100
AcDbEntity
  8
KEVLAR
100
AcDbLine
 10
363.856001
 20
390.095512
 30
0.0
 11
355.259322
 21
407.280416
 31
0.0
  0
LINE
  5
8062
100
AcDbEntity
  8
KEVLAR
100
AcDbLine
 10
355.259322
 20
407.280416
 30
0.0
 11
364.603532
 21
425.586083
 31
0.0
  0
LINE
  5
8063
100
AcDbEntity
  8
KEVLAR
100
AcDbLine
 10
364.603532
 20
425.586083
 30
0.0
 11
359.204947
 21
431.381717
 31
0.0
  0
LINE
  5
8064
100
AcDbEntity
  8
KEVLAR
100
AcDbLine
 10
484.324098
 20
431.381717
 30
0.0
 11
498.364152
 21
424.046203
 31
0.0
  0
LINE
  5
8065
100
AcDbEntity
  8
KEVLAR
100
AcDbLine
 10
498.364152
 20
424.046203
 30
0.0
 11
505.142671
 21
406.430713
 31
0.0
  0
LINE
  5
8066
100
AcDbEntity
  8
KEVLAR
100
AcDbLine
 10
505.142671
 20
406.430713
 30
0.0
 11
518.699708
 21
409.140789
 31
0.0
  0
LINE
  5
8067
100
AcDbEntity
  8
KEVLAR
100
AcDbLine
 10
518.699708
 20
409.140789
 30
0.0
 11
529.545336
 21
389.492744
 31
0.0
  0
LINE
  5
8068
100
AcDbEntity
  8
KEVLAR
100
AcDbLine
 10
529.545336
 20
389.492744
 30
0.0
 11
549.20304
 21
384.072591
 31
0.0
  0
LINE
  5
8069
100
AcDbEntity
  8
KEVLAR
100
AcDbLine
 10
549.20304
 20
384.072591
 30
0.0
 11
553.27015
 21
357.649358
 31
0.0
  0
LINE
  5
806A
100
AcDbEntity
  8
KEVLAR
100
AcDbLine
 10
553.27015
 20
357.649358
 30
0.0
 11
557.193134
 21
352.94409
 31
0.0
  0
LINE
  5
806B
100
AcDbEntity
  8
KEVLAR
100
AcDbLine
 10
80.773221
 20
431.381717
 30
0.0
 11
75.084538
 21
420.578529
 31
0.0
  0
LINE
  5
806C
100
AcDbEntity
  8
KEVLAR
100
AcDbLine
 10
75.084538
 20
420.578529
 30
0.0
 11
79.682301
 21
407.557933
 31
0.0
  0
LINE
  5
806D
100
AcDbEntity
  8
KEVLAR
100
AcDbLine
 10
79.682301
 20
407.557933
 30
0.0
 11
72.785655
 21
393.771419
 31
0.0
  0
LINE
  5
806E
100
AcDbEntity
  8
KEVLAR
100
AcDbLine
 10
72.785655
 20
393.771419
 30
0.0
 11
77.38342
 21
380.750823
 31
0.0
  0
LINE
  5
806F
100
AcDbEntity
  8
KEVLAR
100
AcDbLine
 10
77.38342
 20
380.750823
 30
0.0
 11
72.019362
 21
367.730226
 31
0.0
  0
LINE
  5
8070
100
AcDbEntity
  8
KEVLAR
100
AcDbLine
 10
72.019362
 20
367.730226
 30
0.0
 11
73.96381
 21
361.65681
 31
0.0
  0
DIMENSION
  5
8101
100
AcDbEntity
  8
DIM
100
AcDbDimension
  2
*D6
 10
503.846505
 20
177.589769
 30
0.0
 11
526.121505
 21
177.589769
 31
0.0
 70
    32
  3
STANDARD
100
AcDbAlignedDimension
 13
473.074105
 23
227.853091
 33
0.0
 14
503.846505
 24
36.306892
 34
0.0
100
AcDbRotatedDimension
1001
ACAD
1000
DSTYLE
1002
{
1070
   288
1070
     0
1070
    47
1040
0.03
1070
    48
1040
0.03
1070
   272
1070
     2
1070
    76
1070
     1
1070
   274
1070
     3
1002
}
  0
DIMENSION
  5
810E
100
AcDbEntity
  8
DIM
100
AcDbDimension
  2
*D7
 10
503.846505
 20
166.96587
 30
0.0
 11
526.796505
 21
166.96587
 31
0.0
 70
    32
  3
STANDARD
100
AcDbAlignedDimension
 13
469.074105
 23
227.853091
 33
0.0
 14
503.846505
 24
36.306892
 34
0.0
100
AcDbRotatedDimension
1001
ACAD
1000
DSTYLE
1002
{
1070
   288
1070
     0
1070
    47
1040
0.03
1070
    48
1040
0.03
1070
   272
1070
     2
1070
    76
1070
     1
1070
   274
1070
     3
1002
}
  0
DIMENSION
  5
811B
100
AcDbEntity
  8
DIM
100
AcDbDimension
  2
*D8
 10
503.846505
 20
158.466751
 30
0.0
 11
466.472805
 21
158.466751
 31
0.0
 70
    32
  3
STANDARD
100
AcDbAlignedDimension
 13
429.099105
 23
227.853091
 33
0.0
 14
503.846505
 24
36.306892
 34
0.0
100
AcDbRotatedDimension
1001
ACAD
1000
DSTYLE
1002
{
1070
   288
1070
     0
1070
    47
1040
0.03
1070
    48
1040
0.03
1070
   272
1070
     2
1070
    76
1070
     1
1070
   274
1070
     3
1002
}
  0
DIMENSION
  5
8128
100
AcDbEntity
  8
DIM
100
AcDbDimension
  2
*D9
 10
503.846505
 20
150.321761
 30
0.0
 11
464.472805
 21
150.321761
 31
0.0
 70
    32
  3
STANDARD
100
AcDbAlignedDimension
 13
425.099105
 23
227.853091
 33
0.0
 14
503.846505
 24
36.306892
 34
0.0
100
AcDbRotatedDimension
1001
ACAD
1000
DSTYLE
1002
{
1070
   288
1070
     0
1070
    47
1040
0.03
1070
    48
1040
0.03
1070
   272
1070
     2
1070
    76
1070
     1
1070
   274
1070
     3
1002
}
  0
DIMENSION
  5
8135
100
AcDbEntity
  8
DIM
100
AcDbDimension
  2
*D10
 10
503.846505
 20
141.468514
 30
0.0
 11
422.497805
 21
141.468514
 31
0.0
 70
    32
  3
STANDARD
100
AcDbAlignedDimension
 13
341.149105
 23
227.853091
 33
0.0
 14
503.846505
 24
36.306892
 34
0.0
100
AcDbRotatedDimension
1001
ACAD
1000
DSTYLE
1002
{
1070
   288
1070
     0
1070
    47
1040
0.03
1070
    48
1040
0.03
1070
   272
1070
     2
1070
    76
1070
     1
1070
   274
1070
     3
1002
}
  0
DIMENSION
  5
8142
100
AcDbEntity
  8
DIM
100
AcDbDimension
  2
*D11
 10
503.846505
 20
131.552874
 30
0.0
 11
420.497805
 21
131.552874
 31
0.0
 70
    32
  3
STANDARD
100
AcDbAlignedDimension
 13
337.149105
 23
227.853091
 33
0.0
 14
503.846505
 24
36.306892
 34
0.0
100
AcDbRotatedDimension
1001
ACAD
1000
DSTYLE
1002
{
1070
   288
1070
     0
1070
    47
1040
0.03
1070
    48
1040
0.03
1070
   272
1070
     2
1070
    76
1070
     1
1070
   274
1070
     3
1002
}
  0
DIMENSION
  5
814F
100
AcDbEntity
  8
DIM
100
AcDbDimension
  2
*D12
 10
503.846505
 20
121.991365
 30
0.0
 11
400.510305
 21
121.991365
 31
0.0
 70
    32
  3
STANDARD
100
AcDbAlignedDimension
 13
297.174105
 23
227.480206
 33
0.0
 14
503.846505
 24
36.306892
 34
0.0
100
AcDbRotatedDimension
1001
ACAD
1000
DSTYLE
1002
{
1070
   288
1070
     0
1070
    47
1040
0.03
1070
    48
1040
0.03
1070
   272
1070
     2
1070
    76
1070
     1
1070
   274
1070
     3
1002
}
  0
DIMENSION
  5
81B4
100
AcDbEntity
  8
DIM
100
AcDbDimension
  2
*D13
 10
503.846505
 20
112.429855
 30
0.0
 11
398.510305
 21
112.429855
 31
0.0
 70
    32
  3
STANDARD
100
AcDbAlignedDimension
 13
293.174105
 23
227.853091
 33
0.0
 14
503.846505
 24
36.306892
 34
0.0
100
AcDbRotatedDimension
1001
ACAD
1000
DSTYLE
1002
{
1070
   288
1070
     0
1070
    47
1040
0.03
1070
    48
1040
0.03
1070
   272
1070
     2
1070
    76
1070
     1
1070
   274
1070
     3
1002
}
  0
DIMENSION
  5
81C1
100
AcDbEntity
  8
DIM
100
AcDbDimension
  2
*D14
 10
503.846505
 20
102.514215
 30
0.0
 11
382.041555
 21
102.514215
 31
0.0
 70
    32
  3
STANDARD
100
AcDbAlignedDimension
 13
260.236605
 23
228.830206
 33
0.0
 14
503.846505
 24
36.306892
 34
0.0
100
AcDbRotatedDimension
1001
ACAD
1000
DSTYLE
1002
{
1070
   288
1070
     0
1070
    47
1040
0.03
1070
    48
1040
0.03
1070
   272
1070
     2
1070
    76
1070
     1
1070
   274
1070
     3
1002
}
  0
DIMENSION
  5
81CE
100
AcDbEntity
  8
DIM
100
AcDbDimension
  2
*D15
 10
503.846505
 20
92.244446
 30
0.0
 11
376.797766
 21
92.244446
 31
0.0
 70
    32
  3
STANDARD
100
AcDbAlignedDimension
 13
249.749026
 23
234.885224
 33
0.0
 14
503.846505
 24
36.306892
 34
0.0
100
AcDbRotatedDimension
1001
ACAD
1000
DSTYLE
1002
{
1070
   288
1070
     0
1070
    47
1040
0.03
1070
    48
1040
0.03
1070
   272
1070
     2
1070
    76
1070
     1
1070
   274
1070
     3
1002
}
  0
DIMENSION
  5
81DB
100
AcDbEntity
  8
DIM
100
AcDbDimension
  2
*D16
 10
503.846505
 20
81.481959
 30
0.0
 11
353.482624
 21
81.481959
 31
0.0
 70
    32
  3
STANDARD
100
AcDbAlignedDimension
 13
203.118743
 23
234.885224
 33
0.0
 14
503.846505
 24
36.306892
 34
0.0
100
AcDbRotatedDimension
1001
ACAD
1000
DSTYLE
1002
{
1070
   288
1070
     0
1070
    47
1040
0.03
1070
    48
1040
0.03
1070
   272
1070
     2
1070
    76
1070
     1
1070
   274
1070
     3
1002
}
  0
DIMENSION
  5
81E8
100
AcDbEntity
  8
DIM
100
AcDbDimension
  2
*D17
 10
563.462565
 20
186.853396
 30
0.0
 11
533.654535
 21
186.853396
 31
0.0
 70
    32
  3
STANDARD
100
AcDbAlignedDimension
 13
503.846505
 23
321.836616
 33
0.0
 14
563.462565
 24
245.113082
 34
0.0
100
AcDbRotatedDimension
1001
ACAD
1000
DSTYLE
1002
{
1070
   288
1070
     0
1070
    47
1040
0.03
1070
    48
1040
0.03
1070
   272
1070
     2
1070
    75
1070
     1
1070
   274
1070
     3
1002
}
  0
DIMENSION
  5
81F5
100
AcDbEntity
  8
DIM
100
AcDbDimension
  2
*D18
 10
526.585117
 20
204.737187
 30
0.0
 11
549.760117
 21
204.737187
 31
0.0
 70
    32
  3
STANDARD
100
AcDbAlignedDimension
 13
503.846505
 23
321.836616
 33
0.0
 14
526.585117
 24
231.654333
 34
0.0
100
AcDbRotatedDimension
1001
ACAD
1000
DSTYLE
1002
{
1070
   288
1070
     0
1070
    47
1040
0.03
1070
    48
1040
0.03
1070
   272
1070
     2
1070
    75
1070
     1
1070
   274
1070
     3
1002
}
  0
DIMENSION
  5
8202
100
AcDbEntity
  8
DIM
100
AcDbDimension
  2
*D19
 10
508.394105
 20
196.327039
 30
0.0
 11
529.769105
 21
196.327039
 31
0.0
 70
    32
  3
STANDARD
100
AcDbAlignedDimension
 13
503.846505
 23
321.836616
 33
0.0
 14
508.394105
 24
227.921833
 34
0.0
100
AcDbRotatedDimension
1001
ACAD
1000
DSTYLE
1002
{
1070
   288
1070
     0
1070
    47
1040
0.03
1070
    48
1040
0.03
1070
   272
1070
     2
1070
    75
1070
     1
1070
   274
1070
     3
1002
}
  0
DIMENSION
  5
8255
100
AcDbEntity
  8
DIM
100
AcDbDimension
  2
*D21
 10
503.846505
 20
287.185042
 30
0.0
 11
466.496505
 21
287.185042
 31
0.0
 70
    32
  3
STANDARD
100
AcDbAlignedDimension
 13
549.928005
 23
247.50973
 33
0.0
 14
503.846505
 24
321.836616
 34
0.0
100
AcDbRotatedDimension
1001
ACAD
1000
DSTYLE
1002
{
1070
   288
1070
     0
1070
    47
1040
0.03
1070
    71
1070
     1
1070
    48
1040
0.03
1070
   272
1070
     2
1070
    76
1070
     1
1070
   274
1070
     3
1002
}
  0
DIMENSION
  5
8263
100
AcDbEntity
  8
DIM
100
AcDbDimension
  2
*D22
 10
642.358579
 20
228.830206
 30
0.0
 11
604.918579
 21
223.430206
 31
0.0
 70
    32
  3
STANDARD
100
AcDbAlignedDimension
 13
797.624851
 23
235.514606
 33
0.0
 14
506.011605
 24
228.830206
 34
0.0
 50
90.0
100
AcDbRotatedDimension
1001
ACAD
1000
DSTYLE
1002
{
1070
   288
1070
     0
1070
    71
1070
     1
1070
    48
1040
0.05
1070
   272
1070
     2
1070
    75
1070
     1
1070
   274
1070
     3
1002
}
  0
DIMENSION
  5
8271
100
AcDbEntity
  8
DIM
100
AcDbDimension
  2
*D23
 10
683.225014
 20
231.654333
 30
0.0
 11
664.550014
 21
226.254333
 31
0.0
 70
    32
  3
STANDARD
100
AcDbAlignedDimension
 13
797.624851
 23
235.514606
 33
0.0
 14
526.585117
 24
231.654333
 34
0.0
 50
90.0
100
AcDbRotatedDimension
1001
ACAD
1000
DSTYLE
1002
{
1070
   288
1070
     0
1070
    48
1040
0.05
1070
   272
1070
     2
1070
    75
1070
     1
1070
   274
1070
     3
1002
}
  0
DIMENSION
  5
829C
100
AcDbEntity
  8
DIM
100
AcDbDimension
  2
*D25
 10
78.185623
 20
235.514606
 30
0.0
 11
58.160623
 21
230.114606
 31
0.0
 70
    32
  3
STANDARD
100
AcDbAlignedDimension
 13
205.118743
 23
248.830206
 33
0.0
 14
74.989534
 24
235.514606
 34
0.0
 50
90.0
100
AcDbRotatedDimension
1001
ACAD
1000
DSTYLE
1002
{
1070
   288
1070
     0
1070
    47
1040
0.03
1070
    48
1040
0.03
1070
   272
1070
     2
1070
    76
1070
     1
1070
   274
1070
     3
1002
}
  0
DIMENSION
  5
82AA
100
AcDbEntity
  8
DIM
100
AcDbDimension
  2
*D26
 10
101.690502
 20
235.514606
 30
0.0
 11
67.490502
 21
220.816723
 31
0.0
 70
   160
  3
STANDARD
100
AcDbAlignedDimension
 13
213.516766
 23
242.238906
 33
0.0
 14
74.989534
 24
235.514606
 34
0.0
 50
90.0
100
AcDbRotatedDimension
1001
ACAD
1000
DSTYLE
1002
{
1070
    47
1040
0.03
1070
    71
1070
     1
1070
    48
1040
0.03
1070
   272
1070
     2
1070
    76
1070
     1
1070
   274
1070
     3
1002
}
  0
DIMENSION
  5
82B8
100
AcDbEntity
  8
DIM
100
AcDbDimension
  2
*D27
 10
193.840307
 20
234.885224
 30
0.0
 11
156.850307
 21
227.223994
 31
0.0
 70
   160
  3
STANDARD
100
AcDbAlignedDimension
 13
74.989534
 23
235.514606
 33
0.0
 14
203.118743
 24
234.885224
 34
0.0
 50
90.0
100
AcDbRotatedDimension
1001
ACAD
1000
DSTYLE
1002
{
1070
    71
1070
     1
1070
    48
1040
0.05
1070
   272
1070
     2
1070
    75
1070
     1
1070
   274
1070
     3
1002
}
  0
LINE
  5
82B9
100
AcDbEntity
  8
CENTER
100
AcDbLine
 10
479.553887
 20
302.077234
 30
0.0
 11
515.209727
 21
204.378977
 31
0.0
  0
LINE
  5
82BA
100
AcDbEntity
  8
CENTER
100
AcDbLine
 10
475.61661
 20
225.211856
 30
0.0
 11
662.026281
 21
293.24371
 31
0.0
  0
DIMENSION
  5
82E2
100
AcDbEntity
  8
DIM
100
AcDbDimension
  2
*D30
 10
610.023489
 20
274.264832
 30
0.0
 11
643.554419
 21
292.250629
 31
0.0
 70
    32
 51
339.95
  3
STANDARD
100
AcDbAlignedDimension
 13
563.462565
 23
245.113082
 33
0.0
 14
662.026281
 24
293.24371
 34
0.0
 50
110.05
100
AcDbRotatedDimension
1001
ACAD
1000
DSTYLE
1002
{
1070
   288
1070
     0
1070
    71
1070
     1
1070
    48
1040
0.05
1070
   272
1070
     2
1070
    76
1070
     1
1070
   274
1070
     3
1002
}
  0
DIMENSION
  5
82F1
100
AcDbEntity
  8
DIM
100
AcDbDimension
  2
*D31
 10
515.209727
 20
204.378977
 30
0.0
 11
490.429011
 21
311.415324
 31
0.0
 70
    34
  3
STANDARD$2
100
AcDb2LineAngularDimension
 13
503.846505
 23
321.836616
 33
0.0
 14
503.846505
 24
36.306892
 34
0.0
 15
479.553887
 25
302.077234
 35
0.0
 16
490.471997
 26
311.42291
 36
0.0
1001
ACAD
1000
DSTYLE
1002
{
1070
   288
1070
     0
1070
    48
1040
0.05
1070
   272
1070
     2
1070
   274
1070
     3
1002
}
  0
DIMENSION
  5
82FE
100
AcDbEntity
  8
DIM
100
AcDbDimension
  2
*D32
 10
423.109452
 20
442.138221
 30
0.0
 11
383.800619
 21
442.138221
 31
0.0
 70
    32
  1
{238.39mm±0.03mm[9.385"±0.001"]}
  3
STANDARD
100
AcDbAlignedDimension
 13
344.491785
 23
375.756047
 33
0.0
 14
423.109452
 24
495.942648
 34
0.0
100
AcDbRotatedDimension
1001
ACAD
1000
DSTYLE
1002
{
1070
   288
1070
     0
1070
    48
1040
0.05
1070
   272
1070
     2
1070
    76
1070
     1
1070
   274
1070
     3
1002
}
  0
DIMENSION
  5
830B
100
AcDbEntity
  8
DIM
100
AcDbDimension
  2
*D33
 10
423.109452
 20
449.787695
 30
0.0
 11
383.419619
 21
449.787695
 31
0.0
 70
    32
  1
{238.54mm±0.03mm[9.391"±0.001"]}
  3
STANDARD
100
AcDbAlignedDimension
 13
343.729785
 23
375.756047
 33
0.0
 14
423.109452
 24
495.942648
 34
0.0
100
AcDbRotatedDimension
1001
ACAD
1000
DSTYLE
1002
{
1070
   288
1070
     0
1070
    48
1040
0.05
1070
   272
1070
     2
1070
    76
1070
     1
1070
   274
1070
     3
1002
}
  0
DIMENSION
  5
8318
100
AcDbEntity
  8
DIM
100
AcDbDimension
  2
*D34
 10
423.109452
 20
459.915997
 30
0.0
 11
259.894369
 21
459.915997
 31
0.0
 70
    32
  1
{287.95mm±0.03mm[11.337"±0.001"]}
  3
STANDARD
100
AcDbAlignedDimension
 13
96.679285
 23
409.377547
 33
0.0
 14
423.109452
 24
495.942648
 34
0.0
100
AcDbRotatedDimension
1001
ACAD
1000
DSTYLE
1002
{
1070
   288
1070
     0
1070
    48
1040
0.05
1070
   272
1070
     2
1070
    76
1070
     1
1070
   274
1070
     3
1002
}
  0
DIMENSION
  5
8327
100
AcDbEntity
  8
DIM
100
AcDbDimension
  2
*D35
 10
423.109452
 20
469.741204
 30
0.0
 11
259.513369
 21
469.741204
 31
0.0
 70
    32
  1
{288.10mm±0.03mm[11.343"±0.001"]}
  3
STANDARD
100
AcDbAlignedDimension
 13
95.917285
 23
409.377547
 33
0.0
 14
423.109452
 24
495.942648
 34
0.0
100
AcDbRotatedDimension
1001
ACAD
1000
DSTYLE
1002
{
1070
   288
1070
     0
1070
    48
1040
0.05
1070
   272
1070
     2
1070
    76
1070
     1
1070
   274
1070
     3
1002
}
  0
LEADER
  5
8328
100
AcDbEntity
  8
DIM
100
AcDbLeader
  3
STANDARD
 76
     3
 10
99.72764
 20
393.091987
 30
0.0
 10
130.272418
 20
346.647757
 30
0.0
 10
134.171752
 20
346.647757
 30
0.0
 77
   256
1001
ACAD
1000
DSTYLE
1002
{
1070
   288
1070
     0
1070
    48
1040
0.05
1070
   272
1070
     2
1070
    76
1070
     1
1070
   274
1070
     3
1002
}
  0
MTEXT
  5
8329
100
AcDbEntity
  8
TEXT
100
AcDbMText
 10
48.470194
 20
155.368861
 30
0.0
 40
3.0
 41
150.0
 71
     1
 72
     1
  3
{MATERIAL: }\P{0.51mm [0.020"] thick Kevlar-Carbon-fiber-Epoxy-composite}\P\P{LAMINATE SCHEDULE:}\P\P{Core:}\P{cloth:  2 layers Kevlar 29 (0.004" thick ea.)}\P{ 1.7 oz/sq. yd. plain weave}\P{epoxy: heat resistant laminating epoxy}\P{ Ciba-Geigy RP400
  3
5R/RP1500H}\P{cure: 24 hrs at room temp. @ 20psi}\P{ 2 hrs postcure at 66°C}\P\P{Skins:}\P{cloth: 1 layer Carbon fiber (0.006" thick)}\P{ xx oz/sq. yd. plain weave}\P{epoxy: heat resistant laminating epoxy}\P{ Ciba-Geigy RP4005R/RP1500H}\P{cure: 24 h
  1
rs at room temp. @ 20psi}\P{ 2 hrs postcure at 66°C}\P\P{LASER CUTTING:}\P{use fixture L3-RIB11}\P
  0
TEXT
  5
832A
100
AcDbEntity
  8
TEXT
100
AcDbText
 10
688.0
 20
486.189731
 30
0.0
 40
2.0
  1
04
100
AcDbText
  0
TEXT
  5
832B
100
AcDbEntity
  8
TEXT
100
AcDbText
 10
697.0
 20
486.189731
 30
0.0
 40
2.0
  1
CHANGE LOCATION OF LOCATING HOLES
100
AcDbText
  0
TEXT
  5
832C
100
AcDbEntity
  8
TEXT
100
AcDbText
 10
770.0
 20
486.189731
 30
0.0
 40
2.0
  1
12-30-96
100
AcDbText
  0
TEXT
  5
832D
100
AcDbEntity
  8
TEXT
100
AcDbText
 10
697.0
 20
482.887498
 30
0.0
 40
2.0
  1
CHANGE MATERIAL TO CARBON-FIBER -
100
AcDbText
  0
TEXT
  5
832E
100
AcDbEntity
  8
TEXT
100
AcDbText
 10
697.0
 20
479.839283
 30
0.0
 40
2.0
  1
KEVLAR COMPOSITE
100
AcDbText
  0
MTEXT
  5
83B9
100
AcDbEntity
  8
TEXT
100
AcDbMText
 10
717.084359
 20
385.738262
 30
0.0
 40
3.0
 41
0.0
 71
     4
 72
     1
  1
{KEVLAR}
  0
LEADER
  5
83BA
100
AcDbEntity
  8
TEXT
100
AcDbLeader
  3
STANDARD
 73
     0
 74
     0
 75
     1
 40
3.0
 41
18.0
 76
     3
 10
696.826465
 20
361.18841
 30
0.0
 10
714.384359
 20
385.738262
 30
0.0
 10
716.184359
 20
385.738262
 30
0.0
 77
   256
1001
ACAD
1000
DSTYLE
1002
{
1070
   140
1040
0.3
1070
    47
1040
0.03
1070
    71
1070
     1
1070
    48
1040
0.03
1070
   272
1070
     2
1070
    40
1040
10.0
1070
     3
1000
mm
1070
   144
1040
0.2
1070
   287
1070
     0
1070
   271
1070
     2
1070
     4
1000
"
1070
   274
1070
     3
1070
   143
1040
0.03937
1070
   171
1070
     3
1070
   170
1070
     1
1002
}
  0
LEADER
  5
83BB
100
AcDbEntity
  8
TEXT
100
AcDbLeader
  3
STANDARD
 76
     2
 10
696.017731
 20
392.700295
 30
0.0
 10
716.452731
 20
410.27282
 30
0.0
 77
   256
1001
ACAD
1000
DSTYLE
1002
{
1070
   140
1040
0.3
1070
    47
1040
0.03
1070
    71
1070
     1
1070
    48
1040
0.03
1070
   272
1070
     2
1070
    40
1040
10.0
1070
     3
1000
mm
1070
   144
1040
0.2
1070
   287
1070
     0
1070
   271
1070
     2
1070
     4
1000
"
1070
   274
1070
     3
1070
   143
1040
0.03937
1070
   171
1070
     3
1070
   170
1070
     1
1002
}
  0
MTEXT
  5
83BC
100
AcDbEntity
  8
TEXT
100
AcDbMText
 10
719.152731
 20
410.27282
 30
0.0
 40
3.0
 41
0.0
 71
     4
 72
     1
  1
{CARBON FIBER}
  0
LEADER
  5
83BD
100
AcDbEntity
  8
TEXT
100
AcDbLeader
  3
STANDARD
 73
     0
 74
     0
 75
     1
 40
3.0
 41
34.0
 76
     3
 10
697.860651
 20
388.824003
 30
0.0
 10
716.452731
 20
410.27282
 30
0.0
 10
718.252731
 20
410.27282
 30
0.0
 77
   256
1001
ACAD
1000
DSTYLE
1002
{
1070
   140
1040
0.3
1070
    47
1040
0.03
1070
    71
1070
     1
1070
    48
1040
0.03
1070
   272
1070
     2
1070
    40
1040
10.0
1070
     3
1000
mm
1070
   144
1040
0.2
1070
   287
1070
     0
1070
   271
1070
     2
1070
     4
1000
"
1070
   274
1070
     3
1070
   143
1040
0.03937
1070
   171
1070
     3
1070
   170
1070
     1
1002
}
  0
DIMENSION
  5
83BE
100
AcDbEntity
  8
DIM
100
AcDbDimension
  2
*D41
 10
695.595313
 20
439.473474
 30
0.0
 11
658.845313
 21
439.473474
 31
0.0
 70
    32
  3
STANDARD
100
AcDbAlignedDimension
 13
696.357313
 23
418.979924
 33
0.0
 14
695.595313
 24
418.979924
 34
0.0
100
AcDbRotatedDimension
1001
ACAD
1000
DSTYLE
1002
{
1070
   140
1040
0.3
1070
    47
1040
0.03
1070
    71
1070
     1
1070
    48
1040
0.03
1070
   272
1070
     2
1070
    40
1040
10.0
1070
     3
1000
mm
1070
   144
1040
0.2
1070
   287
1070
     0
1070
   271
1070
     2
1070
     4
1000
"
1070
   274
1070
     3
1070
   143
1040
0.03937
1070
   171
1070
     3
1070
   170
1070
     1
1002
}
  0
DIMENSION
  5
83BF
100
AcDbEntity
  8
DIM
100
AcDbDimension
  2
*D42
 10
698.135313
 20
432.220581
 30
0.0
 11
734.885313
 21
432.220581
 31
0.0
 70
    32
  3
STANDARD
100
AcDbAlignedDimension
 13
697.373313
 23
418.979924
 33
0.0
 14
698.135313
 24
418.979924
 34
0.0
100
AcDbRotatedDimension
1001
ACAD
1000
DSTYLE
1002
{
1070
   140
1040
0.3
1070
    47
1040
0.03
1070
    71
1070
     1
1070
    48
1040
0.03
1070
   272
1070
     2
1070
    40
1040
10.0
1070
     3
1000
mm
1070
   144
1040
0.2
1070
   287
1070
     0
1070
   271
1070
     2
1070
     4
1000
"
1070
   274
1070
     3
1070
   143
1040
0.03937
1070
   171
1070
     3
1070
   170
1070
     1
1002
}
  0
DIMENSION
  5
83C0
100
AcDbEntity
  8
DIM
100
AcDbDimension
  2
*D43
 10
724.972797
 20
353.528816
 30
0.0
 11
724.972797
 21
361.028816
 31
0.0
 70
    32
  3
STANDARD
100
AcDbAlignedDimension
 13
698.135313
 23
368.528816
 33
0.0
 14
697.373313
 24
353.528816
 34
0.0
 50
90.0
100
AcDbRotatedDimension
1001
ACAD
1000
DSTYLE
1002
{
1070
   140
1040
0.3
1070
    47
1040
0.03
1070
    48
1040
0.03
1070
   272
1070
     2
1070
    40
1040
10.0
1070
     3
1000
mm
1070
   144
1040
0.2
1070
   287
1070
     0
1070
   271
1070
     2
1070
     4
1000
"
1070
   274
1070
     3
1070
   143
1040
0.03937
1070
   171
1070
     3
1070
   170
1070
     1
1002
}
  0
DIMENSION
  5
83C1
100
AcDbEntity
  8
DIM
100
AcDbDimension
  2
*D44
 10
698.135313
 20
424.414305
 30
0.0
 11
734.885313
 21
424.414305
 31
0.0
 70
    32
  3
STANDARD
100
AcDbAlignedDimension
 13
695.595313
 23
418.979924
 33
0.0
 14
698.135313
 24
418.979924
 34
0.0
100
AcDbRotatedDimension
1001
ACAD
1000
DSTYLE
1002
{
1070
   140
1040
0.3
1070
    47
1040
0.03
1070
    71
1070
     1
1070
    48
1040
0.03
1070
   272
1070
     2
1070
    40
1040
10.0
1070
     3
1000
mm
1070
   144
1040
0.2
1070
   287
1070
     0
1070
   271
1070
     2
1070
     4
1000
"
1070
   274
1070
     3
1070
   143
1040
0.03937
1070
   171
1070
     3
1070
   170
1070
     1
1002
}
  0
TEXT
  5
83C2
100
AcDbEntity
  8
TEXT
100
AcDbText
 10
677.865345
 20
336.555102
 30
0.0
 40
6.0
  1
ENDVIEW
100
AcDbText
  0
TEXT
  5
83C3
100
AcDbEntity
  8
TEXT
100
AcDbText
 10
675.153683
 20
326.793215
 30
0.0
 40
6.0
  1
SCALE 5:1
100
AcDbText
  0
LINE
  5
843A
100
AcDbEntity
  8
C-FIBER
100
AcDbLine
 10
695.595313
 20
418.713474
 30
0.0
 11
696.59597
 21
419.15572
 31
0.0
  0
LINE
  5
843B
100
AcDbEntity
  8
C-FIBER
100
AcDbLine
 10
696.59597
 20
419.15572
 30
0.0
 11
696.516469
 21
418.658122
 31
0.0
  0
LINE
  5
843C
100
AcDbEntity
  8
C-FIBER
100
AcDbLine
 10
696.516469
 20
418.658122
 30
0.0
 11
697.138772
 21
419.18682
 31
0.0
  0
LINE
  5
843D
100
AcDbEntity
  8
C-FIBER
100
AcDbLine
 10
697.138772
 20
419.18682
 30
0.0
 11
697.952846
 21
418.658122
 31
0.0
  0
LINE
  5
843E
100
AcDbEntity
  8
C-FIBER
100
AcDbLine
 10
697.952846
 20
418.658122
 30
0.0
 11
698.135313
 21
418.825302
 31
0.0
  0
POLYLINE
  5
8449
100
AcDbEntity
  8
C-FIBER
100
AcDb2dPolyline
 66
     1
 10
0.0
 20
0.0
 30
0.0
  0
VERTEX
  5
844A
100
AcDbEntity
  8
C-FIBER
100
AcDbVertex
100
AcDb2dVertex
 10
697.373313
 20
418.965418
 30
0.0
  0
VERTEX
  5
844B
100
AcDbEntity
  8
C-FIBER
100
AcDbVertex
100
AcDb2dVertex
 10
697.373313
 20
368.528816
 30
0.0
  0
VERTEX
  5
844C
100
AcDbEntity
  8
C-FIBER
100
AcDbVertex
100
AcDb2dVertex
 10
698.135313
 20
368.528816
 30
0.0
  0
VERTEX
  5
844D
100
AcDbEntity
  8
C-FIBER
100
AcDbVertex
100
AcDb2dVertex
 10
698.135313
 20
418.825302
 30
0.0
  0
SEQEND
  5
844E
100
AcDbEntity
  8
C-FIBER
  0
POLYLINE
  5
844F
100
AcDbEntity
  8
KEVLAR
100
AcDb2dPolyline
 66
     1
 10
0.0
 20
0.0
 30
0.0
  0
VERTEX
  5
8450
100
AcDbEntity
  8
KEVLAR
100
AcDbVertex
100
AcDb2dVertex
 10
696.357313
 20
353.528816
 30
0.0
  0
VERTEX
  5
8451
100
AcDbEntity
  8
KEVLAR
100
AcDbVertex
100
AcDb2dVertex
 10
696.357313
 20
419.014364
 30
0.0
  0
SEQEND
  5
8452
100
AcDbEntity
  8
KEVLAR
  0
POLYLINE
  5
8453
100
AcDbEntity
  8
KEVLAR
100
AcDb2dPolyline
 66
     1
 10
0.0
 20
0.0
 30
0.0
  0
VERTEX
  5
8454
100
AcDbEntity
  8
KEVLAR
100
AcDbVertex
100
AcDb2dVertex
 10
697.373313
 20
418.965418
 30
0.0
  0
VERTEX
  5
8455
100
AcDbEntity
  8
KEVLAR
100
AcDbVertex
100
AcDb2dVertex
 10
697.373313
 20
353.528816
 30
0.0
  0
VERTEX
  5
8456
100
AcDbEntity
  8
KEVLAR
100
AcDbVertex
100
AcDb2dVertex
 10
696.357313
 20
353.528816
 30
0.0
  0
SEQEND
  5
8457
100
AcDbEntity
  8
KEVLAR
  0
POLYLINE
  5
8458
100
AcDbEntity
  8
C-FIBER
100
AcDb2dPolyline
 66
     1
 10
0.0
 20
0.0
 30
0.0
  0
VERTEX
  5
8459
100
AcDbEntity
  8
C-FIBER
100
AcDbVertex
100
AcDb2dVertex
 10
696.357313
 20
419.014364
 30
0.0
  0
VERTEX
  5
845A
100
AcDbEntity
  8
C-FIBER
100
AcDbVertex
100
AcDb2dVertex
 10
696.357313
 20
368.528816
 30
0.0
  0
VERTEX
  5
845B
100
AcDbEntity
  8
C-FIBER
100
AcDbVertex
100
AcDb2dVertex
 10
695.595313
 20
368.528816
 30
0.0
  0
VERTEX
  5
845C
100
AcDbEntity
  8
C-FIBER
100
AcDbVertex
100
AcDb2dVertex
 10
695.595313
 20
418.713474
 30
0.0
  0
SEQEND
  5
845D
100
AcDbEntity
  8
C-FIBER
  0
TEXT
  5
8482
100
AcDbEntity
  8
TEXT
100
AcDbText
 10
805.396985
 20
24.33531
 30
0.0
 40
3.0
  1
04
100
AcDbText
  0
DIMENSION
  5
850A
100
AcDbEntity
  8
DIM
100
AcDbDimension
  2
*D45
 10
754.754394
 20
235.514606
 30
0.0
 11
720.554394
 21
230.114606
 31
0.0
 70
    32
  3
STANDARD
100
AcDbAlignedDimension
 13
552.186782
 23
245.152706
 33
0.0
 14
797.624851
 24
235.514606
 34
0.0
 50
90.0
100
AcDbRotatedDimension
1001
ACAD
1000
DSTYLE
1002
{
1070
   288
1070
     0
1070
    47
1040
0.03
1070
    71
1070
     1
1070
    48
1040
0.03
1070
   272
1070
     2
1070
    76
1070
     1
1070
   274
1070
     3
1002
}
  0
DIMENSION
  5
853C
100
AcDbEntity
  8
DIM
100
AcDbDimension
  2
*D46
 10
795.054501
 20
235.514606
 30
0.0
 11
775.029501
 21
230.114606
 31
0.0
 70
    32
  3
STANDARD
100
AcDbAlignedDimension
 13
562.105968
 23
248.830206
 33
0.0
 14
797.624851
 24
235.514606
 34
0.0
 50
90.0
100
AcDbRotatedDimension
1001
ACAD
1000
DSTYLE
1002
{
1070
   288
1070
     0
1070
    47
1040
0.03
1070
    48
1040
0.03
1070
   272
1070
     2
1070
    76
1070
     1
1070
   274
1070
     3
1002
}
  0
DIMENSION
  5
8558
100
AcDbEntity
  8
DIM
100
AcDbDimension
  2
*D47
 10
571.616223
 20
260.247762
 30
0.0
 11
587.730793
 21
271.877304
 31
0.0
 70
    32
 51
339.95
  3
STANDARD
100
AcDbAlignedDimension
 13
562.105968
 23
248.830206
 33
0.0
 14
662.026281
 24
293.24371
 34
0.0
 50
110.05
100
AcDbRotatedDimension
1001
ACAD
1000
DSTYLE
1002
{
1070
   288
1070
     0
1070
    47
1040
0.03
1070
    48
1040
0.03
1070
   272
1070
     2
1070
    76
1070
     1
1070
   274
1070
     3
1002
}
  0
INSERT
  5
8586
100
AcDbEntity
  8
ASHADE
 62
     1
100
AcDbBlockReference
  2
AVE_RENDER
 10
0.0
 20
0.0
 30
0.0
1001
AVE_RENDER
1002
{
1070
     6
1000
Pref
1070
    30
1070
    20
1070
     1
1070
     0
1000

1070
    10
1070
     1
1070
    30
1040
1.0
1070
     1
1040
0.3
1040
0.7
1040
0.0
1040
10.0
1010
-1.0
1020
-1.0
1030
-1.0
1040
0.3
1070
    49
1070
     0
1070
     0
1010
1.0
1020
1.0
1030
1.0
1040
45.0
1070
     1
1070
     0
1000
WCS
1040
0.0
1002
}
  0
INSERT
  5
8587
100
AcDbEntity
  8
ASHADE
 62
     3
100
AcDbBlockReference
  2
AVE_RENDER
 10
0.0
 20
0.0
 30
0.0
1001
AVE_RENDER
1002
{
1070
     0
1000
Full Opt
1070
     0
1070
     1
1070
     1
1070
     1
1070
     0
1070
     0
1070
     0
1070
     1
1070
     1
1040
0.0001
1040
0.0001
1002
}
  0
INSERT
  5
8588
100
AcDbEntity
  8
ASHADE
 62
     4
100
AcDbBlockReference
  2
AVE_RENDER
 10
0.0
 20
0.0
 30
0.0
1001
AVE_RENDER
1002
{
1070
     0
1000
Quick Opt
1070
     0
1070
     1
1070
     1
1070
     1
1070
     0
1070
     0
1070
     1
1002
}
  0
INSERT
  5
8589
100
AcDbEntity
  8
ASHADE
 62
     5
100
AcDbBlockReference
  2
AVE_RENDER
 10
0.0
 20
0.0
 30
0.0
1001
AVE_RENDER
1002
{
1070
     1
1000
Scanl Opt
1070
     2
1070
     0
1070
     2
1040
2.0
1040
4.0
1070
     0
1070
     1
1070
     0
1040
0.03
1002
}
  0
INSERT
  5
858A
100
AcDbEntity
  8
ASHADE
 62
     6
100
AcDbBlockReference
  2
AVE_RENDER
 10
0.0
 20
0.0
 30
0.0
1001
AVE_RENDER
1002
{
1070
     2
1000
Raytr Opt
1070
     2
1070
     0
1070
     2
1040
2.0
1040
4.0
1070
     0
1070
     1
1070
     1
1040
0.03
1070
     3
1040
0.03
1002
}
  0
INSERT
  5
858B
100
AcDbEntity
  8
ASHADE
 62
     7
100
AcDbBlockReference
  2
AVE_RENDER
 10
0.0
 20
0.0
 30
0.0
1001
AVE_RENDER
1002
{
1070
     0
1000
RFile Opt
1070
     5
1070
   640
1070
   480
1070
 10000
1070
     3
1070
    32
1070
    24
1070
     0
1070
     0
1070
     0
1070
     1
1070
     0
1070
     0
1070
     0
1002
}
  0
INSERT
  5
858C
100
AcDbEntity
  8
ASHADE
 62
     8
100
AcDbBlockReference
  2
AVE_RENDER
 10
0.0
 20
0.0
 30
0.0
1001
AVE_RENDER
1002
{
1070
     0
1000
Fog Opt
1070
     0
1070
     0
1040
0.0
1040
1.0
1040
0.0
1040
1.0
1010
0.5
1020
0.5
1030
0.5
1002
}
  0
INSERT
  5
858D
100
AcDbEntity
  8
ASHADE
 62
     9
100
AcDbBlockReference
  2
AVE_RENDER
 10
0.0
 20
0.0
 30
0.0
1001
AVE_RENDER
1002
{
1070
     0
1000
BG Opt
1070
     0
1070
     1
1010
0.0
1020
0.0
1030
0.0
1010
1.0
1020
0.0
1030
0.0
1010
0.0
1020
1.0
1030
0.0
1010
0.0
1020
0.0
1030
1.0
1040
0.5
1040
0.33
1040
0.0
1000

1070
     1
1000

1070
     1
1070
     1
1040
1.0
1040
1.0
1040
0.0
1040
0.0
1070
     0
1002
}
  0
INSERT
  5
8594
100
AcDbEntity
  8
ASHADE
 62
     1
100
AcDbBlockReference
  2
AVE_GLOBAL
 10
0.0
 20
0.0
 30
0.0
1001
AVE_MATERIAL
1002
{
1000
*GLOBAL*
1000
1
1000
Global finish.
1002
{
1002
}
1002
{
1070
    63
1002
{
1002
{
1010
-1.0
1020
-1.0
1030
-1.0
1002
}
1040
0.1
1000

1040
0.0
1002
{
1002
}
1040
0.0
1002
{
1002
}
1040
0.0
1002
}
1002
{
1002
{
1010
-1.0
1020
-1.0
1030
-1.0
1002
}
1040
0.7
1000

1040
0.0
1002
{
1002
}
1040
0.0
1002
{
1002
}
1040
0.0
1002
}
1002
{
1002
{
1010
-1.0
1020
-1.0
1030
-1.0
1002
}
1040
0.2
1000

1040
0.0
1002
{
1002
}
1040
0.0
1002
{
1002
}
1040
0.0
1002
}
1002
{
1070
     0
1002
{
1070
     1
1002
{
1040
1.0
1040
1.0
1000

1040
0.0
1002
{
1002
}
1040
0.0
1002
{
1002
}
1040
0.0
1002
}
1002
}
1040
1.0
1040
0.0
1040
0.0
1002
}
1002
{
1040
1.0
1040
1.0
1000

1040
0.0
1002
{
1002
}
1040
0.0
1002
{
1002
}
1040
0.0
1002
}
1002
{
1040
0.5
1040
1.0
1000

1040
0.0
1002
{
1002
}
1040
0.0
1002
{
1002
}
1040
0.0
1002
}
1002
{
1070
     0
1040
0.0
1002
{
1002
}
1040
1.0
1002
{
1002
}
1040
0.0
1002
}
1002
{
1040
0.0
1002
{
1002
{
1010
0.0
1020
0.0
1030
0.0
1002
}
1040
1.0
1000

1040
0.0
1002
{
1002
}
1040
0.0
1002
{
1002
}
1040
0.0
1002
}
1002
}
1002
{
1002
{
1070
     1
1002
{
1040
0.0
1040
1.0
1000

1040
0.0
1002
{
1002
}
1040
0.0
1002
{
1002
}
1040
0.0
1002
}
1002
}
1040
0.0
1002
{
1002
}
1010
1.0
1020
0.0
1030
0.0
1010
0.0
1020
1.0
1030
0.0
1010
0.0
1020
0.0
1030
1.0
1070
     0
1002
}
1002
{
1002
{
1040
1.0
1040
1.0
1002
{
1070
     1
1002
{
1040
1.0
1040
1.0
1000

1040
0.0
1002
{
1002
}
1040
0.0
1002
{
1002
}
1040
0.0
1002
}
1002
}
1002
}
1070
     0
1040
0.0
1002
{
1002
}
1002
}
1002
{
1002
}
1002
}
1002
{
1071
        3
1070
     3
1070
     0
1002
{
1070
     2
1070
     0
1070
     0
1040
0.0
1002
}
1070
     0
1070
     2
1002
{
1002
}
1002
}
1002
{
1040
8030.0
1040
190.300003
1040
0.305
1040
228.0
1040
545.0
1040
14.0
1040
17.4
1040
0.456
1002
}
1002
}
  0
ENDSEC
  0
SECTION
  2
OBJECTS
  0
DICTIONARY
  5
6602
100
AcDbDictionary
  3
ACAD_GROUP
350
6603
  3
ACAD_MLINESTYLE
350
6604
  3
ACASAPPOBJECT
350
800A
  3
ACASGREF_MASTER
350
7FBF
  3
ACCELVIEW
350
8319
  3
ACDMSYSVARMGR
350
7FDB
  3
ACGREF_MASTER
350
7FBD
  3
ACME_COMMAND_HISTORY
350
7FBB
  3
ACME_SCOPE_NAME
350
7FBA
  3
AD_APPL
350
7FCE
  3
AD_DRAWMGR_NAME
350
7FED
  3
AD_GREF_MODULE
350
7FD6
  3
AD_HOLENOTE_REPOSITORY
350
7FD5
  3
ADSYSVARMGR
350
7FC4
  3
AMI_MASTER
350
7FBE
  3
AUTOCAD_ASSEMBLIES_PROJECT
350
7FF9
  3
DESIGNER_ASSEMBLIES_SYSVARS
350
7FF4
  0
DICTIONARY
  5
6603
102
{ACAD_REACTORS
330
6602
102
}
100
AcDbDictionary
  0
DICTIONARY
  5
6604
102
{ACAD_REACTORS
330
6602
102
}
100
AcDbDictionary
  3
STANDARD
350
6611
  0
ACAD_ZOMBIE_OBJECT
  5
800A
102
{ACAD_REACTORS
330
6602
102
}
100
AcDbZombieObject
 90
      499
 91
      536
 93
        2
310
90
360
8008
 94
        0
  0
ACAD_ZOMBIE_OBJECT
  5
7FBF
102
{ACAD_REACTORS
330
6602
102
}
100
AcDbZombieObject
 90
      499
 91
      505
 93
       34
310
0100004040
 94
        0
  0
ACAD_ZOMBIE_OBJECT
  5
8319
102
{ACAD_REACTORS
330
6602
102
}
100
AcDbZombieObject
 90
      499
 91
      537
 93
       12
310
9934
330
7FCF
330
8014
330
8013
330
8012
330
8015
330
8016
330
8017
330
801A
330
8019
330
8018
330
801B
330
801F
330
8020
330
8021
330
8022
330
8029
330
8028
330
8026
330
8025
330
8024
330
8023
330
802A
330
8039
330
8038
330
803A
330
803B
330
8037
330
8036
330
8035
330
8031
330
8030
330
802F
330
802E
330
803C
330
803D
330
803E
330
803F
330
8040
330
8041
330
8042
330
805A
330
8058
330
805B
330
805C
330
8056
330
8055
330
8054
330
8053
330
8052
330
8051
330
8050
330
804F
330
804E
330
804D
330
804C
330
804B
330
804A
330
8049
330
805D
330
805E
330
805F
330
8060
330
8061
330
8062
330
8063
330
8064
330
8065
330
8066
330
8067
330
8068
330
8069
330
806A
330
806B
330
806C
330
806D
330
806E
330
806F
330
8070
330
8101
330
810E
330
811B
330
8128
330
8135
330
8142
330
814F
330
81B4
330
81C1
330
81CE
330
81DB
330
81E8
330
81F5
330
8202
330
8255
330
8263
330
8271
330
829C
330
82AA
330
82B8
330
82B9
330
82BA
330
82E2
330
82F1
330
82FE
330
830B
330
8318
330
8327
330
8328
330
8329
330
832B
330
832A
330
832C
330
832D
330
832E
330
83B9
330
83BA
330
83BB
330
83BC
330
83BD
330
83BE
330
83BF
330
83C0
330
83C1
330
83C2
330
83C3
330
843A
330
843B
330
843C
330
843D
330
843E
330
8449
330
844F
330
8453
330
8458
330
8482
330
71C3
330
850A
330
853C
330
8558
330
8586
330
8587
330
8588
330
8589
330
858A
330
858B
330
858C
330
858D
330
8594
 94
        0
  0
ACAD_ZOMBIE_OBJECT
  5
7FDB
102
{ACAD_REACTORS
330
6602
102
}
100
AcDbZombieObject
 90
      499
 91
      510
 93
      176
310
4C5114810100000000000000000000000000000000004F
330
7FDC
330
7FDD
330
7FDE
330
7FDF
330
7FE0
330
7FE1
330
7FE2
330
7FE3
330
7FE4
330
7FE5
330
7FE6
330
7FE7
330
7FE8
330
7FE9
330
7FEA
330
7FEB
330
7FEC
 94
        0
  0
ACAD_ZOMBIE_OBJECT
  5
7FBD
102
{ACAD_REACTORS
330
6602
102
}
100
AcDbZombieObject
 90
      499
 91
      503
 93
      114
310
01000040C000000000000000000000
 94
        0
  0
ACAD_ZOMBIE_OBJECT
  5
7FBB
102
{ACAD_REACTORS
330
6602
102
}
100
AcDbZombieObject
 90
      499
 91
      501
 93
     2064
310
478050444494D31404050A4E202D2053455456415201411112534C501014293880B4814D1551590548050444494D31404050A4E202D20534554564152014115539113E014115539113E0142511253531253915054A0141949151149055E014055601405560140D550D4E0142511253531253915054A0140D550D4E01411693
310
D3D3601411693D3D3601411693D3D36014153D4D3905420141111254D520141D4D514915510D2201411693D3D3601419111115112552014191561413D4952014191561413D4952014254D055915054D48C4CA014115539113E014154D51653116014115539113E014194D1531150D52014115539113E014115539113E01411
310
455525524F
 94
        0
  0
ACAD_ZOMBIE_OBJECT
  5
7FBA
102
{ACAD_REACTORS
330
6602
102
}
100
AcDbZombieObject
 90
      499
 91
      500
 93
      456
310
01010040931000000000000000000000000000000000000000000000000000000000000000000000000000000000000000000000000009010000
360
7FC0
360
7FC1
360
7FC2
360
7FC3
360
7FC5
360
7FC6
360
7FC7
360
7FC8
360
7FC9
360
7FCA
360
7FCB
360
7FCC
360
7FCD
360
7FD0
360
7FD1
360
7FD2
360
7FD3
360
7FD4
360
7FD7
360
7FD8
360
7FD9
360
7FDA
360
7FDC
360
7FDD
360
7FDE
360
7FDF
360
7FE0
360
7FE1
360
7FE2
360
7FE3
360
7FE4
360
7FE5
360
7FE6
360
7FE7
360
7FE8
360
7FE9
360
7FEA
360
7FEB
360
7FEC
360
7FF5
360
7FF6
360
7FF7
360
7FF8
360
7FFD
360
7FFE
360
7FFF
360
8000
360
8001
360
8005
330
7FCF
 94
        0
  0
ACAD_ZOMBIE_OBJECT
  5
7FCE
102
{ACAD_REACTORS
330
6602
102
}
100
AcDbZombieObject
 90
      499
 91
      514
 93
       42
310
000100004340
330
7FC0
 94
        0
  0
ACAD_ZOMBIE_OBJECT
  5
7FED
102
{ACAD_REACTORS
330
6602
102
}
100
AcDbZombieObject
 90
      499
 91
      526
 93
       42
310
00010000440E
330
7FD7
 94
        0
  0
ACAD_ZOMBIE_OBJECT
  5
7FD6
102
{ACAD_REACTORS
330
6602
102
}
100
AcDbZombieObject
 90
      499
 91
      521
 93
      114
310
000000428000000000000000000009
 94
        0
  0
ACAD_ZOMBIE_OBJECT
  5
7FD5
102
{ACAD_REACTORS
330
6602
102
}
100
AcDbZombieObject
 90
      499
 91
      520
 93
        8
310
0006
330
7FD4
 94
        0
  0
ACAD_ZOMBIE_OBJECT
  5
7FC4
102
{ACAD_REACTORS
330
6602
102
}
100
AcDbZombieObject
 90
      499
 91
      510
 93
      104
310
9094410100000000000000000052
330
7FC5
330
7FC6
330
7FC7
330
7FC8
330
7FC9
330
7FCA
330
7FCB
330
7FCC
330
7FCD
 94
        0
  0
ACAD_ZOMBIE_OBJECT
  5
7FBE
102
{ACAD_REACTORS
330
6602
102
}
100
AcDbZombieObject
 90
      499
 91
      504
 93
       34
310
0100004040
 94
        0
  0
ACAD_ZOMBIE_OBJECT
  5
7FF9
102
{ACAD_REACTORS
330
6602
102
}
100
AcDbZombieObject
 90
      499
 91
      527
 93
       58
310
0100004180000000
330
7FFF
330
8005
330
8000
 94
        0
  0
ACAD_ZOMBIE_OBJECT
  5
7FF4
102
{ACAD_REACTORS
330
6602
102
}
100
AcDbZombieObject
 90
      499
 91
      510
 93
       64
310
904441010000000054
330
7FF5
330
7FF6
330
7FF7
330
7FF8
 94
        0
  0
MLINESTYLE
  5
6611
102
{ACAD_REACTORS
330
6604
102
}
100
AcDbMlineStyle
  2
STANDARD
 70
     0
  3

 62
     0
 51
90.0
 52
90.0
 71
     2
 49
0.5
 62
   256
  6
BYLAYER
 49
-0.5
 62
   256
  6
BYLAYER
  0
ACAD_ZOMBIE_OBJECT
  5
8008
100
AcDbZombieObject
 90
      499
 91
      534
 93
      720
310
9064D2E312E313607014B7269BC41100000000000000E03F1EC52B91F85EA10FE1EC52B91F85EA10FD034153471EC52B91F85EA10FC000000FC83D797414650540C000000000000E03F3F2A7C749358940FC000000FC83D797414F
 94
        0
  0
ACAD_ZOMBIE_OBJECT
  5
7FC0
100
AcDbZombieObject
 90
      499
 91
      506
 93
      280
310
000000000000014119185D1940506462E312E3136014119185D1940506462E312E313600
330
7FBA
330
7FC1
330
7FC2
330
7FC4
330
7FCF
 94
        0
  0
ACAD_ZOMBIE_OBJECT
  5
7FC1
100
AcDbZombieObject
 90
      499
 91
      507
 93
      120
310
00009024410100000092080002A6A602
330
7FBA
330
7FD1
330
7FD0
330
0
 94
        0
  0
ACAD_ZOMBIE_OBJECT
  5
7FC2
100
AcDbZombieObject
 90
      499
 91
      508
 93
       46
310
000000009208
330
7FBA
330
0
330
7FC3
 94
        0
  0
ACAD_ZOMBIE_OBJECT
  5
7FC3
100
AcDbZombieObject
 90
      499
 91
      509
 93
       22
310
0000A8
330
7FBA
 94
        0
  0
ACAD_ZOMBIE_OBJECT
  5
7FC5
100
AcDbZombieObject
 90
      499
 91
      511
 93
      124
310
00000142905350D3D39114D414D69050
330
7FBA
 94
        0
  0
ACAD_ZOMBIE_OBJECT
  5
7FC6
100
AcDbZombieObject
 90
      499
 91
      511
 93
      124
310
000001429053549553115353D1115010
330
7FBA
 94
        0
  0
ACAD_ZOMBIE_OBJECT
  5
7FC7
100
AcDbZombieObject
 90
      499
 91
      511
 93
      108
310
00000142105354D2D353D1115010
330
7FBA
 94
        0
  0
ACAD_ZOMBIE_OBJECT
  5
7FC8
100
AcDbZombieObject
 90
      499
 91
      511
 93
      140
310
000001435053511253511254D41353D11160
330
7FBA
 94
        0
  0
ACAD_ZOMBIE_OBJECT
  5
7FC9
100
AcDbZombieObject
 90
      499
 91
      512
 93
      180
310
00000142905354D2D05391D513D3000000000000010400
330
7FBA
 94
        0
  0
ACAD_ZOMBIE_OBJECT
  5
7FCA
100
AcDbZombieObject
 90
      499
 91
      513
 93
      164
310
00000142505354D2D4D516531140505434F4E542A0
330
7FBA
 94
        0
  0
ACAD_ZOMBIE_OBJECT
  5
7FCB
100
AcDbZombieObject
 90
      499
 91
      511
 93
      108
310
00000142105350D3511112535010
330
7FBA
 94
        0
  0
ACAD_ZOMBIE_OBJECT
  5
7FCC
100
AcDbZombieObject
 90
      499
 91
      513
 93
      116
310
000001425053541054919253114060
330
7FBA
 94
        0
  0
ACAD_ZOMBIE_OBJECT
  5
7FCD
100
AcDbZombieObject
 90
      499
 91
      511
 93
      100
310
00000142105350D3D35414D5A0
330
7FBA
 94
        0
  0
ACAD_ZOMBIE_OBJECT
  5
7FD0
100
AcDbZombieObject
 90
      499
 91
      516
 93
      164
310
000092090148200A00000440000FFFFFFFF0000000
330
7FBA
330
7FD1
330
7FC1
330
7FCF
 94
        0
  0
ACAD_ZOMBIE_OBJECT
  5
7FD1
100
AcDbZombieObject
 90
      499
 91
      517
 93
       82
310
000040520802482A800000
330
7FBA
330
7FD0
330
7FC1
330
7FCF
 94
        0
  0
ACAD_ZOMBIE_OBJECT
  5
7FD2
100
AcDbZombieObject
 90
      499
 91
      509
 93
       22
310
0000AA
330
7FBA
 94
        0
  0
ACAD_ZOMBIE_OBJECT
  5
7FD3
100
AcDbZombieObject
 90
      499
 91
      518
 93
       38
310
000000920B
330
7FBA
330
0
 94
        0
  0
ACAD_ZOMBIE_OBJECT
  5
7FD4
100
AcDbZombieObject
 90
      499
 91
      519
 93
     3196
310
0000419208050A544852555F4452494C4C0142D09312539117D1149253130050A544852555F43424F52450142D09312539117D0D093D4914050A544852555F4353494E4B0142D09312539117D0D4D25392D0648201459EC94958C8094950535112504815121493D551D20B9F4051C7B252563202525414D444941205820252
310
5414D44455020444545507D014F5EC94958C8094950535112504815121493D551D20B9F57141ED0D093D49148094958C80949505350D112504816080949505350D091115408111151541F405437B252563202525414D4449412058202525414D44455020444545507D5C507B43424F524520252563202525414D4344494120
310
58202525414D434244455020444545507D014EDEC94958C8094950535112504815121493D551D20B9F57141ED0D4D25392C8094958C80949505350D112504816080949505350D4D05391C949591F405417B252563202525414D4449412058202525414D44455020444545507D5C507B4353494E4B20252563202525414D434
310
449412058202525414D4353414E472525647D2
330
7FBA
 94
        0
  0
ACAD_ZOMBIE_OBJECT
  5
7FD7
100
AcDbZombieObject
 90
      499
 91
      522
 93
      308
310
0000014119185D1940507442E312E313663014119185D1940507442E312E313663405010000004
330
7FBA
330
7FD8
330
7FDA
330
7FDB
 94
        0
  0
ACAD_ZOMBIE_OBJECT
  5
7FD8
100
AcDbZombieObject
 90
      499
 91
      523
 93
       56
310
0000901441010054
330
7FBA
330
7FD9
 94
        0
  0
ACAD_ZOMBIE_OBJECT
  5
7FD9
100
AcDbZombieObject
 90
      499
 91
      524
 93
       40
310
0000A4410100
330
7FBA
 94
        0
  0
ACAD_ZOMBIE_OBJECT
  5
7FDA
100
AcDbZombieObject
 90
      499
 91
      525
 93
       68
310
0000A44101920A4820
330
7FBA
 94
        0
  0
ACAD_ZOMBIE_OBJECT
  5
7FDC
100
AcDbZombieObject
 90
      499
 91
      511
 93
      108
310
000001421053521310D05310D010
330
7FBA
 94
        0
  0
ACAD_ZOMBIE_OBJECT
  5
7FDD
100
AcDbZombieObject
 90
      499
 91
      511
 93
      124
310
000001429053541493D2951654115013
330
7FBA
 94
        0
  0
ACAD_ZOMBIE_OBJECT
  5
7FDE
100
AcDbZombieObject
 90
      499
 91
      511
 93
      124
310
00000142905354915554D15112535010
330
7FBA
 94
        0
  0
ACAD_ZOMBIE_OBJECT
  5
7FDF
100
AcDbZombieObject
 90
      499
 91
      511
 93
      132
310
00000143105354D150D51253D391125366
330
7FBA
 94
        0
  0
ACAD_ZOMBIE_OBJECT
  5
7FE0
100
AcDbZombieObject
 90
      499
 91
      511
 93
      124
310
00000142905355941093D49111549010
330
7FBA
 94
        0
  0
ACAD_ZOMBIE_OBJECT
  5
7FE1
100
AcDbZombieObject
 90
      499
 91
      513
 93
      180
310
00000142905352125113151654114050648494444454EC
330
7FBA
 94
        0
  0
ACAD_ZOMBIE_OBJECT
  5
7FE2
100
AcDbZombieObject
 90
      499
 91
      513
 93
      196
310
00000142905354D150D315165411405085048414E544F4D320
330
7FBA
 94
        0
  0
ACAD_ZOMBIE_OBJECT
  5
7FE3
100
AcDbZombieObject
 90
      499
 91
      511
 93
      108
310
00000142105354D51114D0D51020
330
7FBA
 94
        0
  0
ACAD_ZOMBIE_OBJECT
  5
7FE4
100
AcDbZombieObject
 90
      499
 91
      511
 93
      108
310
00000142105354D5111510541021
330
7FBA
 94
        0
  0
ACAD_ZOMBIE_OBJECT
  5
7FE5
100
AcDbZombieObject
 90
      499
 91
      511
 93
      108
310
00000142105354D511111513102B
330
7FBA
 94
        0
  0
ACAD_ZOMBIE_OBJECT
  5
7FE6
100
AcDbZombieObject
 90
      499
 91
      512
 93
      148
310
00000141905350D310D34295C8FC2F528BC3F4
330
7FBA
 94
        0
  0
ACAD_ZOMBIE_OBJECT
  5
7FE7
100
AcDbZombieObject
 90
      499
 91
      512
 93
      156
310
00000141D05350D311D05402B8716D9CEF7C33FF
330
7FBA
 94
        0
  0
ACAD_ZOMBIE_OBJECT
  5
7FE8
100
AcDbZombieObject
 90
      499
 91
      512
 93
      164
310
00000142105350D313D4D2150295C8FC2F528BC3F0
330
7FBA
 94
        0
  0
ACAD_ZOMBIE_OBJECT
  5
7FE9
100
AcDbZombieObject
 90
      499
 91
      511
 93
      100
310
00000141D05350D3141054901E
330
7FBA
 94
        0
  0
ACAD_ZOMBIE_OBJECT
  5
7FEA
100
AcDbZombieObject
 90
      499
 91
      511
 93
      100
310
0000014210535590539254D222
330
7FBA
 94
        0
  0
ACAD_ZOMBIE_OBJECT
  5
7FEB
100
AcDbZombieObject
 90
      499
 91
      512
 93
      188
310
00000142D0535312539155121250D2C295C8FC2F5289C3F2
330
7FBA
 94
        0
  0
ACAD_ZOMBIE_OBJECT
  5
7FEC
100
AcDbZombieObject
 90
      499
 91
      513
 93
      164
310
00000142105350D3151654114050643454E5445520
330
7FBA
 94
        0
  0
ACAD_ZOMBIE_OBJECT
  5
7FF5
100
AcDbZombieObject
 90
      499
 91
      511
 93
      132
310
00000142D05050555513D4D3D315915012
330
7FBA
 94
        0
  0
ACAD_ZOMBIE_OBJECT
  5
7FF6
100
AcDbZombieObject
 90
      499
 91
      511
 93
      156
310
00000143905050555513D054D4D1535093115010
330
7FBA
 94
        0
  0
ACAD_ZOMBIE_OBJECT
  5
7FF7
100
AcDbZombieObject
 90
      499
 91
      511
 93
      148
310
00000143505055925155D49154D513D4915012
330
7FBA
 94
        0
  0
ACAD_ZOMBIE_OBJECT
  5
7FF8
100
AcDbZombieObject
 90
      499
 91
      511
 93
      124
310
00000142D050525394D15495105094E0
330
7FBA
 94
        0
  0
ACAD_ZOMBIE_OBJECT
  5
7FFD
100
AcDbZombieObject
 90
      499
 91
      528
 93
       32
310
0000000080
330
7FBA
340
7FFA
330
7FFE
330
7FFA
 94
        0
  0
ACAD_ZOMBIE_OBJECT
  5
7FFE
100
AcDbZombieObject
 90
      499
 91
      529
 93
      143
310
00000142130CCB5492508C0C50400522080C
330
7FBA
330
7FFD
 94
        0
  0
ACAD_ZOMBIE_OBJECT
  5
7FFF
100
AcDbZombieObject
 90
      499
 91
      530
 93
       72
310
000000A44101A441010B
330
7FBA
330
7FFE
 94
        0
  0
ACAD_ZOMBIE_OBJECT
  5
8000
100
AcDbZombieObject
 90
      499
 91
      531
 93
       80
310
000090144101000000006E
330
7FBA
330
8001
330
8001
330
8001
330
8001
 94
        0
  0
ACAD_ZOMBIE_OBJECT
  5
8001
100
AcDbZombieObject
 90
      499
 91
      532
 93
      173
310
00000000406AAAAAAAAAAAAAAAAA806A44101A441010
330
7FBA
330
8000
330
7FFE
 94
        0
  0
ACAD_ZOMBIE_OBJECT
  5
8005
100
AcDbZombieObject
 90
      499
 91
      533
 93
       26
310
00008002
330
7FBA
330
0
 94
        0
  0
ENDSEC
  0
EOF
