  0
SECTION
  2
HEADER
  9
$ACADVER
  1
AC1012
  9
$DWGCODEPAGE
  3
ansi_1252
  9
$INSBASE
 10
0.0
 20
0.0
 30
0.0
  9
$EXTMIN
 10
1.0
 20
0.625
 30
0.0
  9
$EXTMAX
 10
32.04642
 20
20.447595
 30
0.0
  9
$LIMMIN
 10
0.0
 20
0.0
  9
$LIMMAX
 10
32.0
 20
21.0
  9
$ORTHOMODE
 70
     1
  9
$REGENMODE
 70
     1
  9
$FILLMODE
 70
     1
  9
$QTEXTMODE
 70
     0
  9
$MIRRTEXT
 70
     1
  9
$DRAGMODE
 70
     2
  9
$LTSCALE
 40
0.25
  9
$OSMODE
 70
     0
  9
$ATTMODE
 70
     1
  9
$TEXTSIZE
 40
0.135
  9
$TRACEWID
 40
0.05
  9
$TEXTSTYLE
  7
STANDARD
  9
$CLAYER
  8
DIM
  9
$CELTYPE
  6
BYLAYER
  9
$CECOLOR
 62
   256
  9
$CELTSCALE
 40
1.0
  9
$DELOBJ
 70
     1
  9
$DISPSILH
 70
     0
  9
$DIMSCALE
 40
1.0
  9
$DIMASZ
 40
0.18
  9
$DIMEXO
 40
0.0625
  9
$DIMDLI
 40
0.38
  9
$DIMRND
 40
0.0
  9
$DIMDLE
 40
0.0
  9
$DIMEXE
 40
0.18
  9
$DIMTP
 40
0.0
  9
$DIMTM
 40
0.0
  9
$DIMTXT
 40
0.18
  9
$DIMCEN
 40
0.09
  9
$DIMTSZ
 40
0.0
  9
$DIMTOL
 70
     0
  9
$DIMLIM
 70
     0
  9
$DIMTIH
 70
     1
  9
$DIMTOH
 70
     1
  9
$DIMSE1
 70
     0
  9
$DIMSE2
 70
     0
  9
$DIMTAD
 70
     0
  9
$DIMZIN
 70
     0
  9
$DIMBLK
  1

  9
$DIMASO
 70
     1
  9
$DIMSHO
 70
     1
  9
$DIMPOST
  1

  9
$DIMAPOST
  1

  9
$DIMALT
 70
     0
  9
$DIMALTD
 70
     2
  9
$DIMALTF
 40
25.4
  9
$DIMLFAC
 40
1.0
  9
$DIMTOFL
 70
     0
  9
$DIMTVP
 40
0.0
  9
$DIMTIX
 70
     0
  9
$DIMSOXD
 70
     0
  9
$DIMSAH
 70
     0
  9
$DIMBLK1
  1

  9
$DIMBLK2
  1

  9
$DIMSTYLE
  2
STANDARD
  9
$DIMCLRD
 70
     0
  9
$DIMCLRE
 70
     0
  9
$DIMCLRT
 70
     0
  9
$DIMTFAC
 40
1.0
  9
$DIMGAP
 40
0.09
  9
$DIMJUST
 70
     0
  9
$DIMSD1
 70
     0
  9
$DIMSD2
 70
     0
  9
$DIMTOLJ
 70
     1
  9
$DIMTZIN
 70
     0
  9
$DIMALTZ
 70
     0
  9
$DIMALTTZ
 70
     0
  9
$DIMFIT
 70
     0
  9
$DIMUPT
 70
     0
  9
$DIMUNIT
 70
     2
  9
$DIMDEC
 70
     3
  9
$DIMTDEC
 70
     4
  9
$DIMALTU
 70
     2
  9
$DIMALTTD
 70
     2
  9
$DIMTXSTY
  7
STANDARD
  9
$DIMAUNIT
 70
     0
  9
$LUNITS
 70
     2
  9
$LUPREC
 70
     4
  9
$SKETCHINC
 40
0.1
  9
$FILLETRAD
 40
0.0625
  9
$AUNITS
 70
     0
  9
$AUPREC
 70
     0
  9
$MENU
  1
C:\CIM\ACAD
  9
$ELEVATION
 40
0.0
  9
$PELEVATION
 40
0.0
  9
$THICKNESS
 40
0.0
  9
$LIMCHECK
 70
     0
  9
$BLIPMODE
 70
     1
  9
$CHAMFERA
 40
0.0
  9
$CHAMFERB
 40
0.0
  9
$CHAMFERC
 40
0.0
  9
$CHAMFERD
 40
0.0
  9
$SKPOLY
 70
     0
  9
$TDCREATE
 40
2449975.354851041
  9
$TDUPDATE
 40
2450458.453928726
  9
$TDINDWG
 40
0.1854112037
  9
$TDUSRTIMER
 40
0.1854112037
  9
$USRTIMER
 70
     1
  9
$ANGBASE
 50
0.0
  9
$ANGDIR
 70
     0
  9
$PDMODE
 70
     0
  9
$PDSIZE
 40
0.0
  9
$PLINEWID
 40
0.0
  9
$COORDS
 70
     1
  9
$SPLFRAME
 70
     0
  9
$SPLINETYPE
 70
     6
  9
$SPLINESEGS
 70
     8
  9
$ATTDIA
 70
     0
  9
$ATTREQ
 70
     1
  9
$HANDLING
 70
     1
  9
$HANDSEED
  5
104E
  9
$SURFTAB1
 70
     6
  9
$SURFTAB2
 70
     6
  9
$SURFTYPE
 70
     6
  9
$SURFU
 70
     6
  9
$SURFV
 70
     6
  9
$UCSNAME
  2

  9
$UCSORG
 10
0.0
 20
0.0
 30
0.0
  9
$UCSXDIR
 10
1.0
 20
0.0
 30
0.0
  9
$UCSYDIR
 10
0.0
 20
1.0
 30
0.0
  9
$PUCSNAME
  2

  9
$PUCSORG
 10
0.0
 20
0.0
 30
0.0
  9
$PUCSXDIR
 10
1.0
 20
0.0
 30
0.0
  9
$PUCSYDIR
 10
0.0
 20
1.0
 30
0.0
  9
$USERI1
 70
     0
  9
$USERI2
 70
     0
  9
$USERI3
 70
     0
  9
$USERI4
 70
     0
  9
$USERI5
 70
     0
  9
$USERR1
 40
0.0
  9
$USERR2
 40
0.0
  9
$USERR3
 40
0.0
  9
$USERR4
 40
0.0
  9
$USERR5
 40
0.0
  9
$WORLDVIEW
 70
     1
  9
$SHADEDGE
 70
     3
  9
$SHADEDIF
 70
    70
  9
$TILEMODE
 70
     1
  9
$MAXACTVP
 70
    16
  9
$PINSBASE
 10
0.0
 20
0.0
 30
0.0
  9
$PLIMCHECK
 70
     0
  9
$PEXTMIN
 10
1.000000E+20
 20
1.000000E+20
 30
1.000000E+20
  9
$PEXTMAX
 10
-1.000000E+20
 20
-1.000000E+20
 30
-1.000000E+20
  9
$PLIMMIN
 10
0.0
 20
0.0
  9
$PLIMMAX
 10
12.0
 20
9.0
  9
$UNITMODE
 70
     0
  9
$VISRETAIN
 70
     0
  9
$PLINEGEN
 70
     0
  9
$PSLTSCALE
 70
     1
  9
$TREEDEPTH
 70
  3020
  9
$PICKSTYLE
 70
     1
  9
$CMLSTYLE
  2
STANDARD
  9
$CMLJUST
 70
     0
  9
$CMLSCALE
 40
1.0
  9
$SAVEIMAGES
 70
     0
  0
ENDSEC
  0
SECTION
  2
CLASSES
  0
CLASS
  1
ACMESCOPE
  2
AcMeScope
  3
ACME_MODULE_NAME
 90
        0
280
     0
281
     0
  0
CLASS
  1
ACMECOMMANDHISTORY
  2
AcMeCommandHistory
  3
ACME_MODULE_NAME
 90
        0
280
     0
281
     0
  0
CLASS
  1
AcRfInsAdjusterMgr
  2
AcRfInsAdjusterMgr
  3
ACME_MODULE_NAME
 90
        0
280
     0
281
     0
  0
CLASS
  1
ACGREFMASTER
  2
AcGrefMaster
  3
"AcadRfServer"
 90
        0
280
     0
281
     0
  0
CLASS
  1
AmiMaster
  2
AmiMaster
  3
"AmiServices"
 90
        0
280
     0
281
     0
  0
CLASS
  1
ACASGREFMASTER
  2
AcAsGrefMaster
  3
"AutoSurfResolver"
 90
        0
280
     0
281
     0
  0
CLASS
  1
ADAPPL
  2
AcAdAppl
  3
"DesignerServices"
 90
        0
280
     0
281
     0
  0
CLASS
  1
DEPMGR
  2
AcAdDepMgr
  3
"DesignerServices"
 90
        0
280
     0
281
     0
  0
CLASS
  1
PARAMMGR
  2
AcAdParamMgr
  3
"DesignerServices"
 90
        0
280
     0
281
     0
  0
CLASS
  1
PARAMSCOPE
  2
AcAdParamScope
  3
"DesignerServices"
 90
        0
280
     0
281
     0
  0
CLASS
  1
"IM_SYSVAR_MAN"
  2
AcImSysVarManager
  3
"ADAM"
 90
        0
280
     0
281
     0
  0
CLASS
  1
SYSTEM_VAR_INT
  2
AcImIntSysVar
  3
"ADAM"
 90
        0
280
     0
281
     0
  0
CLASS
  1
SYSTEM_VAR_REAL
  2
AcImRealSysVar
  3
"ADAM"
 90
        0
280
     0
281
     0
  0
CLASS
  1
SYSTEM_VAR_STR
  2
AcImStrSysVar
  3
"ADAM"
 90
        0
280
     0
281
     0
  0
CLASS
  1
NAMEDAPPL
  2
AcAdNamedAppl
  3
"DesignerServices"
 90
        0
280
     0
281
     0
  0
CLASS
  1
ADPART
  2
AcAdPart
  3
"DesignerServices"
 90
        0
280
     0
281
     1
  0
CLASS
  1
ADBASE
  2
AcAdBase
  3
"DesignerServices"
 90
        0
280
     0
281
     0
  0
CLASS
  1
BODYID
  2
AcAdBodyId
  3
"DesignerServices"
 90
        0
280
     0
281
     0
  0
CLASS
  1
WORKPLANEDISPLAYMGR
  2
AcAdDisplayMgr
  3
"DesignerServices"
 90
        0
280
     0
281
     0
  0
CLASS
  1
ADHNTMPLT
  2
AdHoleNoteTemplateMgr
  3
"DesignerServices"
 90
        0
280
     0
281
     0
  0
CLASS
  1
AM_HNTEMPLATE_MGR_NAME
  2
AdHoleNoteTemplateMgrName
  3
"DesignerServices"
 90
        0
280
     0
281
     0
  0
CLASS
  1
AcAdGrefModule
  2
AcAdGrefModule
  3
AD_GREF_SERVICES_NSTR
 90
        0
280
     0
281
     0
  0
CLASS
  1
AM_DRAWING_MGR
  2
AcDmDwgMgr
  3
"Designer_Drawing_Mgmt"
 90
        0
280
     0
281
     0
  0
CLASS
  1
AM_DWG_DOCUMENT
  2
AcDmDwgDocument
  3
"Designer_Drawing_Mgmt"
 90
        0
280
     0
281
     0
  0
CLASS
  1
AM_DWG_SHEET
  2
AcDmSheet
  3
"Designer_Drawing_Mgmt"
 90
        0
280
     0
281
     0
  0
CLASS
  1
AM_VIEWDIMPARMAP
  2
AcDmViewDimParMap
  3
"Designer_Drawing_Mgmt"
 90
        0
280
     0
281
     0
  0
CLASS
  1
AM_DWGMGR_NAME
  2
AcDmDwgMgrName
  3
"Designer_Drawing_Mgmt"
 90
        0
280
     0
281
     0
  0
CLASS
  1
ACAMPROJECT
  2
AcAmProject
  3
"DesignerAssemblies"
 90
        0
280
     0
281
     0
  0
CLASS
  1
ACAMGRCOMPDEF
  2
AcAmGrCompDef
  3
"DesignerAssemblies"
 90
        0
280
     0
281
     0
  0
CLASS
  1
ACAMCOMPDEF
  2
AcAmCompDef
  3
"DesignerAssemblies"
 90
        0
280
     0
281
     0
  0
CLASS
  1
ACAMCOMPDEFMGR
  2
AcAmCompDefMgr
  3
"DesignerAssemblies"
 90
        0
280
     0
281
     0
  0
CLASS
  1
AMCONTEXTMGR
  2
AcAmContextMgr
  3
"DesignerAssemblies"
 90
        0
280
     0
281
     0
  0
CLASS
  1
AcAmContextModeler
  2
AcAmContextModeler
  3
"DesignerAssemblies"
 90
        0
280
     0
281
     0
  0
CLASS
  1
ACAMDRAWINGMAN
  2
AcAmDrawingMan
  3
"DesignerAssemblies"
 90
        0
280
     0
281
     0
  0
CLASS
  1
ASSYSVARS
  2
AcAsSysVars
  3
"AutoSurf"
 90
        0
280
     0
281
     0
  0
CLASS
  1
ASSTATICVARS
  2
AcAsStaticVars
  3
"AutoSurf"
 90
        0
280
     0
281
     0
  0
CLASS
  1
ASAPP
  2
AcAsAppObject
  3
"AutoSurf"
 90
        0
280
     0
281
     0
  0
CLASS
  1
ACRFATTGENMGR
  2
AcRfAttGeneralMgr
  3
"AcadRfServer"
 90
        0
280
     0
281
     0
  0
CLASS
  1
ACRFMCADAPIATTHOLDER
  2
AcRfMCADAPIAttHolder
  3
"AcadRfServer"
 90
        0
280
     0
281
     0
  0
CLASS
  1
AGDICTIONARY
  2
AgDictionary
  3
"AccelView"
 90
        1
280
     0
281
     0
  0
ENDSEC
  0
SECTION
  2
TABLES
  0
TABLE
  2
VPORT
  5
8
100
AcDbSymbolTable
 70
     2
  0
VPORT
  5
104D
100
AcDbSymbolTableRecord
100
AcDbViewportTableRecord
  2
*ACTIVE
 70
     0
 10
0.0
 20
0.0
 11
1.0
 21
1.0
 12
16.878833
 22
10.536298
 13
0.0
 23
0.0
 14
0.0625
 24
0.0625
 15
1.0
 25
1.0
 16
0.0
 26
0.0
 36
1.0
 17
0.0
 27
0.0
 37
0.0
 40
19.822595
 41
1.602094
 42
50.0
 43
0.0
 44
0.0
 50
0.0
 51
0.0
 71
     0
 72
   100
 73
     1
 74
     0
 75
     0
 76
     1
 77
     0
 78
     0
  0
ENDTAB
  0
TABLE
  2
LTYPE
  5
5
100
AcDbSymbolTable
 70
     6
  0
LTYPE
  5
14
100
AcDbSymbolTableRecord
100
AcDbLinetypeTableRecord
  2
BYBLOCK
 70
     0
  3

 72
    65
 73
     0
 40
0.0
  0
LTYPE
  5
15
100
AcDbSymbolTableRecord
100
AcDbLinetypeTableRecord
  2
BYLAYER
 70
     0
  3

 72
    65
 73
     0
 40
0.0
  0
LTYPE
  5
16
100
AcDbSymbolTableRecord
100
AcDbLinetypeTableRecord
  2
CONTINUOUS
 70
    64
  3
Solid line
 72
    65
 73
     0
 40
0.0
  0
LTYPE
  5
24
100
AcDbSymbolTableRecord
100
AcDbLinetypeTableRecord
  2
CENTER
 70
    64
  3
____ _ ____ _ ____ _ ____ _ ____ _ ____ _ ____ 
 72
    65
 73
     4
 40
2.0
 49
1.25
 74
     0
 49
-0.25
 74
     0
 49
0.25
 74
     0
 49
-0.25
 74
     0
  0
LTYPE
  5
26
100
AcDbSymbolTableRecord
100
AcDbLinetypeTableRecord
  2
HIDDEN
 70
    64
  3
__ __ __ __ __ __ __ __ __ __ __ __ __ __ __ __
 72
    65
 73
     2
 40
0.375
 49
0.25
 74
     0
 49
-0.125
 74
     0
  0
LTYPE
  5
B55
100
AcDbSymbolTableRecord
100
AcDbLinetypeTableRecord
  2
PHANTOM2
 70
     0
  3
___ _ _ ___ _ _ ___ _ _ ___ _ _ ___ _ _ ___ _ _
 72
    65
 73
     6
 40
1.25
 49
0.625
 74
     0
 49
-0.125
 74
     0
 49
0.125
 74
     0
 49
-0.125
 74
     0
 49
0.125
 74
     0
 49
-0.125
 74
     0
  0
LTYPE
  5
B7F
100
AcDbSymbolTableRecord
100
AcDbLinetypeTableRecord
  2
ASULTYPE
 70
     0
  3
Solid line
 72
    65
 73
     2
 40
3.0
 49
2.5
 74
     0
 49
0.5
 74
     0
  0
LTYPE
  5
B80
100
AcDbSymbolTableRecord
100
AcDbLinetypeTableRecord
  2
ASVLTYPE
 70
     0
  3
__ __ __ __ __ __ __ __ __ __ __ __ __ __ __ __ __ __ __ __ __
 72
    65
 73
     2
 40
0.75
 49
0.5
 74
     0
 49
-0.25
 74
     0
  0
ENDTAB
  0
TABLE
  2
LAYER
  5
2
100
AcDbSymbolTable
 70
    21
  0
LAYER
  5
F
100
AcDbSymbolTableRecord
100
AcDbLayerTableRecord
  2
0
 70
    64
 62
     7
  6
CONTINUOUS
  0
LAYER
  5
23
100
AcDbSymbolTableRecord
100
AcDbLayerTableRecord
  2
CENTER
 70
    64
 62
     1
  6
CENTER
  0
LAYER
  5
25
100
AcDbSymbolTableRecord
100
AcDbLayerTableRecord
  2
HIDDEN
 70
    64
 62
     7
  6
HIDDEN
  0
LAYER
  5
29
100
AcDbSymbolTableRecord
100
AcDbLayerTableRecord
  2
DIM
 70
    64
 62
     3
  6
CONTINUOUS
  0
LAYER
  5
2A
100
AcDbSymbolTableRecord
100
AcDbLayerTableRecord
  2
TEXT
 70
    64
 62
     7
  6
CONTINUOUS
  0
LAYER
  5
2F
100
AcDbSymbolTableRecord
100
AcDbLayerTableRecord
  2
HCHARTS
 70
    64
 62
     3
  6
CONTINUOUS
  0
LAYER
  5
48
100
AcDbSymbolTableRecord
100
AcDbLayerTableRecord
  2
BORDER
 70
    64
 62
     6
  6
CONTINUOUS
  0
LAYER
  5
83
100
AcDbSymbolTableRecord
100
AcDbLayerTableRecord
  2
BUSHING
 70
    64
 62
     3
  6
CONTINUOUS
  0
LAYER
  5
84
100
AcDbSymbolTableRecord
100
AcDbLayerTableRecord
  2
FOOT
 70
    64
 62
     7
  6
CONTINUOUS
  0
LAYER
  5
11B
100
AcDbSymbolTableRecord
100
AcDbLayerTableRecord
  2
DEFPOINTS
 70
    64
 62
     7
  6
CONTINUOUS
  0
LAYER
  5
4B3
100
AcDbSymbolTableRecord
100
AcDbLayerTableRecord
  2
KEVLAR
 70
    64
 62
     7
  6
CONTINUOUS
  0
LAYER
  5
B63
100
AcDbSymbolTableRecord
100
AcDbLayerTableRecord
  2
AM_VIEWS
 70
     0
 62
    -7
  6
CONTINUOUS
  0
LAYER
  5
B64
100
AcDbSymbolTableRecord
100
AcDbLayerTableRecord
  2
AM_PARDIM
 70
     0
 62
     3
  6
CONTINUOUS
  0
LAYER
  5
B65
100
AcDbSymbolTableRecord
100
AcDbLayerTableRecord
  2
AM_REFDIM
 70
     0
 62
     4
  6
CONTINUOUS
  0
LAYER
  5
B66
100
AcDbSymbolTableRecord
100
AcDbLayerTableRecord
  2
AM_VIS
 70
     0
 62
     7
  6
CONTINUOUS
  0
LAYER
  5
B67
100
AcDbSymbolTableRecord
100
AcDbLayerTableRecord
  2
AM_HID
 70
    64
 62
     7
  6
HIDDEN
  0
LAYER
  5
B76
100
AcDbSymbolTableRecord
100
AcDbLayerTableRecord
  2
AM_TR
 70
     0
 62
     7
  6
CONTINUOUS
  0
LAYER
  5
B77
100
AcDbSymbolTableRecord
100
AcDbLayerTableRecord
  2
AM_BM
 70
     0
 62
     7
  6
CONTINUOUS
  0
LAYER
  5
B78
100
AcDbSymbolTableRecord
100
AcDbLayerTableRecord
  2
AM_BL
 70
     0
 62
     7
  6
CONTINUOUS
  0
LAYER
  5
C84
100
AcDbSymbolTableRecord
100
AcDbLayerTableRecord
  2
HATCH
 70
    64
 62
     7
  6
CONTINUOUS
  0
LAYER
  5
E07
100
AcDbSymbolTableRecord
100
AcDbLayerTableRecord
  2
ASHADE
 70
    68
 62
     7
  6
CONTINUOUS
  0
ENDTAB
  0
TABLE
  2
STYLE
  5
3
100
AcDbSymbolTable
 70
     4
  0
STYLE
  5
10
100
AcDbSymbolTableRecord
100
AcDbTextStyleTableRecord
  2
STANDARD
 70
    64
 40
0.0
 41
1.0
 50
0.0
 71
     0
 42
0.135
  3
txt
  4

  0
STYLE
  5
28
100
AcDbSymbolTableRecord
100
AcDbTextStyleTableRecord
  2
CIM_TB
 70
    64
 40
0.0
 41
1.0
 50
0.0
 71
     0
 42
0.2
  3
romans
  4

  0
STYLE
  5
49
100
AcDbSymbolTableRecord
100
AcDbTextStyleTableRecord
  2
ADESK2
 70
    64
 40
0.0
 41
1.0
 50
0.0
 71
     0
 42
0.065
  3
romans
  4

  0
STYLE
  5
E04
100
AcDbSymbolTableRecord
100
AcDbTextStyleTableRecord
  2
ASHADE
 70
    64
 40
0.2
 41
1.0
 50
0.0
 71
     0
 42
0.12
  3
simplex
  4

  0
ENDTAB
  0
TABLE
  2
VIEW
  5
6
100
AcDbSymbolTable
 70
     0
  0
ENDTAB
  0
TABLE
  2
UCS
  5
7
100
AcDbSymbolTable
 70
     1
  0
UCS
  5
2D
100
AcDbSymbolTableRecord
100
AcDbUCSTableRecord
  2
CIM_TB_HOLD
 70
     0
 10
0.0
 20
0.0
 30
0.0
 11
1.0
 21
0.0
 31
0.0
 12
0.0
 22
1.0
 32
0.0
  0
ENDTAB
  0
TABLE
  2
APPID
  5
9
100
AcDbSymbolTable
 70
    11
  0
APPID
  5
11
100
AcDbSymbolTableRecord
100
AcDbRegAppTableRecord
  2
ACAD
 70
     0
  0
APPID
  5
22
100
AcDbSymbolTableRecord
100
AcDbRegAppTableRecord
  2
TB_S_MPD
 70
     0
  0
APPID
  5
B62
100
AcDbSymbolTableRecord
100
AcDbRegAppTableRecord
  2
AD_DRAW
 70
     0
  0
APPID
  5
B7A
100
AcDbSymbolTableRecord
100
AcDbRegAppTableRecord
  2
DESIGNERASSEMBLIES
 70
     0
  0
APPID
  5
B7B
100
AcDbSymbolTableRecord
100
AcDbRegAppTableRecord
  2
MCAD_NO_VIS
 70
     0
  0
APPID
  5
B81
100
AcDbSymbolTableRecord
100
AcDbRegAppTableRecord
  2
ASURF_PCURVE_APPNAME
 70
     0
  0
APPID
  5
E05
100
AcDbSymbolTableRecord
100
AcDbRegAppTableRecord
  2
AVE_RENDER
 70
     0
  0
APPID
  5
E06
100
AcDbSymbolTableRecord
100
AcDbRegAppTableRecord
  2
AVE_ENTITY_MATERIAL
 70
     0
  0
APPID
  5
E13
100
AcDbSymbolTableRecord
100
AcDbRegAppTableRecord
  2
AVE_FINISH
 70
     0
  0
APPID
  5
E14
100
AcDbSymbolTableRecord
100
AcDbRegAppTableRecord
  2
AVE_MATERIAL
 70
     0
  0
APPID
  5
E15
100
AcDbSymbolTableRecord
100
AcDbRegAppTableRecord
  2
AVE_GLOBAL
 70
     0
  0
ENDTAB
  0
TABLE
  2
DIMSTYLE
  5
A
100
AcDbSymbolTable
 70
     3
  0
DIMSTYLE
105
1D
100
AcDbSymbolTableRecord
100
AcDbDimStyleTableRecord
  2
STANDARD
 70
     0
  3

  4

  5

  6

  7

 40
1.0
 41
0.18
 42
0.0625
 43
0.38
 44
0.18
 45
0.0
 46
0.0
 47
0.0
 48
0.0
140
0.18
141
0.09
142
0.0
143
25.4
144
1.0
145
0.0
146
1.0
147
0.09
 71
     0
 72
     0
 73
     1
 74
     1
 75
     0
 76
     0
 77
     0
 78
     0
170
     0
171
     2
172
     0
173
     0
174
     0
175
     0
176
     0
177
     0
178
     0
270
     2
271
     3
272
     4
273
     2
274
     2
340
10
275
     0
280
     0
281
     0
282
     0
283
     1
284
     0
285
     0
286
     0
287
     0
288
     0
  0
DIMSTYLE
105
2B
100
AcDbSymbolTableRecord
100
AcDbDimStyleTableRecord
  2
STANDARD$4
 70
     0
  3

  4

  5

  6

  7

 40
1.0
 41
0.18
 42
0.0625
 43
0.38
 44
0.18
 45
0.0
 46
0.0
 47
0.0
 48
0.0
140
0.18
141
0.09
142
0.0
143
25.4
144
1.0
145
0.0
146
1.0
147
0.09
 71
     0
 72
     0
 73
     1
 74
     1
 75
     0
 76
     0
 77
     0
 78
     0
170
     0
171
     2
172
     0
173
     0
174
     0
175
     0
176
     0
177
     0
178
     0
270
     2
271
     4
272
     4
273
     2
274
     2
340
10
275
     0
280
     0
281
     0
282
     0
283
     1
284
     0
285
     0
286
     0
287
     3
288
     0
  0
DIMSTYLE
105
2C
100
AcDbSymbolTableRecord
100
AcDbDimStyleTableRecord
  2
STANDARD$3
 70
     0
  3
"
  4
mm
  5

  6

  7

 40
1.0
 41
0.18
 42
0.0625
 43
0.38
 44
0.18
 45
0.0
 46
0.0
 47
0.001
 48
0.001
140
0.18
141
0.09
142
0.0
143
25.4
144
1.0
145
0.0
146
1.0
147
0.09
 71
     0
 72
     0
 73
     1
 74
     1
 75
     0
 76
     0
 77
     0
 78
     0
170
     1
171
     2
172
     0
173
     0
174
     0
175
     0
176
     0
177
     0
178
     0
270
     2
271
     3
272
     3
273
     2
274
     2
340
10
275
     0
280
     0
281
     0
282
     0
283
     1
284
     0
285
     0
286
     0
287
     3
288
     0
  0
ENDTAB
  0
TABLE
  2
BLOCK_RECORD
  5
1
100
AcDbSymbolTable
 70
    53
  0
BLOCK_RECORD
  5
1A
100
AcDbSymbolTableRecord
100
AcDbBlockTableRecord
  2
*MODEL_SPACE
  0
BLOCK_RECORD
  5
17
100
AcDbSymbolTableRecord
100
AcDbBlockTableRecord
  2
*PAPER_SPACE
  0
BLOCK_RECORD
  5
4A
100
AcDbSymbolTableRecord
100
AcDbBlockTableRecord
  2
C-BORDER
  0
BLOCK_RECORD
  5
85
100
AcDbSymbolTableRecord
100
AcDbBlockTableRecord
  2
FT-L3-B
  0
BLOCK_RECORD
  5
169
100
AcDbSymbolTableRecord
100
AcDbBlockTableRecord
  2
*D2
  0
BLOCK_RECORD
  5
178
100
AcDbSymbolTableRecord
100
AcDbBlockTableRecord
  2
*D3
  0
BLOCK_RECORD
  5
186
100
AcDbSymbolTableRecord
100
AcDbBlockTableRecord
  2
*D4
  0
BLOCK_RECORD
  5
2BA
100
AcDbSymbolTableRecord
100
AcDbBlockTableRecord
  2
*D5
  0
BLOCK_RECORD
  5
2E7
100
AcDbSymbolTableRecord
100
AcDbBlockTableRecord
  2
*D6
  0
BLOCK_RECORD
  5
4B4
100
AcDbSymbolTableRecord
100
AcDbBlockTableRecord
  2
D-BORDER
  0
BLOCK_RECORD
  5
5B3
100
AcDbSymbolTableRecord
100
AcDbBlockTableRecord
  2
*X8
  0
BLOCK_RECORD
  5
63E
100
AcDbSymbolTableRecord
100
AcDbBlockTableRecord
  2
*U9
  0
BLOCK_RECORD
  5
66C
100
AcDbSymbolTableRecord
100
AcDbBlockTableRecord
  2
*U10
  0
BLOCK_RECORD
  5
678
100
AcDbSymbolTableRecord
100
AcDbBlockTableRecord
  2
*U11
  0
BLOCK_RECORD
  5
6BF
100
AcDbSymbolTableRecord
100
AcDbBlockTableRecord
  2
*D12
  0
BLOCK_RECORD
  5
775
100
AcDbSymbolTableRecord
100
AcDbBlockTableRecord
  2
*D13
  0
BLOCK_RECORD
  5
782
100
AcDbSymbolTableRecord
100
AcDbBlockTableRecord
  2
*D14
  0
BLOCK_RECORD
  5
78F
100
AcDbSymbolTableRecord
100
AcDbBlockTableRecord
  2
*D15
  0
BLOCK_RECORD
  5
79C
100
AcDbSymbolTableRecord
100
AcDbBlockTableRecord
  2
*D16
  0
BLOCK_RECORD
  5
7A9
100
AcDbSymbolTableRecord
100
AcDbBlockTableRecord
  2
*D17
  0
BLOCK_RECORD
  5
7C3
100
AcDbSymbolTableRecord
100
AcDbBlockTableRecord
  2
*D18
  0
BLOCK_RECORD
  5
7D1
100
AcDbSymbolTableRecord
100
AcDbBlockTableRecord
  2
*D19
  0
BLOCK_RECORD
  5
8F7
100
AcDbSymbolTableRecord
100
AcDbBlockTableRecord
  2
CUTOUT
  0
BLOCK_RECORD
  5
A30
100
AcDbSymbolTableRecord
100
AcDbBlockTableRecord
  2
*D21
  0
BLOCK_RECORD
  5
B6E
100
AcDbSymbolTableRecord
100
AcDbBlockTableRecord
  2
*U22
  0
BLOCK_RECORD
  5
B82
100
AcDbSymbolTableRecord
100
AcDbBlockTableRecord
  2
*U23
  0
BLOCK_RECORD
  5
B99
100
AcDbSymbolTableRecord
100
AcDbBlockTableRecord
  2
*D24
  0
BLOCK_RECORD
  5
BA7
100
AcDbSymbolTableRecord
100
AcDbBlockTableRecord
  2
*D25
  0
BLOCK_RECORD
  5
BB5
100
AcDbSymbolTableRecord
100
AcDbBlockTableRecord
  2
*D26
  0
BLOCK_RECORD
  5
BFF
100
AcDbSymbolTableRecord
100
AcDbBlockTableRecord
  2
*D27
  0
BLOCK_RECORD
  5
C0D
100
AcDbSymbolTableRecord
100
AcDbBlockTableRecord
  2
*D28
  0
BLOCK_RECORD
  5
C35
100
AcDbSymbolTableRecord
100
AcDbBlockTableRecord
  2
*D29
  0
BLOCK_RECORD
  5
C43
100
AcDbSymbolTableRecord
100
AcDbBlockTableRecord
  2
*D30
  0
BLOCK_RECORD
  5
C50
100
AcDbSymbolTableRecord
100
AcDbBlockTableRecord
  2
*D31
  0
BLOCK_RECORD
  5
C5D
100
AcDbSymbolTableRecord
100
AcDbBlockTableRecord
  2
*D32
  0
BLOCK_RECORD
  5
C6A
100
AcDbSymbolTableRecord
100
AcDbBlockTableRecord
  2
*D33
  0
BLOCK_RECORD
  5
C77
100
AcDbSymbolTableRecord
100
AcDbBlockTableRecord
  2
*D34
  0
BLOCK_RECORD
  5
CC4
100
AcDbSymbolTableRecord
100
AcDbBlockTableRecord
  2
*X35
  0
BLOCK_RECORD
  5
D85
100
AcDbSymbolTableRecord
100
AcDbBlockTableRecord
  2
*D36
  0
BLOCK_RECORD
  5
D94
100
AcDbSymbolTableRecord
100
AcDbBlockTableRecord
  2
*D37
  0
BLOCK_RECORD
  5
E08
100
AcDbSymbolTableRecord
100
AcDbBlockTableRecord
  2
AVE_RENDER
  0
BLOCK_RECORD
  5
E16
100
AcDbSymbolTableRecord
100
AcDbBlockTableRecord
  2
AVE_GLOBAL
  0
BLOCK_RECORD
  5
E21
100
AcDbSymbolTableRecord
100
AcDbBlockTableRecord
  2
*U40
  0
BLOCK_RECORD
  5
E2D
100
AcDbSymbolTableRecord
100
AcDbBlockTableRecord
  2
*D41
  0
BLOCK_RECORD
  5
E3C
100
AcDbSymbolTableRecord
100
AcDbBlockTableRecord
  2
*D42
  0
BLOCK_RECORD
  5
E67
100
AcDbSymbolTableRecord
100
AcDbBlockTableRecord
  2
*U43
  0
BLOCK_RECORD
  5
E7F
100
AcDbSymbolTableRecord
100
AcDbBlockTableRecord
  2
*D44
  0
BLOCK_RECORD
  5
EA4
100
AcDbSymbolTableRecord
100
AcDbBlockTableRecord
  2
*D45
  0
BLOCK_RECORD
  5
EB3
100
AcDbSymbolTableRecord
100
AcDbBlockTableRecord
  2
*D46
  0
BLOCK_RECORD
  5
EFD
100
AcDbSymbolTableRecord
100
AcDbBlockTableRecord
  2
*D47
  0
BLOCK_RECORD
  5
F0C
100
AcDbSymbolTableRecord
100
AcDbBlockTableRecord
  2
*D48
  0
BLOCK_RECORD
  5
F40
100
AcDbSymbolTableRecord
100
AcDbBlockTableRecord
  2
*D49
  0
BLOCK_RECORD
  5
F7E
100
AcDbSymbolTableRecord
100
AcDbBlockTableRecord
  2
*D50
  0
BLOCK_RECORD
  5
F8C
100
AcDbSymbolTableRecord
100
AcDbBlockTableRecord
  2
*D51
  0
BLOCK_RECORD
  5
1023
100
AcDbSymbolTableRecord
100
AcDbBlockTableRecord
  2
*D52
  0
ENDTAB
  0
ENDSEC
  0
SECTION
  2
BLOCKS
  0
BLOCK
  5
1B
100
AcDbEntity
  8
0
100
AcDbBlockBegin
  2
*MODEL_SPACE
 70
     0
 10
0.0
 20
0.0
 30
0.0
  3
*MODEL_SPACE
  1

  0
ENDBLK
  5
1C
100
AcDbEntity
  8
0
100
AcDbBlockEnd
  0
BLOCK
  5
18
100
AcDbEntity
 67
     1
  8
0
100
AcDbBlockBegin
  2
*PAPER_SPACE
 70
     0
 10
0.0
 20
0.0
 30
0.0
  3
*PAPER_SPACE
  1

  0
ENDBLK
  5
19
100
AcDbEntity
 67
     1
  8
0
100
AcDbBlockEnd
  0
BLOCK
  5
80
100
AcDbEntity
  8
0
100
AcDbBlockBegin
  2
C-BORDER
 70
     0
 10
0.0
 20
0.0
 30
0.0
  3
C-BORDER
  1

  0
TEXT
  5
4B
100
AcDbEntity
  8
TEXT
100
AcDbText
 10
15.40792
 20
1.861505
 30
0.0
 40
0.065
  1
  %%P 0.5%%D
  7
ADESK2
100
AcDbText
  0
TEXT
  5
4C
100
AcDbEntity
  8
TEXT
100
AcDbText
 10
15.40792
 20
1.966743
 30
0.0
 40
0.065
  1
ANGULAR
  7
ADESK2
100
AcDbText
  0
TEXT
  5
4D
100
AcDbEntity
  8
TEXT
100
AcDbText
 10
14.61466
 20
1.653744
 30
0.0
 40
0.065
  1
DO NOT SCALE DRAWING
  7
ADESK2
 72
     1
 11
15.229065
 21
1.653744
 31
0.0
100
AcDbText
  0
TEXT
  5
4E
100
AcDbEntity
  8
TEXT
100
AcDbText
 10
14.544023
 20
1.756267
 30
0.0
 40
0.065
  1
.XXX %%P .005
  7
ADESK2
100
AcDbText
  0
TEXT
  5
4F
100
AcDbEntity
  8
TEXT
100
AcDbText
 10
14.544023
 20
1.861505
 30
0.0
 40
0.065
  1
.XX  %%P .05
  7
ADESK2
100
AcDbText
  0
TEXT
  5
50
100
AcDbEntity
  8
TEXT
100
AcDbText
 10
14.544023
 20
1.966743
 30
0.0
 40
0.065
  1
DECIMALS
  7
ADESK2
100
AcDbText
  0
TEXT
  5
51
100
AcDbEntity
  8
TEXT
100
AcDbText
 10
14.930374
 20
2.074613
 30
0.0
 40
0.065
  1
TOLERANCES
  7
ADESK2
 72
     1
 11
15.229065
 21
2.074613
 31
0.0
100
AcDbText
  0
TEXT
  5
52
100
AcDbEntity
  8
TEXT
100
AcDbText
 10
14.532636
 20
2.179851
 30
0.0
 40
0.065
  1
DIMENSIONS ARE IN INCHES
  7
ADESK2
 72
     1
 11
15.229065
 21
2.179851
 31
0.0
100
AcDbText
  0
TEXT
  5
53
100
AcDbEntity
  8
TEXT
100
AcDbText
 10
14.458351
 20
2.285089
 30
0.0
 40
0.065
  1
UNLESS OTHERWISE SPECIFIED:
  7
ADESK2
 72
     1
 11
15.229065
 21
2.285089
 31
0.0
100
AcDbText
  0
TEXT
  5
54
100
AcDbEntity
  8
BORDER
100
AcDbText
 10
16.916608
 20
2.075566
 30
0.0
 40
0.15
  1
HIGH ENERGY PHYSICS
100
AcDbText
  0
LINE
  5
55
100
AcDbEntity
  8
BORDER
100
AcDbLine
 10
0.5
 20
15.375
 30
0.0
 11
20.5
 21
15.375
 31
0.0
  0
TEXT
  5
56
100
AcDbEntity
  8
TEXT
100
AcDbText
 10
16.680137
 20
1.165354
 30
0.0
 40
0.075
  1
FILE #
100
AcDbText
  0
TEXT
  5
57
100
AcDbEntity
  8
BORDER
100
AcDbText
 10
16.367704
 20
0.951962
 30
0.0
 40
0.15
  1
C
100
AcDbText
  0
LINE
  5
58
100
AcDbEntity
  8
BORDER
100
AcDbLine
 10
0.5
 20
0.625
 30
0.0
 11
20.5
 21
0.625
 31
0.0
  0
LINE
  5
59
100
AcDbEntity
  8
BORDER
100
AcDbLine
 10
0.5
 20
15.375
 30
0.0
 11
0.5
 21
0.625
 31
0.0
  0
LINE
  5
5A
100
AcDbEntity
  8
BORDER
100
AcDbLine
 10
20.5
 20
0.625
 30
0.0
 11
20.5
 21
15.375
 31
0.0
  0
LINE
  5
5B
100
AcDbEntity
  8
BORDER
100
AcDbLine
 10
14.228025
 20
2.824147
 30
0.0
 11
20.500862
 21
2.824147
 31
0.0
  0
TEXT
  5
5C
100
AcDbEntity
  8
BORDER
100
AcDbText
 10
14.407029
 20
2.549228
 30
0.0
 40
0.15
  1
UNIVERSITY OF CALIFORNIA @ SANTA BARBARA
100
AcDbText
  0
TEXT
  5
5D
100
AcDbEntity
  8
TEXT
100
AcDbText
 10
14.297375
 20
1.479964
 30
0.0
 40
0.065
  1
DRAWN
  7
ADESK2
100
AcDbText
  0
LINE
  5
5E
100
AcDbEntity
  8
BORDER
100
AcDbLine
 10
14.229065
 20
0.625
 30
0.0
 11
14.229065
 21
2.824147
 31
0.0
  0
LINE
  5
5F
100
AcDbEntity
  8
BORDER
100
AcDbLine
 10
14.229065
 20
2.401501
 30
0.0
 11
20.500862
 21
2.401501
 31
0.0
  0
LINE
  5
60
100
AcDbEntity
  8
TEXT
100
AcDbLine
 10
14.229065
 20
0.966501
 30
0.0
 11
16.229065
 21
0.966501
 31
0.0
  0
LINE
  5
61
100
AcDbEntity
  8
TEXT
100
AcDbLine
 10
14.229065
 20
1.281501
 30
0.0
 11
20.500862
 21
1.281501
 31
0.0
  0
LINE
  5
62
100
AcDbEntity
  8
TEXT
100
AcDbLine
 10
16.229065
 20
0.901501
 30
0.0
 11
20.500862
 21
0.901501
 31
0.0
  0
LINE
  5
63
100
AcDbEntity
  8
BORDER
100
AcDbLine
 10
16.229065
 20
1.901501
 30
0.0
 11
20.500862
 21
1.901501
 31
0.0
  0
LINE
  5
64
100
AcDbEntity
  8
BORDER
100
AcDbLine
 10
16.229065
 20
0.625
 30
0.0
 11
16.229065
 21
2.401501
 31
0.0
  0
LINE
  5
65
100
AcDbEntity
  8
TEXT
100
AcDbLine
 10
17.229065
 20
0.625
 30
0.0
 11
17.229065
 21
0.901501
 31
0.0
  0
LINE
  5
66
100
AcDbEntity
  8
TEXT
100
AcDbLine
 10
18.729065
 20
0.625
 30
0.0
 11
18.729065
 21
0.901501
 31
0.0
  0
LINE
  5
67
100
AcDbEntity
  8
TEXT
100
AcDbLine
 10
16.609065
 20
0.901501
 30
0.0
 11
16.609065
 21
1.281501
 31
0.0
  0
LINE
  5
68
100
AcDbEntity
  8
TEXT
100
AcDbLine
 10
17.729065
 20
0.901501
 30
0.0
 11
17.729065
 21
1.281501
 31
0.0
  0
LINE
  5
69
100
AcDbEntity
  8
TEXT
100
AcDbLine
 10
20.099065
 20
0.901501
 30
0.0
 11
20.099065
 21
1.281501
 31
0.0
  0
TEXT
  5
6A
100
AcDbEntity
  8
TEXT
100
AcDbText
 10
16.281365
 20
0.744001
 30
0.0
 40
0.065
  1
SCALE
  7
ADESK2
100
AcDbText
  0
TEXT
  5
6B
100
AcDbEntity
  8
TEXT
100
AcDbText
 10
18.781865
 20
0.744001
 30
0.0
 40
0.065
  1
SHEET
  7
ADESK2
100
AcDbText
  0
TEXT
  5
6C
100
AcDbEntity
  8
TEXT
100
AcDbText
 10
16.316965
 20
1.167401
 30
0.0
 40
0.065
  1
SIZE
  7
ADESK2
100
AcDbText
  0
TEXT
  5
6D
100
AcDbEntity
  8
TEXT
100
AcDbText
 10
17.800065
 20
1.167401
 30
0.0
 40
0.065
  1
DWG NO.
  7
ADESK2
100
AcDbText
  0
TEXT
  5
6E
100
AcDbEntity
  8
TEXT
100
AcDbText
 10
20.179565
 20
1.167401
 30
0.0
 40
0.065
  1
REV
  7
ADESK2
100
AcDbText
  0
LINE
  5
6F
100
AcDbEntity
  8
TEXT
100
AcDbLine
 10
15.445694
 20
15.018795
 30
0.0
 11
20.5
 21
15.018795
 31
0.0
  0
LINE
  5
70
100
AcDbEntity
  8
TEXT
100
AcDbLine
 10
15.445694
 20
14.768795
 30
0.0
 11
20.5
 21
14.768795
 31
0.0
  0
LINE
  5
71
100
AcDbEntity
  8
TEXT
100
AcDbLine
 10
15.445694
 20
15.328859
 30
0.0
 11
15.445694
 21
14.768795
 31
0.0
  0
LINE
  5
72
100
AcDbEntity
  8
TEXT
100
AcDbLine
 10
15.835946
 20
14.768795
 30
0.0
 11
15.835946
 21
15.018795
 31
0.0
  0
LINE
  5
73
100
AcDbEntity
  8
TEXT
100
AcDbLine
 10
18.575946
 20
14.768795
 30
0.0
 11
18.575946
 21
15.018795
 31
0.0
  0
LINE
  5
74
100
AcDbEntity
  8
TEXT
100
AcDbLine
 10
19.455946
 20
14.768795
 30
0.0
 11
19.455946
 21
15.018795
 31
0.0
  0
TEXT
  5
75
100
AcDbEntity
  8
TEXT
100
AcDbText
 10
17.666146
 20
15.101295
 30
0.0
 40
0.065
  1
REVISIONS
  7
ADESK2
100
AcDbText
  0
TEXT
  5
76
100
AcDbEntity
  8
TEXT
100
AcDbText
 10
15.536046
 20
14.859095
 30
0.0
 40
0.065
  1
REV
  7
ADESK2
100
AcDbText
  0
TEXT
  5
77
100
AcDbEntity
  8
TEXT
100
AcDbText
 10
16.837946
 20
14.859095
 30
0.0
 40
0.065
  1
DESCRIPTION
  7
ADESK2
100
AcDbText
  0
TEXT
  5
78
100
AcDbEntity
  8
TEXT
100
AcDbText
 10
18.903646
 20
14.859095
 30
0.0
 40
0.065
  1
DATE
  7
ADESK2
100
AcDbText
  0
TEXT
  5
79
100
AcDbEntity
  8
TEXT
100
AcDbText
 10
19.697346
 20
14.859095
 30
0.0
 40
0.065
  1
APPROVED
  7
ADESK2
100
AcDbText
  0
LINE
  5
7A
100
AcDbEntity
  8
TEXT
100
AcDbLine
 10
14.229065
 20
1.591501
 30
0.0
 11
16.229065
 21
1.591501
 31
0.0
  0
TEXT
  5
7B
100
AcDbEntity
  8
TEXT
100
AcDbText
 10
14.309065
 20
1.171501
 30
0.0
 40
0.065
  1
CHECKED
  7
ADESK2
100
AcDbText
  0
TEXT
  5
7C
100
AcDbEntity
  8
TEXT
100
AcDbText
 10
14.309065
 20
0.856501
 30
0.0
 40
0.065
  1
DESIGN
  7
ADESK2
100
AcDbText
  0
LINE
  5
7D
100
AcDbEntity
  8
TEXT
100
AcDbLine
 10
15.729049
 20
1.591501
 30
0.0
 11
15.729049
 21
0.625
 31
0.0
  0
TEXT
  5
7E
100
AcDbEntity
  8
TEXT
100
AcDbText
 10
15.852468
 20
1.474951
 30
0.0
 40
0.065
  1
DATE
  7
ADESK2
100
AcDbText
  0
TEXT
  5
7F
100
AcDbEntity
  8
TEXT
100
AcDbText
 10
19.612036
 20
0.744377
 30
0.0
 40
0.065
  1
OF
  7
ADESK2
100
AcDbText
  0
ENDBLK
  5
81
100
AcDbEntity
  8
0
100
AcDbBlockEnd
  0
BLOCK
  5
90
100
AcDbEntity
  8
0
100
AcDbBlockBegin
  2
FT-L3-B
 70
     0
 10
0.0
 20
0.0
 30
0.0
  3
FT-L3-B
  1

  0
LINE
  5
4FA
100
AcDbEntity
  8
FOOT
100
AcDbLine
 10
0.0
 20
5.0
 30
0.0
 11
0.0
 21
0.0
 31
0.0
  0
LINE
  5
4FB
100
AcDbEntity
  8
FOOT
100
AcDbLine
 10
0.0
 20
0.0
 30
0.0
 11
-15.0
 21
0.0
 31
0.0
  0
LINE
  5
4FC
100
AcDbEntity
  8
FOOT
100
AcDbLine
 10
-15.0
 20
0.0
 30
0.0
 11
-25.487579
 21
6.055019
 31
0.0
  0
LINE
  5
4FD
100
AcDbEntity
  8
FOOT
100
AcDbLine
 10
-25.487579
 20
6.055019
 30
0.0
 11
-72.117862
 21
6.055019
 31
0.0
  0
LINE
  5
4FE
100
AcDbEntity
  8
FOOT
100
AcDbLine
 10
-72.117862
 20
6.055019
 30
0.0
 11
-72.117862
 21
18.0
 31
0.0
  0
ARC
  5
4FF
100
AcDbEntity
  8
FOOT
100
AcDbCircle
 10
-70.117862
 20
18.0
 30
0.0
 40
2.0
100
AcDbArc
 50
90.0
 51
180.0
  0
LINE
  5
500
100
AcDbEntity
  8
FOOT
100
AcDbLine
 10
-70.117862
 20
20.0
 30
0.0
 11
-25.980711
 21
20.0
 31
0.0
  0
LINE
  5
501
100
AcDbEntity
  8
FOOT
100
AcDbLine
 10
-25.980711
 20
20.0
 30
0.0
 11
0.0
 21
5.0
 31
0.0
  0
CIRCLE
  5
502
100
AcDbEntity
  8
FOOT
100
AcDbCircle
 10
-33.855
 20
14.775
 30
0.0
 40
1.5875
  0
CIRCLE
  5
503
100
AcDbEntity
  8
FOOT
100
AcDbCircle
 10
-9.855
 20
4.775
 30
0.0
 40
1.5875
  0
ENDBLK
  5
91
100
AcDbEntity
  8
0
100
AcDbBlockEnd
  0
BLOCK
  5
496
100
AcDbEntity
  8
0
100
AcDbBlockBegin
  2
*D2
 70
    65
 10
0.0
 20
0.0
 30
0.0
  3
*D2
  1
*TB
  0
LINE
  5
497
100
AcDbEntity
  8
0
  6
BYBLOCK
 62
     0
100
AcDbLine
 10
14.119528
 20
12.170148
 30
0.0
 11
14.860699
 21
12.170148
 31
0.0
  0
LINE
  5
498
100
AcDbEntity
  8
0
  6
BYBLOCK
 62
     0
100
AcDbLine
 10
14.119528
 20
12.200148
 30
0.0
 11
14.860699
 21
12.200148
 31
0.0
  0
LINE
  5
499
100
AcDbEntity
  8
0
  6
BYBLOCK
 62
     0
100
AcDbLine
 10
14.725699
 20
12.035148
 30
0.0
 11
14.725699
 21
11.900148
 31
0.0
  0
LINE
  5
49A
100
AcDbEntity
  8
0
  6
BYBLOCK
 62
     0
100
AcDbLine
 10
14.725699
 20
12.335148
 30
0.0
 11
14.725699
 21
12.470148
 31
0.0
  0
LINE
  5
49B
100
AcDbEntity
  8
0
  6
BYBLOCK
 62
     0
100
AcDbLine
 10
14.725699
 20
12.470148
 30
0.0
 11
14.860699
 21
12.470148
 31
0.0
  0
SOLID
  5
49C
100
AcDbEntity
  8
0
  6
BYBLOCK
 62
     0
100
AcDbTrace
 10
14.703199
 20
12.035148
 30
0.0
 11
14.748199
 21
12.035148
 31
0.0
 12
14.725699
 22
12.170148
 32
0.0
 13
14.725699
 23
12.170148
 33
0.0
  0
SOLID
  5
49D
100
AcDbEntity
  8
0
  6
BYBLOCK
 62
     0
100
AcDbTrace
 10
14.703199
 20
12.335148
 30
0.0
 11
14.748199
 21
12.335148
 31
0.0
 12
14.725699
 22
12.200148
 32
0.0
 13
14.725699
 23
12.200148
 33
0.0
  0
MTEXT
  5
49E
100
AcDbEntity
  8
0
  6
BYBLOCK
 62
     0
100
AcDbMText
 10
15.715699
 20
12.470148
 30
0.0
 40
0.135
 41
0.0
 71
     5
 72
     1
  1
\A1;0.030"[0.76mm]
  0
POINT
  5
49F
100
AcDbEntity
  8
DEFPOINTS
  6
BYBLOCK
 62
     0
100
AcDbPoint
 10
14.072653
 20
12.170148
 30
0.0
  0
POINT
  5
4A0
100
AcDbEntity
  8
DEFPOINTS
  6
BYBLOCK
 62
     0
100
AcDbPoint
 10
14.072653
 20
12.200148
 30
0.0
  0
POINT
  5
4A1
100
AcDbEntity
  8
DEFPOINTS
  6
BYBLOCK
 62
     0
100
AcDbPoint
 10
14.725699
 20
12.200148
 30
0.0
  0
ENDBLK
  5
4A2
100
AcDbEntity
  8
0
100
AcDbBlockEnd
  0
BLOCK
  5
FEF
100
AcDbEntity
  8
0
100
AcDbBlockBegin
  2
*D3
 70
    65
 10
0.0
 20
0.0
 30
0.0
  3
*D3
  1
*TB
  0
LINE
  5
FF0
100
AcDbEntity
  8
0
  6
BYBLOCK
 62
     0
100
AcDbLine
 10
17.119528
 20
13.965022
 30
0.0
 11
24.999598
 21
13.965022
 31
0.0
  0
LINE
  5
FF1
100
AcDbEntity
  8
0
  6
BYBLOCK
 62
     0
100
AcDbLine
 10
17.119528
 20
16.325148
 30
0.0
 11
24.999598
 21
16.325148
 31
0.0
  0
LINE
  5
FF2
100
AcDbEntity
  8
0
  6
BYBLOCK
 62
     0
100
AcDbLine
 10
24.864598
 20
14.100022
 30
0.0
 11
24.864598
 21
15.010085
 31
0.0
  0
LINE
  5
FF3
100
AcDbEntity
  8
0
  6
BYBLOCK
 62
     0
100
AcDbLine
 10
24.864598
 20
16.190148
 30
0.0
 11
24.864598
 21
15.280085
 31
0.0
  0
SOLID
  5
FF4
100
AcDbEntity
  8
0
  6
BYBLOCK
 62
     0
100
AcDbTrace
 10
24.842098
 20
14.100022
 30
0.0
 11
24.887098
 21
14.100022
 31
0.0
 12
24.864598
 22
13.965022
 32
0.0
 13
24.864598
 23
13.965022
 33
0.0
  0
SOLID
  5
FF5
100
AcDbEntity
  8
0
  6
BYBLOCK
 62
     0
100
AcDbTrace
 10
24.842098
 20
16.190148
 30
0.0
 11
24.887098
 21
16.190148
 31
0.0
 12
24.864598
 22
16.325148
 32
0.0
 13
24.864598
 23
16.325148
 33
0.0
  0
MTEXT
  5
FF6
100
AcDbEntity
  8
0
  6
BYBLOCK
 62
     0
100
AcDbMText
 10
24.864598
 20
15.145085
 30
0.0
 40
0.135
 41
0.0
 71
     5
 72
     1
  1
\A1;2.360"[59.95mm]
  0
POINT
  5
FF7
100
AcDbEntity
  8
DEFPOINTS
  6
BYBLOCK
 62
     0
100
AcDbPoint
 10
17.072653
 20
13.965022
 30
0.0
  0
POINT
  5
FF8
100
AcDbEntity
  8
DEFPOINTS
  6
BYBLOCK
 62
     0
100
AcDbPoint
 10
17.072653
 20
16.325148
 30
0.0
  0
POINT
  5
FF9
100
AcDbEntity
  8
DEFPOINTS
  6
BYBLOCK
 62
     0
100
AcDbPoint
 10
24.864598
 20
16.325148
 30
0.0
  0
ENDBLK
  5
FFA
100
AcDbEntity
  8
0
100
AcDbBlockEnd
  0
BLOCK
  5
FFB
100
AcDbEntity
  8
0
100
AcDbBlockBegin
  2
*D4
 70
    65
 10
0.0
 20
0.0
 30
0.0
  3
*D4
  1
*TB
  0
LINE
  5
FFC
100
AcDbEntity
  8
0
  6
BYBLOCK
 62
     0
100
AcDbLine
 10
17.119528
 20
13.935022
 30
0.0
 11
27.031032
 21
13.935022
 31
0.0
  0
LINE
  5
FFD
100
AcDbEntity
  8
0
  6
BYBLOCK
 62
     0
100
AcDbLine
 10
17.119528
 20
16.325148
 30
0.0
 11
27.031032
 21
16.325148
 31
0.0
  0
LINE
  5
FFE
100
AcDbEntity
  8
0
  6
BYBLOCK
 62
     0
100
AcDbLine
 10
26.896032
 20
14.070022
 30
0.0
 11
26.896032
 21
14.995085
 31
0.0
  0
LINE
  5
FFF
100
AcDbEntity
  8
0
  6
BYBLOCK
 62
     0
100
AcDbLine
 10
26.896032
 20
16.190148
 30
0.0
 11
26.896032
 21
15.265085
 31
0.0
  0
SOLID
  5
1000
100
AcDbEntity
  8
0
  6
BYBLOCK
 62
     0
100
AcDbTrace
 10
26.873532
 20
14.070022
 30
0.0
 11
26.918532
 21
14.070022
 31
0.0
 12
26.896032
 22
13.935022
 32
0.0
 13
26.896032
 23
13.935022
 33
0.0
  0
SOLID
  5
1001
100
AcDbEntity
  8
0
  6
BYBLOCK
 62
     0
100
AcDbTrace
 10
26.873532
 20
16.190148
 30
0.0
 11
26.918532
 21
16.190148
 31
0.0
 12
26.896032
 22
16.325148
 32
0.0
 13
26.896032
 23
16.325148
 33
0.0
  0
MTEXT
  5
1002
100
AcDbEntity
  8
0
  6
BYBLOCK
 62
     0
100
AcDbMText
 10
26.896032
 20
15.130085
 30
0.0
 40
0.135
 41
0.0
 71
     5
 72
     1
  1
\A1;2.390"[60.71mm]
  0
POINT
  5
1003
100
AcDbEntity
  8
DEFPOINTS
  6
BYBLOCK
 62
     0
100
AcDbPoint
 10
17.072653
 20
13.935022
 30
0.0
  0
POINT
  5
1004
100
AcDbEntity
  8
DEFPOINTS
  6
BYBLOCK
 62
     0
100
AcDbPoint
 10
17.072653
 20
16.325148
 30
0.0
  0
POINT
  5
1005
100
AcDbEntity
  8
DEFPOINTS
  6
BYBLOCK
 62
     0
100
AcDbPoint
 10
26.896032
 20
16.325148
 30
0.0
  0
ENDBLK
  5
1006
100
AcDbEntity
  8
0
100
AcDbBlockEnd
  0
BLOCK
  5
7B6
100
AcDbEntity
  8
0
100
AcDbBlockBegin
  2
*D5
 70
    65
 10
0.0
 20
0.0
 30
0.0
  3
*D5
  1
*TB
  0
LINE
  5
7B7
100
AcDbEntity
  8
0
  6
BYBLOCK
 62
     0
100
AcDbLine
 10
14.156005
 20
16.004576
 30
0.0
 11
11.806396
 21
16.004576
 31
0.0
  0
LINE
  5
7B8
100
AcDbEntity
  8
0
  6
BYBLOCK
 62
     0
100
AcDbLine
 10
14.186498
 20
16.325148
 30
0.0
 11
11.806396
 21
16.325148
 31
0.0
  0
LINE
  5
7B9
100
AcDbEntity
  8
0
  6
BYBLOCK
 62
     0
100
AcDbLine
 10
11.941396
 20
15.869576
 30
0.0
 11
11.941396
 21
15.734576
 31
0.0
  0
LINE
  5
7BA
100
AcDbEntity
  8
0
  6
BYBLOCK
 62
     0
100
AcDbLine
 10
11.941396
 20
16.460148
 30
0.0
 11
11.941396
 21
16.595148
 31
0.0
  0
LINE
  5
7BB
100
AcDbEntity
  8
0
  6
BYBLOCK
 62
     0
100
AcDbLine
 10
11.941396
 20
16.595148
 30
0.0
 11
12.076396
 21
16.595148
 31
0.0
  0
SOLID
  5
7BC
100
AcDbEntity
  8
0
  6
BYBLOCK
 62
     0
100
AcDbTrace
 10
11.918896
 20
15.869576
 30
0.0
 11
11.963896
 21
15.869576
 31
0.0
 12
11.941396
 22
16.004576
 32
0.0
 13
11.941396
 23
16.004576
 33
0.0
  0
SOLID
  5
7BD
100
AcDbEntity
  8
0
  6
BYBLOCK
 62
     0
100
AcDbTrace
 10
11.918896
 20
16.460148
 30
0.0
 11
11.963896
 21
16.460148
 31
0.0
 12
11.941396
 22
16.325148
 32
0.0
 13
11.941396
 23
16.325148
 33
0.0
  0
MTEXT
  5
7BE
100
AcDbEntity
  8
0
  6
BYBLOCK
 62
     0
100
AcDbMText
 10
12.852646
 20
16.595148
 30
0.0
 40
0.135
 41
0.0
 71
     5
 72
     1
  1
\A1;0.321"[8.14mm]
  0
POINT
  5
7BF
100
AcDbEntity
  8
DEFPOINTS
  6
BYBLOCK
 62
     0
100
AcDbPoint
 10
14.20288
 20
16.004576
 30
0.0
  0
POINT
  5
7C0
100
AcDbEntity
  8
DEFPOINTS
  6
BYBLOCK
 62
     0
100
AcDbPoint
 10
14.233373
 20
16.325148
 30
0.0
  0
POINT
  5
7C1
100
AcDbEntity
  8
DEFPOINTS
  6
BYBLOCK
 62
     0
100
AcDbPoint
 10
11.941396
 20
16.325148
 30
0.0
  0
ENDBLK
  5
7C2
100
AcDbEntity
  8
0
100
AcDbBlockEnd
  0
BLOCK
  5
F72
100
AcDbEntity
  8
0
100
AcDbBlockBegin
  2
*D6
 70
    65
 10
0.0
 20
0.0
 30
0.0
  3
*D6
  1
*TB
  0
LINE
  5
F73
100
AcDbEntity
  8
0
  6
BYBLOCK
 62
     0
100
AcDbLine
 10
14.156005
 20
14.323308
 30
0.0
 11
3.563304
 21
14.323308
 31
0.0
  0
LINE
  5
F74
100
AcDbEntity
  8
0
  6
BYBLOCK
 62
     0
100
AcDbLine
 10
14.186498
 20
16.325148
 30
0.0
 11
3.563304
 21
16.325148
 31
0.0
  0
LINE
  5
F75
100
AcDbEntity
  8
0
  6
BYBLOCK
 62
     0
100
AcDbLine
 10
3.698304
 20
14.458308
 30
0.0
 11
3.698304
 21
15.189228
 31
0.0
  0
LINE
  5
F76
100
AcDbEntity
  8
0
  6
BYBLOCK
 62
     0
100
AcDbLine
 10
3.698304
 20
16.190148
 30
0.0
 11
3.698304
 21
15.459228
 31
0.0
  0
SOLID
  5
F77
100
AcDbEntity
  8
0
  6
BYBLOCK
 62
     0
100
AcDbTrace
 10
3.675804
 20
14.458308
 30
0.0
 11
3.720804
 21
14.458308
 31
0.0
 12
3.698304
 22
14.323308
 32
0.0
 13
3.698304
 23
14.323308
 33
0.0
  0
SOLID
  5
F78
100
AcDbEntity
  8
0
  6
BYBLOCK
 62
     0
100
AcDbTrace
 10
3.675804
 20
16.190148
 30
0.0
 11
3.720804
 21
16.190148
 31
0.0
 12
3.698304
 22
16.325148
 32
0.0
 13
3.698304
 23
16.325148
 33
0.0
  0
MTEXT
  5
F79
100
AcDbEntity
  8
0
  6
BYBLOCK
 62
     0
100
AcDbMText
 10
3.698304
 20
15.324228
 30
0.0
 40
0.135
 41
0.0
 71
     5
 72
     1
  1
\A1;2.002"[50.85mm]
  0
POINT
  5
F7A
100
AcDbEntity
  8
DEFPOINTS
  6
BYBLOCK
 62
     0
100
AcDbPoint
 10
14.20288
 20
14.323308
 30
0.0
  0
POINT
  5
F7B
100
AcDbEntity
  8
DEFPOINTS
  6
BYBLOCK
 62
     0
100
AcDbPoint
 10
14.233373
 20
16.325148
 30
0.0
  0
POINT
  5
F7C
100
AcDbEntity
  8
DEFPOINTS
  6
BYBLOCK
 62
     0
100
AcDbPoint
 10
3.698304
 20
16.325148
 30
0.0
  0
ENDBLK
  5
F7D
100
AcDbEntity
  8
0
100
AcDbBlockEnd
  0
BLOCK
  5
4F7
100
AcDbEntity
  8
TEXT
100
AcDbBlockBegin
  2
D-BORDER
 70
     0
 10
0.0
 20
0.0
 30
0.0
  3
D-BORDER
  1

  0
LINE
  5
4B5
100
AcDbEntity
  8
TEXT
100
AcDbLine
 10
1.0
 20
19.947595
 30
0.0
 11
3.5625
 21
19.947595
 31
0.0
  0
LINE
  5
4B6
100
AcDbEntity
  8
TEXT
100
AcDbLine
 10
3.5625
 20
19.947595
 30
0.0
 11
3.5625
 21
20.447595
 31
0.0
  0
CIRCLE
  5
4B7
100
AcDbEntity
  8
TEXT
100
AcDbCircle
 10
1.677871
 20
20.184056
 30
0.0
 40
0.1875
  0
CIRCLE
  5
4B8
100
AcDbEntity
  8
TEXT
100
AcDbCircle
 10
1.677871
 20
20.184056
 30
0.0
 40
0.09375
  0
LINE
  5
4B9
100
AcDbEntity
  8
TEXT
  6
CENTER
100
AcDbLine
 10
1.443951
 20
20.184056
 30
0.0
 11
2.896621
 21
20.184056
 31
0.0
  0
LINE
  5
4BA
100
AcDbEntity
  8
TEXT
  6
CENTER
100
AcDbLine
 10
1.677871
 20
19.955375
 30
0.0
 11
1.677871
 21
20.423251
 31
0.0
  0
LINE
  5
4BB
100
AcDbEntity
  8
TEXT
100
AcDbLine
 10
2.146621
 20
20.277806
 30
0.0
 11
2.631263
 21
20.371556
 31
0.0
  0
LINE
  5
4BC
100
AcDbEntity
  8
TEXT
100
AcDbLine
 10
2.146621
 20
20.090306
 30
0.0
 11
2.631263
 21
19.996556
 31
0.0
  0
LINE
  5
4BD
100
AcDbEntity
  8
TEXT
100
AcDbLine
 10
2.146621
 20
20.090306
 30
0.0
 11
2.146621
 21
20.277806
 31
0.0
  0
LINE
  5
4BE
100
AcDbEntity
  8
TEXT
100
AcDbLine
 10
2.631263
 20
20.371556
 30
0.0
 11
2.631263
 21
19.996556
 31
0.0
  0
TEXT
  5
4BF
100
AcDbEntity
  8
TEXT
100
AcDbText
 10
1.1875
 20
19.762423
 30
0.0
 40
0.1
  1
THIRD ANGLE PROJECTION
100
AcDbText
  0
LINE
  5
4C0
100
AcDbEntity
  8
TEXT
100
AcDbLine
 10
3.5625
 20
19.947595
 30
0.0
 11
3.5625
 21
19.697595
 31
0.0
  0
LINE
  5
4C1
100
AcDbEntity
  8
TEXT
100
AcDbLine
 10
3.5625
 20
19.697595
 30
0.0
 11
1.0
 21
19.697595
 31
0.0
  0
TEXT
  5
4C2
100
AcDbEntity
  8
TEXT
100
AcDbText
 10
31.135292
 20
0.744377
 30
0.0
 40
0.065
  1
OF
  7
ADESK2
100
AcDbText
  0
TEXT
  5
4C3
100
AcDbEntity
  8
TEXT
100
AcDbText
 10
27.375724
 20
1.474951
 30
0.0
 40
0.065
  1
DATE
  7
ADESK2
100
AcDbText
  0
LINE
  5
4C4
100
AcDbEntity
  8
TEXT
100
AcDbLine
 10
27.252305
 20
1.591501
 30
0.0
 11
27.252305
 21
0.625
 31
0.0
  0
TEXT
  5
4C5
100
AcDbEntity
  8
TEXT
100
AcDbText
 10
25.832321
 20
0.856501
 30
0.0
 40
0.065
  1
DESIGN
  7
ADESK2
100
AcDbText
  0
TEXT
  5
4C6
100
AcDbEntity
  8
TEXT
100
AcDbText
 10
25.832321
 20
1.171501
 30
0.0
 40
0.065
  1
CHECKED
  7
ADESK2
100
AcDbText
  0
LINE
  5
4C7
100
AcDbEntity
  8
TEXT
100
AcDbLine
 10
25.752321
 20
1.591501
 30
0.0
 11
27.752321
 21
1.591501
 31
0.0
  0
TEXT
  5
4C8
100
AcDbEntity
  8
TEXT
100
AcDbText
 10
31.234702
 20
19.965196
 30
0.0
 40
0.065
  1
APPROVED
  7
ADESK2
100
AcDbText
  0
TEXT
  5
4C9
100
AcDbEntity
  8
TEXT
100
AcDbText
 10
30.441002
 20
19.965196
 30
0.0
 40
0.065
  1
DATE
  7
ADESK2
100
AcDbText
  0
TEXT
  5
4CA
100
AcDbEntity
  8
TEXT
100
AcDbText
 10
28.375302
 20
19.965196
 30
0.0
 40
0.065
  1
DESCRIPTION
  7
ADESK2
100
AcDbText
  0
TEXT
  5
4CB
100
AcDbEntity
  8
TEXT
100
AcDbText
 10
27.073402
 20
19.965196
 30
0.0
 40
0.065
  1
REV
  7
ADESK2
100
AcDbText
  0
TEXT
  5
4CC
100
AcDbEntity
  8
TEXT
100
AcDbText
 10
29.203502
 20
20.207396
 30
0.0
 40
0.065
  1
REVISIONS
  7
ADESK2
100
AcDbText
  0
LINE
  5
4CD
100
AcDbEntity
  8
TEXT
100
AcDbLine
 10
30.993302
 20
19.874896
 30
0.0
 11
30.993302
 21
20.124896
 31
0.0
  0
LINE
  5
4CE
100
AcDbEntity
  8
TEXT
100
AcDbLine
 10
30.113302
 20
19.874896
 30
0.0
 11
30.113302
 21
20.124896
 31
0.0
  0
LINE
  5
4CF
100
AcDbEntity
  8
TEXT
100
AcDbLine
 10
27.373302
 20
19.874896
 30
0.0
 11
27.373302
 21
20.124896
 31
0.0
  0
LINE
  5
4D0
100
AcDbEntity
  8
TEXT
100
AcDbLine
 10
26.983049
 20
20.434959
 30
0.0
 11
26.983049
 21
19.874896
 31
0.0
  0
LINE
  5
4D1
100
AcDbEntity
  8
TEXT
100
AcDbLine
 10
26.983049
 20
19.874896
 30
0.0
 11
32.037356
 21
19.874896
 31
0.0
  0
LINE
  5
4D2
100
AcDbEntity
  8
TEXT
100
AcDbLine
 10
26.983049
 20
20.124896
 30
0.0
 11
32.037356
 21
20.124896
 31
0.0
  0
TEXT
  5
4D3
100
AcDbEntity
  8
TEXT
100
AcDbText
 10
31.702821
 20
1.167401
 30
0.0
 40
0.065
  1
REV
  7
ADESK2
100
AcDbText
  0
TEXT
  5
4D4
100
AcDbEntity
  8
TEXT
100
AcDbText
 10
29.323321
 20
1.167401
 30
0.0
 40
0.065
  1
DWG NO.
  7
ADESK2
100
AcDbText
  0
TEXT
  5
4D5
100
AcDbEntity
  8
TEXT
100
AcDbText
 10
27.840221
 20
1.167401
 30
0.0
 40
0.065
  1
SIZE
  7
ADESK2
100
AcDbText
  0
TEXT
  5
4D6
100
AcDbEntity
  8
TEXT
100
AcDbText
 10
30.305121
 20
0.744001
 30
0.0
 40
0.065
  1
SHEET
  7
ADESK2
100
AcDbText
  0
TEXT
  5
4D7
100
AcDbEntity
  8
TEXT
100
AcDbText
 10
27.804621
 20
0.744001
 30
0.0
 40
0.065
  1
SCALE
  7
ADESK2
100
AcDbText
  0
LINE
  5
4D8
100
AcDbEntity
  8
TEXT
100
AcDbLine
 10
31.622321
 20
0.901501
 30
0.0
 11
31.622321
 21
1.281501
 31
0.0
  0
LINE
  5
4D9
100
AcDbEntity
  8
TEXT
100
AcDbLine
 10
29.252321
 20
0.901501
 30
0.0
 11
29.252321
 21
1.281501
 31
0.0
  0
LINE
  5
4DA
100
AcDbEntity
  8
TEXT
100
AcDbLine
 10
28.132321
 20
0.901501
 30
0.0
 11
28.132321
 21
1.281501
 31
0.0
  0
LINE
  5
4DB
100
AcDbEntity
  8
TEXT
100
AcDbLine
 10
30.252321
 20
0.625
 30
0.0
 11
30.252321
 21
0.901501
 31
0.0
  0
LINE
  5
4DC
100
AcDbEntity
  8
TEXT
100
AcDbLine
 10
28.752321
 20
0.625
 30
0.0
 11
28.752321
 21
0.901501
 31
0.0
  0
LINE
  5
4DD
100
AcDbEntity
  8
BORDER
100
AcDbLine
 10
27.752321
 20
0.625
 30
0.0
 11
27.752321
 21
2.401501
 31
0.0
  0
LINE
  5
4DE
100
AcDbEntity
  8
BORDER
100
AcDbLine
 10
27.752321
 20
1.901501
 30
0.0
 11
32.024118
 21
1.901501
 31
0.0
  0
LINE
  5
4DF
100
AcDbEntity
  8
TEXT
100
AcDbLine
 10
27.752321
 20
0.901501
 30
0.0
 11
32.024118
 21
0.901501
 31
0.0
  0
LINE
  5
4E0
100
AcDbEntity
  8
TEXT
100
AcDbLine
 10
25.752321
 20
1.281501
 30
0.0
 11
32.024118
 21
1.281501
 31
0.0
  0
LINE
  5
4E1
100
AcDbEntity
  8
TEXT
100
AcDbLine
 10
25.752321
 20
0.966501
 30
0.0
 11
27.752321
 21
0.966501
 31
0.0
  0
LINE
  5
4E2
100
AcDbEntity
  8
BORDER
100
AcDbLine
 10
25.752321
 20
2.401501
 30
0.0
 11
32.024118
 21
2.401501
 31
0.0
  0
LINE
  5
4E3
100
AcDbEntity
  8
BORDER
100
AcDbLine
 10
25.752321
 20
0.625
 30
0.0
 11
25.752321
 21
2.824147
 31
0.0
  0
TEXT
  5
4E4
100
AcDbEntity
  8
TEXT
100
AcDbText
 10
25.820631
 20
1.479964
 30
0.0
 40
0.065
  1
DRAWN
  7
ADESK2
100
AcDbText
  0
TEXT
  5
4E5
100
AcDbEntity
  8
BORDER
100
AcDbText
 10
25.930285
 20
2.549228
 30
0.0
 40
0.15
  1
UNIVERSITY OF CALIFORNIA @ SANTA BARBARA
100
AcDbText
  0
LINE
  5
4E6
100
AcDbEntity
  8
BORDER
100
AcDbLine
 10
25.75128
 20
2.824147
 30
0.0
 11
32.024118
 21
2.824147
 31
0.0
  0
LINE
  5
4E7
100
AcDbEntity
  8
BORDER
100
AcDbLine
 10
32.04642
 20
0.625
 30
0.0
 11
32.04642
 21
20.447595
 31
0.0
  0
LINE
  5
4E8
100
AcDbEntity
  8
BORDER
100
AcDbLine
 10
1.0
 20
20.447595
 30
0.0
 11
1.0
 21
0.625
 31
0.0
  0
LINE
  5
4E9
100
AcDbEntity
  8
BORDER
100
AcDbLine
 10
1.0
 20
0.625
 30
0.0
 11
32.04642
 21
0.625
 31
0.0
  0
TEXT
  5
4EA
100
AcDbEntity
  8
TEXT
100
AcDbText
 10
28.203393
 20
1.165354
 30
0.0
 40
0.075
  1
DIRECTORY
100
AcDbText
  0
LINE
  5
4EB
100
AcDbEntity
  8
BORDER
100
AcDbLine
 10
1.0
 20
20.447595
 30
0.0
 11
32.04642
 21
20.447595
 31
0.0
  0
TEXT
  5
4EC
100
AcDbEntity
  8
BORDER
100
AcDbText
 10
28.439864
 20
2.075566
 30
0.0
 40
0.15
  1
HIGH ENERGY PHYSICS
100
AcDbText
  0
TEXT
  5
4ED
100
AcDbEntity
  8
BORDER
100
AcDbText
 10
27.876167
 20
0.934778
 30
0.0
 40
0.2
  1
D
100
AcDbText
  0
TEXT
  5
4EE
100
AcDbEntity
  8
TEXT
100
AcDbText
 10
25.981606
 20
2.285089
 30
0.0
 40
0.065
  1
UNLESS OTHERWISE SPECIFIED:
  7
ADESK2
 72
     1
 11
26.752321
 21
2.285089
 31
0.0
100
AcDbText
  0
TEXT
  5
4EF
100
AcDbEntity
  8
TEXT
100
AcDbText
 10
26.055892
 20
2.179851
 30
0.0
 40
0.065
  1
DIMENSIONS ARE IN INCHES
  7
ADESK2
 72
     1
 11
26.752321
 21
2.179851
 31
0.0
100
AcDbText
  0
TEXT
  5
4F0
100
AcDbEntity
  8
TEXT
100
AcDbText
 10
26.45363
 20
2.074613
 30
0.0
 40
0.065
  1
TOLERANCES
  7
ADESK2
 72
     1
 11
26.752321
 21
2.074613
 31
0.0
100
AcDbText
  0
TEXT
  5
4F1
100
AcDbEntity
  8
TEXT
100
AcDbText
 10
26.067279
 20
1.966743
 30
0.0
 40
0.065
  1
DECIMALS
  7
ADESK2
100
AcDbText
  0
TEXT
  5
4F2
100
AcDbEntity
  8
TEXT
100
AcDbText
 10
26.067279
 20
1.861505
 30
0.0
 40
0.065
  1
.XX  %%P .05
  7
ADESK2
100
AcDbText
  0
TEXT
  5
4F3
100
AcDbEntity
  8
TEXT
100
AcDbText
 10
26.067279
 20
1.756267
 30
0.0
 40
0.065
  1
.XXX %%P .005
  7
ADESK2
100
AcDbText
  0
TEXT
  5
4F4
100
AcDbEntity
  8
TEXT
100
AcDbText
 10
26.137916
 20
1.653744
 30
0.0
 40
0.065
  1
DO NOT SCALE DRAWING
  7
ADESK2
 72
     1
 11
26.752321
 21
1.653744
 31
0.0
100
AcDbText
  0
TEXT
  5
4F5
100
AcDbEntity
  8
TEXT
100
AcDbText
 10
26.931176
 20
1.966743
 30
0.0
 40
0.065
  1
ANGULAR
  7
ADESK2
100
AcDbText
  0
TEXT
  5
4F6
100
AcDbEntity
  8
TEXT
100
AcDbText
 10
26.931176
 20
1.861505
 30
0.0
 40
0.065
  1
  %%P 0.5%%D
  7
ADESK2
100
AcDbText
  0
ENDBLK
  5
4F8
100
AcDbEntity
  8
TEXT
100
AcDbBlockEnd
  0
BLOCK
  5
5B4
100
AcDbEntity
  8
0
100
AcDbBlockBegin
  2
*X8
 70
    65
 10
0.0
 20
0.0
 30
0.0
  3
*X8
  1

  0
LINE
  5
5B6
100
AcDbEntity
  8
0
 62
     0
100
AcDbLine
 10
15.709895
 20
7.666556
 30
0.0
 11
15.739895
 21
7.696556
 31
0.0
  0
LINE
  5
5B7
100
AcDbEntity
  8
0
 62
     0
100
AcDbLine
 10
15.621507
 20
7.666556
 30
0.0
 11
15.651507
 21
7.696556
 31
0.0
  0
LINE
  5
5B8
100
AcDbEntity
  8
0
 62
     0
100
AcDbLine
 10
15.533119
 20
7.666556
 30
0.0
 11
15.563119
 21
7.696556
 31
0.0
  0
LINE
  5
5B9
100
AcDbEntity
  8
0
 62
     0
100
AcDbLine
 10
15.44473
 20
7.666556
 30
0.0
 11
15.47473
 21
7.696556
 31
0.0
  0
LINE
  5
5BA
100
AcDbEntity
  8
0
 62
     0
100
AcDbLine
 10
15.356342
 20
7.666556
 30
0.0
 11
15.386342
 21
7.696556
 31
0.0
  0
LINE
  5
5BB
100
AcDbEntity
  8
0
 62
     0
100
AcDbLine
 10
15.267954
 20
7.666556
 30
0.0
 11
15.297954
 21
7.696556
 31
0.0
  0
LINE
  5
5BC
100
AcDbEntity
  8
0
 62
     0
100
AcDbLine
 10
15.179565
 20
7.666556
 30
0.0
 11
15.209565
 21
7.696556
 31
0.0
  0
LINE
  5
5BD
100
AcDbEntity
  8
0
 62
     0
100
AcDbLine
 10
15.091177
 20
7.666556
 30
0.0
 11
15.121177
 21
7.696556
 31
0.0
  0
LINE
  5
5BE
100
AcDbEntity
  8
0
 62
     0
100
AcDbLine
 10
15.002789
 20
7.666556
 30
0.0
 11
15.032789
 21
7.696556
 31
0.0
  0
LINE
  5
5BF
100
AcDbEntity
  8
0
 62
     0
100
AcDbLine
 10
14.9144
 20
7.666556
 30
0.0
 11
14.9444
 21
7.696556
 31
0.0
  0
LINE
  5
5C0
100
AcDbEntity
  8
0
 62
     0
100
AcDbLine
 10
14.826012
 20
7.666556
 30
0.0
 11
14.856012
 21
7.696556
 31
0.0
  0
LINE
  5
5C1
100
AcDbEntity
  8
0
 62
     0
100
AcDbLine
 10
14.737624
 20
7.666556
 30
0.0
 11
14.767624
 21
7.696556
 31
0.0
  0
LINE
  5
5C2
100
AcDbEntity
  8
0
 62
     0
100
AcDbLine
 10
14.649235
 20
7.666556
 30
0.0
 11
14.679235
 21
7.696556
 31
0.0
  0
LINE
  5
5C3
100
AcDbEntity
  8
0
 62
     0
100
AcDbLine
 10
14.560847
 20
7.666556
 30
0.0
 11
14.590847
 21
7.696556
 31
0.0
  0
LINE
  5
5C4
100
AcDbEntity
  8
0
 62
     0
100
AcDbLine
 10
14.472459
 20
7.666556
 30
0.0
 11
14.502459
 21
7.696556
 31
0.0
  0
LINE
  5
5C5
100
AcDbEntity
  8
0
 62
     0
100
AcDbLine
 10
14.38407
 20
7.666556
 30
0.0
 11
14.41407
 21
7.696556
 31
0.0
  0
LINE
  5
5C6
100
AcDbEntity
  8
0
 62
     0
100
AcDbLine
 10
14.295682
 20
7.666556
 30
0.0
 11
14.325682
 21
7.696556
 31
0.0
  0
LINE
  5
5C7
100
AcDbEntity
  8
0
 62
     0
100
AcDbLine
 10
14.233373
 20
7.692635
 30
0.0
 11
14.237294
 21
7.696556
 31
0.0
  0
LINE
  5
5C8
100
AcDbEntity
  8
0
 62
     0
100
AcDbLine
 10
15.798284
 20
7.666556
 30
0.0
 11
15.828284
 21
7.696556
 31
0.0
  0
LINE
  5
5C9
100
AcDbEntity
  8
0
 62
     0
100
AcDbLine
 10
15.886672
 20
7.666556
 30
0.0
 11
15.916672
 21
7.696556
 31
0.0
  0
LINE
  5
5CA
100
AcDbEntity
  8
0
 62
     0
100
AcDbLine
 10
15.97506
 20
7.666556
 30
0.0
 11
16.00506
 21
7.696556
 31
0.0
  0
LINE
  5
5CB
100
AcDbEntity
  8
0
 62
     0
100
AcDbLine
 10
16.063449
 20
7.666556
 30
0.0
 11
16.087409
 21
7.690516
 31
0.0
  0
LINE
  5
5CC
100
AcDbEntity
  8
0
 62
     0
100
AcDbLine
 10
16.121592
 20
7.636311
 30
0.0
 11
16.143445
 21
7.658163
 31
0.0
  0
LINE
  5
5CD
100
AcDbEntity
  8
0
 62
     0
100
AcDbLine
 10
16.177628
 20
7.603959
 30
0.0
 11
16.199481
 21
7.625811
 31
0.0
  0
LINE
  5
5CE
100
AcDbEntity
  8
0
 62
     0
100
AcDbLine
 10
16.233664
 20
7.571606
 30
0.0
 11
16.255517
 21
7.593459
 31
0.0
  0
LINE
  5
5CF
100
AcDbEntity
  8
0
 62
     0
100
AcDbLine
 10
16.2897
 20
7.539254
 30
0.0
 11
16.311553
 21
7.561106
 31
0.0
  0
LINE
  5
5D0
100
AcDbEntity
  8
0
 62
     0
100
AcDbLine
 10
16.345736
 20
7.506901
 30
0.0
 11
16.367588
 21
7.528754
 31
0.0
  0
LINE
  5
5D1
100
AcDbEntity
  8
0
 62
     0
100
AcDbLine
 10
16.401772
 20
7.474549
 30
0.0
 11
16.423624
 21
7.496401
 31
0.0
  0
LINE
  5
5D2
100
AcDbEntity
  8
0
 62
     0
100
AcDbLine
 10
16.457808
 20
7.442197
 30
0.0
 11
16.47966
 21
7.464049
 31
0.0
  0
LINE
  5
5D3
100
AcDbEntity
  8
0
 62
     0
100
AcDbLine
 10
16.53217
 20
7.42817
 30
0.0
 11
16.56217
 21
7.45817
 31
0.0
  0
LINE
  5
5D4
100
AcDbEntity
  8
0
 62
     0
100
AcDbLine
 10
16.620558
 20
7.42817
 30
0.0
 11
16.650558
 21
7.45817
 31
0.0
  0
LINE
  5
5D5
100
AcDbEntity
  8
0
 62
     0
100
AcDbLine
 10
16.708946
 20
7.42817
 30
0.0
 11
16.738946
 21
7.45817
 31
0.0
  0
LINE
  5
5D6
100
AcDbEntity
  8
0
 62
     0
100
AcDbLine
 10
16.797335
 20
7.42817
 30
0.0
 11
16.827335
 21
7.45817
 31
0.0
  0
LINE
  5
5D7
100
AcDbEntity
  8
0
 62
     0
100
AcDbLine
 10
16.885723
 20
7.42817
 30
0.0
 11
16.915723
 21
7.45817
 31
0.0
  0
LINE
  5
5D8
100
AcDbEntity
  8
0
 62
     0
100
AcDbLine
 10
16.974111
 20
7.42817
 30
0.0
 11
17.004111
 21
7.45817
 31
0.0
  0
LINE
  5
5D9
100
AcDbEntity
  8
0
 62
     0
100
AcDbLine
 10
17.0625
 20
7.42817
 30
0.0
 11
17.072653
 21
7.438323
 31
0.0
  0
ENDBLK
  5
5DA
100
AcDbEntity
  8
0
100
AcDbBlockEnd
  0
BLOCK
  5
63F
100
AcDbEntity
  8
0
100
AcDbBlockBegin
  2
*U9
 70
    65
 10
0.0
 20
0.0
 30
0.0
  3
*U9
  1
*TB
  0
POLYLINE
  5
640
100
AcDbEntity
  8
FOOT
100
AcDb2dPolyline
 66
     1
 10
0.0
 20
0.0
 30
0.0
 70
     1
  0
VERTEX
  5
641
100
AcDbEntity
  8
FOOT
100
AcDbVertex
100
AcDb2dVertex
 10
0.0
 20
0.063
 30
0.0
 42
1.0
  0
VERTEX
  5
642
100
AcDbEntity
  8
FOOT
100
AcDbVertex
100
AcDb2dVertex
 10
0.0
 20
-0.063
 30
0.0
  0
VERTEX
  5
643
100
AcDbEntity
  8
FOOT
100
AcDbVertex
100
AcDb2dVertex
 10
0.185
 20
-0.063
 30
0.0
 42
1.0
  0
VERTEX
  5
644
100
AcDbEntity
  8
FOOT
100
AcDbVertex
100
AcDb2dVertex
 10
0.185
 20
0.063
 30
0.0
  0
SEQEND
  5
645
100
AcDbEntity
  8
FOOT
  0
LINE
  5
646
100
AcDbEntity
  8
CENTER
100
AcDbLine
 10
-0.021
 20
0.0
 30
0.0
 11
0.021
 21
0.0
 31
0.0
  0
LINE
  5
647
100
AcDbEntity
  8
CENTER
100
AcDbLine
 10
0.0
 20
-0.021
 30
0.0
 11
0.0
 21
0.021
 31
0.0
  0
LINE
  5
648
100
AcDbEntity
  8
CENTER
100
AcDbLine
 10
0.042
 20
0.0
 30
0.0
 11
0.188
 21
0.0
 31
0.0
  0
LINE
  5
649
100
AcDbEntity
  8
CENTER
100
AcDbLine
 10
0.0
 20
0.042
 30
0.0
 11
0.0
 21
0.188
 31
0.0
  0
LINE
  5
64A
100
AcDbEntity
  8
CENTER
100
AcDbLine
 10
-0.042
 20
0.0
 30
0.0
 11
-0.188
 21
0.0
 31
0.0
  0
LINE
  5
64B
100
AcDbEntity
  8
CENTER
100
AcDbLine
 10
0.0
 20
-0.042
 30
0.0
 11
0.0
 21
-0.188
 31
0.0
  0
LINE
  5
64C
100
AcDbEntity
  8
CENTER
100
AcDbLine
 10
0.164
 20
0.0
 30
0.0
 11
0.206
 21
0.0
 31
0.0
  0
LINE
  5
64D
100
AcDbEntity
  8
CENTER
100
AcDbLine
 10
0.185
 20
-0.021
 30
0.0
 11
0.185
 21
0.021
 31
0.0
  0
LINE
  5
64E
100
AcDbEntity
  8
CENTER
100
AcDbLine
 10
0.227
 20
0.0
 30
0.0
 11
0.373
 21
0.0
 31
0.0
  0
LINE
  5
64F
100
AcDbEntity
  8
CENTER
100
AcDbLine
 10
0.185
 20
0.042
 30
0.0
 11
0.185
 21
0.188
 31
0.0
  0
LINE
  5
650
100
AcDbEntity
  8
CENTER
100
AcDbLine
 10
0.143
 20
0.0
 30
0.0
 11
-0.003
 21
0.0
 31
0.0
  0
LINE
  5
651
100
AcDbEntity
  8
CENTER
100
AcDbLine
 10
0.185
 20
-0.042
 30
0.0
 11
0.185
 21
-0.188
 31
0.0
  0
ENDBLK
  5
652
100
AcDbEntity
  8
0
100
AcDbBlockEnd
  0
BLOCK
  5
66D
100
AcDbEntity
  8
0
100
AcDbBlockBegin
  2
*U10
 70
    65
 10
0.0
 20
0.0
 30
0.0
  3
*U10
  1
*TB
  0
CIRCLE
  5
66E
100
AcDbEntity
  8
FOOT
100
AcDbCircle
 10
0.0
 20
0.0
 30
0.0
 40
0.046875
  0
LINE
  5
66F
100
AcDbEntity
  8
CENTER
100
AcDbLine
 10
-0.015625
 20
0.0
 30
0.0
 11
0.015625
 21
0.0
 31
0.0
  0
LINE
  5
670
100
AcDbEntity
  8
CENTER
100
AcDbLine
 10
0.0
 20
-0.015625
 30
0.0
 11
0.0
 21
0.015625
 31
0.0
  0
LINE
  5
671
100
AcDbEntity
  8
CENTER
100
AcDbLine
 10
0.03125
 20
0.0
 30
0.0
 11
0.171875
 21
0.0
 31
0.0
  0
LINE
  5
672
100
AcDbEntity
  8
CENTER
100
AcDbLine
 10
0.0
 20
0.03125
 30
0.0
 11
0.0
 21
0.171875
 31
0.0
  0
LINE
  5
673
100
AcDbEntity
  8
CENTER
100
AcDbLine
 10
-0.03125
 20
0.0
 30
0.0
 11
-0.171875
 21
0.0
 31
0.0
  0
LINE
  5
674
100
AcDbEntity
  8
CENTER
100
AcDbLine
 10
0.0
 20
-0.03125
 30
0.0
 11
0.0
 21
-0.171875
 31
0.0
  0
ENDBLK
  5
675
100
AcDbEntity
  8
0
100
AcDbBlockEnd
  0
BLOCK
  5
679
100
AcDbEntity
  8
0
100
AcDbBlockBegin
  2
*U11
 70
    65
 10
0.0
 20
0.0
 30
0.0
  3
*U11
  1
*TB
  0
CIRCLE
  5
67A
100
AcDbEntity
  8
FOOT
100
AcDbCircle
 10
0.0
 20
0.0
 30
0.0
 40
0.058
  0
LINE
  5
67B
100
AcDbEntity
  8
CENTER
100
AcDbLine
 10
-0.019333
 20
0.0
 30
0.0
 11
0.019333
 21
0.0
 31
0.0
  0
LINE
  5
67C
100
AcDbEntity
  8
CENTER
100
AcDbLine
 10
0.0
 20
-0.019333
 30
0.0
 11
0.0
 21
0.019333
 31
0.0
  0
LINE
  5
67D
100
AcDbEntity
  8
CENTER
100
AcDbLine
 10
0.038667
 20
0.0
 30
0.0
 11
0.183
 21
0.0
 31
0.0
  0
LINE
  5
67E
100
AcDbEntity
  8
CENTER
100
AcDbLine
 10
0.0
 20
0.038667
 30
0.0
 11
0.0
 21
0.183
 31
0.0
  0
LINE
  5
67F
100
AcDbEntity
  8
CENTER
100
AcDbLine
 10
-0.038667
 20
0.0
 30
0.0
 11
-0.183
 21
0.0
 31
0.0
  0
LINE
  5
680
100
AcDbEntity
  8
CENTER
100
AcDbLine
 10
0.0
 20
-0.038667
 30
0.0
 11
0.0
 21
-0.183
 31
0.0
  0
ENDBLK
  5
681
100
AcDbEntity
  8
0
100
AcDbBlockEnd
  0
BLOCK
  5
6C0
100
AcDbEntity
  8
0
100
AcDbBlockBegin
  2
*D12
 70
    65
 10
0.0
 20
0.0
 30
0.0
  3
*D12
  1

  0
LINE
  5
6C1
100
AcDbEntity
  8
0
  6
BYBLOCK
 62
     0
100
AcDbLine
 10
14.233373
 20
7.619681
 30
0.0
 11
14.233373
 21
5.443153
 31
0.0
  0
LINE
  5
6C2
100
AcDbEntity
  8
0
  6
BYBLOCK
 62
     0
100
AcDbLine
 10
14.368373
 20
5.578153
 30
0.0
 11
14.581517
 21
5.578153
 31
0.0
  0
LINE
  5
6C3
100
AcDbEntity
  8
0
  6
BYBLOCK
 62
     0
100
AcDbLine
 10
16.549662
 20
5.578153
 30
0.0
 11
16.336517
 21
5.578153
 31
0.0
  0
SOLID
  5
6C4
100
AcDbEntity
  8
0
  6
BYBLOCK
 62
     0
100
AcDbTrace
 10
14.368373
 20
5.600653
 30
0.0
 11
14.368373
 21
5.555653
 31
0.0
 12
14.233373
 22
5.578153
 32
0.0
 13
14.233373
 23
5.578153
 33
0.0
  0
SOLID
  5
6C5
100
AcDbEntity
  8
0
  6
BYBLOCK
 62
     0
100
AcDbTrace
 10
16.549662
 20
5.600653
 30
0.0
 11
16.549662
 21
5.555653
 31
0.0
 12
16.684662
 22
5.578153
 32
0.0
 13
16.684662
 23
5.578153
 33
0.0
  0
MTEXT
  5
6C6
100
AcDbEntity
  8
0
  6
BYBLOCK
 62
     0
100
AcDbMText
 10
15.459017
 20
5.578153
 30
0.0
 40
0.135
 41
0.0
 71
     5
 72
     1
  1
\A1;2.451"[62.26mm]
  0
POINT
  5
6C7
100
AcDbEntity
  8
DEFPOINTS
  6
BYBLOCK
 62
     0
100
AcDbPoint
 10
14.233373
 20
7.666556
 30
0.0
  0
POINT
  5
6C8
100
AcDbEntity
  8
DEFPOINTS
  6
BYBLOCK
 62
     0
100
AcDbPoint
 10
16.684662
 20
2.344581
 30
0.0
  0
POINT
  5
6C9
100
AcDbEntity
  8
DEFPOINTS
  6
BYBLOCK
 62
     0
100
AcDbPoint
 10
16.684662
 20
5.578153
 30
0.0
  0
ENDBLK
  5
6CA
100
AcDbEntity
  8
0
100
AcDbBlockEnd
  0
BLOCK
  5
B0E
100
AcDbEntity
  8
0
100
AcDbBlockBegin
  2
*D13
 70
    65
 10
0.0
 20
0.0
 30
0.0
  3
*D13
  1
*TB
  0
LINE
  5
B0F
100
AcDbEntity
  8
0
  6
BYBLOCK
 62
     0
100
AcDbLine
 10
16.809616
 20
14.911335
 30
0.0
 11
16.809616
 21
13.430773
 31
0.0
  0
LINE
  5
B10
100
AcDbEntity
  8
0
  6
BYBLOCK
 62
     0
100
AcDbLine
 10
16.549662
 20
13.565773
 30
0.0
 11
16.414662
 21
13.565773
 31
0.0
  0
LINE
  5
B11
100
AcDbEntity
  8
0
  6
BYBLOCK
 62
     0
100
AcDbLine
 10
16.944616
 20
13.565773
 30
0.0
 11
17.079616
 21
13.565773
 31
0.0
  0
SOLID
  5
B12
100
AcDbEntity
  8
0
  6
BYBLOCK
 62
     0
100
AcDbTrace
 10
16.549662
 20
13.588273
 30
0.0
 11
16.549662
 21
13.543273
 31
0.0
 12
16.684662
 22
13.565773
 32
0.0
 13
16.684662
 23
13.565773
 33
0.0
  0
SOLID
  5
B13
100
AcDbEntity
  8
0
  6
BYBLOCK
 62
     0
100
AcDbTrace
 10
16.944616
 20
13.588273
 30
0.0
 11
16.944616
 21
13.543273
 31
0.0
 12
16.809616
 22
13.565773
 32
0.0
 13
16.809616
 23
13.565773
 33
0.0
  0
MTEXT
  5
B14
100
AcDbEntity
  8
0
  6
BYBLOCK
 62
     0
100
AcDbMText
 10
18.609616
 20
13.565773
 30
0.0
 40
0.135
 41
0.0
 71
     5
 72
     1
  1
\A1;0.125"±0.001"[3.17mm±0.03mm]
  0
POINT
  5
B15
100
AcDbEntity
  8
DEFPOINTS
  6
BYBLOCK
 62
     0
100
AcDbPoint
 10
16.684662
 20
18.447318
 30
0.0
  0
POINT
  5
B16
100
AcDbEntity
  8
DEFPOINTS
  6
BYBLOCK
 62
     0
100
AcDbPoint
 10
16.809616
 20
14.95821
 30
0.0
  0
POINT
  5
B17
100
AcDbEntity
  8
DEFPOINTS
  6
BYBLOCK
 62
     0
100
AcDbPoint
 10
16.809616
 20
13.565773
 30
0.0
  0
ENDBLK
  5
B18
100
AcDbEntity
  8
0
100
AcDbBlockEnd
  0
BLOCK
  5
B19
100
AcDbEntity
  8
0
100
AcDbBlockBegin
  2
*D14
 70
    65
 10
0.0
 20
0.0
 30
0.0
  3
*D14
  1
*TB
  0
LINE
  5
B1A
100
AcDbEntity
  8
0
  6
BYBLOCK
 62
     0
100
AcDbLine
 10
14.434707
 20
14.911335
 30
0.0
 11
14.434707
 21
11.620351
 31
0.0
  0
LINE
  5
B1B
100
AcDbEntity
  8
0
  6
BYBLOCK
 62
     0
100
AcDbLine
 10
14.299707
 20
11.755351
 30
0.0
 11
14.164707
 21
11.755351
 31
0.0
  0
LINE
  5
B1C
100
AcDbEntity
  8
0
  6
BYBLOCK
 62
     0
100
AcDbLine
 10
16.819662
 20
11.755351
 30
0.0
 11
16.954662
 21
11.755351
 31
0.0
  0
SOLID
  5
B1D
100
AcDbEntity
  8
0
  6
BYBLOCK
 62
     0
100
AcDbTrace
 10
14.299707
 20
11.777851
 30
0.0
 11
14.299707
 21
11.732851
 31
0.0
 12
14.434707
 22
11.755351
 32
0.0
 13
14.434707
 23
11.755351
 33
0.0
  0
SOLID
  5
B1E
100
AcDbEntity
  8
0
  6
BYBLOCK
 62
     0
100
AcDbTrace
 10
16.819662
 20
11.777851
 30
0.0
 11
16.819662
 21
11.732851
 31
0.0
 12
16.684662
 22
11.755351
 32
0.0
 13
16.684662
 23
11.755351
 33
0.0
  0
MTEXT
  5
B1F
100
AcDbEntity
  8
0
  6
BYBLOCK
 62
     0
100
AcDbMText
 10
18.574662
 20
11.755351
 30
0.0
 40
0.135
 41
0.0
 71
     5
 72
     1
  1
\A1;2.250"±0.001"[57.15mm±0.03mm]
  0
POINT
  5
B20
100
AcDbEntity
  8
DEFPOINTS
  6
BYBLOCK
 62
     0
100
AcDbPoint
 10
14.434707
 20
14.95821
 30
0.0
  0
POINT
  5
B21
100
AcDbEntity
  8
DEFPOINTS
  6
BYBLOCK
 62
     0
100
AcDbPoint
 10
16.684662
 20
18.447318
 30
0.0
  0
POINT
  5
B22
100
AcDbEntity
  8
DEFPOINTS
  6
BYBLOCK
 62
     0
100
AcDbPoint
 10
16.684662
 20
11.755351
 30
0.0
  0
ENDBLK
  5
B23
100
AcDbEntity
  8
0
100
AcDbBlockEnd
  0
BLOCK
  5
B8E
100
AcDbEntity
  8
0
100
AcDbBlockBegin
  2
*D15
 70
    65
 10
0.0
 20
0.0
 30
0.0
  3
*D15
  1
*TB
  0
LINE
  5
B8F
100
AcDbEntity
  8
0
  6
BYBLOCK
 62
     0
100
AcDbLine
 10
15.872176
 20
14.90021
 30
0.0
 11
15.872176
 21
12.598653
 31
0.0
  0
LINE
  5
B90
100
AcDbEntity
  8
0
  6
BYBLOCK
 62
     0
100
AcDbLine
 10
15.737176
 20
12.733653
 30
0.0
 11
15.602176
 21
12.733653
 31
0.0
  0
LINE
  5
B91
100
AcDbEntity
  8
0
  6
BYBLOCK
 62
     0
100
AcDbLine
 10
16.819662
 20
12.733653
 30
0.0
 11
16.954662
 21
12.733653
 31
0.0
  0
SOLID
  5
B92
100
AcDbEntity
  8
0
  6
BYBLOCK
 62
     0
100
AcDbTrace
 10
15.737176
 20
12.756153
 30
0.0
 11
15.737176
 21
12.711153
 31
0.0
 12
15.872176
 22
12.733653
 32
0.0
 13
15.872176
 23
12.733653
 33
0.0
  0
SOLID
  5
B93
100
AcDbEntity
  8
0
  6
BYBLOCK
 62
     0
100
AcDbTrace
 10
16.819662
 20
12.756153
 30
0.0
 11
16.819662
 21
12.711153
 31
0.0
 12
16.684662
 22
12.733653
 32
0.0
 13
16.684662
 23
12.733653
 33
0.0
  0
MTEXT
  5
B94
100
AcDbEntity
  8
0
  6
BYBLOCK
 62
     0
100
AcDbMText
 10
17.809662
 20
12.733653
 30
0.0
 40
0.135
 41
0.0
 71
     5
 72
     1
  1
\A1;0.812"[20.64mm]
  0
POINT
  5
B95
100
AcDbEntity
  8
DEFPOINTS
  6
BYBLOCK
 62
     0
100
AcDbPoint
 10
15.872176
 20
14.947085
 30
0.0
  0
POINT
  5
B96
100
AcDbEntity
  8
DEFPOINTS
  6
BYBLOCK
 62
     0
100
AcDbPoint
 10
16.684662
 20
18.447318
 30
0.0
  0
POINT
  5
B97
100
AcDbEntity
  8
DEFPOINTS
  6
BYBLOCK
 62
     0
100
AcDbPoint
 10
16.684662
 20
12.733653
 30
0.0
  0
ENDBLK
  5
B98
100
AcDbEntity
  8
0
100
AcDbBlockEnd
  0
BLOCK
  5
8C9
100
AcDbEntity
  8
0
100
AcDbBlockBegin
  2
*D16
 70
    65
 10
0.0
 20
0.0
 30
0.0
  3
*D16
  1
*TB
  0
LINE
  5
8CA
100
AcDbEntity
  8
0
  6
BYBLOCK
 62
     0
100
AcDbLine
 10
14.485417
 20
13.907368
 30
0.0
 11
14.485417
 21
12.109502
 31
0.0
  0
LINE
  5
8CB
100
AcDbEntity
  8
0
  6
BYBLOCK
 62
     0
100
AcDbLine
 10
14.620417
 20
12.244502
 30
0.0
 11
14.707539
 21
12.244502
 31
0.0
  0
LINE
  5
8CC
100
AcDbEntity
  8
0
  6
BYBLOCK
 62
     0
100
AcDbLine
 10
16.549662
 20
12.244502
 30
0.0
 11
16.462539
 21
12.244502
 31
0.0
  0
SOLID
  5
8CD
100
AcDbEntity
  8
0
  6
BYBLOCK
 62
     0
100
AcDbTrace
 10
14.620417
 20
12.267002
 30
0.0
 11
14.620417
 21
12.222002
 31
0.0
 12
14.485417
 22
12.244502
 32
0.0
 13
14.485417
 23
12.244502
 33
0.0
  0
SOLID
  5
8CE
100
AcDbEntity
  8
0
  6
BYBLOCK
 62
     0
100
AcDbTrace
 10
16.549662
 20
12.267002
 30
0.0
 11
16.549662
 21
12.222002
 31
0.0
 12
16.684662
 22
12.244502
 32
0.0
 13
16.684662
 23
12.244502
 33
0.0
  0
MTEXT
  5
8CF
100
AcDbEntity
  8
0
  6
BYBLOCK
 62
     0
100
AcDbMText
 10
15.585039
 20
12.244502
 30
0.0
 40
0.135
 41
0.0
 71
     5
 72
     1
  1
\A1;2.199"[55.86mm]
  0
POINT
  5
8D0
100
AcDbEntity
  8
DEFPOINTS
  6
BYBLOCK
 62
     0
100
AcDbPoint
 10
14.485417
 20
13.954243
 30
0.0
  0
POINT
  5
8D1
100
AcDbEntity
  8
DEFPOINTS
  6
BYBLOCK
 62
     0
100
AcDbPoint
 10
16.684662
 20
18.447318
 30
0.0
  0
POINT
  5
8D2
100
AcDbEntity
  8
DEFPOINTS
  6
BYBLOCK
 62
     0
100
AcDbPoint
 10
16.684662
 20
12.244502
 30
0.0
  0
ENDBLK
  5
8D3
100
AcDbEntity
  8
0
100
AcDbBlockEnd
  0
BLOCK
  5
8D4
100
AcDbEntity
  8
0
100
AcDbBlockBegin
  2
*D17
 70
    65
 10
0.0
 20
0.0
 30
0.0
  3
*D17
  1
*TB
  0
LINE
  5
8D5
100
AcDbEntity
  8
0
  6
BYBLOCK
 62
     0
100
AcDbLine
 10
14.359376
 20
13.903418
 30
0.0
 11
14.359376
 21
11.171963
 31
0.0
  0
LINE
  5
8D6
100
AcDbEntity
  8
0
  6
BYBLOCK
 62
     0
100
AcDbLine
 10
14.494376
 20
11.306963
 30
0.0
 11
14.633269
 21
11.306963
 31
0.0
  0
LINE
  5
8D7
100
AcDbEntity
  8
0
  6
BYBLOCK
 62
     0
100
AcDbLine
 10
16.549662
 20
11.306963
 30
0.0
 11
16.410769
 21
11.306963
 31
0.0
  0
SOLID
  5
8D8
100
AcDbEntity
  8
0
  6
BYBLOCK
 62
     0
100
AcDbTrace
 10
14.494376
 20
11.329463
 30
0.0
 11
14.494376
 21
11.284463
 31
0.0
 12
14.359376
 22
11.306963
 32
0.0
 13
14.359376
 23
11.306963
 33
0.0
  0
SOLID
  5
8D9
100
AcDbEntity
  8
0
  6
BYBLOCK
 62
     0
100
AcDbTrace
 10
16.549662
 20
11.329463
 30
0.0
 11
16.549662
 21
11.284463
 31
0.0
 12
16.684662
 22
11.306963
 32
0.0
 13
16.684662
 23
11.306963
 33
0.0
  0
MTEXT
  5
8DA
100
AcDbEntity
  8
0
  6
BYBLOCK
 62
     0
100
AcDbMText
 10
15.522019
 20
11.306963
 30
0.0
 40
0.135
 41
0.0
 71
     5
 72
     1
  1
\A1;2.325"[59.06mm]
  0
POINT
  5
8DB
100
AcDbEntity
  8
DEFPOINTS
  6
BYBLOCK
 62
     0
100
AcDbPoint
 10
14.359376
 20
13.950293
 30
0.0
  0
POINT
  5
8DC
100
AcDbEntity
  8
DEFPOINTS
  6
BYBLOCK
 62
     0
100
AcDbPoint
 10
16.684662
 20
18.447318
 30
0.0
  0
POINT
  5
8DD
100
AcDbEntity
  8
DEFPOINTS
  6
BYBLOCK
 62
     0
100
AcDbPoint
 10
16.684662
 20
11.306963
 30
0.0
  0
ENDBLK
  5
8DE
100
AcDbEntity
  8
0
100
AcDbBlockEnd
  0
BLOCK
  5
EF1
100
AcDbEntity
  8
0
100
AcDbBlockBegin
  2
*D18
 70
    65
 10
0.0
 20
0.0
 30
0.0
  3
*D18
  1
*TB
  0
LINE
  5
EF2
100
AcDbEntity
  8
0
  6
BYBLOCK
 62
     0
100
AcDbLine
 10
14.186498
 20
16.325148
 30
0.0
 11
7.961166
 21
16.325148
 31
0.0
  0
LINE
  5
EF3
100
AcDbEntity
  8
0
  6
BYBLOCK
 62
     0
100
AcDbLine
 10
14.215957
 20
15.130085
 30
0.0
 11
7.961166
 21
15.130085
 31
0.0
  0
LINE
  5
EF4
100
AcDbEntity
  8
0
  6
BYBLOCK
 62
     0
100
AcDbLine
 10
8.096166
 20
16.190148
 30
0.0
 11
8.096166
 21
15.862616
 31
0.0
  0
LINE
  5
EF5
100
AcDbEntity
  8
0
  6
BYBLOCK
 62
     0
100
AcDbLine
 10
8.096166
 20
15.265085
 30
0.0
 11
8.096166
 21
15.592616
 31
0.0
  0
SOLID
  5
EF6
100
AcDbEntity
  8
0
  6
BYBLOCK
 62
     0
100
AcDbTrace
 10
8.073666
 20
16.190148
 30
0.0
 11
8.118666
 21
16.190148
 31
0.0
 12
8.096166
 22
16.325148
 32
0.0
 13
8.096166
 23
16.325148
 33
0.0
  0
SOLID
  5
EF7
100
AcDbEntity
  8
0
  6
BYBLOCK
 62
     0
100
AcDbTrace
 10
8.073666
 20
15.265085
 30
0.0
 11
8.118666
 21
15.265085
 31
0.0
 12
8.096166
 22
15.130085
 32
0.0
 13
8.096166
 23
15.130085
 33
0.0
  0
MTEXT
  5
EF8
100
AcDbEntity
  8
0
  6
BYBLOCK
 62
     0
100
AcDbMText
 10
8.096166
 20
15.727616
 30
0.0
 40
0.135
 41
0.0
 71
     5
 72
     1
  1
\A1;1.195"±0.001"[30.35mm±0.03mm]
  0
POINT
  5
EF9
100
AcDbEntity
  8
DEFPOINTS
  6
BYBLOCK
 62
     0
100
AcDbPoint
 10
14.233373
 20
16.325148
 30
0.0
  0
POINT
  5
EFA
100
AcDbEntity
  8
DEFPOINTS
  6
BYBLOCK
 62
     0
100
AcDbPoint
 10
14.262832
 20
15.130085
 30
0.0
  0
POINT
  5
EFB
100
AcDbEntity
  8
DEFPOINTS
  6
BYBLOCK
 62
     0
100
AcDbPoint
 10
8.096166
 20
15.130085
 30
0.0
  0
ENDBLK
  5
EFC
100
AcDbEntity
  8
0
100
AcDbBlockEnd
  0
BLOCK
  5
855
100
AcDbEntity
  8
0
100
AcDbBlockBegin
  2
*D19
 70
    65
 10
0.0
 20
0.0
 30
0.0
  3
*D19
  1
*TB
  0
LINE
  5
856
100
AcDbEntity
  8
0
  6
BYBLOCK
 62
     0
100
AcDbLine
 10
14.124501
 20
14.323293
 30
0.0
 11
11.826444
 21
14.323293
 31
0.0
  0
LINE
  5
857
100
AcDbEntity
  8
0
  6
BYBLOCK
 62
     0
100
AcDbLine
 10
14.124501
 20
14.138293
 30
0.0
 11
11.826444
 21
14.138293
 31
0.0
  0
LINE
  5
858
100
AcDbEntity
  8
0
  6
BYBLOCK
 62
     0
100
AcDbLine
 10
11.961444
 20
14.458293
 30
0.0
 11
11.961444
 21
14.593293
 31
0.0
  0
LINE
  5
859
100
AcDbEntity
  8
0
  6
BYBLOCK
 62
     0
100
AcDbLine
 10
11.961444
 20
14.003293
 30
0.0
 11
11.961444
 21
13.868293
 31
0.0
  0
LINE
  5
85A
100
AcDbEntity
  8
0
  6
BYBLOCK
 62
     0
100
AcDbLine
 10
11.961444
 20
13.868293
 30
0.0
 11
11.826444
 21
13.868293
 31
0.0
  0
SOLID
  5
85B
100
AcDbEntity
  8
0
  6
BYBLOCK
 62
     0
100
AcDbTrace
 10
11.938944
 20
14.458293
 30
0.0
 11
11.983944
 21
14.458293
 31
0.0
 12
11.961444
 22
14.323293
 32
0.0
 13
11.961444
 23
14.323293
 33
0.0
  0
SOLID
  5
85C
100
AcDbEntity
  8
0
  6
BYBLOCK
 62
     0
100
AcDbTrace
 10
11.938944
 20
14.003293
 30
0.0
 11
11.983944
 21
14.003293
 31
0.0
 12
11.961444
 22
14.138293
 32
0.0
 13
11.961444
 23
14.138293
 33
0.0
  0
MTEXT
  5
85D
100
AcDbEntity
  8
0
  6
BYBLOCK
 62
     0
100
AcDbMText
 10
11.038944
 20
13.868293
 30
0.0
 40
0.135
 41
0.0
 71
     5
 72
     1
  1
\A1;{0.185"[4.70mm]}\P{2X}
  0
POINT
  5
85E
100
AcDbEntity
  8
DEFPOINTS
  6
BYBLOCK
 62
     0
100
AcDbPoint
 10
14.171376
 20
14.323293
 30
0.0
  0
POINT
  5
85F
100
AcDbEntity
  8
DEFPOINTS
  6
BYBLOCK
 62
     0
100
AcDbPoint
 10
14.171376
 20
14.138293
 30
0.0
  0
POINT
  5
860
100
AcDbEntity
  8
DEFPOINTS
  6
BYBLOCK
 62
     0
100
AcDbPoint
 10
11.961444
 20
14.138293
 30
0.0
  0
ENDBLK
  5
861
100
AcDbEntity
  8
0
100
AcDbBlockEnd
  0
BLOCK
  5
910
100
AcDbEntity
  8
FOOT
100
AcDbBlockBegin
  2
CUTOUT
 70
     0
 10
0.0
 20
0.0
 30
0.0
  3
CUTOUT
  1

  0
LINE
  5
8F8
100
AcDbEntity
  8
FOOT
100
AcDbLine
 10
-0.110277
 20
0.377515
 30
0.0
 11
-0.196874
 21
0.25628
 31
0.0
  0
LINE
  5
8F9
100
AcDbEntity
  8
FOOT
100
AcDbLine
 10
-0.196874
 20
0.535078
 30
0.0
 11
-0.110277
 21
0.413843
 31
0.0
  0
LINE
  5
8FA
100
AcDbEntity
  8
FOOT
100
AcDbLine
 10
-0.253553
 20
0.274443
 30
0.0
 11
-0.253553
 21
0.516914
 31
0.0
  0
ARC
  5
8FB
100
AcDbEntity
  8
FOOT
100
AcDbCircle
 10
-0.222303
 20
0.516914
 30
0.0
 40
0.03125
100
AcDbArc
 50
35.537678
 51
180.0
  0
ARC
  5
8FC
100
AcDbEntity
  8
FOOT
100
AcDbCircle
 10
-0.222303
 20
0.274443
 30
0.0
 40
0.03125
100
AcDbArc
 50
180.0
 51
324.462322
  0
LINE
  5
8FD
100
AcDbEntity
  8
FOOT
100
AcDbLine
 10
0.086151
 20
0.163843
 30
0.0
 11
-0.009374
 21
0.297578
 31
0.0
  0
LINE
  5
8FE
100
AcDbEntity
  8
FOOT
100
AcDbLine
 10
-0.060232
 20
0.297578
 30
0.0
 11
-0.155758
 21
0.163843
 31
0.0
  0
LINE
  5
8FF
100
AcDbEntity
  8
FOOT
100
AcDbLine
 10
0.183947
 20
0.274443
 30
0.0
 11
0.183947
 21
0.516914
 31
0.0
  0
LINE
  5
900
100
AcDbEntity
  8
FOOT
100
AcDbLine
 10
0.127268
 20
0.535078
 30
0.0
 11
0.040671
 21
0.413843
 31
0.0
  0
LINE
  5
901
100
AcDbEntity
  8
FOOT
100
AcDbLine
 10
0.086151
 20
0.627515
 30
0.0
 11
-0.009374
 21
0.49378
 31
0.0
  0
LINE
  5
902
100
AcDbEntity
  8
FOOT
100
AcDbLine
 10
-0.130329
 20
0.676929
 30
0.0
 11
0.060722
 21
0.676929
 31
0.0
  0
ARC
  5
903
100
AcDbEntity
  8
FOOT
100
AcDbCircle
 10
-0.034803
 20
0.511943
 30
0.0
 40
0.03125
100
AcDbArc
 50
215.537678
 51
324.462322
  0
LINE
  5
904
100
AcDbEntity
  8
FOOT
100
AcDbLine
 10
-0.060232
 20
0.49378
 30
0.0
 11
-0.155758
 21
0.627515
 31
0.0
  0
ARC
  5
905
100
AcDbEntity
  8
FOOT
100
AcDbCircle
 10
-0.130329
 20
0.645679
 30
0.0
 40
0.03125
100
AcDbArc
 50
90.0
 51
215.537678
  0
ARC
  5
906
100
AcDbEntity
  8
FOOT
100
AcDbCircle
 10
0.152697
 20
0.516914
 30
0.0
 40
0.03125
100
AcDbArc
 50
0.0
 51
144.462322
  0
ARC
  5
907
100
AcDbEntity
  8
FOOT
100
AcDbCircle
 10
0.060722
 20
0.645679
 30
0.0
 40
0.03125
100
AcDbArc
 50
324.462322
 51
90.0
  0
ARC
  5
908
100
AcDbEntity
  8
FOOT
100
AcDbCircle
 10
-0.135707
 20
0.395679
 30
0.0
 40
0.03125
100
AcDbArc
 50
324.462322
 51
35.537678
  0
ARC
  5
909
100
AcDbEntity
  8
FOOT
100
AcDbCircle
 10
-0.034803
 20
0.279414
 30
0.0
 40
0.03125
100
AcDbArc
 50
35.537678
 51
144.462322
  0
ARC
  5
90A
100
AcDbEntity
  8
FOOT
100
AcDbCircle
 10
0.152697
 20
0.274443
 30
0.0
 40
0.03125
100
AcDbArc
 50
215.537678
 51
0.0
  0
ARC
  5
90B
100
AcDbEntity
  8
FOOT
100
AcDbCircle
 10
0.0661
 20
0.395679
 30
0.0
 40
0.03125
100
AcDbArc
 50
144.462322
 51
215.537678
  0
LINE
  5
90C
100
AcDbEntity
  8
FOOT
100
AcDbLine
 10
0.040671
 20
0.377515
 30
0.0
 11
0.127268
 21
0.25628
 31
0.0
  0
LINE
  5
90D
100
AcDbEntity
  8
FOOT
100
AcDbLine
 10
-0.130329
 20
0.114429
 30
0.0
 11
0.060722
 21
0.114429
 31
0.0
  0
ARC
  5
90E
100
AcDbEntity
  8
FOOT
100
AcDbCircle
 10
-0.130329
 20
0.145679
 30
0.0
 40
0.03125
100
AcDbArc
 50
144.462322
 51
270.0
  0
ARC
  5
90F
100
AcDbEntity
  8
FOOT
100
AcDbCircle
 10
0.060722
 20
0.145679
 30
0.0
 40
0.03125
100
AcDbArc
 50
270.0
 51
35.537678
  0
ENDBLK
  5
911
100
AcDbEntity
  8
FOOT
100
AcDbBlockEnd
  0
BLOCK
  5
A31
100
AcDbEntity
  8
0
100
AcDbBlockBegin
  2
*D21
 70
    65
 10
0.0
 20
0.0
 30
0.0
  3
*D21
  1
*TB
  0
LINE
  5
A32
100
AcDbEntity
  8
0
  6
BYBLOCK
 62
     0
100
AcDbLine
 10
16.778362
 20
14.366136
 30
0.0
 11
16.778362
 21
13.025802
 31
0.0
  0
LINE
  5
A33
100
AcDbEntity
  8
0
  6
BYBLOCK
 62
     0
100
AcDbLine
 10
16.549662
 20
13.160802
 30
0.0
 11
16.414662
 21
13.160802
 31
0.0
  0
LINE
  5
A34
100
AcDbEntity
  8
0
  6
BYBLOCK
 62
     0
100
AcDbLine
 10
16.913362
 20
13.160802
 30
0.0
 11
17.048362
 21
13.160802
 31
0.0
  0
SOLID
  5
A35
100
AcDbEntity
  8
0
  6
BYBLOCK
 62
     0
100
AcDbTrace
 10
16.549662
 20
13.183302
 30
0.0
 11
16.549662
 21
13.138302
 31
0.0
 12
16.684662
 22
13.160802
 32
0.0
 13
16.684662
 23
13.160802
 33
0.0
  0
SOLID
  5
A36
100
AcDbEntity
  8
0
  6
BYBLOCK
 62
     0
100
AcDbTrace
 10
16.913362
 20
13.183302
 30
0.0
 11
16.913362
 21
13.138302
 31
0.0
 12
16.778362
 22
13.160802
 32
0.0
 13
16.778362
 23
13.160802
 33
0.0
  0
MTEXT
  5
A37
100
AcDbEntity
  8
0
  6
BYBLOCK
 62
     0
100
AcDbMText
 10
17.858362
 20
13.160802
 30
0.0
 40
0.135
 41
0.0
 71
     5
 72
     1
  1
\A1;0.094"[2.38mm]
  0
POINT
  5
A38
100
AcDbEntity
  8
DEFPOINTS
  6
BYBLOCK
 62
     0
100
AcDbPoint
 10
16.684662
 20
18.447318
 30
0.0
  0
POINT
  5
A39
100
AcDbEntity
  8
DEFPOINTS
  6
BYBLOCK
 62
     0
100
AcDbPoint
 10
16.778362
 20
14.413011
 30
0.0
  0
POINT
  5
A3A
100
AcDbEntity
  8
DEFPOINTS
  6
BYBLOCK
 62
     0
100
AcDbPoint
 10
16.778362
 20
13.160802
 30
0.0
  0
ENDBLK
  5
A3B
100
AcDbEntity
  8
0
100
AcDbBlockEnd
  0
BLOCK
  5
B6F
100
AcDbEntity
  8
FOOT
100
AcDbBlockBegin
  2
*U22
 70
     1
 10
0.0
 20
0.0
 30
0.0
  3
*U22
  1

  0
ENDBLK
  5
B70
100
AcDbEntity
  8
FOOT
100
AcDbBlockEnd
  0
BLOCK
  5
B83
100
AcDbEntity
  8
0
100
AcDbBlockBegin
  2
*U23
 70
    65
 10
0.0
 20
0.0
 30
0.0
  3
*U23
  1
*TB
  0
CIRCLE
  5
B84
100
AcDbEntity
  8
KEVLAR
100
AcDbCircle
 10
0.0
 20
0.0
 30
0.0
 40
0.046875
  0
LINE
  5
B85
100
AcDbEntity
  8
CENTER
100
AcDbLine
 10
-0.015625
 20
0.0
 30
0.0
 11
0.015625
 21
0.0
 31
0.0
  0
LINE
  5
B86
100
AcDbEntity
  8
CENTER
100
AcDbLine
 10
0.0
 20
-0.015625
 30
0.0
 11
0.0
 21
0.015625
 31
0.0
  0
LINE
  5
B87
100
AcDbEntity
  8
CENTER
100
AcDbLine
 10
0.03125
 20
0.0
 30
0.0
 11
0.171875
 21
0.0
 31
0.0
  0
LINE
  5
B88
100
AcDbEntity
  8
CENTER
100
AcDbLine
 10
0.0
 20
0.03125
 30
0.0
 11
0.0
 21
0.171875
 31
0.0
  0
LINE
  5
B89
100
AcDbEntity
  8
CENTER
100
AcDbLine
 10
-0.03125
 20
0.0
 30
0.0
 11
-0.171875
 21
0.0
 31
0.0
  0
LINE
  5
B8A
100
AcDbEntity
  8
CENTER
100
AcDbLine
 10
0.0
 20
-0.03125
 30
0.0
 11
0.0
 21
-0.171875
 31
0.0
  0
ENDBLK
  5
B8B
100
AcDbEntity
  8
0
100
AcDbBlockEnd
  0
BLOCK
  5
BE7
100
AcDbEntity
  8
0
100
AcDbBlockBegin
  2
*D24
 70
    65
 10
0.0
 20
0.0
 30
0.0
  3
*D24
  1
*TB
  0
LINE
  5
BE8
100
AcDbEntity
  8
0
  6
BYBLOCK
 62
     0
100
AcDbLine
 10
14.265238
 20
8.21557
 30
0.0
 11
9.933259
 21
8.21557
 31
0.0
  0
LINE
  5
BE9
100
AcDbEntity
  8
0
  6
BYBLOCK
 62
     0
100
AcDbLine
 10
10.068259
 20
8.35057
 30
0.0
 11
10.068259
 21
8.48557
 31
0.0
  0
LINE
  5
BEA
100
AcDbEntity
  8
0
  6
BYBLOCK
 62
     0
100
AcDbLine
 10
10.068259
 20
7.556419
 30
0.0
 11
10.068259
 21
7.421419
 31
0.0
  0
LINE
  5
BEB
100
AcDbEntity
  8
0
  6
BYBLOCK
 62
     0
100
AcDbLine
 10
10.068259
 20
7.421419
 30
0.0
 11
9.933259
 21
7.421419
 31
0.0
  0
SOLID
  5
BEC
100
AcDbEntity
  8
0
  6
BYBLOCK
 62
     0
100
AcDbTrace
 10
10.045759
 20
8.35057
 30
0.0
 11
10.090759
 21
8.35057
 31
0.0
 12
10.068259
 22
8.21557
 32
0.0
 13
10.068259
 23
8.21557
 33
0.0
  0
SOLID
  5
BED
100
AcDbEntity
  8
0
  6
BYBLOCK
 62
     0
100
AcDbTrace
 10
10.045759
 20
7.556419
 30
0.0
 11
10.090759
 21
7.556419
 31
0.0
 12
10.068259
 22
7.691419
 32
0.0
 13
10.068259
 23
7.691419
 33
0.0
  0
MTEXT
  5
BEE
100
AcDbEntity
  8
0
  6
BYBLOCK
 62
     0
100
AcDbMText
 10
9.089509
 20
7.421419
 30
0.0
 40
0.135
 41
0.0
 71
     5
 72
     1
  1
\A1;0.524"[13.31mm]
  0
POINT
  5
BEF
100
AcDbEntity
  8
DEFPOINTS
  6
BYBLOCK
 62
     0
100
AcDbPoint
 10
14.312113
 20
8.21557
 30
0.0
  0
POINT
  5
BF0
100
AcDbEntity
  8
DEFPOINTS
  6
BYBLOCK
 62
     0
100
AcDbPoint
 10
3.852884
 20
7.691419
 30
0.0
  0
POINT
  5
BF1
100
AcDbEntity
  8
DEFPOINTS
  6
BYBLOCK
 62
     0
100
AcDbPoint
 10
10.068259
 20
7.691419
 30
0.0
  0
ENDBLK
  5
BF2
100
AcDbEntity
  8
0
100
AcDbBlockEnd
  0
BLOCK
  5
BF3
100
AcDbEntity
  8
0
100
AcDbBlockBegin
  2
*D25
 70
    65
 10
0.0
 20
0.0
 30
0.0
  3
*D25
  1
*TB
  0
LINE
  5
BF4
100
AcDbEntity
  8
0
  6
BYBLOCK
 62
     0
100
AcDbLine
 10
14.51463
 20
7.956074
 30
0.0
 11
7.893527
 21
7.956074
 31
0.0
  0
LINE
  5
BF5
100
AcDbEntity
  8
0
  6
BYBLOCK
 62
     0
100
AcDbLine
 10
8.028527
 20
8.091074
 30
0.0
 11
8.028527
 21
8.226074
 31
0.0
  0
LINE
  5
BF6
100
AcDbEntity
  8
0
  6
BYBLOCK
 62
     0
100
AcDbLine
 10
8.028527
 20
7.556419
 30
0.0
 11
8.028527
 21
7.421419
 31
0.0
  0
LINE
  5
BF7
100
AcDbEntity
  8
0
  6
BYBLOCK
 62
     0
100
AcDbLine
 10
8.028527
 20
7.421419
 30
0.0
 11
7.893527
 21
7.421419
 31
0.0
  0
SOLID
  5
BF8
100
AcDbEntity
  8
0
  6
BYBLOCK
 62
     0
100
AcDbTrace
 10
8.006027
 20
8.091074
 30
0.0
 11
8.051027
 21
8.091074
 31
0.0
 12
8.028527
 22
7.956074
 32
0.0
 13
8.028527
 23
7.956074
 33
0.0
  0
SOLID
  5
BF9
100
AcDbEntity
  8
0
  6
BYBLOCK
 62
     0
100
AcDbTrace
 10
8.006027
 20
7.556419
 30
0.0
 11
8.051027
 21
7.556419
 31
0.0
 12
8.028527
 22
7.691419
 32
0.0
 13
8.028527
 23
7.691419
 33
0.0
  0
MTEXT
  5
BFA
100
AcDbEntity
  8
0
  6
BYBLOCK
 62
     0
100
AcDbMText
 10
6.318527
 20
7.421419
 30
0.0
 40
0.135
 41
0.0
 71
     5
 72
     1
  1
\A1;0.265"±0.001"[6.72mm±0.03mm]
  0
POINT
  5
BFB
100
AcDbEntity
  8
DEFPOINTS
  6
BYBLOCK
 62
     0
100
AcDbPoint
 10
14.561505
 20
7.956074
 30
0.0
  0
POINT
  5
BFC
100
AcDbEntity
  8
DEFPOINTS
  6
BYBLOCK
 62
     0
100
AcDbPoint
 10
3.852884
 20
7.691419
 30
0.0
  0
POINT
  5
BFD
100
AcDbEntity
  8
DEFPOINTS
  6
BYBLOCK
 62
     0
100
AcDbPoint
 10
8.028527
 20
7.691419
 30
0.0
  0
ENDBLK
  5
BFE
100
AcDbEntity
  8
0
100
AcDbBlockEnd
  0
BLOCK
  5
DF1
100
AcDbEntity
  8
0
100
AcDbBlockBegin
  2
*D26
 70
    65
 10
0.0
 20
0.0
 30
0.0
  3
*D26
  1

  0
LINE
  5
DF2
100
AcDbEntity
  8
0
  6
BYBLOCK
 62
     0
100
AcDbLine
 10
14.186498
 20
7.666556
 30
0.0
 11
13.673519
 21
7.666556
 31
0.0
  0
LINE
  5
DF3
100
AcDbEntity
  8
0
  6
BYBLOCK
 62
     0
100
AcDbLine
 10
13.808519
 20
7.826419
 30
0.0
 11
13.808519
 21
7.961419
 31
0.0
  0
LINE
  5
DF4
100
AcDbEntity
  8
0
  6
BYBLOCK
 62
     0
100
AcDbLine
 10
13.808519
 20
7.531556
 30
0.0
 11
13.808519
 21
7.396556
 31
0.0
  0
LINE
  5
DF5
100
AcDbEntity
  8
0
  6
BYBLOCK
 62
     0
100
AcDbLine
 10
13.808519
 20
7.396556
 30
0.0
 11
13.673519
 21
7.396556
 31
0.0
  0
SOLID
  5
DF6
100
AcDbEntity
  8
0
  6
BYBLOCK
 62
     0
100
AcDbTrace
 10
13.786019
 20
7.826419
 30
0.0
 11
13.831019
 21
7.826419
 31
0.0
 12
13.808519
 22
7.691419
 32
0.0
 13
13.808519
 23
7.691419
 33
0.0
  0
SOLID
  5
DF7
100
AcDbEntity
  8
0
  6
BYBLOCK
 62
     0
100
AcDbTrace
 10
13.786019
 20
7.531556
 30
0.0
 11
13.831019
 21
7.531556
 31
0.0
 12
13.808519
 22
7.666556
 32
0.0
 13
13.808519
 23
7.666556
 33
0.0
  0
MTEXT
  5
DF8
100
AcDbEntity
  8
0
  6
BYBLOCK
 62
     0
100
AcDbMText
 10
11.959019
 20
7.396556
 30
0.0
 40
0.135
 41
0.0
 71
     5
 72
     1
  1
\A1;0.025"\S 0.000"^ -0.002";{\o\l\H0.324000;[}0.63mm\S 0.00mm^ -0.05mm;{\o\l\H0.324000;]}
  0
POINT
  5
DF9
100
AcDbEntity
  8
DEFPOINTS
  6
BYBLOCK
 62
     0
100
AcDbPoint
 10
3.852884
 20
7.691419
 30
0.0
  0
POINT
  5
DFA
100
AcDbEntity
  8
DEFPOINTS
  6
BYBLOCK
 62
     0
100
AcDbPoint
 10
14.233373
 20
7.666556
 30
0.0
  0
POINT
  5
DFB
100
AcDbEntity
  8
DEFPOINTS
  6
BYBLOCK
 62
     0
100
AcDbPoint
 10
13.808519
 20
7.666556
 30
0.0
  0
ENDBLK
  5
DFC
100
AcDbEntity
  8
0
100
AcDbBlockEnd
  0
BLOCK
  5
DE5
100
AcDbEntity
  8
0
100
AcDbBlockBegin
  2
*D27
 70
    65
 10
0.0
 20
0.0
 30
0.0
  3
*D27
  1

  0
LINE
  5
DE6
100
AcDbEntity
  8
0
  6
BYBLOCK
 62
     0
100
AcDbLine
 10
17.119528
 20
7.54327
 30
0.0
 11
24.231958
 21
7.54327
 31
0.0
  0
LINE
  5
DE7
100
AcDbEntity
  8
0
  6
BYBLOCK
 62
     0
100
AcDbLine
 10
24.096958
 20
7.826419
 30
0.0
 11
24.096958
 21
7.961419
 31
0.0
  0
LINE
  5
DE8
100
AcDbEntity
  8
0
  6
BYBLOCK
 62
     0
100
AcDbLine
 10
24.096958
 20
7.40827
 30
0.0
 11
24.096958
 21
7.27327
 31
0.0
  0
LINE
  5
DE9
100
AcDbEntity
  8
0
  6
BYBLOCK
 62
     0
100
AcDbLine
 10
24.096958
 20
7.27327
 30
0.0
 11
23.961958
 21
7.27327
 31
0.0
  0
SOLID
  5
DEA
100
AcDbEntity
  8
0
  6
BYBLOCK
 62
     0
100
AcDbTrace
 10
24.074458
 20
7.826419
 30
0.0
 11
24.119458
 21
7.826419
 31
0.0
 12
24.096958
 22
7.691419
 32
0.0
 13
24.096958
 23
7.691419
 33
0.0
  0
SOLID
  5
DEB
100
AcDbEntity
  8
0
  6
BYBLOCK
 62
     0
100
AcDbTrace
 10
24.074458
 20
7.40827
 30
0.0
 11
24.119458
 21
7.40827
 31
0.0
 12
24.096958
 22
7.54327
 32
0.0
 13
24.096958
 23
7.54327
 33
0.0
  0
MTEXT
  5
DEC
100
AcDbEntity
  8
0
  6
BYBLOCK
 62
     0
100
AcDbMText
 10
23.163208
 20
7.27327
 30
0.0
 40
0.135
 41
0.0
 71
     5
 72
     1
  1
\A1;0.148"[3.76mm]
  0
POINT
  5
DED
100
AcDbEntity
  8
DEFPOINTS
  6
BYBLOCK
 62
     0
100
AcDbPoint
 10
25.993263
 20
7.691419
 30
0.0
  0
POINT
  5
DEE
100
AcDbEntity
  8
DEFPOINTS
  6
BYBLOCK
 62
     0
100
AcDbPoint
 10
17.072653
 20
7.54327
 30
0.0
  0
POINT
  5
DEF
100
AcDbEntity
  8
DEFPOINTS
  6
BYBLOCK
 62
     0
100
AcDbPoint
 10
24.096958
 20
7.54327
 30
0.0
  0
ENDBLK
  5
DF0
100
AcDbEntity
  8
0
100
AcDbBlockEnd
  0
BLOCK
  5
C1C
100
AcDbEntity
  8
0
100
AcDbBlockBegin
  2
*D28
 70
    65
 10
0.0
 20
0.0
 30
0.0
  3
*D28
  1
*TB
  0
LINE
  5
C1D
100
AcDbEntity
  8
0
  6
BYBLOCK
 62
     0
100
AcDbLine
 10
17.119528
 20
7.57327
 30
0.0
 11
20.365503
 21
7.57327
 31
0.0
  0
LINE
  5
C1E
100
AcDbEntity
  8
0
  6
BYBLOCK
 62
     0
100
AcDbLine
 10
17.119528
 20
7.54327
 30
0.0
 11
20.365503
 21
7.54327
 31
0.0
  0
LINE
  5
C1F
100
AcDbEntity
  8
0
  6
BYBLOCK
 62
     0
100
AcDbLine
 10
20.230503
 20
7.70827
 30
0.0
 11
20.230503
 21
7.84327
 31
0.0
  0
LINE
  5
C20
100
AcDbEntity
  8
0
  6
BYBLOCK
 62
     0
100
AcDbLine
 10
20.230503
 20
7.40827
 30
0.0
 11
20.230503
 21
7.27327
 31
0.0
  0
LINE
  5
C21
100
AcDbEntity
  8
0
  6
BYBLOCK
 62
     0
100
AcDbLine
 10
20.230503
 20
7.27327
 30
0.0
 11
20.095503
 21
7.27327
 31
0.0
  0
SOLID
  5
C22
100
AcDbEntity
  8
0
  6
BYBLOCK
 62
     0
100
AcDbTrace
 10
20.208003
 20
7.70827
 30
0.0
 11
20.253003
 21
7.70827
 31
0.0
 12
20.230503
 22
7.57327
 32
0.0
 13
20.230503
 23
7.57327
 33
0.0
  0
SOLID
  5
C23
100
AcDbEntity
  8
0
  6
BYBLOCK
 62
     0
100
AcDbTrace
 10
20.208003
 20
7.40827
 30
0.0
 11
20.253003
 21
7.40827
 31
0.0
 12
20.230503
 22
7.54327
 32
0.0
 13
20.230503
 23
7.54327
 33
0.0
  0
MTEXT
  5
C24
100
AcDbEntity
  8
0
  6
BYBLOCK
 62
     0
100
AcDbMText
 10
18.554253
 20
7.27327
 30
0.0
 40
0.135
 41
0.0
 71
     5
 72
     1
  1
\A1;{0.030"±0.001"[0.76mm±0.03mm]}\P{WALL THICKNESS}
  0
POINT
  5
C25
100
AcDbEntity
  8
DEFPOINTS
  6
BYBLOCK
 62
     0
100
AcDbPoint
 10
17.072653
 20
7.57327
 30
0.0
  0
POINT
  5
C26
100
AcDbEntity
  8
DEFPOINTS
  6
BYBLOCK
 62
     0
100
AcDbPoint
 10
17.072653
 20
7.54327
 30
0.0
  0
POINT
  5
C27
100
AcDbEntity
  8
DEFPOINTS
  6
BYBLOCK
 62
     0
100
AcDbPoint
 10
20.230503
 20
7.54327
 30
0.0
  0
ENDBLK
  5
C28
100
AcDbEntity
  8
0
100
AcDbBlockEnd
  0
BLOCK
  5
C36
100
AcDbEntity
  8
0
100
AcDbBlockBegin
  2
*D29
 70
    65
 10
0.0
 20
0.0
 30
0.0
  3
*D29
  1
*TB
  0
LINE
  5
C37
100
AcDbEntity
  8
0
  6
BYBLOCK
 62
     0
100
AcDbLine
 10
17.119528
 20
7.62192
 30
0.0
 11
22.286703
 21
7.62192
 31
0.0
  0
LINE
  5
C38
100
AcDbEntity
  8
0
  6
BYBLOCK
 62
     0
100
AcDbLine
 10
22.151703
 20
7.826419
 30
0.0
 11
22.151703
 21
7.961419
 31
0.0
  0
LINE
  5
C39
100
AcDbEntity
  8
0
  6
BYBLOCK
 62
     0
100
AcDbLine
 10
22.151703
 20
7.48692
 30
0.0
 11
22.151703
 21
7.35192
 31
0.0
  0
LINE
  5
C3A
100
AcDbEntity
  8
0
  6
BYBLOCK
 62
     0
100
AcDbLine
 10
22.151703
 20
7.35192
 30
0.0
 11
22.016703
 21
7.35192
 31
0.0
  0
SOLID
  5
C3B
100
AcDbEntity
  8
0
  6
BYBLOCK
 62
     0
100
AcDbTrace
 10
22.129203
 20
7.826419
 30
0.0
 11
22.174203
 21
7.826419
 31
0.0
 12
22.151703
 22
7.691419
 32
0.0
 13
22.151703
 23
7.691419
 33
0.0
  0
SOLID
  5
C3C
100
AcDbEntity
  8
0
  6
BYBLOCK
 62
     0
100
AcDbTrace
 10
22.129203
 20
7.48692
 30
0.0
 11
22.174203
 21
7.48692
 31
0.0
 12
22.151703
 22
7.62192
 32
0.0
 13
22.151703
 23
7.62192
 33
0.0
  0
MTEXT
  5
C3D
100
AcDbEntity
  8
0
  6
BYBLOCK
 62
     0
100
AcDbMText
 10
21.229203
 20
7.35192
 30
0.0
 40
0.135
 41
0.0
 71
     5
 72
     1
  1
\A1;0.069"[1.77mm]
  0
POINT
  5
C3E
100
AcDbEntity
  8
DEFPOINTS
  6
BYBLOCK
 62
     0
100
AcDbPoint
 10
25.993263
 20
7.691419
 30
0.0
  0
POINT
  5
C3F
100
AcDbEntity
  8
DEFPOINTS
  6
BYBLOCK
 62
     0
100
AcDbPoint
 10
17.072653
 20
7.62192
 30
0.0
  0
POINT
  5
C40
100
AcDbEntity
  8
DEFPOINTS
  6
BYBLOCK
 62
     0
100
AcDbPoint
 10
22.151703
 20
7.62192
 30
0.0
  0
ENDBLK
  5
C41
100
AcDbEntity
  8
0
100
AcDbBlockEnd
  0
BLOCK
  5
C44
100
AcDbEntity
  8
0
100
AcDbBlockBegin
  2
*D30
 70
    65
 10
0.0
 20
0.0
 30
0.0
  3
*D30
  1
*TB
  0
LINE
  5
C45
100
AcDbEntity
  8
0
  6
BYBLOCK
 62
     0
100
AcDbLine
 10
17.072653
 20
7.668795
 30
0.0
 11
17.072653
 21
8.787063
 31
0.0
  0
LINE
  5
C46
100
AcDbEntity
  8
0
  6
BYBLOCK
 62
     0
100
AcDbLine
 10
16.549662
 20
8.652063
 30
0.0
 11
16.414662
 21
8.652063
 31
0.0
  0
LINE
  5
C47
100
AcDbEntity
  8
0
  6
BYBLOCK
 62
     0
100
AcDbLine
 10
17.207653
 20
8.652063
 30
0.0
 11
17.342653
 21
8.652063
 31
0.0
  0
SOLID
  5
C48
100
AcDbEntity
  8
0
  6
BYBLOCK
 62
     0
100
AcDbTrace
 10
16.549662
 20
8.674563
 30
0.0
 11
16.549662
 21
8.629563
 31
0.0
 12
16.684662
 22
8.652063
 32
0.0
 13
16.684662
 23
8.652063
 33
0.0
  0
SOLID
  5
C49
100
AcDbEntity
  8
0
  6
BYBLOCK
 62
     0
100
AcDbTrace
 10
17.207653
 20
8.674563
 30
0.0
 11
17.207653
 21
8.629563
 31
0.0
 12
17.072653
 22
8.652063
 32
0.0
 13
17.072653
 23
8.652063
 33
0.0
  0
MTEXT
  5
C4A
100
AcDbEntity
  8
0
  6
BYBLOCK
 62
     0
100
AcDbMText
 10
18.163903
 20
8.652063
 30
0.0
 40
0.135
 41
0.0
 71
     5
 72
     1
  1
\A1;0.388"[9.85mm]
  0
POINT
  5
C4B
100
AcDbEntity
  8
DEFPOINTS
  6
BYBLOCK
 62
     0
100
AcDbPoint
 10
16.684662
 20
2.344581
 30
0.0
  0
POINT
  5
C4C
100
AcDbEntity
  8
DEFPOINTS
  6
BYBLOCK
 62
     0
100
AcDbPoint
 10
17.072653
 20
7.62192
 30
0.0
  0
POINT
  5
C4D
100
AcDbEntity
  8
DEFPOINTS
  6
BYBLOCK
 62
     0
100
AcDbPoint
 10
17.072653
 20
8.652063
 30
0.0
  0
ENDBLK
  5
C4E
100
AcDbEntity
  8
0
100
AcDbBlockEnd
  0
BLOCK
  5
C51
100
AcDbEntity
  8
0
100
AcDbBlockBegin
  2
*D31
 70
    65
 10
0.0
 20
0.0
 30
0.0
  3
*D31
  1
*TB
  0
LINE
  5
C52
100
AcDbEntity
  8
0
  6
BYBLOCK
 62
     0
100
AcDbLine
 10
16.044423
 20
8.262445
 30
0.0
 11
16.044423
 21
9.264739
 31
0.0
  0
LINE
  5
C53
100
AcDbEntity
  8
0
  6
BYBLOCK
 62
     0
100
AcDbLine
 10
15.909423
 20
9.129739
 30
0.0
 11
15.774423
 21
9.129739
 31
0.0
  0
LINE
  5
C54
100
AcDbEntity
  8
0
  6
BYBLOCK
 62
     0
100
AcDbLine
 10
16.819662
 20
9.129739
 30
0.0
 11
16.954662
 21
9.129739
 31
0.0
  0
SOLID
  5
C55
100
AcDbEntity
  8
0
  6
BYBLOCK
 62
     0
100
AcDbTrace
 10
15.909423
 20
9.152239
 30
0.0
 11
15.909423
 21
9.107239
 31
0.0
 12
16.044423
 22
9.129739
 32
0.0
 13
16.044423
 23
9.129739
 33
0.0
  0
SOLID
  5
C56
100
AcDbEntity
  8
0
  6
BYBLOCK
 62
     0
100
AcDbTrace
 10
16.819662
 20
9.152239
 30
0.0
 11
16.819662
 21
9.107239
 31
0.0
 12
16.684662
 22
9.129739
 32
0.0
 13
16.684662
 23
9.129739
 33
0.0
  0
MTEXT
  5
C57
100
AcDbEntity
  8
0
  6
BYBLOCK
 62
     0
100
AcDbMText
 10
17.809662
 20
9.129739
 30
0.0
 40
0.135
 41
0.0
 71
     5
 72
     1
  1
\A1;0.640"[16.26mm]
  0
POINT
  5
C58
100
AcDbEntity
  8
DEFPOINTS
  6
BYBLOCK
 62
     0
100
AcDbPoint
 10
16.044423
 20
8.21557
 30
0.0
  0
POINT
  5
C59
100
AcDbEntity
  8
DEFPOINTS
  6
BYBLOCK
 62
     0
100
AcDbPoint
 10
16.684662
 20
2.344581
 30
0.0
  0
POINT
  5
C5A
100
AcDbEntity
  8
DEFPOINTS
  6
BYBLOCK
 62
     0
100
AcDbPoint
 10
16.684662
 20
9.129739
 30
0.0
  0
ENDBLK
  5
C5B
100
AcDbEntity
  8
0
100
AcDbBlockEnd
  0
BLOCK
  5
C5E
100
AcDbEntity
  8
0
100
AcDbBlockBegin
  2
*D32
 70
    65
 10
0.0
 20
0.0
 30
0.0
  3
*D32
  1
*TB
  0
LINE
  5
C5F
100
AcDbEntity
  8
0
  6
BYBLOCK
 62
     0
100
AcDbLine
 10
16.282744
 20
7.496395
 30
0.0
 11
16.282744
 21
6.539485
 31
0.0
  0
LINE
  5
C60
100
AcDbEntity
  8
0
  6
BYBLOCK
 62
     0
100
AcDbLine
 10
16.147744
 20
6.674485
 30
0.0
 11
16.012744
 21
6.674485
 31
0.0
  0
LINE
  5
C61
100
AcDbEntity
  8
0
  6
BYBLOCK
 62
     0
100
AcDbLine
 10
16.819662
 20
6.674485
 30
0.0
 11
16.954662
 21
6.674485
 31
0.0
  0
SOLID
  5
C62
100
AcDbEntity
  8
0
  6
BYBLOCK
 62
     0
100
AcDbTrace
 10
16.147744
 20
6.696985
 30
0.0
 11
16.147744
 21
6.651985
 31
0.0
 12
16.282744
 22
6.674485
 32
0.0
 13
16.282744
 23
6.674485
 33
0.0
  0
SOLID
  5
C63
100
AcDbEntity
  8
0
  6
BYBLOCK
 62
     0
100
AcDbTrace
 10
16.819662
 20
6.696985
 30
0.0
 11
16.819662
 21
6.651985
 31
0.0
 12
16.684662
 22
6.674485
 32
0.0
 13
16.684662
 23
6.674485
 33
0.0
  0
MTEXT
  5
C64
100
AcDbEntity
  8
0
  6
BYBLOCK
 62
     0
100
AcDbMText
 10
17.775912
 20
6.674485
 30
0.0
 40
0.135
 41
0.0
 71
     5
 72
     1
  1
\A1;0.402"[10.21mm]
  0
POINT
  5
C65
100
AcDbEntity
  8
DEFPOINTS
  6
BYBLOCK
 62
     0
100
AcDbPoint
 10
16.282744
 20
7.54327
 30
0.0
  0
POINT
  5
C66
100
AcDbEntity
  8
DEFPOINTS
  6
BYBLOCK
 62
     0
100
AcDbPoint
 10
16.684662
 20
2.344581
 30
0.0
  0
POINT
  5
C67
100
AcDbEntity
  8
DEFPOINTS
  6
BYBLOCK
 62
     0
100
AcDbPoint
 10
16.684662
 20
6.674485
 30
0.0
  0
ENDBLK
  5
C68
100
AcDbEntity
  8
0
100
AcDbBlockEnd
  0
BLOCK
  5
C6B
100
AcDbEntity
  8
0
100
AcDbBlockBegin
  2
*D33
 70
    65
 10
0.0
 20
0.0
 30
0.0
  3
*D33
  1
*TB
  0
LINE
  5
C6C
100
AcDbEntity
  8
0
  6
BYBLOCK
 62
     0
100
AcDbLine
 10
16.069207
 20
7.619681
 30
0.0
 11
16.069207
 21
6.09047
 31
0.0
  0
LINE
  5
C6D
100
AcDbEntity
  8
0
  6
BYBLOCK
 62
     0
100
AcDbLine
 10
15.934207
 20
6.22547
 30
0.0
 11
15.799207
 21
6.22547
 31
0.0
  0
LINE
  5
C6E
100
AcDbEntity
  8
0
  6
BYBLOCK
 62
     0
100
AcDbLine
 10
16.819662
 20
6.22547
 30
0.0
 11
16.954662
 21
6.22547
 31
0.0
  0
SOLID
  5
C6F
100
AcDbEntity
  8
0
  6
BYBLOCK
 62
     0
100
AcDbTrace
 10
15.934207
 20
6.24797
 30
0.0
 11
15.934207
 21
6.20297
 31
0.0
 12
16.069207
 22
6.22547
 32
0.0
 13
16.069207
 23
6.22547
 33
0.0
  0
SOLID
  5
C70
100
AcDbEntity
  8
0
  6
BYBLOCK
 62
     0
100
AcDbTrace
 10
16.819662
 20
6.24797
 30
0.0
 11
16.819662
 21
6.20297
 31
0.0
 12
16.684662
 22
6.22547
 32
0.0
 13
16.684662
 23
6.22547
 33
0.0
  0
MTEXT
  5
C71
100
AcDbEntity
  8
0
  6
BYBLOCK
 62
     0
100
AcDbMText
 10
17.798412
 20
6.22547
 30
0.0
 40
0.135
 41
0.0
 71
     5
 72
     1
  1
\A1;0.615"[15.63mm]
  0
POINT
  5
C72
100
AcDbEntity
  8
DEFPOINTS
  6
BYBLOCK
 62
     0
100
AcDbPoint
 10
16.069207
 20
7.666556
 30
0.0
  0
POINT
  5
C73
100
AcDbEntity
  8
DEFPOINTS
  6
BYBLOCK
 62
     0
100
AcDbPoint
 10
16.684662
 20
2.344581
 30
0.0
  0
POINT
  5
C74
100
AcDbEntity
  8
DEFPOINTS
  6
BYBLOCK
 62
     0
100
AcDbPoint
 10
16.684662
 20
6.22547
 30
0.0
  0
ENDBLK
  5
C75
100
AcDbEntity
  8
0
100
AcDbBlockEnd
  0
BLOCK
  5
C78
100
AcDbEntity
  8
0
100
AcDbBlockBegin
  2
*D34
 70
    65
 10
0.0
 20
0.0
 30
0.0
  3
*D34
  1
*TB
  0
LINE
  5
C79
100
AcDbEntity
  8
0
  6
BYBLOCK
 62
     0
100
AcDbLine
 10
14.73338
 20
8.174824
 30
0.0
 11
14.73338
 21
9.713754
 31
0.0
  0
LINE
  5
C7A
100
AcDbEntity
  8
0
  6
BYBLOCK
 62
     0
100
AcDbLine
 10
14.59838
 20
9.578754
 30
0.0
 11
14.46338
 21
9.578754
 31
0.0
  0
LINE
  5
C7B
100
AcDbEntity
  8
0
  6
BYBLOCK
 62
     0
100
AcDbLine
 10
16.819662
 20
9.578754
 30
0.0
 11
16.954662
 21
9.578754
 31
0.0
  0
SOLID
  5
C7C
100
AcDbEntity
  8
0
  6
BYBLOCK
 62
     0
100
AcDbTrace
 10
14.59838
 20
9.601254
 30
0.0
 11
14.59838
 21
9.556254
 31
0.0
 12
14.73338
 22
9.578754
 32
0.0
 13
14.73338
 23
9.578754
 33
0.0
  0
SOLID
  5
C7D
100
AcDbEntity
  8
0
  6
BYBLOCK
 62
     0
100
AcDbTrace
 10
16.819662
 20
9.601254
 30
0.0
 11
16.819662
 21
9.556254
 31
0.0
 12
16.684662
 22
9.578754
 32
0.0
 13
16.684662
 23
9.578754
 33
0.0
  0
MTEXT
  5
C7E
100
AcDbEntity
  8
0
  6
BYBLOCK
 62
     0
100
AcDbMText
 10
18.563412
 20
9.578754
 30
0.0
 40
0.135
 41
0.0
 71
     5
 72
     1
  1
\A1;1.951"±0.001"[49.56mm±0.03mm]
  0
POINT
  5
C7F
100
AcDbEntity
  8
DEFPOINTS
  6
BYBLOCK
 62
     0
100
AcDbPoint
 10
14.73338
 20
8.127949
 30
0.0
  0
POINT
  5
C80
100
AcDbEntity
  8
DEFPOINTS
  6
BYBLOCK
 62
     0
100
AcDbPoint
 10
16.684662
 20
2.344581
 30
0.0
  0
POINT
  5
C81
100
AcDbEntity
  8
DEFPOINTS
  6
BYBLOCK
 62
     0
100
AcDbPoint
 10
16.684662
 20
9.578754
 30
0.0
  0
ENDBLK
  5
C82
100
AcDbEntity
  8
0
100
AcDbBlockEnd
  0
BLOCK
  5
CC5
100
AcDbEntity
  8
0
100
AcDbBlockBegin
  2
*X35
 70
    65
 10
0.0
 20
0.0
 30
0.0
  3
*X35
  1
*TB
  0
LINE
  5
CC7
100
AcDbEntity
  8
0
 62
     0
100
AcDbLine
 10
15.621507
 20
7.666556
 30
0.0
 11
15.651507
 21
7.696556
 31
0.0
  0
LINE
  5
CC8
100
AcDbEntity
  8
0
 62
     0
100
AcDbLine
 10
15.533119
 20
7.666556
 30
0.0
 11
15.563119
 21
7.696556
 31
0.0
  0
LINE
  5
CC9
100
AcDbEntity
  8
0
 62
     0
100
AcDbLine
 10
15.44473
 20
7.666556
 30
0.0
 11
15.47473
 21
7.696556
 31
0.0
  0
LINE
  5
CCA
100
AcDbEntity
  8
0
 62
     0
100
AcDbLine
 10
15.356342
 20
7.666556
 30
0.0
 11
15.386342
 21
7.696556
 31
0.0
  0
LINE
  5
CCB
100
AcDbEntity
  8
0
 62
     0
100
AcDbLine
 10
15.267954
 20
7.666556
 30
0.0
 11
15.297954
 21
7.696556
 31
0.0
  0
LINE
  5
CCC
100
AcDbEntity
  8
0
 62
     0
100
AcDbLine
 10
15.179565
 20
7.666556
 30
0.0
 11
15.209565
 21
7.696556
 31
0.0
  0
LINE
  5
CCD
100
AcDbEntity
  8
0
 62
     0
100
AcDbLine
 10
15.091177
 20
7.666556
 30
0.0
 11
15.121177
 21
7.696556
 31
0.0
  0
LINE
  5
CCE
100
AcDbEntity
  8
0
 62
     0
100
AcDbLine
 10
15.002789
 20
7.666556
 30
0.0
 11
15.032789
 21
7.696556
 31
0.0
  0
LINE
  5
CCF
100
AcDbEntity
  8
0
 62
     0
100
AcDbLine
 10
14.9144
 20
7.666556
 30
0.0
 11
14.9444
 21
7.696556
 31
0.0
  0
LINE
  5
CD0
100
AcDbEntity
  8
0
 62
     0
100
AcDbLine
 10
14.826012
 20
7.666556
 30
0.0
 11
14.856012
 21
7.696556
 31
0.0
  0
LINE
  5
CD1
100
AcDbEntity
  8
0
 62
     0
100
AcDbLine
 10
14.737624
 20
7.666556
 30
0.0
 11
14.767624
 21
7.696556
 31
0.0
  0
LINE
  5
CD2
100
AcDbEntity
  8
0
 62
     0
100
AcDbLine
 10
14.649235
 20
7.666556
 30
0.0
 11
14.679235
 21
7.696556
 31
0.0
  0
LINE
  5
CD3
100
AcDbEntity
  8
0
 62
     0
100
AcDbLine
 10
14.560847
 20
7.666556
 30
0.0
 11
14.590847
 21
7.696556
 31
0.0
  0
LINE
  5
CD4
100
AcDbEntity
  8
0
 62
     0
100
AcDbLine
 10
14.472459
 20
7.666556
 30
0.0
 11
14.502459
 21
7.696556
 31
0.0
  0
LINE
  5
CD5
100
AcDbEntity
  8
0
 62
     0
100
AcDbLine
 10
14.38407
 20
7.666556
 30
0.0
 11
14.41407
 21
7.696556
 31
0.0
  0
LINE
  5
CD6
100
AcDbEntity
  8
0
 62
     0
100
AcDbLine
 10
14.295682
 20
7.666556
 30
0.0
 11
14.325682
 21
7.696556
 31
0.0
  0
LINE
  5
CD7
100
AcDbEntity
  8
0
 62
     0
100
AcDbLine
 10
14.233373
 20
7.692635
 30
0.0
 11
14.237294
 21
7.696556
 31
0.0
  0
LINE
  5
CD8
100
AcDbEntity
  8
0
 62
     0
100
AcDbLine
 10
15.709895
 20
7.666556
 30
0.0
 11
15.739895
 21
7.696556
 31
0.0
  0
LINE
  5
CD9
100
AcDbEntity
  8
0
 62
     0
100
AcDbLine
 10
15.798284
 20
7.666556
 30
0.0
 11
15.828284
 21
7.696556
 31
0.0
  0
LINE
  5
CDA
100
AcDbEntity
  8
0
 62
     0
100
AcDbLine
 10
15.886672
 20
7.666556
 30
0.0
 11
15.916672
 21
7.696556
 31
0.0
  0
LINE
  5
CDB
100
AcDbEntity
  8
0
 62
     0
100
AcDbLine
 10
15.97506
 20
7.666556
 30
0.0
 11
16.00506
 21
7.696556
 31
0.0
  0
LINE
  5
CDC
100
AcDbEntity
  8
0
 62
     0
100
AcDbLine
 10
16.063449
 20
7.666556
 30
0.0
 11
16.087409
 21
7.690516
 31
0.0
  0
LINE
  5
CDD
100
AcDbEntity
  8
0
 62
     0
100
AcDbLine
 10
16.121592
 20
7.636311
 30
0.0
 11
16.143445
 21
7.658163
 31
0.0
  0
LINE
  5
CDE
100
AcDbEntity
  8
0
 62
     0
100
AcDbLine
 10
16.177628
 20
7.603959
 30
0.0
 11
16.199481
 21
7.625811
 31
0.0
  0
LINE
  5
CDF
100
AcDbEntity
  8
0
 62
     0
100
AcDbLine
 10
16.233664
 20
7.571606
 30
0.0
 11
16.255517
 21
7.593459
 31
0.0
  0
LINE
  5
CE0
100
AcDbEntity
  8
0
 62
     0
100
AcDbLine
 10
16.293716
 20
7.54327
 30
0.0
 11
16.323716
 21
7.57327
 31
0.0
  0
LINE
  5
CE1
100
AcDbEntity
  8
0
 62
     0
100
AcDbLine
 10
16.382104
 20
7.54327
 30
0.0
 11
16.412104
 21
7.57327
 31
0.0
  0
LINE
  5
CE2
100
AcDbEntity
  8
0
 62
     0
100
AcDbLine
 10
16.470493
 20
7.54327
 30
0.0
 11
16.500493
 21
7.57327
 31
0.0
  0
LINE
  5
CE3
100
AcDbEntity
  8
0
 62
     0
100
AcDbLine
 10
16.558881
 20
7.54327
 30
0.0
 11
16.588881
 21
7.57327
 31
0.0
  0
LINE
  5
CE4
100
AcDbEntity
  8
0
 62
     0
100
AcDbLine
 10
16.64727
 20
7.54327
 30
0.0
 11
16.67727
 21
7.57327
 31
0.0
  0
LINE
  5
CE5
100
AcDbEntity
  8
0
 62
     0
100
AcDbLine
 10
16.735658
 20
7.54327
 30
0.0
 11
16.765658
 21
7.57327
 31
0.0
  0
LINE
  5
CE6
100
AcDbEntity
  8
0
 62
     0
100
AcDbLine
 10
16.824046
 20
7.54327
 30
0.0
 11
16.854046
 21
7.57327
 31
0.0
  0
LINE
  5
CE7
100
AcDbEntity
  8
0
 62
     0
100
AcDbLine
 10
16.912435
 20
7.54327
 30
0.0
 11
16.942435
 21
7.57327
 31
0.0
  0
LINE
  5
CE8
100
AcDbEntity
  8
0
 62
     0
100
AcDbLine
 10
17.000823
 20
7.54327
 30
0.0
 11
17.030823
 21
7.57327
 31
0.0
  0
ENDBLK
  5
CE9
100
AcDbEntity
  8
0
100
AcDbBlockEnd
  0
BLOCK
  5
1007
100
AcDbEntity
  8
0
100
AcDbBlockBegin
  2
*D36
 70
    65
 10
0.0
 20
0.0
 30
0.0
  3
*D36
  1
*TB
  0
LINE
  5
1008
100
AcDbEntity
  8
0
  6
BYBLOCK
 62
     0
100
AcDbLine
 10
16.990093
 20
15.692588
 30
0.0
 11
19.858153
 21
15.692588
 31
0.0
  0
LINE
  5
1009
100
AcDbEntity
  8
0
  6
BYBLOCK
 62
     0
100
AcDbLine
 10
17.119528
 20
16.325148
 30
0.0
 11
19.858153
 21
16.325148
 31
0.0
  0
LINE
  5
100A
100
AcDbEntity
  8
0
  6
BYBLOCK
 62
     0
100
AcDbLine
 10
19.723153
 20
15.557588
 30
0.0
 11
19.723153
 21
15.422588
 31
0.0
  0
LINE
  5
100B
100
AcDbEntity
  8
0
  6
BYBLOCK
 62
     0
100
AcDbLine
 10
19.723153
 20
16.460148
 30
0.0
 11
19.723153
 21
16.595148
 31
0.0
  0
LINE
  5
100C
100
AcDbEntity
  8
0
  6
BYBLOCK
 62
     0
100
AcDbLine
 10
19.723153
 20
16.595148
 30
0.0
 11
19.858153
 21
16.595148
 31
0.0
  0
SOLID
  5
100D
100
AcDbEntity
  8
0
  6
BYBLOCK
 62
     0
100
AcDbTrace
 10
19.700653
 20
15.557588
 30
0.0
 11
19.745653
 21
15.557588
 31
0.0
 12
19.723153
 22
15.692588
 32
0.0
 13
19.723153
 23
15.692588
 33
0.0
  0
SOLID
  5
100E
100
AcDbEntity
  8
0
  6
BYBLOCK
 62
     0
100
AcDbTrace
 10
19.700653
 20
16.460148
 30
0.0
 11
19.745653
 21
16.460148
 31
0.0
 12
19.723153
 22
16.325148
 32
0.0
 13
19.723153
 23
16.325148
 33
0.0
  0
MTEXT
  5
100F
100
AcDbEntity
  8
0
  6
BYBLOCK
 62
     0
100
AcDbMText
 10
20.713153
 20
16.595148
 30
0.0
 40
0.135
 41
0.0
 71
     5
 72
     1
  1
\A1;0.633"[16.07mm]
  0
POINT
  5
1010
100
AcDbEntity
  8
DEFPOINTS
  6
BYBLOCK
 62
     0
100
AcDbPoint
 10
16.943218
 20
15.692588
 30
0.0
  0
POINT
  5
1011
100
AcDbEntity
  8
DEFPOINTS
  6
BYBLOCK
 62
     0
100
AcDbPoint
 10
17.072653
 20
16.325148
 30
0.0
  0
POINT
  5
1012
100
AcDbEntity
  8
DEFPOINTS
  6
BYBLOCK
 62
     0
100
AcDbPoint
 10
19.723153
 20
16.325148
 30
0.0
  0
ENDBLK
  5
1013
100
AcDbEntity
  8
0
100
AcDbBlockEnd
  0
BLOCK
  5
FE3
100
AcDbEntity
  8
0
100
AcDbBlockBegin
  2
*D37
 70
    65
 10
0.0
 20
0.0
 30
0.0
  3
*D37
  1
*TB
  0
LINE
  5
FE4
100
AcDbEntity
  8
0
  6
BYBLOCK
 62
     0
100
AcDbLine
 10
16.990093
 20
14.567582
 30
0.0
 11
23.706252
 21
14.567582
 31
0.0
  0
LINE
  5
FE5
100
AcDbEntity
  8
0
  6
BYBLOCK
 62
     0
100
AcDbLine
 10
17.119528
 20
16.325148
 30
0.0
 11
23.706252
 21
16.325148
 31
0.0
  0
LINE
  5
FE6
100
AcDbEntity
  8
0
  6
BYBLOCK
 62
     0
100
AcDbLine
 10
23.571252
 20
14.702582
 30
0.0
 11
23.571252
 21
15.311365
 31
0.0
  0
LINE
  5
FE7
100
AcDbEntity
  8
0
  6
BYBLOCK
 62
     0
100
AcDbLine
 10
23.571252
 20
16.190148
 30
0.0
 11
23.571252
 21
15.581365
 31
0.0
  0
SOLID
  5
FE8
100
AcDbEntity
  8
0
  6
BYBLOCK
 62
     0
100
AcDbTrace
 10
23.548752
 20
14.702582
 30
0.0
 11
23.593752
 21
14.702582
 31
0.0
 12
23.571252
 22
14.567582
 32
0.0
 13
23.571252
 23
14.567582
 33
0.0
  0
SOLID
  5
FE9
100
AcDbEntity
  8
0
  6
BYBLOCK
 62
     0
100
AcDbTrace
 10
23.548752
 20
16.190148
 30
0.0
 11
23.593752
 21
16.190148
 31
0.0
 12
23.571252
 22
16.325148
 32
0.0
 13
23.571252
 23
16.325148
 33
0.0
  0
MTEXT
  5
FEA
100
AcDbEntity
  8
0
  6
BYBLOCK
 62
     0
100
AcDbMText
 10
23.571252
 20
15.446365
 30
0.0
 40
0.135
 41
0.0
 71
     5
 72
     1
  1
\A1;1.758"[44.64mm]
  0
POINT
  5
FEB
100
AcDbEntity
  8
DEFPOINTS
  6
BYBLOCK
 62
     0
100
AcDbPoint
 10
16.943218
 20
14.567582
 30
0.0
  0
POINT
  5
FEC
100
AcDbEntity
  8
DEFPOINTS
  6
BYBLOCK
 62
     0
100
AcDbPoint
 10
17.072653
 20
16.325148
 30
0.0
  0
POINT
  5
FED
100
AcDbEntity
  8
DEFPOINTS
  6
BYBLOCK
 62
     0
100
AcDbPoint
 10
23.571252
 20
16.325148
 30
0.0
  0
ENDBLK
  5
FEE
100
AcDbEntity
  8
0
100
AcDbBlockEnd
  0
BLOCK
  5
E09
100
AcDbEntity
  8
ASHADE
100
AcDbBlockBegin
  2
AVE_RENDER
 70
    64
 10
0.0
 20
0.0
 30
0.0
  3
AVE_RENDER
  1
AVE_RENDER
  0
ENDBLK
  5
E0A
100
AcDbEntity
  8
0
100
AcDbBlockEnd
  0
BLOCK
  5
E17
100
AcDbEntity
  8
ASHADE
100
AcDbBlockBegin
  2
AVE_GLOBAL
 70
    64
 10
0.0
 20
0.0
 30
0.0
  3
AVE_GLOBAL
  1
AVE_GLOBAL
  0
ENDBLK
  5
E18
100
AcDbEntity
  8
0
100
AcDbBlockEnd
  0
BLOCK
  5
E22
100
AcDbEntity
  8
0
100
AcDbBlockBegin
  2
*U40
 70
    65
 10
0.0
 20
0.0
 30
0.0
  3
*U40
  1
*TB
  0
CIRCLE
  5
E23
100
AcDbEntity
  8
FOOT
100
AcDbCircle
 10
0.0
 20
0.0
 30
0.0
 40
0.03937
  0
LINE
  5
E24
100
AcDbEntity
  8
CENTER
100
AcDbLine
 10
-0.013123
 20
0.0
 30
0.0
 11
0.013123
 21
0.0
 31
0.0
  0
LINE
  5
E25
100
AcDbEntity
  8
CENTER
100
AcDbLine
 10
0.0
 20
-0.013123
 30
0.0
 11
0.0
 21
0.013123
 31
0.0
  0
LINE
  5
E26
100
AcDbEntity
  8
CENTER
100
AcDbLine
 10
0.026247
 20
0.0
 30
0.0
 11
0.16437
 21
0.0
 31
0.0
  0
LINE
  5
E27
100
AcDbEntity
  8
CENTER
100
AcDbLine
 10
0.0
 20
0.026247
 30
0.0
 11
0.0
 21
0.16437
 31
0.0
  0
LINE
  5
E28
100
AcDbEntity
  8
CENTER
100
AcDbLine
 10
-0.026247
 20
0.0
 30
0.0
 11
-0.16437
 21
0.0
 31
0.0
  0
LINE
  5
E29
100
AcDbEntity
  8
CENTER
100
AcDbLine
 10
0.0
 20
-0.026247
 30
0.0
 11
0.0
 21
-0.16437
 31
0.0
  0
ENDBLK
  5
E2A
100
AcDbEntity
  8
0
100
AcDbBlockEnd
  0
BLOCK
  5
E2E
100
AcDbEntity
  8
0
100
AcDbBlockBegin
  2
*D41
 70
    65
 10
0.0
 20
0.0
 30
0.0
  3
*D41
  1
*TB
  0
LINE
  5
E2F
100
AcDbEntity
  8
0
  6
BYBLOCK
 62
     0
100
AcDbLine
 10
14.696662
 20
15.912069
 30
0.0
 11
19.734382
 21
15.912069
 31
0.0
  0
LINE
  5
E30
100
AcDbEntity
  8
0
  6
BYBLOCK
 62
     0
100
AcDbLine
 10
17.119528
 20
16.325148
 30
0.0
 11
19.734382
 21
16.325148
 31
0.0
  0
LINE
  5
E31
100
AcDbEntity
  8
0
  6
BYBLOCK
 62
     0
100
AcDbLine
 10
19.599382
 20
15.777069
 30
0.0
 11
19.599382
 21
15.642069
 31
0.0
  0
LINE
  5
E32
100
AcDbEntity
  8
0
  6
BYBLOCK
 62
     0
100
AcDbLine
 10
19.599382
 20
16.460148
 30
0.0
 11
19.599382
 21
16.595148
 31
0.0
  0
LINE
  5
E33
100
AcDbEntity
  8
0
  6
BYBLOCK
 62
     0
100
AcDbLine
 10
19.599382
 20
16.595148
 30
0.0
 11
19.734382
 21
16.595148
 31
0.0
  0
SOLID
  5
E34
100
AcDbEntity
  8
0
  6
BYBLOCK
 62
     0
100
AcDbTrace
 10
19.576882
 20
15.777069
 30
0.0
 11
19.621882
 21
15.777069
 31
0.0
 12
19.599382
 22
15.912069
 32
0.0
 13
19.599382
 23
15.912069
 33
0.0
  0
SOLID
  5
E35
100
AcDbEntity
  8
0
  6
BYBLOCK
 62
     0
100
AcDbTrace
 10
19.576882
 20
16.460148
 30
0.0
 11
19.621882
 21
16.460148
 31
0.0
 12
19.599382
 22
16.325148
 32
0.0
 13
19.599382
 23
16.325148
 33
0.0
  0
MTEXT
  5
E36
100
AcDbEntity
  8
0
  6
BYBLOCK
 62
     0
100
AcDbMText
 10
20.566882
 20
16.595148
 30
0.0
 40
0.135
 41
0.0
 71
     5
 72
     1
  1
\A1;0.413"[10.49mm]
  0
POINT
  5
E37
100
AcDbEntity
  8
DEFPOINTS
  6
BYBLOCK
 62
     0
100
AcDbPoint
 10
14.649787
 20
15.912069
 30
0.0
  0
POINT
  5
E38
100
AcDbEntity
  8
DEFPOINTS
  6
BYBLOCK
 62
     0
100
AcDbPoint
 10
17.072653
 20
16.325148
 30
0.0
  0
POINT
  5
E39
100
AcDbEntity
  8
DEFPOINTS
  6
BYBLOCK
 62
     0
100
AcDbPoint
 10
19.599382
 20
16.325148
 30
0.0
  0
ENDBLK
  5
E3A
100
AcDbEntity
  8
0
100
AcDbBlockEnd
  0
BLOCK
  5
E3D
100
AcDbEntity
  8
0
100
AcDbBlockBegin
  2
*D42
 70
    65
 10
0.0
 20
0.0
 30
0.0
  3
*D42
  1
*TB
  0
LINE
  5
E3E
100
AcDbEntity
  8
0
  6
BYBLOCK
 62
     0
100
AcDbLine
 10
14.696662
 20
14.230793
 30
0.0
 11
24.496205
 21
14.230793
 31
0.0
  0
LINE
  5
E3F
100
AcDbEntity
  8
0
  6
BYBLOCK
 62
     0
100
AcDbLine
 10
17.119528
 20
16.325148
 30
0.0
 11
24.496205
 21
16.325148
 31
0.0
  0
LINE
  5
E40
100
AcDbEntity
  8
0
  6
BYBLOCK
 62
     0
100
AcDbLine
 10
24.361205
 20
14.365793
 30
0.0
 11
24.361205
 21
15.14297
 31
0.0
  0
LINE
  5
E41
100
AcDbEntity
  8
0
  6
BYBLOCK
 62
     0
100
AcDbLine
 10
24.361205
 20
16.190148
 30
0.0
 11
24.361205
 21
15.41297
 31
0.0
  0
SOLID
  5
E42
100
AcDbEntity
  8
0
  6
BYBLOCK
 62
     0
100
AcDbTrace
 10
24.338705
 20
14.365793
 30
0.0
 11
24.383705
 21
14.365793
 31
0.0
 12
24.361205
 22
14.230793
 32
0.0
 13
24.361205
 23
14.230793
 33
0.0
  0
SOLID
  5
E43
100
AcDbEntity
  8
0
  6
BYBLOCK
 62
     0
100
AcDbTrace
 10
24.338705
 20
16.190148
 30
0.0
 11
24.383705
 21
16.190148
 31
0.0
 12
24.361205
 22
16.325148
 32
0.0
 13
24.361205
 23
16.325148
 33
0.0
  0
MTEXT
  5
E44
100
AcDbEntity
  8
0
  6
BYBLOCK
 62
     0
100
AcDbMText
 10
24.361205
 20
15.27797
 30
0.0
 40
0.135
 41
0.0
 71
     5
 72
     1
  1
\A1;2.094"[53.20mm]
  0
POINT
  5
E45
100
AcDbEntity
  8
DEFPOINTS
  6
BYBLOCK
 62
     0
100
AcDbPoint
 10
14.649787
 20
14.230793
 30
0.0
  0
POINT
  5
E46
100
AcDbEntity
  8
DEFPOINTS
  6
BYBLOCK
 62
     0
100
AcDbPoint
 10
17.072653
 20
16.325148
 30
0.0
  0
POINT
  5
E47
100
AcDbEntity
  8
DEFPOINTS
  6
BYBLOCK
 62
     0
100
AcDbPoint
 10
24.361205
 20
16.325148
 30
0.0
  0
ENDBLK
  5
E48
100
AcDbEntity
  8
0
100
AcDbBlockEnd
  0
BLOCK
  5
E68
100
AcDbEntity
  8
0
100
AcDbBlockBegin
  2
*U43
 70
    65
 10
0.0
 20
0.0
 30
0.0
  3
*U43
  1
*TB
  0
POLYLINE
  5
E69
100
AcDbEntity
  8
FOOT
100
AcDb2dPolyline
 66
     1
 10
0.0
 20
0.0
 30
0.0
 70
     1
  0
VERTEX
  5
E6A
100
AcDbEntity
  8
FOOT
100
AcDbVertex
100
AcDb2dVertex
 10
-0.1319
 20
0.0197
 30
0.0
 42
1.0
  0
VERTEX
  5
E6B
100
AcDbEntity
  8
FOOT
100
AcDbVertex
100
AcDb2dVertex
 10
-0.1319
 20
-0.0197
 30
0.0
  0
VERTEX
  5
E6C
100
AcDbEntity
  8
FOOT
100
AcDbVertex
100
AcDb2dVertex
 10
0.1319
 20
-0.0197
 30
0.0
 42
1.0
  0
VERTEX
  5
E6D
100
AcDbEntity
  8
FOOT
100
AcDbVertex
100
AcDb2dVertex
 10
0.1319
 20
0.0197
 30
0.0
  0
SEQEND
  5
E6E
100
AcDbEntity
  8
FOOT
  0
LINE
  5
E6F
100
AcDbEntity
  8
CENTER
100
AcDbLine
 10
-0.138467
 20
0.0
 30
0.0
 11
-0.125333
 21
0.0
 31
0.0
  0
LINE
  5
E70
100
AcDbEntity
  8
CENTER
100
AcDbLine
 10
-0.1319
 20
-0.006567
 30
0.0
 11
-0.1319
 21
0.006567
 31
0.0
  0
LINE
  5
E71
100
AcDbEntity
  8
CENTER
100
AcDbLine
 10
-0.118767
 20
0.0
 30
0.0
 11
0.0128
 21
0.0
 31
0.0
  0
LINE
  5
E72
100
AcDbEntity
  8
CENTER
100
AcDbLine
 10
-0.1319
 20
0.013133
 30
0.0
 11
-0.1319
 21
0.1447
 31
0.0
  0
LINE
  5
E73
100
AcDbEntity
  8
CENTER
100
AcDbLine
 10
-0.145033
 20
0.0
 30
0.0
 11
-0.2766
 21
0.0
 31
0.0
  0
LINE
  5
E74
100
AcDbEntity
  8
CENTER
100
AcDbLine
 10
-0.1319
 20
-0.013133
 30
0.0
 11
-0.1319
 21
-0.1447
 31
0.0
  0
LINE
  5
E75
100
AcDbEntity
  8
CENTER
100
AcDbLine
 10
0.125333
 20
0.0
 30
0.0
 11
0.138467
 21
0.0
 31
0.0
  0
LINE
  5
E76
100
AcDbEntity
  8
CENTER
100
AcDbLine
 10
0.1319
 20
-0.006567
 30
0.0
 11
0.1319
 21
0.006567
 31
0.0
  0
LINE
  5
E77
100
AcDbEntity
  8
CENTER
100
AcDbLine
 10
0.145033
 20
0.0
 30
0.0
 11
0.2766
 21
0.0
 31
0.0
  0
LINE
  5
E78
100
AcDbEntity
  8
CENTER
100
AcDbLine
 10
0.1319
 20
0.013133
 30
0.0
 11
0.1319
 21
0.1447
 31
0.0
  0
LINE
  5
E79
100
AcDbEntity
  8
CENTER
100
AcDbLine
 10
0.118767
 20
0.0
 30
0.0
 11
-0.0128
 21
0.0
 31
0.0
  0
LINE
  5
E7A
100
AcDbEntity
  8
CENTER
100
AcDbLine
 10
0.1319
 20
-0.013133
 30
0.0
 11
0.1319
 21
-0.1447
 31
0.0
  0
ENDBLK
  5
E7B
100
AcDbEntity
  8
0
100
AcDbBlockEnd
  0
BLOCK
  5
E80
100
AcDbEntity
  8
0
100
AcDbBlockBegin
  2
*D44
 70
    65
 10
0.0
 20
0.0
 30
0.0
  3
*D44
  1
*TB
  0
LINE
  5
E81
100
AcDbEntity
  8
0
  6
BYBLOCK
 62
     0
100
AcDbLine
 10
14.505067
 20
13.907326
 30
0.0
 11
14.505067
 21
12.121538
 31
0.0
  0
LINE
  5
E82
100
AcDbEntity
  8
0
  6
BYBLOCK
 62
     0
100
AcDbLine
 10
14.640067
 20
12.256538
 30
0.0
 11
14.728614
 21
12.256538
 31
0.0
  0
LINE
  5
E83
100
AcDbEntity
  8
0
  6
BYBLOCK
 62
     0
100
AcDbLine
 10
16.549662
 20
12.256538
 30
0.0
 11
16.461114
 21
12.256538
 31
0.0
  0
SOLID
  5
E84
100
AcDbEntity
  8
0
  6
BYBLOCK
 62
     0
100
AcDbTrace
 10
14.640067
 20
12.279038
 30
0.0
 11
14.640067
 21
12.234038
 31
0.0
 12
14.505067
 22
12.256538
 32
0.0
 13
14.505067
 23
12.256538
 33
0.0
  0
SOLID
  5
E85
100
AcDbEntity
  8
0
  6
BYBLOCK
 62
     0
100
AcDbTrace
 10
16.549662
 20
12.279038
 30
0.0
 11
16.549662
 21
12.234038
 31
0.0
 12
16.684662
 22
12.256538
 32
0.0
 13
16.684662
 23
12.256538
 33
0.0
  0
MTEXT
  5
E86
100
AcDbEntity
  8
0
  6
BYBLOCK
 62
     0
100
AcDbMText
 10
15.594864
 20
12.256538
 30
0.0
 40
0.135
 41
0.0
 71
     5
 72
     1
  1
\A1;2.180"[55.36mm]
  0
POINT
  5
E87
100
AcDbEntity
  8
DEFPOINTS
  6
BYBLOCK
 62
     0
100
AcDbPoint
 10
14.505067
 20
13.954201
 30
0.0
  0
POINT
  5
E88
100
AcDbEntity
  8
DEFPOINTS
  6
BYBLOCK
 62
     0
100
AcDbPoint
 10
16.684662
 20
18.447318
 30
0.0
  0
POINT
  5
E89
100
AcDbEntity
  8
DEFPOINTS
  6
BYBLOCK
 62
     0
100
AcDbPoint
 10
16.684662
 20
12.256538
 30
0.0
  0
ENDBLK
  5
E8A
100
AcDbEntity
  8
0
100
AcDbBlockEnd
  0
BLOCK
  5
EA5
100
AcDbEntity
  8
0
100
AcDbBlockBegin
  2
*D45
 70
    65
 10
0.0
 20
0.0
 30
0.0
  3
*D45
  1
*TB
  0
LINE
  5
EA6
100
AcDbEntity
  8
0
  6
BYBLOCK
 62
     0
100
AcDbLine
 10
14.124501
 20
15.819562
 30
0.0
 11
9.796962
 21
15.819562
 31
0.0
  0
LINE
  5
EA7
100
AcDbEntity
  8
0
  6
BYBLOCK
 62
     0
100
AcDbLine
 10
14.186498
 20
16.325148
 30
0.0
 11
9.796962
 21
16.325148
 31
0.0
  0
LINE
  5
EA8
100
AcDbEntity
  8
0
  6
BYBLOCK
 62
     0
100
AcDbLine
 10
9.931962
 20
15.684562
 30
0.0
 11
9.931962
 21
15.549562
 31
0.0
  0
LINE
  5
EA9
100
AcDbEntity
  8
0
  6
BYBLOCK
 62
     0
100
AcDbLine
 10
9.931962
 20
16.460148
 30
0.0
 11
9.931962
 21
16.595148
 31
0.0
  0
LINE
  5
EAA
100
AcDbEntity
  8
0
  6
BYBLOCK
 62
     0
100
AcDbLine
 10
9.931962
 20
16.595148
 30
0.0
 11
10.066962
 21
16.595148
 31
0.0
  0
SOLID
  5
EAB
100
AcDbEntity
  8
0
  6
BYBLOCK
 62
     0
100
AcDbTrace
 10
9.909462
 20
15.684562
 30
0.0
 11
9.954462
 21
15.684562
 31
0.0
 12
9.931962
 22
15.819562
 32
0.0
 13
9.931962
 23
15.819562
 33
0.0
  0
SOLID
  5
EAC
100
AcDbEntity
  8
0
  6
BYBLOCK
 62
     0
100
AcDbTrace
 10
9.909462
 20
16.460148
 30
0.0
 11
9.954462
 21
16.460148
 31
0.0
 12
9.931962
 22
16.325148
 32
0.0
 13
9.931962
 23
16.325148
 33
0.0
  0
MTEXT
  5
EAD
100
AcDbEntity
  8
0
  6
BYBLOCK
 62
     0
100
AcDbMText
 10
10.921962
 20
16.595148
 30
0.0
 40
0.135
 41
0.0
 71
     5
 72
     1
  1
\A1;0.506"[12.84mm]
  0
POINT
  5
EAE
100
AcDbEntity
  8
DEFPOINTS
  6
BYBLOCK
 62
     0
100
AcDbPoint
 10
14.171376
 20
15.819562
 30
0.0
  0
POINT
  5
EAF
100
AcDbEntity
  8
DEFPOINTS
  6
BYBLOCK
 62
     0
100
AcDbPoint
 10
14.233373
 20
16.325148
 30
0.0
  0
POINT
  5
EB0
100
AcDbEntity
  8
DEFPOINTS
  6
BYBLOCK
 62
     0
100
AcDbPoint
 10
9.931962
 20
16.325148
 30
0.0
  0
ENDBLK
  5
EB1
100
AcDbEntity
  8
0
100
AcDbBlockEnd
  0
BLOCK
  5
F66
100
AcDbEntity
  8
0
100
AcDbBlockBegin
  2
*D46
 70
    65
 10
0.0
 20
0.0
 30
0.0
  3
*D46
  1
*TB
  0
LINE
  5
F67
100
AcDbEntity
  8
0
  6
BYBLOCK
 62
     0
100
AcDbLine
 10
14.124501
 20
14.138293
 30
0.0
 11
1.762109
 21
14.138293
 31
0.0
  0
LINE
  5
F68
100
AcDbEntity
  8
0
  6
BYBLOCK
 62
     0
100
AcDbLine
 10
14.186498
 20
16.325148
 30
0.0
 11
1.762109
 21
16.325148
 31
0.0
  0
LINE
  5
F69
100
AcDbEntity
  8
0
  6
BYBLOCK
 62
     0
100
AcDbLine
 10
1.897109
 20
14.273293
 30
0.0
 11
1.897109
 21
15.09672
 31
0.0
  0
LINE
  5
F6A
100
AcDbEntity
  8
0
  6
BYBLOCK
 62
     0
100
AcDbLine
 10
1.897109
 20
16.190148
 30
0.0
 11
1.897109
 21
15.36672
 31
0.0
  0
SOLID
  5
F6B
100
AcDbEntity
  8
0
  6
BYBLOCK
 62
     0
100
AcDbTrace
 10
1.874609
 20
14.273293
 30
0.0
 11
1.919609
 21
14.273293
 31
0.0
 12
1.897109
 22
14.138293
 32
0.0
 13
1.897109
 23
14.138293
 33
0.0
  0
SOLID
  5
F6C
100
AcDbEntity
  8
0
  6
BYBLOCK
 62
     0
100
AcDbTrace
 10
1.874609
 20
16.190148
 30
0.0
 11
1.919609
 21
16.190148
 31
0.0
 12
1.897109
 22
16.325148
 32
0.0
 13
1.897109
 23
16.325148
 33
0.0
  0
MTEXT
  5
F6D
100
AcDbEntity
  8
0
  6
BYBLOCK
 62
     0
100
AcDbMText
 10
1.897109
 20
15.23172
 30
0.0
 40
0.135
 41
0.0
 71
     5
 72
     1
  1
\A1;2.187"[55.55mm]
  0
POINT
  5
F6E
100
AcDbEntity
  8
DEFPOINTS
  6
BYBLOCK
 62
     0
100
AcDbPoint
 10
14.171376
 20
14.138293
 30
0.0
  0
POINT
  5
F6F
100
AcDbEntity
  8
DEFPOINTS
  6
BYBLOCK
 62
     0
100
AcDbPoint
 10
14.233373
 20
16.325148
 30
0.0
  0
POINT
  5
F70
100
AcDbEntity
  8
DEFPOINTS
  6
BYBLOCK
 62
     0
100
AcDbPoint
 10
1.897109
 20
16.325148
 30
0.0
  0
ENDBLK
  5
F71
100
AcDbEntity
  8
0
100
AcDbBlockEnd
  0
BLOCK
  5
EFE
100
AcDbEntity
  8
0
100
AcDbBlockBegin
  2
*D47
 70
    65
 10
0.0
 20
0.0
 30
0.0
  3
*D47
  1
*TB
  0
LINE
  5
EFF
100
AcDbEntity
  8
0
  6
BYBLOCK
 62
     0
100
AcDbLine
 10
14.312501
 20
16.046562
 30
0.0
 11
7.964934
 21
16.046562
 31
0.0
  0
LINE
  5
F00
100
AcDbEntity
  8
0
  6
BYBLOCK
 62
     0
100
AcDbLine
 10
14.186498
 20
16.325148
 30
0.0
 11
7.964934
 21
16.325148
 31
0.0
  0
LINE
  5
F01
100
AcDbEntity
  8
0
  6
BYBLOCK
 62
     0
100
AcDbLine
 10
8.099934
 20
15.911562
 30
0.0
 11
8.099934
 21
15.776562
 31
0.0
  0
LINE
  5
F02
100
AcDbEntity
  8
0
  6
BYBLOCK
 62
     0
100
AcDbLine
 10
8.099934
 20
16.460148
 30
0.0
 11
8.099934
 21
16.595148
 31
0.0
  0
LINE
  5
F03
100
AcDbEntity
  8
0
  6
BYBLOCK
 62
     0
100
AcDbLine
 10
8.099934
 20
16.595148
 30
0.0
 11
8.234934
 21
16.595148
 31
0.0
  0
SOLID
  5
F04
100
AcDbEntity
  8
0
  6
BYBLOCK
 62
     0
100
AcDbTrace
 10
8.077434
 20
15.911562
 30
0.0
 11
8.122434
 21
15.911562
 31
0.0
 12
8.099934
 22
16.046562
 32
0.0
 13
8.099934
 23
16.046562
 33
0.0
  0
SOLID
  5
F05
100
AcDbEntity
  8
0
  6
BYBLOCK
 62
     0
100
AcDbTrace
 10
8.077434
 20
16.460148
 30
0.0
 11
8.122434
 21
16.460148
 31
0.0
 12
8.099934
 22
16.325148
 32
0.0
 13
8.099934
 23
16.325148
 33
0.0
  0
MTEXT
  5
F06
100
AcDbEntity
  8
0
  6
BYBLOCK
 62
     0
100
AcDbMText
 10
9.044934
 20
16.595148
 30
0.0
 40
0.135
 41
0.0
 71
     5
 72
     1
  1
\A1;0.279"[7.08mm]
  0
POINT
  5
F07
100
AcDbEntity
  8
DEFPOINTS
  6
BYBLOCK
 62
     0
100
AcDbPoint
 10
14.359376
 20
16.046562
 30
0.0
  0
POINT
  5
F08
100
AcDbEntity
  8
DEFPOINTS
  6
BYBLOCK
 62
     0
100
AcDbPoint
 10
14.233373
 20
16.325148
 30
0.0
  0
POINT
  5
F09
100
AcDbEntity
  8
DEFPOINTS
  6
BYBLOCK
 62
     0
100
AcDbPoint
 10
8.099934
 20
16.325148
 30
0.0
  0
ENDBLK
  5
F0A
100
AcDbEntity
  8
0
100
AcDbBlockEnd
  0
BLOCK
  5
F33
100
AcDbEntity
  8
0
100
AcDbBlockBegin
  2
*D48
 70
    65
 10
0.0
 20
0.0
 30
0.0
  3
*D48
  1
*TB
  0
LINE
  5
F34
100
AcDbEntity
  8
0
  6
BYBLOCK
 62
     0
100
AcDbLine
 10
14.313492
 20
15.780169
 30
0.0
 11
5.97781
 21
15.780169
 31
0.0
  0
LINE
  5
F35
100
AcDbEntity
  8
0
  6
BYBLOCK
 62
     0
100
AcDbLine
 10
14.186498
 20
16.325148
 30
0.0
 11
5.97781
 21
16.325148
 31
0.0
  0
LINE
  5
F36
100
AcDbEntity
  8
0
  6
BYBLOCK
 62
     0
100
AcDbLine
 10
6.11281
 20
15.645169
 30
0.0
 11
6.11281
 21
15.510169
 31
0.0
  0
LINE
  5
F37
100
AcDbEntity
  8
0
  6
BYBLOCK
 62
     0
100
AcDbLine
 10
6.11281
 20
16.460148
 30
0.0
 11
6.11281
 21
16.595148
 31
0.0
  0
LINE
  5
F38
100
AcDbEntity
  8
0
  6
BYBLOCK
 62
     0
100
AcDbLine
 10
6.11281
 20
16.595148
 30
0.0
 11
6.24781
 21
16.595148
 31
0.0
  0
SOLID
  5
F39
100
AcDbEntity
  8
0
  6
BYBLOCK
 62
     0
100
AcDbTrace
 10
6.09031
 20
15.645169
 30
0.0
 11
6.13531
 21
15.645169
 31
0.0
 12
6.11281
 22
15.780169
 32
0.0
 13
6.11281
 23
15.780169
 33
0.0
  0
SOLID
  5
F3A
100
AcDbEntity
  8
0
  6
BYBLOCK
 62
     0
100
AcDbTrace
 10
6.09031
 20
16.460148
 30
0.0
 11
6.13531
 21
16.460148
 31
0.0
 12
6.11281
 22
16.325148
 32
0.0
 13
6.11281
 23
16.325148
 33
0.0
  0
MTEXT
  5
F3B
100
AcDbEntity
  8
0
  6
BYBLOCK
 62
     0
100
AcDbMText
 10
7.11406
 20
16.595148
 30
0.0
 40
0.135
 41
0.0
 71
     5
 72
     1
  1
\A1;0.545"[13.84mm]
  0
POINT
  5
F3C
100
AcDbEntity
  8
DEFPOINTS
  6
BYBLOCK
 62
     0
100
AcDbPoint
 10
14.360367
 20
15.780169
 30
0.0
  0
POINT
  5
F3D
100
AcDbEntity
  8
DEFPOINTS
  6
BYBLOCK
 62
     0
100
AcDbPoint
 10
14.233373
 20
16.325148
 30
0.0
  0
POINT
  5
F3E
100
AcDbEntity
  8
DEFPOINTS
  6
BYBLOCK
 62
     0
100
AcDbPoint
 10
6.11281
 20
16.325148
 30
0.0
  0
ENDBLK
  5
F3F
100
AcDbEntity
  8
0
100
AcDbBlockEnd
  0
BLOCK
  5
F41
100
AcDbEntity
  8
0
100
AcDbBlockBegin
  2
*D49
 70
    65
 10
0.0
 20
0.0
 30
0.0
  3
*D49
  1
*TB
  0
LINE
  5
F42
100
AcDbEntity
  8
0
  6
BYBLOCK
 62
     0
100
AcDbLine
 10
14.313492
 20
14.362701
 30
0.0
 11
5.421091
 21
14.362701
 31
0.0
  0
LINE
  5
F43
100
AcDbEntity
  8
0
  6
BYBLOCK
 62
     0
100
AcDbLine
 10
14.186498
 20
16.325148
 30
0.0
 11
5.421091
 21
16.325148
 31
0.0
  0
LINE
  5
F44
100
AcDbEntity
  8
0
  6
BYBLOCK
 62
     0
100
AcDbLine
 10
5.556091
 20
14.497701
 30
0.0
 11
5.556091
 21
15.208924
 31
0.0
  0
LINE
  5
F45
100
AcDbEntity
  8
0
  6
BYBLOCK
 62
     0
100
AcDbLine
 10
5.556091
 20
16.190148
 30
0.0
 11
5.556091
 21
15.478924
 31
0.0
  0
SOLID
  5
F46
100
AcDbEntity
  8
0
  6
BYBLOCK
 62
     0
100
AcDbTrace
 10
5.533591
 20
14.497701
 30
0.0
 11
5.578591
 21
14.497701
 31
0.0
 12
5.556091
 22
14.362701
 32
0.0
 13
5.556091
 23
14.362701
 33
0.0
  0
SOLID
  5
F47
100
AcDbEntity
  8
0
  6
BYBLOCK
 62
     0
100
AcDbTrace
 10
5.533591
 20
16.190148
 30
0.0
 11
5.578591
 21
16.190148
 31
0.0
 12
5.556091
 22
16.325148
 32
0.0
 13
5.556091
 23
16.325148
 33
0.0
  0
MTEXT
  5
F48
100
AcDbEntity
  8
0
  6
BYBLOCK
 62
     0
100
AcDbMText
 10
5.556091
 20
15.343924
 30
0.0
 40
0.135
 41
0.0
 71
     5
 72
     1
  1
\A1;1.962"[49.85mm]
  0
POINT
  5
F49
100
AcDbEntity
  8
DEFPOINTS
  6
BYBLOCK
 62
     0
100
AcDbPoint
 10
14.360367
 20
14.362701
 30
0.0
  0
POINT
  5
F4A
100
AcDbEntity
  8
DEFPOINTS
  6
BYBLOCK
 62
     0
100
AcDbPoint
 10
14.233373
 20
16.325148
 30
0.0
  0
POINT
  5
F4B
100
AcDbEntity
  8
DEFPOINTS
  6
BYBLOCK
 62
     0
100
AcDbPoint
 10
5.556091
 20
16.325148
 30
0.0
  0
ENDBLK
  5
F4C
100
AcDbEntity
  8
0
100
AcDbBlockEnd
  0
BLOCK
  5
F7F
100
AcDbEntity
  8
0
100
AcDbBlockBegin
  2
*D50
 70
    65
 10
0.0
 20
0.0
 30
0.0
  3
*D50
  1
*TB
  0
LINE
  5
F80
100
AcDbEntity
  8
0
  6
BYBLOCK
 62
     0
100
AcDbLine
 10
14.312501
 20
14.096293
 30
0.0
 11
-0.005894
 21
14.096293
 31
0.0
  0
LINE
  5
F81
100
AcDbEntity
  8
0
  6
BYBLOCK
 62
     0
100
AcDbLine
 10
14.186498
 20
16.325148
 30
0.0
 11
-0.005894
 21
16.325148
 31
0.0
  0
LINE
  5
F82
100
AcDbEntity
  8
0
  6
BYBLOCK
 62
     0
100
AcDbLine
 10
0.129106
 20
14.231293
 30
0.0
 11
0.129106
 21
15.07572
 31
0.0
  0
LINE
  5
F83
100
AcDbEntity
  8
0
  6
BYBLOCK
 62
     0
100
AcDbLine
 10
0.129106
 20
16.190148
 30
0.0
 11
0.129106
 21
15.34572
 31
0.0
  0
SOLID
  5
F84
100
AcDbEntity
  8
0
  6
BYBLOCK
 62
     0
100
AcDbTrace
 10
0.106606
 20
14.231293
 30
0.0
 11
0.151606
 21
14.231293
 31
0.0
 12
0.129106
 22
14.096293
 32
0.0
 13
0.129106
 23
14.096293
 33
0.0
  0
SOLID
  5
F85
100
AcDbEntity
  8
0
  6
BYBLOCK
 62
     0
100
AcDbTrace
 10
0.106606
 20
16.190148
 30
0.0
 11
0.151606
 21
16.190148
 31
0.0
 12
0.129106
 22
16.325148
 32
0.0
 13
0.129106
 23
16.325148
 33
0.0
  0
MTEXT
  5
F86
100
AcDbEntity
  8
0
  6
BYBLOCK
 62
     0
100
AcDbMText
 10
0.129106
 20
15.21072
 30
0.0
 40
0.135
 41
0.0
 71
     5
 72
     1
  1
\A1;2.229"[56.61mm]
  0
POINT
  5
F87
100
AcDbEntity
  8
DEFPOINTS
  6
BYBLOCK
 62
     0
100
AcDbPoint
 10
14.359376
 20
14.096293
 30
0.0
  0
POINT
  5
F88
100
AcDbEntity
  8
DEFPOINTS
  6
BYBLOCK
 62
     0
100
AcDbPoint
 10
14.233373
 20
16.325148
 30
0.0
  0
POINT
  5
F89
100
AcDbEntity
  8
DEFPOINTS
  6
BYBLOCK
 62
     0
100
AcDbPoint
 10
0.129106
 20
16.325148
 30
0.0
  0
ENDBLK
  5
F8A
100
AcDbEntity
  8
0
100
AcDbBlockEnd
  0
BLOCK
  5
1014
100
AcDbEntity
  8
0
100
AcDbBlockBegin
  2
*D51
 70
    65
 10
0.0
 20
0.0
 30
0.0
  3
*D51
  1
*TB
  0
LINE
  5
1015
100
AcDbEntity
  8
0
  6
BYBLOCK
 62
     0
100
AcDbLine
 10
17.028366
 20
15.130085
 30
0.0
 11
21.850988
 21
15.130085
 31
0.0
  0
LINE
  5
1016
100
AcDbEntity
  8
0
  6
BYBLOCK
 62
     0
100
AcDbLine
 10
17.119528
 20
16.325148
 30
0.0
 11
21.850988
 21
16.325148
 31
0.0
  0
LINE
  5
1017
100
AcDbEntity
  8
0
  6
BYBLOCK
 62
     0
100
AcDbLine
 10
21.715988
 20
15.265085
 30
0.0
 11
21.715988
 21
15.592616
 31
0.0
  0
LINE
  5
1018
100
AcDbEntity
  8
0
  6
BYBLOCK
 62
     0
100
AcDbLine
 10
21.715988
 20
16.190148
 30
0.0
 11
21.715988
 21
15.862616
 31
0.0
  0
SOLID
  5
1019
100
AcDbEntity
  8
0
  6
BYBLOCK
 62
     0
100
AcDbTrace
 10
21.693488
 20
15.265085
 30
0.0
 11
21.738488
 21
15.265085
 31
0.0
 12
21.715988
 22
15.130085
 32
0.0
 13
21.715988
 23
15.130085
 33
0.0
  0
SOLID
  5
101A
100
AcDbEntity
  8
0
  6
BYBLOCK
 62
     0
100
AcDbTrace
 10
21.693488
 20
16.190148
 30
0.0
 11
21.738488
 21
16.190148
 31
0.0
 12
21.715988
 22
16.325148
 32
0.0
 13
21.715988
 23
16.325148
 33
0.0
  0
MTEXT
  5
101B
100
AcDbEntity
  8
0
  6
BYBLOCK
 62
     0
100
AcDbMText
 10
21.715988
 20
15.727616
 30
0.0
 40
0.135
 41
0.0
 71
     5
 72
     1
  1
\A1;1.195"±0.001"[30.35mm±0.03mm]
  0
POINT
  5
101C
100
AcDbEntity
  8
DEFPOINTS
  6
BYBLOCK
 62
     0
100
AcDbPoint
 10
16.981491
 20
15.130085
 30
0.0
  0
POINT
  5
101D
100
AcDbEntity
  8
DEFPOINTS
  6
BYBLOCK
 62
     0
100
AcDbPoint
 10
17.072653
 20
16.325148
 30
0.0
  0
POINT
  5
101E
100
AcDbEntity
  8
DEFPOINTS
  6
BYBLOCK
 62
     0
100
AcDbPoint
 10
21.715988
 20
16.325148
 30
0.0
  0
ENDBLK
  5
101F
100
AcDbEntity
  8
0
100
AcDbBlockEnd
  0
BLOCK
  5
1043
100
AcDbEntity
  8
0
100
AcDbBlockBegin
  2
*D52
 70
    65
 10
0.0
 20
0.0
 30
0.0
  3
*D52
  1
*TB
  0
LINE
  5
1044
100
AcDbEntity
  8
0
  6
BYBLOCK
 62
     0
100
AcDbLine
 10
16.444639
 20
13.96478
 30
0.0
 11
15.260834
 21
11.905369
 31
0.0
  0
LINE
  5
1045
100
AcDbEntity
  8
0
  6
BYBLOCK
 62
     0
100
AcDbLine
 10
15.260834
 20
11.905369
 30
0.0
 11
15.125834
 21
11.905369
 31
0.0
  0
SOLID
  5
1046
100
AcDbEntity
  8
0
  6
BYBLOCK
 62
     0
100
AcDbTrace
 10
16.425132
 20
13.975993
 30
0.0
 11
16.464145
 21
13.953567
 31
0.0
 12
16.511917
 22
14.081821
 32
0.0
 13
16.511917
 23
14.081821
 33
0.0
  0
MTEXT
  5
1047
100
AcDbEntity
  8
0
  6
BYBLOCK
 62
     0
100
AcDbMText
 10
13.854584
 20
11.905369
 30
0.0
 40
0.135
 41
0.0
 71
     5
 72
     1
  1
\A1;{SLOT, \U+22050.039"[\U+22051.00mm]}\P{2X}
  0
LINE
  5
1048
100
AcDbEntity
  8
0
  6
BYBLOCK
 62
     0
100
AcDbLine
 10
16.454235
 20
14.098901
 30
0.0
 11
16.589235
 21
14.098901
 31
0.0
  0
LINE
  5
1049
100
AcDbEntity
  8
0
  6
BYBLOCK
 62
     0
100
AcDbLine
 10
16.521735
 20
14.031401
 30
0.0
 11
16.521735
 21
14.166401
 31
0.0
  0
POINT
  5
104A
100
AcDbEntity
  8
DEFPOINTS
  6
BYBLOCK
 62
     0
100
AcDbPoint
 10
16.511917
 20
14.081821
 30
0.0
  0
POINT
  5
104B
100
AcDbEntity
  8
DEFPOINTS
  6
BYBLOCK
 62
     0
100
AcDbPoint
 10
16.531552
 20
14.11598
 30
0.0
  0
ENDBLK
  5
104C
100
AcDbEntity
  8
0
100
AcDbBlockEnd
  0
ENDSEC
  0
SECTION
  2
ENTITIES
  0
LINE
  5
9D
100
AcDbEntity
  8
FOOT
100
AcDbLine
 10
19.089321
 20
7.62192
 30
0.0
 11
19.089321
 21
7.54327
 31
0.0
1001
ACAD
1000
ASC_BOUNDS
1002
{
1070
    19
1005
CC6
1002
}
  0
LINE
  5
9E
100
AcDbEntity
  8
FOOT
100
AcDbLine
 10
19.089321
 20
7.54327
 30
0.0
 11
18.299413
 21
7.54327
 31
0.0
1001
ACAD
1000
ASC_BOUNDS
1002
{
1070
    19
1005
CC6
1002
}
  0
LINE
  5
9F
100
AcDbEntity
  8
FOOT
100
AcDbLine
 10
18.299413
 20
7.54327
 30
0.0
 11
18.085875
 21
7.666556
 31
0.0
1001
ACAD
1000
ASC_BOUNDS
1002
{
1070
    19
1005
CC6
1002
}
  0
LINE
  5
A0
100
AcDbEntity
  8
FOOT
100
AcDbLine
 10
18.085875
 20
7.666556
 30
0.0
 11
16.250041
 21
7.666556
 31
0.0
1001
ACAD
1000
ASC_BOUNDS
1002
{
1070
    19
1005
CC6
1002
}
  0
LINE
  5
A1
100
AcDbEntity
  8
FOOT
100
AcDbLine
 10
16.250041
 20
7.666556
 30
0.0
 11
16.250041
 21
8.15307
 31
0.0
1001
ACAD
1000
ASC_BOUNDS
1002
{
1070
    19
1005
CC6
1002
}
  0
LINE
  5
A3
100
AcDbEntity
  8
FOOT
100
AcDbLine
 10
16.312541
 20
8.21557
 30
0.0
 11
18.061091
 21
8.21557
 31
0.0
  0
LINE
  5
A4
100
AcDbEntity
  8
FOOT
100
AcDbLine
 10
18.061091
 20
8.21557
 30
0.0
 11
19.089321
 21
7.62192
 31
0.0
  0
LINE
  5
A5
100
AcDbEntity
  8
FOOT
100
AcDbLine
 10
18.093615
 20
7.696556
 30
0.0
 11
16.250041
 21
7.696556
 31
0.0
1001
ACAD
1000
ASC_BOUNDS
1002
{
1070
    19
1005
CC6
1002
}
  0
LINE
  5
A6
100
AcDbEntity
  8
FOOT
100
AcDbLine
 10
19.089321
 20
7.57327
 30
0.0
 11
18.307153
 21
7.57327
 31
0.0
1001
ACAD
1000
ASC_BOUNDS
1002
{
1070
    19
1005
CC6
1002
}
  0
LINE
  5
A7
100
AcDbEntity
  8
FOOT
100
AcDbLine
 10
18.307153
 20
7.57327
 30
0.0
 11
18.093615
 21
7.696556
 31
0.0
1001
ACAD
1000
ASC_BOUNDS
1002
{
1070
    19
1005
CC6
1002
}
  0
POLYLINE
  5
A8
100
AcDbEntity
  8
FOOT
100
AcDb2dPolyline
 66
     1
 10
0.0
 20
0.0
 30
0.0
 70
     1
  0
VERTEX
  5
A9
100
AcDbEntity
  8
FOOT
100
AcDbVertex
100
AcDb2dVertex
 10
16.250041
 20
13.935022
 30
0.0
  0
VERTEX
  5
AA
100
AcDbEntity
  8
FOOT
100
AcDbVertex
100
AcDb2dVertex
 10
16.250041
 20
16.325148
 30
0.0
  0
VERTEX
  5
AB
100
AcDbEntity
  8
FOOT
100
AcDbVertex
100
AcDb2dVertex
 10
19.089321
 20
16.325148
 30
0.0
  0
VERTEX
  5
AC
100
AcDbEntity
  8
FOOT
100
AcDbVertex
100
AcDb2dVertex
 10
19.089321
 20
13.935022
 30
0.0
  0
SEQEND
  5
AD
100
AcDbEntity
  8
FOOT
  0
LINE
  5
AF
100
AcDbEntity
  8
FOOT
100
AcDbLine
 10
16.250041
 20
16.295148
 30
0.0
 11
19.089321
 21
16.295148
 31
0.0
  0
LINE
  5
B0
100
AcDbEntity
  8
FOOT
100
AcDbLine
 10
16.250041
 20
13.965022
 30
0.0
 11
19.089321
 21
13.965022
 31
0.0
  0
LINE
  5
B1
100
AcDbEntity
  8
FOOT
100
AcDbLine
 10
18.061091
 20
13.935022
 30
0.0
 11
18.061091
 21
13.965022
 31
0.0
  0
LINE
  5
B2
100
AcDbEntity
  8
FOOT
100
AcDbLine
 10
18.061091
 20
16.295148
 30
0.0
 11
18.061091
 21
16.325148
 31
0.0
  0
LINE
  5
B3
100
AcDbEntity
  8
FOOT
100
AcDbLine
 10
18.093615
 20
13.965022
 30
0.0
 11
18.093615
 21
16.295148
 31
0.0
  0
LINE
  5
B4
100
AcDbEntity
  8
FOOT
100
AcDbLine
 10
18.307153
 20
13.965022
 30
0.0
 11
18.307153
 21
16.295148
 31
0.0
  0
DIMENSION
  5
177
100
AcDbEntity
  8
DIM
100
AcDbDimension
  2
*D2
 10
19.742367
 20
16.325148
 30
0.0
 11
20.732367
 21
16.595148
 31
0.0
 12
5.016668
 22
4.125
 32
0.0
 70
    32
  3
STANDARD
100
AcDbAlignedDimension
 13
19.089321
 23
16.295148
 33
0.0
 14
19.089321
 24
16.325148
 34
0.0
 50
90.0
100
AcDbRotatedDimension
1001
ACAD
1000
DSTYLE
1002
{
1070
    40
1040
0.75
1070
     3
1000
"
1070
     4
1000
mm
1070
   170
1070
     1
1002
}
  0
DIMENSION
  5
185
100
AcDbEntity
  8
DIM
100
AcDbDimension
  2
*D3
 10
26.881266
 20
16.325148
 30
0.0
 11
26.881266
 21
15.145085
 31
0.0
 12
2.016668
 22
0.0
 32
0.0
 70
    32
  3
STANDARD
100
AcDbAlignedDimension
 13
19.089321
 23
13.965022
 33
0.0
 14
19.089321
 24
16.325148
 34
0.0
 50
90.0
100
AcDbRotatedDimension
1001
ACAD
1000
DSTYLE
1002
{
1070
    40
1040
0.75
1070
     3
1000
"
1070
     4
1000
mm
1070
   170
1070
     1
1002
}
  0
DIMENSION
  5
193
100
AcDbEntity
  8
DIM
100
AcDbDimension
  2
*D4
 10
28.9127
 20
16.325148
 30
0.0
 11
28.9127
 21
15.130085
 31
0.0
 12
2.016668
 22
0.0
 32
0.0
 70
    32
  3
STANDARD
100
AcDbAlignedDimension
 13
19.089321
 23
13.935022
 33
0.0
 14
19.089321
 24
16.325148
 34
0.0
 50
90.0
100
AcDbRotatedDimension
1001
ACAD
1000
DSTYLE
1002
{
1070
    40
1040
0.75
1070
     3
1000
"
1070
     4
1000
mm
1070
   170
1070
     1
1002
}
  0
LINE
  5
216
100
AcDbEntity
  8
CENTER
100
AcDbLine
 10
16.312541
 20
8.122043
 30
0.0
 11
16.312541
 21
8.2683
 31
0.0
  0
LINE
  5
217
100
AcDbEntity
  8
CENTER
100
AcDbLine
 10
16.345794
 20
8.15307
 30
0.0
 11
16.202741
 21
8.15307
 31
0.0
  0
SOLID
  5
296
100
AcDbEntity
  8
TEXT
  6
CONTINUOUS
100
AcDbTrace
 10
19.402965
 20
16.535845
 30
0.0
 11
19.447965
 21
16.535845
 31
0.0
 12
19.425465
 22
16.670845
 32
0.0
 13
19.425465
 23
16.670845
 33
0.0
  0
LINE
  5
297
100
AcDbEntity
  8
TEXT
  6
CONTINUOUS
100
AcDbLine
 10
19.425465
 20
16.535845
 30
0.0
 11
19.425465
 21
15.475357
 31
0.0
  0
LINE
  5
298
100
AcDbEntity
  8
TEXT
  6
CONTINUOUS
100
AcDbLine
 10
19.425465
 20
15.475357
 30
0.0
 11
19.174191
 21
15.475357
 31
0.0
  0
SOLID
  5
299
100
AcDbEntity
  8
TEXT
  6
CONTINUOUS
100
AcDbTrace
 10
15.787856
 20
16.456846
 30
0.0
 11
15.832856
 21
16.456846
 31
0.0
 12
15.810356
 22
16.591846
 32
0.0
 13
15.810356
 23
16.591846
 33
0.0
  0
LINE
  5
29A
100
AcDbEntity
  8
TEXT
  6
CONTINUOUS
100
AcDbLine
 10
15.810356
 20
16.456846
 30
0.0
 11
15.810356
 21
15.475357
 31
0.0
  0
LINE
  5
29B
100
AcDbEntity
  8
TEXT
  6
CONTINUOUS
100
AcDbLine
 10
15.810356
 20
15.475357
 30
0.0
 11
16.155491
 21
15.475357
 31
0.0
  0
TEXT
  5
29C
100
AcDbEntity
  8
TEXT
100
AcDbText
 10
15.721194
 20
16.689077
 30
0.0
 40
0.3
  1
A
100
AcDbText
  0
TEXT
  5
29D
100
AcDbEntity
  8
TEXT
100
AcDbText
 10
19.344409
 20
16.759973
 30
0.0
 40
0.3
  1
A
100
AcDbText
  0
TEXT
  5
29E
100
AcDbEntity
  8
TEXT
100
AcDbText
 10
17.614676
 20
4.994776
 30
0.0
 40
0.3
  1
A-A
100
AcDbText
  0
TEXT
  5
29F
100
AcDbEntity
  8
TEXT
100
AcDbText
 10
16.544734
 20
4.994776
 30
0.0
 40
0.135
  1
SECTION
100
AcDbText
  0
TEXT
  5
2A0
100
AcDbEntity
  8
TEXT
100
AcDbText
 10
28.50076
 20
1.483069
 30
0.0
 40
0.12
  1
LAYER 3 BACKWARD ENDPIECE
100
AcDbText
  0
TEXT
  5
2A1
100
AcDbEntity
  8
TEXT
100
AcDbText
 10
28.282192
 20
0.947428
 30
0.0
 40
0.12
  1
C:\B-FAC
100
AcDbText
  0
TEXT
  5
2A2
100
AcDbEntity
  8
TEXT
100
AcDbText
 10
30.037786
 20
0.982668
 30
0.0
 40
0.12
  1
L3-END06
100
AcDbText
  0
TEXT
  5
2A3
100
AcDbEntity
  8
TEXT
100
AcDbText
 10
28.261041
 20
0.679608
 30
0.0
 40
0.12
  1
1=1
100
AcDbText
  0
TEXT
  5
2A4
100
AcDbEntity
  8
TEXT
100
AcDbText
 10
26.371486
 20
1.349159
 30
0.0
 40
0.12
  1
S. KYRE
100
AcDbText
  0
TEXT
  5
2A5
100
AcDbEntity
  8
TEXT
100
AcDbText
 10
27.295111
 20
1.320967
 30
0.0
 40
0.06
  1
02-07-96
100
AcDbText
  0
DIMENSION
  5
2C8
100
AcDbEntity
  8
DIM
100
AcDbDimension
  2
*D5
 10
13.958064
 20
16.325148
 30
0.0
 11
14.869314
 21
16.595148
 31
0.0
 12
2.016668
 22
0.0
 32
0.0
 70
    32
  3
STANDARD
100
AcDbAlignedDimension
 13
16.219548
 23
16.004576
 33
0.0
 14
16.250041
 24
16.325148
 34
0.0
 50
90.0
100
AcDbRotatedDimension
1001
ACAD
1000
DSTYLE
1002
{
1070
    40
1040
0.75
1070
     3
1000
"
1070
     4
1000
mm
1070
   170
1070
     1
1002
}
  0
DIMENSION
  5
2F4
100
AcDbEntity
  8
DIM
100
AcDbDimension
  2
*D6
 10
5.714972
 20
16.325148
 30
0.0
 11
5.714972
 21
15.324228
 31
0.0
 12
2.016668
 22
0.0
 32
0.0
 70
    32
  3
STANDARD
100
AcDbAlignedDimension
 13
16.219548
 23
14.323308
 33
0.0
 14
16.250041
 24
16.325148
 34
0.0
 50
90.0
100
AcDbRotatedDimension
1001
ACAD
1000
DSTYLE
1002
{
1070
    40
1040
0.75
1070
     3
1000
"
1070
     4
1000
mm
1070
   170
1070
     1
1002
}
  0
INSERT
  5
4F9
100
AcDbEntity
  8
TEXT
100
AcDbBlockReference
  2
D-BORDER
 10
0.0
 20
0.0
 30
0.0
  0
INSERT
  5
653
100
AcDbEntity
  8
FOOT
100
AcDbBlockReference
  2
*U9
 10
16.376044
 20
14.138293
 30
0.0
 50
90.0
1001
TB_S_MPD
1070
   100
1000
SLOT
1070
   101
1000
TOOLBOX 13.0 SLOT 2.0
1070
   103
1000
STD
1070
   306
1040
0.126
1070
   307
1040
0.03
1070
   112
1000
SLOT
1070
   102
1000
Near side
1070
   116
1000
T
1070
   308
1040
0.03
1070
   309
1040
0.063
1070
   310
1040
0.185
1070
   311
1040
90.0
  0
INSERT
  5
654
100
AcDbEntity
  8
FOOT
100
AcDbBlockReference
  2
*U9
 10
16.376044
 20
15.819562
 30
0.0
 50
90.0
1001
TB_S_MPD
1070
   100
1000
SLOT
1070
   101
1000
TOOLBOX 13.0 SLOT 2.0
1070
   103
1000
STD
1070
   306
1040
0.126
1070
   307
1040
0.03
1070
   112
1000
SLOT
1070
   102
1000
Near side
1070
   116
1000
T
1070
   308
1040
0.03
1070
   309
1040
0.063
1070
   310
1040
0.185
1070
   311
1040
90.0
  0
INSERT
  5
676
100
AcDbEntity
  8
FOOT
100
AcDbBlockReference
  2
*U10
 10
16.451375
 20
15.130085
 30
0.0
1001
TB_S_MPD
1070
   100
1000
HOLE
1070
   101
1000
TOOLBOX 13.0 HOLE 2.0
1070
   112
1000
3/32 (.0938) DIAMETER HOLE
1070
   102
1000
Near side
1070
   103
1000
ANSI-Fraction
1070
   104
1000
hole
1070
   105
1000
_usf
1070
   304
1040
0.0
1070
   305
1040
0.0
1070
   306
1040
0.09375
1070
   302
1040
0.0
1070
   303
1040
0.0
1070
   307
1040
0.03
1070
   300
1040
0.125
1070
   110
1000
1
1070
   111
1000
3/32
1070
   116
1000
T
1070
   308
1040
0.03
  0
INSERT
  5
677
100
AcDbEntity
  8
FOOT
100
AcDbBlockReference
  2
*U10
 10
18.826284
 20
15.130085
 30
0.0
1001
TB_S_MPD
1070
   100
1000
HOLE
1070
   101
1000
TOOLBOX 13.0 HOLE 2.0
1070
   112
1000
3/32 (.0938) DIAMETER HOLE
1070
   102
1000
Near side
1070
   103
1000
ANSI-Fraction
1070
   104
1000
hole
1070
   105
1000
_usf
1070
   304
1040
0.0
1070
   305
1040
0.0
1070
   306
1040
0.09375
1070
   302
1040
0.0
1070
   303
1040
0.0
1070
   307
1040
0.03
1070
   300
1040
0.125
1070
   110
1000
1
1070
   111
1000
3/32
1070
   116
1000
T
1070
   308
1040
0.03
  0
INSERT
  5
682
100
AcDbEntity
  8
FOOT
100
AcDbBlockReference
  2
*U11
 10
17.888844
 20
15.130085
 30
0.0
1001
TB_S_MPD
1070
   100
1000
HOLE
1070
   101
1000
TOOLBOX 13.0 HOLE 2.0
1070
   112
1000
#32 (.116) DIAMETER HOLE
1070
   102
1000
Near side
1070
   103
1000
ANSI-Number
1070
   104
1000
hole
1070
   105
1000
_usn
1070
   304
1040
0.0
1070
   305
1040
0.0
1070
   306
1040
0.116
1070
   302
1040
0.0
1070
   303
1040
0.0
1070
   307
1040
0.03
1070
   300
1040
0.125
1070
   110
1000
1
1070
   111
1000
#32
1070
   116
1000
T
1070
   308
1040
0.03
  0
LINE
  5
683
100
AcDbEntity
  8
CENTER
100
AcDbLine
 10
28.009931
 20
7.691419
 30
0.0
 11
5.869552
 21
7.691419
 31
0.0
1001
ACAD
1000
ASC_BOUNDS
1002
{
1070
    19
1002
}
  0
LINE
  5
684
100
AcDbEntity
  8
CENTER
100
AcDbLine
 10
18.70133
 20
2.344581
 30
0.0
 11
18.70133
 21
18.447318
 31
0.0
1001
ACAD
1000
ASC_BOUNDS
1002
{
1070
    19
1002
}
  0
POLYLINE
  5
686
100
AcDbEntity
  8
TEXT
 62
     1
100
AcDb2dPolyline
 66
     1
 10
0.0
 20
0.0
 30
0.0
 70
     1
  0
VERTEX
  5
687
100
AcDbEntity
  8
TEXT
 62
     1
100
AcDbVertex
100
AcDb2dVertex
 10
18.38883
 20
18.607682
 30
0.0
  0
VERTEX
  5
688
100
AcDbEntity
  8
TEXT
 62
     1
100
AcDbVertex
100
AcDb2dVertex
 10
18.38883
 20
19.232682
 30
0.0
  0
VERTEX
  5
689
100
AcDbEntity
  8
TEXT
 62
     1
100
AcDbVertex
100
AcDb2dVertex
 10
19.01383
 20
19.232682
 30
0.0
  0
VERTEX
  5
68A
100
AcDbEntity
  8
TEXT
 62
     1
100
AcDbVertex
100
AcDb2dVertex
 10
19.01383
 20
18.607682
 30
0.0
  0
SEQEND
  5
68B
100
AcDbEntity
  8
TEXT
 62
     1
  0
TEXT
  5
68C
100
AcDbEntity
  8
TEXT
 62
     1
100
AcDbText
 10
18.586479
 20
18.732682
 30
0.0
 40
0.375
  1
0
100
AcDbText
  0
TEXT
  5
68D
100
AcDbEntity
  8
TEXT
 62
     1
100
AcDbText
 10
28.422902
 20
7.503919
 30
0.0
 40
0.375
  1
0
100
AcDbText
  0
POLYLINE
  5
68E
100
AcDbEntity
  8
TEXT
 62
     1
100
AcDb2dPolyline
 66
     1
 10
0.0
 20
0.0
 30
0.0
 70
     1
  0
VERTEX
  5
68F
100
AcDbEntity
  8
TEXT
 62
     1
100
AcDbVertex
100
AcDb2dVertex
 10
28.225253
 20
7.378919
 30
0.0
  0
VERTEX
  5
690
100
AcDbEntity
  8
TEXT
 62
     1
100
AcDbVertex
100
AcDb2dVertex
 10
28.225253
 20
8.003919
 30
0.0
  0
VERTEX
  5
691
100
AcDbEntity
  8
TEXT
 62
     1
100
AcDbVertex
100
AcDb2dVertex
 10
28.850253
 20
8.003919
 30
0.0
  0
VERTEX
  5
692
100
AcDbEntity
  8
TEXT
 62
     1
100
AcDbVertex
100
AcDb2dVertex
 10
28.850253
 20
7.378919
 30
0.0
  0
SEQEND
  5
693
100
AcDbEntity
  8
TEXT
 62
     1
  0
DIMENSION
  5
6CB
100
AcDbEntity
  8
DIM
100
AcDbDimension
  2
*D12
 10
18.70133
 20
5.578153
 30
0.0
 11
17.475685
 21
5.578153
 31
0.0
 12
2.016668
 22
0.0
 32
0.0
 70
    32
  3
STANDARD
100
AcDbAlignedDimension
 13
16.250041
 23
7.666556
 33
0.0
 14
18.70133
 24
2.344581
 34
0.0
100
AcDbRotatedDimension
1001
ACAD
1000
DSTYLE
1002
{
1070
    76
1070
     1
1070
    40
1040
0.75
1070
     3
1000
"
1070
     4
1000
mm
1070
   170
1070
     1
1002
}
  0
DIMENSION
  5
781
100
AcDbEntity
  8
DIM
100
AcDbDimension
  2
*D13
 10
18.826284
 20
13.565773
 30
0.0
 11
20.626284
 21
13.565773
 31
0.0
 12
2.016668
 22
0.0
 32
0.0
 70
    32
  3
STANDARD
100
AcDbAlignedDimension
 13
18.70133
 23
18.447318
 33
0.0
 14
18.826284
 24
14.95821
 34
0.0
100
AcDbRotatedDimension
1001
ACAD
1000
DSTYLE
1002
{
1070
    47
1040
0.001
1070
    71
1070
     1
1070
    48
1040
0.001
1070
   272
1070
     3
1070
    75
1070
     1
1070
    40
1040
0.75
1070
     3
1000
"
1070
     4
1000
mm
1070
   170
1070
     1
1002
}
  0
DIMENSION
  5
78E
100
AcDbEntity
  8
DIM
100
AcDbDimension
  2
*D14
 10
18.70133
 20
11.755351
 30
0.0
 11
20.59133
 21
11.755351
 31
0.0
 12
2.016668
 22
0.0
 32
0.0
 70
    32
  3
STANDARD
100
AcDbAlignedDimension
 13
16.451375
 23
14.95821
 33
0.0
 14
18.70133
 24
18.447318
 34
0.0
100
AcDbRotatedDimension
1001
ACAD
1000
DSTYLE
1002
{
1070
    47
1040
0.001
1070
    71
1070
     1
1070
    48
1040
0.001
1070
   272
1070
     3
1070
    76
1070
     1
1070
    40
1040
0.75
1070
     3
1000
"
1070
     4
1000
mm
1070
   170
1070
     1
1002
}
  0
DIMENSION
  5
79B
100
AcDbEntity
  8
DIM
100
AcDbDimension
  2
*D15
 10
18.70133
 20
12.733653
 30
0.0
 11
19.82633
 21
12.733653
 31
0.0
 12
2.016668
 22
0.0
 32
0.0
 70
    32
  3
STANDARD
100
AcDbAlignedDimension
 13
17.888844
 23
14.947085
 33
0.0
 14
18.70133
 24
18.447318
 34
0.0
100
AcDbRotatedDimension
1001
ACAD
1000
DSTYLE
1002
{
1070
    47
1040
0.001
1070
    48
1040
0.001
1070
    76
1070
     1
1070
    40
1040
0.75
1070
     3
1000
"
1070
     4
1000
mm
1070
   170
1070
     1
1002
}
  0
DIMENSION
  5
7B5
100
AcDbEntity
  8
DIM
100
AcDbDimension
  2
*D17
 10
18.70133
 20
11.306963
 30
0.0
 11
17.538687
 21
11.306963
 31
0.0
 12
2.016668
 22
0.0
 32
0.0
 70
    32
  3
STANDARD
100
AcDbAlignedDimension
 13
16.376044
 23
13.950293
 33
0.0
 14
18.70133
 24
18.447318
 34
0.0
100
AcDbRotatedDimension
1001
ACAD
1000
DSTYLE
1002
{
1070
    47
1040
0.001
1070
    48
1040
0.001
1070
    76
1070
     1
1070
    40
1040
0.75
1070
     3
1000
"
1070
     4
1000
mm
1070
   170
1070
     1
1002
}
  0
SOLID
  5
89E
100
AcDbEntity
  8
DIM
  6
CONTINUOUS
100
AcDbTrace
 10
17.844219
 20
15.319198
 30
0.0
 11
17.801914
 21
15.303861
 31
0.0
 12
17.869077
 22
15.184612
 32
0.0
 13
17.869077
 23
15.184612
 33
0.0
  0
LINE
  5
89F
100
AcDbEntity
  8
DIM
  6
CONTINUOUS
100
AcDbLine
 10
17.823067
 20
15.31153
 30
0.0
 11
17.104623
 21
17.523408
 31
0.0
  0
LINE
  5
8A0
100
AcDbEntity
  8
DIM
  6
CONTINUOUS
100
AcDbLine
 10
17.104623
 20
17.523408
 30
0.0
 11
16.969623
 21
17.523408
 31
0.0
  0
LINE
  5
8A1
100
AcDbEntity
  8
DIM
  6
CONTINUOUS
100
AcDbLine
 10
16.969623
 20
17.523408
 30
0.0
 11
16.902123
 21
17.523408
 31
0.0
  0
TEXT
  5
8A2
100
AcDbEntity
  8
DIM
100
AcDbText
 10
15.241892
 20
17.455908
 30
0.0
 40
0.135
  1
%%c0.116"[2.95mm]
100
AcDbText
  0
SOLID
  5
8A3
100
AcDbEntity
  8
DIM
  6
CONTINUOUS
100
AcDbTrace
 10
18.783117
 20
15.30819
 30
0.0
 11
18.741015
 21
15.292301
 31
0.0
 12
18.809733
 22
15.173941
 32
0.0
 13
18.809733
 23
15.173941
 33
0.0
  0
LINE
  5
8A4
100
AcDbEntity
  8
DIM
  6
CONTINUOUS
100
AcDbLine
 10
18.762066
 20
15.300245
 30
0.0
 11
17.60531
 21
18.392401
 31
0.0
  0
LINE
  5
8A5
100
AcDbEntity
  8
DIM
  6
CONTINUOUS
100
AcDbLine
 10
17.60531
 20
18.392401
 30
0.0
 11
17.47031
 21
18.392401
 31
0.0
  0
LINE
  5
8A6
100
AcDbEntity
  8
DIM
  6
CONTINUOUS
100
AcDbLine
 10
17.47031
 20
18.392401
 30
0.0
 11
17.40281
 21
18.392401
 31
0.0
  0
TEXT
  5
8A7
100
AcDbEntity
  8
DIM
100
AcDbText
 10
14.214168
 20
18.324901
 30
0.0
 40
0.135
  1
%%c0.095"%%p0.001"[2.41mm%%p0.03mm]
100
AcDbText
  0
TEXT
  5
8A8
100
AcDbEntity
  8
DIM
100
AcDbText
 10
14.214168
 20
18.102826
 30
0.0
 40
0.135
  1
2 HOLES
100
AcDbText
  0
LEADER
  5
8AB
100
AcDbEntity
  8
DIM
100
AcDbLeader
  3
STANDARD
 73
     0
 75
     1
 40
0.36
 41
2.205
 76
     3
 10
16.333088
 20
14.090084
 30
0.0
 10
15.46959
 20
12.626665
 30
0.0
 10
15.33459
 20
12.626665
 30
0.0
 77
   256
1001
ACAD
1000
DSTYLE
1002
{
1070
   288
1070
     1
1070
    47
1040
0.001
1070
    48
1040
0.001
1070
    40
1040
0.75
1070
     3
1000
"
1070
     4
1000
mm
1070
   170
1070
     1
1002
}
  0
MTEXT
  5
8AC
100
AcDbEntity
  8
DIM
100
AcDbMText
 10
15.26709
 20
12.626665
 30
0.0
 40
0.135
 41
0.0
 71
     6
 72
     1
  1
{SLOT, \U+22050.126"[3.2mm]}\P{2X}
  0
SOLID
  5
8AD
100
AcDbEntity
  8
DIM
  6
CONTINUOUS
100
AcDbTrace
 10
16.677792
 20
8.140957
 30
0.0
 11
16.638595
 21
8.118852
 31
0.0
 12
16.724508
 22
8.012314
 32
0.0
 13
16.724508
 23
8.012314
 33
0.0
  0
LINE
  5
8AE
100
AcDbEntity
  8
DIM
  6
CONTINUOUS
100
AcDbLine
 10
16.658194
 20
8.129904
 30
0.0
 11
15.754782
 21
9.731842
 31
0.0
  0
LINE
  5
8AF
100
AcDbEntity
  8
DIM
  6
CONTINUOUS
100
AcDbLine
 10
15.754782
 20
9.731842
 30
0.0
 11
15.619782
 21
9.731842
 31
0.0
  0
LINE
  5
8B0
100
AcDbEntity
  8
DIM
  6
CONTINUOUS
100
AcDbLine
 10
15.619782
 20
9.731842
 30
0.0
 11
15.552282
 21
9.731842
 31
0.0
  0
TEXT
  5
8B1
100
AcDbEntity
  8
DIM
100
AcDbText
 10
12.337141
 20
9.664342
 30
0.0
 40
0.135
  1
%%C0.095"%%P0.001"[2.41mm%%P0.03mm]
100
AcDbText
  0
TEXT
  5
8B2
100
AcDbEntity
  8
DIM
100
AcDbText
 10
14.509977
 20
9.442267
 30
0.0
 40
0.135
  1
4 HOLES
100
AcDbText
  0
LINE
  5
8EB
100
AcDbEntity
  8
TEXT
100
AcDbLine
 10
26.983049
 20
19.874896
 30
0.0
 11
26.983049
 21
18.5
 31
0.0
  0
LINE
  5
8EC
100
AcDbEntity
  8
TEXT
100
AcDbLine
 10
26.983049
 20
19.874896
 30
0.0
 11
26.983049
 21
18.5
 31
0.0
  0
LINE
  5
8ED
100
AcDbEntity
  8
TEXT
100
AcDbLine
 10
27.373302
 20
19.874896
 30
0.0
 11
27.373302
 21
18.5
 31
0.0
  0
LINE
  5
8EE
100
AcDbEntity
  8
TEXT
100
AcDbLine
 10
30.113302
 20
19.874896
 30
0.0
 11
30.113302
 21
18.5
 31
0.0
  0
LINE
  5
8EF
100
AcDbEntity
  8
TEXT
100
AcDbLine
 10
30.993302
 20
19.874896
 30
0.0
 11
30.993302
 21
18.5
 31
0.0
  0
TEXT
  5
8F0
100
AcDbEntity
  8
TEXT
100
AcDbText
 10
27.125
 20
19.6875
 30
0.0
 40
0.08
  1
01
100
AcDbText
  0
TEXT
  5
8F1
100
AcDbEntity
  8
TEXT
100
AcDbText
 10
27.125
 20
19.554167
 30
0.0
 40
0.08
  1
02
100
AcDbText
  0
TEXT
  5
8F2
100
AcDbEntity
  8
TEXT
100
AcDbText
 10
27.4375
 20
19.6875
 30
0.0
 40
0.08
  1
CHANGE WALL THICKNESS TO 0.030"
100
AcDbText
  0
TEXT
  5
8F3
100
AcDbEntity
  8
TEXT
100
AcDbText
 10
27.4375
 20
19.554167
 30
0.0
 40
0.08
  1
ADD LOCATING HOLES AND
100
AcDbText
  0
TEXT
  5
8F4
100
AcDbEntity
  8
TEXT
100
AcDbText
 10
27.4375
 20
19.420833
 30
0.0
 40
0.08
  1
LIGHTNING HOLES
100
AcDbText
  0
TEXT
  5
8F5
100
AcDbEntity
  8
TEXT
100
AcDbText
 10
30.25
 20
19.6875
 30
0.0
 40
0.08
  1
11-21-95
100
AcDbText
  0
TEXT
  5
8F6
100
AcDbEntity
  8
TEXT
100
AcDbText
 10
30.25
 20
19.554167
 30
0.0
 40
0.08
  1
02-07-96
100
AcDbText
  0
LINE
  5
91A
100
AcDbEntity
  8
FOOT
100
AcDbLine
 10
19.01378
 20
15.290102
 30
0.0
 11
19.01378
 21
15.532573
 31
0.0
  0
LINE
  5
91B
100
AcDbEntity
  8
FOOT
100
AcDbLine
 10
18.957101
 20
15.550737
 30
0.0
 11
18.870504
 21
15.429501
 31
0.0
  0
LINE
  5
91C
100
AcDbEntity
  8
FOOT
100
AcDbLine
 10
18.938286
 20
15.674395
 30
0.0
 11
18.82046
 21
15.509438
 31
0.0
  0
ARC
  5
91E
100
AcDbEntity
  8
FOOT
100
AcDbCircle
 10
18.79503
 20
15.527602
 30
0.0
 40
0.03125
100
AcDbArc
 50
215.537678
 51
324.462322
  0
LINE
  5
91F
100
AcDbEntity
  8
FOOT
100
AcDbLine
 10
18.769601
 20
15.509438
 30
0.0
 11
18.651775
 21
15.674395
 31
0.0
  0
ARC
  5
921
100
AcDbEntity
  8
FOOT
100
AcDbCircle
 10
18.98253
 20
15.532573
 30
0.0
 40
0.03125
100
AcDbArc
 50
0.0
 51
144.462322
  0
ARC
  5
923
100
AcDbEntity
  8
FOOT
100
AcDbCircle
 10
18.694127
 20
15.411338
 30
0.0
 40
0.03125
100
AcDbArc
 50
324.462322
 51
35.537678
  0
ARC
  5
925
100
AcDbEntity
  8
FOOT
100
AcDbCircle
 10
18.98253
 20
15.290102
 30
0.0
 40
0.03125
100
AcDbArc
 50
215.537678
 51
0.0
  0
ARC
  5
926
100
AcDbEntity
  8
FOOT
100
AcDbCircle
 10
18.895934
 20
15.411338
 30
0.0
 40
0.03125
100
AcDbArc
 50
144.462322
 51
215.537678
  0
LINE
  5
927
100
AcDbEntity
  8
FOOT
100
AcDbLine
 10
18.870504
 20
15.393174
 30
0.0
 11
18.957101
 21
15.271938
 31
0.0
  0
LINE
  5
94A
100
AcDbEntity
  8
FOOT
100
AcDbLine
 10
18.769601
 20
15.875737
 30
0.0
 11
18.651775
 21
15.71078
 31
0.0
  0
ARC
  5
94B
100
AcDbEntity
  8
FOOT
100
AcDbCircle
 10
18.79503
 20
15.857573
 30
0.0
 40
0.03125
100
AcDbArc
 50
35.537678
 51
144.462322
  0
LINE
  5
94C
100
AcDbEntity
  8
FOOT
100
AcDbLine
 10
18.938286
 20
15.71078
 30
0.0
 11
18.82046
 21
15.875737
 31
0.0
  0
ARC
  5
94D
100
AcDbEntity
  8
FOOT
100
AcDbCircle
 10
18.677245
 20
15.692588
 30
0.0
 40
0.0313
100
AcDbArc
 50
144.462322
 51
215.537678
  0
ARC
  5
94E
100
AcDbEntity
  8
FOOT
100
AcDbCircle
 10
18.912816
 20
15.692588
 30
0.0
 40
0.0313
100
AcDbArc
 50
324.462322
 51
35.537678
  0
LINE
  5
954
100
AcDbEntity
  8
FOOT
100
AcDbLine
 10
18.870504
 20
15.992001
 30
0.0
 11
18.957101
 21
16.113237
 31
0.0
  0
LINE
  5
955
100
AcDbEntity
  8
FOOT
100
AcDbLine
 10
19.01378
 20
16.095073
 30
0.0
 11
19.01378
 21
15.852602
 31
0.0
  0
ARC
  5
956
100
AcDbEntity
  8
FOOT
100
AcDbCircle
 10
18.98253
 20
16.095073
 30
0.0
 40
0.03125
100
AcDbArc
 50
0.0
 51
144.462322
  0
ARC
  5
957
100
AcDbEntity
  8
FOOT
100
AcDbCircle
 10
18.98253
 20
15.852602
 30
0.0
 40
0.03125
100
AcDbArc
 50
215.537678
 51
0.0
  0
LINE
  5
958
100
AcDbEntity
  8
FOOT
100
AcDbLine
 10
18.957101
 20
15.834438
 30
0.0
 11
18.870504
 21
15.955674
 31
0.0
  0
ARC
  5
959
100
AcDbEntity
  8
FOOT
100
AcDbCircle
 10
18.895934
 20
15.973838
 30
0.0
 40
0.03125
100
AcDbArc
 50
144.462322
 51
215.537678
  0
ARC
  5
95A
100
AcDbEntity
  8
FOOT
100
AcDbCircle
 10
18.694127
 20
15.973838
 30
0.0
 40
0.03125
100
AcDbArc
 50
324.462322
 51
35.537678
  0
LINE
  5
95B
100
AcDbEntity
  8
FOOT
100
AcDbLine
 10
18.769601
 20
16.071938
 30
0.0
 11
18.674076
 21
16.205674
 31
0.0
  0
LINE
  5
95C
100
AcDbEntity
  8
FOOT
100
AcDbLine
 10
18.915985
 20
16.205674
 30
0.0
 11
18.82046
 21
16.071938
 31
0.0
  0
ARC
  5
95D
100
AcDbEntity
  8
FOOT
100
AcDbCircle
 10
18.699505
 20
16.223838
 30
0.0
 40
0.03125
100
AcDbArc
 50
90.0
 51
215.537678
  0
ARC
  5
95E
100
AcDbEntity
  8
FOOT
100
AcDbCircle
 10
18.890556
 20
16.223838
 30
0.0
 40
0.03125
100
AcDbArc
 50
324.462322
 51
90.0
  0
LINE
  5
95F
100
AcDbEntity
  8
FOOT
100
AcDbLine
 10
18.699505
 20
16.255088
 30
0.0
 11
18.890556
 21
16.255088
 31
0.0
  0
ARC
  5
960
100
AcDbEntity
  8
FOOT
100
AcDbCircle
 10
18.79503
 20
16.090102
 30
0.0
 40
0.03125
100
AcDbArc
 50
215.537678
 51
324.462322
  0
LINE
  5
961
100
AcDbEntity
  8
FOOT
100
AcDbLine
 10
18.957101
 20
14.709433
 30
0.0
 11
18.870504
 21
14.830669
 31
0.0
  0
LINE
  5
962
100
AcDbEntity
  8
FOOT
100
AcDbLine
 10
19.01378
 20
14.970068
 30
0.0
 11
19.01378
 21
14.727597
 31
0.0
  0
ARC
  5
967
100
AcDbEntity
  8
FOOT
100
AcDbCircle
 10
18.98253
 20
14.970068
 30
0.0
 40
0.03125
100
AcDbArc
 50
0.0
 51
144.462322
  0
LINE
  5
968
100
AcDbEntity
  8
FOOT
100
AcDbLine
 10
18.870504
 20
14.866996
 30
0.0
 11
18.957101
 21
14.988231
 31
0.0
  0
ARC
  5
969
100
AcDbEntity
  8
FOOT
100
AcDbCircle
 10
18.895934
 20
14.848832
 30
0.0
 40
0.03125
100
AcDbArc
 50
144.462322
 51
215.537678
  0
ARC
  5
96A
100
AcDbEntity
  8
FOOT
100
AcDbCircle
 10
18.694127
 20
14.848832
 30
0.0
 40
0.03125
100
AcDbArc
 50
324.462322
 51
35.537678
  0
LINE
  5
96D
100
AcDbEntity
  8
FOOT
100
AcDbLine
 10
18.769601
 20
14.384433
 30
0.0
 11
18.651775
 21
14.54939
 31
0.0
  0
LINE
  5
96E
100
AcDbEntity
  8
FOOT
100
AcDbLine
 10
18.769601
 20
14.750731
 30
0.0
 11
18.651775
 21
14.585775
 31
0.0
  0
ARC
  5
96F
100
AcDbEntity
  8
FOOT
100
AcDbCircle
 10
18.699505
 20
14.036332
 30
0.0
 40
0.03125
100
AcDbArc
 50
144.462322
 51
270.0
  0
ARC
  5
973
100
AcDbEntity
  8
FOOT
100
AcDbCircle
 10
18.677245
 20
14.567582
 30
0.0
 40
0.0313
100
AcDbArc
 50
144.462322
 51
215.537678
  0
LINE
  5
975
100
AcDbEntity
  8
FOOT
100
AcDbLine
 10
18.957101
 20
14.425731
 30
0.0
 11
18.870504
 21
14.304496
 31
0.0
  0
LINE
  5
976
100
AcDbEntity
  8
FOOT
100
AcDbLine
 10
19.01378
 20
14.165097
 30
0.0
 11
19.01378
 21
14.407568
 31
0.0
  0
ARC
  5
977
100
AcDbEntity
  8
FOOT
100
AcDbCircle
 10
18.98253
 20
14.407568
 30
0.0
 40
0.03125
100
AcDbArc
 50
0.0
 51
144.462322
  0
ARC
  5
978
100
AcDbEntity
  8
FOOT
100
AcDbCircle
 10
18.98253
 20
14.727597
 30
0.0
 40
0.03125
100
AcDbArc
 50
215.537678
 51
0.0
  0
ARC
  5
979
100
AcDbEntity
  8
FOOT
100
AcDbCircle
 10
18.912816
 20
14.567582
 30
0.0
 40
0.0313
100
AcDbArc
 50
324.462322
 51
35.537678
  0
LINE
  5
97A
100
AcDbEntity
  8
FOOT
100
AcDbLine
 10
18.938286
 20
14.54939
 30
0.0
 11
18.82046
 21
14.384433
 31
0.0
  0
ARC
  5
97B
100
AcDbEntity
  8
FOOT
100
AcDbCircle
 10
18.79503
 20
14.402597
 30
0.0
 40
0.03125
100
AcDbArc
 50
215.537678
 51
324.462322
  0
ARC
  5
97C
100
AcDbEntity
  8
FOOT
100
AcDbCircle
 10
18.79503
 20
14.732568
 30
0.0
 40
0.03125
100
AcDbArc
 50
35.537678
 51
144.462322
  0
LINE
  5
97D
100
AcDbEntity
  8
FOOT
100
AcDbLine
 10
18.938286
 20
14.585775
 30
0.0
 11
18.82046
 21
14.750731
 31
0.0
  0
ARC
  5
97E
100
AcDbEntity
  8
FOOT
100
AcDbCircle
 10
18.98253
 20
14.165097
 30
0.0
 40
0.03125
100
AcDbArc
 50
215.537678
 51
0.0
  0
LINE
  5
97F
100
AcDbEntity
  8
FOOT
100
AcDbLine
 10
18.870504
 20
14.268169
 30
0.0
 11
18.957101
 21
14.146933
 31
0.0
  0
ARC
  5
980
100
AcDbEntity
  8
FOOT
100
AcDbCircle
 10
18.79503
 20
14.170068
 30
0.0
 40
0.03125
100
AcDbArc
 50
35.537678
 51
144.462322
  0
LINE
  5
981
100
AcDbEntity
  8
FOOT
100
AcDbLine
 10
18.699505
 20
14.005082
 30
0.0
 11
18.890556
 21
14.005082
 31
0.0
  0
ARC
  5
982
100
AcDbEntity
  8
FOOT
100
AcDbCircle
 10
18.890556
 20
14.036332
 30
0.0
 40
0.03125
100
AcDbArc
 50
270.0
 51
35.537678
  0
LINE
  5
983
100
AcDbEntity
  8
FOOT
100
AcDbLine
 10
18.915985
 20
14.054496
 30
0.0
 11
18.82046
 21
14.188231
 31
0.0
  0
LINE
  5
984
100
AcDbEntity
  8
FOOT
100
AcDbLine
 10
18.769601
 20
14.188231
 30
0.0
 11
18.674076
 21
14.054496
 31
0.0
  0
ARC
  5
985
100
AcDbEntity
  8
FOOT
100
AcDbCircle
 10
18.694127
 20
14.286332
 30
0.0
 40
0.03125
100
AcDbArc
 50
324.462322
 51
35.537678
  0
ARC
  5
986
100
AcDbEntity
  8
FOOT
100
AcDbCircle
 10
18.895934
 20
14.286332
 30
0.0
 40
0.03125
100
AcDbArc
 50
144.462322
 51
215.537678
  0
LINE
  5
987
100
AcDbEntity
  8
CENTER
100
AcDbLine
 10
18.79503
 20
15.474321
 30
0.0
 11
18.79503
 21
15.909709
 31
0.0
  0
LINE
  5
988
100
AcDbEntity
  8
CENTER
100
AcDbLine
 10
18.959886
 20
15.692588
 30
0.0
 11
18.617337
 21
15.692588
 31
0.0
  0
LINE
  5
989
100
AcDbEntity
  8
CENTER
100
AcDbLine
 10
18.79503
 20
14.785848
 30
0.0
 11
18.79503
 21
14.350461
 31
0.0
  0
LINE
  5
98A
100
AcDbEntity
  8
CENTER
100
AcDbLine
 10
18.959886
 20
14.567582
 30
0.0
 11
18.617337
 21
14.567582
 31
0.0
  0
DIMENSION
  5
A3C
100
AcDbEntity
  8
DIM
100
AcDbDimension
  2
*D21
 10
18.79503
 20
13.160802
 30
0.0
 11
19.87503
 21
13.160802
 31
0.0
 12
2.016668
 22
0.0
 32
0.0
 70
    32
  3
STANDARD
100
AcDbAlignedDimension
 13
18.70133
 23
18.447318
 33
0.0
 14
18.79503
 24
14.413011
 34
0.0
100
AcDbRotatedDimension
1001
ACAD
1000
DSTYLE
1002
{
1070
    47
1040
0.001
1070
    48
1040
0.001
1070
    75
1070
     1
1070
    40
1040
0.75
1070
     3
1000
"
1070
     4
1000
mm
1070
   170
1070
     1
1002
}
  0
CIRCLE
  5
A3D
100
AcDbEntity
  8
DIM
100
AcDbCircle
 10
18.786316
 20
15.696918
 30
0.0
 40
0.587978
  0
LEADER
  5
A3E
100
AcDbEntity
  8
DIM
100
AcDbLeader
  3
STANDARD
 73
     0
 75
     1
 40
0.36
 41
2.925
 76
     3
 10
18.582324
 20
16.236512
 30
0.0
 10
17.709362
 20
19.042402
 30
0.0
 10
17.574362
 20
19.042402
 30
0.0
 77
   256
1001
ACAD
1000
DSTYLE
1002
{
1070
    47
1040
0.001
1070
    48
1040
0.001
1070
    75
1070
     1
1070
    40
1040
0.75
1070
     3
1000
"
1070
     4
1000
mm
1070
   170
1070
     1
1002
}
  0
MTEXT
  5
A3F
100
AcDbEntity
  8
DIM
100
AcDbMText
 10
17.506862
 20
19.042402
 30
0.0
 40
0.135
 41
0.0
 71
     6
 72
     1
  1
{FOR PATTERN OF CUT OUT}\P{SEE DRAWING L3-END04}
  0
ACAD_ZOMBIE_ENTITY
  5
B42
100
AcDbEntity
  8
FOOT
100
AcDbZombieEntity
 90
      498
 91
      515
 92
        8
310
0800000000000000
 93
       97
310
D2800000002029040000780280
330
B43
330
B44
330
B45
330
B46
330
B43
 94
        0
  0
INSERT
  5
B8C
100
AcDbEntity
  8
KEVLAR
100
AcDbBlockReference
  2
*U23
 10
18.70133
 20
7.691419
 30
0.0
1001
TB_S_MPD
1070
   100
1000
HOLE
1070
   101
1000
TOOLBOX 13.0 HOLE 2.0
1070
   112
1000
3/32 (.0938) DIAMETER HOLE
1070
   102
1000
Near side
1070
   103
1000
ANSI-Fraction
1070
   104
1000
hole
1070
   105
1000
_usf
1070
   304
1040
0.0
1070
   305
1040
0.0
1070
   306
1040
0.09375
1070
   302
1040
0.0
1070
   303
1040
0.0
1070
   307
1040
0.03
1070
   300
1040
0.125
1070
   110
1000
1
1070
   111
1000
3/32
1070
   116
1000
T
1070
   308
1040
0.03
  0
INSERT
  5
B8D
100
AcDbEntity
  8
KEVLAR
100
AcDbBlockReference
  2
*U23
 10
16.750048
 20
7.956074
 30
0.0
1001
TB_S_MPD
1070
   100
1000
HOLE
1070
   101
1000
TOOLBOX 13.0 HOLE 2.0
1070
   112
1000
3/32 (.0938) DIAMETER HOLE
1070
   102
1000
Near side
1070
   103
1000
ANSI-Fraction
1070
   104
1000
hole
1070
   105
1000
_usf
1070
   304
1040
0.0
1070
   305
1040
0.0
1070
   306
1040
0.09375
1070
   302
1040
0.0
1070
   303
1040
0.0
1070
   307
1040
0.03
1070
   300
1040
0.125
1070
   110
1000
1
1070
   111
1000
3/32
1070
   116
1000
T
1070
   308
1040
0.03
  0
DIMENSION
  5
BA6
100
AcDbEntity
  8
DIM
100
AcDbDimension
  2
*D24
 10
12.084927
 20
7.691419
 30
0.0
 11
11.106177
 21
7.421419
 31
0.0
 12
2.016668
 22
0.0
 32
0.0
 70
    32
  3
STANDARD
100
AcDbAlignedDimension
 13
16.328781
 23
8.21557
 33
0.0
 14
5.869552
 24
7.691419
 34
0.0
 50
90.0
100
AcDbRotatedDimension
1001
ACAD
1000
DSTYLE
1002
{
1070
    47
1040
0.001
1070
    48
1040
0.001
1070
   272
1070
     3
1070
    76
1070
     1
1070
    40
1040
0.75
1070
     3
1000
"
1070
     4
1000
mm
1070
   170
1070
     1
1002
}
  0
DIMENSION
  5
BB4
100
AcDbEntity
  8
DIM
100
AcDbDimension
  2
*D25
 10
10.045195
 20
7.691419
 30
0.0
 11
8.335195
 21
7.421419
 31
0.0
 12
2.016668
 22
0.0
 32
0.0
 70
    32
  3
STANDARD
100
AcDbAlignedDimension
 13
16.578173
 23
7.956074
 33
0.0
 14
5.869552
 24
7.691419
 34
0.0
 50
90.0
100
AcDbRotatedDimension
1001
ACAD
1000
DSTYLE
1002
{
1070
    47
1040
0.001
1070
    71
1070
     1
1070
    48
1040
0.001
1070
   272
1070
     3
1070
    76
1070
     1
1070
    40
1040
0.75
1070
     3
1000
"
1070
     4
1000
mm
1070
   170
1070
     1
1002
}
  0
DIMENSION
  5
BC2
100
AcDbEntity
  8
DIM
100
AcDbDimension
  2
*D26
 10
15.825187
 20
7.666556
 30
0.0
 11
13.975687
 21
7.396556
 31
0.0
 12
2.016668
 22
0.0
 32
0.0
 70
    32
  3
STANDARD
100
AcDbAlignedDimension
 13
5.869552
 23
7.691419
 33
0.0
 14
16.250041
 24
7.666556
 34
0.0
 50
90.0
100
AcDbRotatedDimension
1001
ACAD
1000
DSTYLE
1002
{
1070
    71
1070
     1
1070
    48
1040
0.002
1070
   272
1070
     3
1070
    75
1070
     1
1070
    40
1040
0.75
1070
     3
1000
"
1070
     4
1000
mm
1070
   170
1070
     1
1002
}
  0
DIMENSION
  5
C0C
100
AcDbEntity
  8
DIM
100
AcDbDimension
  2
*D27
 10
26.113626
 20
7.54327
 30
0.0
 11
25.179876
 21
7.27327
 31
0.0
 12
2.016668
 22
0.0
 32
0.0
 70
    32
  3
STANDARD
100
AcDbAlignedDimension
 13
28.009931
 23
7.691419
 33
0.0
 14
19.089321
 24
7.54327
 34
0.0
 50
90.0
100
AcDbRotatedDimension
1001
ACAD
1000
DSTYLE
1002
{
1070
    47
1040
0.001
1070
    48
1040
0.001
1070
   272
1070
     3
1070
    75
1070
     1
1070
    40
1040
0.75
1070
     3
1000
"
1070
     4
1000
mm
1070
   170
1070
     1
1002
}
  0
DIMENSION
  5
C1B
100
AcDbEntity
  8
DIM
100
AcDbDimension
  2
*D28
 10
22.247171
 20
7.54327
 30
0.0
 11
20.570921
 21
7.27327
 31
0.0
 12
2.016668
 22
0.0
 32
0.0
 70
    32
  1
{<>}\P{WALL THICKNESS}
  3
STANDARD
100
AcDbAlignedDimension
 13
19.089321
 23
7.57327
 33
0.0
 14
19.089321
 24
7.54327
 34
0.0
 50
90.0
100
AcDbRotatedDimension
1001
ACAD
1000
DSTYLE
1002
{
1070
    47
1040
0.001
1070
    71
1070
     1
1070
    48
1040
0.001
1070
   272
1070
     3
1070
    40
1040
0.75
1070
     3
1000
"
1070
     4
1000
mm
1070
   170
1070
     1
1002
}
  0
DIMENSION
  5
C42
100
AcDbEntity
  8
DIM
100
AcDbDimension
  2
*D29
 10
24.168371
 20
7.62192
 30
0.0
 11
23.245871
 21
7.35192
 31
0.0
 12
2.016668
 22
0.0
 32
0.0
 70
    32
  3
STANDARD
100
AcDbAlignedDimension
 13
28.009931
 23
7.691419
 33
0.0
 14
19.089321
 24
7.62192
 34
0.0
 50
90.0
100
AcDbRotatedDimension
1001
ACAD
1000
DSTYLE
1002
{
1070
    47
1040
0.001
1070
    48
1040
0.001
1070
   272
1070
     3
1070
    75
1070
     1
1070
    40
1040
0.75
1070
     3
1000
"
1070
     4
1000
mm
1070
   170
1070
     1
1002
}
  0
DIMENSION
  5
C4F
100
AcDbEntity
  8
DIM
100
AcDbDimension
  2
*D30
 10
19.089321
 20
8.652063
 30
0.0
 11
20.180571
 21
8.652063
 31
0.0
 12
2.016668
 22
0.0
 32
0.0
 70
    32
  3
STANDARD
100
AcDbAlignedDimension
 13
18.70133
 23
2.344581
 33
0.0
 14
19.089321
 24
7.62192
 34
0.0
100
AcDbRotatedDimension
1001
ACAD
1000
DSTYLE
1002
{
1070
    47
1040
0.001
1070
    48
1040
0.001
1070
   272
1070
     3
1070
    75
1070
     1
1070
    40
1040
0.75
1070
     3
1000
"
1070
     4
1000
mm
1070
   170
1070
     1
1002
}
  0
DIMENSION
  5
C5C
100
AcDbEntity
  8
DIM
100
AcDbDimension
  2
*D31
 10
18.70133
 20
9.129739
 30
0.0
 11
19.82633
 21
9.129739
 31
0.0
 12
2.016668
 22
0.0
 32
0.0
 70
    32
  3
STANDARD
100
AcDbAlignedDimension
 13
18.061091
 23
8.21557
 33
0.0
 14
18.70133
 24
2.344581
 34
0.0
100
AcDbRotatedDimension
1001
ACAD
1000
DSTYLE
1002
{
1070
    47
1040
0.001
1070
    48
1040
0.001
1070
   272
1070
     3
1070
    76
1070
     1
1070
    40
1040
0.75
1070
     3
1000
"
1070
     4
1000
mm
1070
   170
1070
     1
1002
}
  0
DIMENSION
  5
C69
100
AcDbEntity
  8
DIM
100
AcDbDimension
  2
*D32
 10
18.70133
 20
6.674485
 30
0.0
 11
19.79258
 21
6.674485
 31
0.0
 12
2.016668
 22
0.0
 32
0.0
 70
    32
  3
STANDARD
100
AcDbAlignedDimension
 13
18.299413
 23
7.54327
 33
0.0
 14
18.70133
 24
2.344581
 34
0.0
100
AcDbRotatedDimension
1001
ACAD
1000
DSTYLE
1002
{
1070
    47
1040
0.001
1070
    48
1040
0.001
1070
   272
1070
     3
1070
    76
1070
     1
1070
    40
1040
0.75
1070
     3
1000
"
1070
     4
1000
mm
1070
   170
1070
     1
1002
}
  0
DIMENSION
  5
C76
100
AcDbEntity
  8
DIM
100
AcDbDimension
  2
*D33
 10
18.70133
 20
6.22547
 30
0.0
 11
19.81508
 21
6.22547
 31
0.0
 12
2.016668
 22
0.0
 32
0.0
 70
    32
  3
STANDARD
100
AcDbAlignedDimension
 13
18.085875
 23
7.666556
 33
0.0
 14
18.70133
 24
2.344581
 34
0.0
100
AcDbRotatedDimension
1001
ACAD
1000
DSTYLE
1002
{
1070
    47
1040
0.001
1070
    48
1040
0.001
1070
   272
1070
     3
1070
    76
1070
     1
1070
    40
1040
0.75
1070
     3
1000
"
1070
     4
1000
mm
1070
   170
1070
     1
1002
}
  0
DIMENSION
  5
C83
100
AcDbEntity
  8
DIM
100
AcDbDimension
  2
*D34
 10
18.70133
 20
9.578754
 30
0.0
 11
20.58008
 21
9.578754
 31
0.0
 12
2.016668
 22
0.0
 32
0.0
 70
    32
  3
STANDARD
100
AcDbAlignedDimension
 13
16.750048
 23
8.127949
 33
0.0
 14
18.70133
 24
2.344581
 34
0.0
100
AcDbRotatedDimension
1001
ACAD
1000
DSTYLE
1002
{
1070
    47
1040
0.001
1070
    71
1070
     1
1070
    48
1040
0.001
1070
   272
1070
     3
1070
    76
1070
     1
1070
    40
1040
0.75
1070
     3
1000
"
1070
     4
1000
mm
1070
   170
1070
     1
1002
}
  0
INSERT
  5
CC6
100
AcDbEntity
  8
HATCH
100
AcDbBlockReference
  2
*X35
 10
2.016668
 20
0.0
 30
0.0
1001
ACAD
1000
HATCH
1002
{
1070
    19
1000
ANSI31
1040
0.5
1040
0.0
1000
ASC_BOUNDS
1070
     1
1070
     1
1070
     8
1005
A5
1005
A1
1005
A0
1005
9F
1005
9E
1005
9D
1005
A6
1005
A7
1000
ASC_SEEDPOINT
1011
18.005455
1021
7.680627
1031
0.0
1002
}
  0
TEXT
  5
CEC
100
AcDbEntity
  8
TEXT
100
AcDbText
 10
27.125
 20
19.246699
 30
0.0
 40
0.08
  1
03
100
AcDbText
  0
TEXT
  5
CED
100
AcDbEntity
  8
TEXT
100
AcDbText
 10
27.4375
 20
19.113366
 30
0.0
 40
0.08
  1
SILICON
100
AcDbText
  0
TEXT
  5
CEE
100
AcDbEntity
  8
TEXT
100
AcDbText
 10
27.4375
 20
19.246699
 30
0.0
 40
0.08
  1
RAISE FRONT END TO 3mm ABOVE
100
AcDbText
  0
TEXT
  5
CEF
100
AcDbEntity
  8
TEXT
100
AcDbText
 10
30.25
 20
19.246699
 30
0.0
 40
0.08
  1
12-30-96
100
AcDbText
  0
TEXT
  5
CF0
100
AcDbEntity
  8
TEXT
100
AcDbText
 10
27.4375
 20
18.978257
 30
0.0
 40
0.08
  1
MOVE LOCTING HOLES
100
AcDbText
  0
TEXT
  5
CF1
100
AcDbEntity
  8
TEXT
100
AcDbText
 10
27.4375
 20
18.844923
 30
0.0
 40
0.08
  1
CHANGE MATERIAL TO CARBON-FIBER
100
AcDbText
  0
MTEXT
  5
CFA
100
AcDbEntity
  8
TEXT
100
AcDbMText
 10
1.969551
 20
7.065745
 30
0.0
 40
0.18
 41
11.2136
 71
     1
 72
     1
  3
{MATERIAL: }\P{0.76mm [0.030"] thick carbon-fiber-epoxy-composite}\P\P{LAMINATE SCHEDULE:}\P{cloth:  - 1 layer Carbon-fiber (0.006" thick ea.)}\P{ xx oz/sq. yd. plain weave @ 90°}\P{ - 1 layer Carbon-fiber (0.001" thick ea.)}\P{ 0.4 oz/sq. yd. mat}\P
  3
{ - 1 layer Carbon-fiber (0.006" thick ea.)}\P{ xx oz/sq. yd. plain weave @ 45°}\P{ 1 layer Carbon-fiber (0.001" thick ea.)}\P{ 0.4 oz/sq. yd. mat}\P{ - 1 layer Carbon-fiber (0.006" thick ea.)}\P{ xx oz/sq. yd. plain weave @ 90°}\P{epoxy: heat resist
  1
ant laminating epoxy}\P{ Ciba-Geigy RP4005R/RP1500H}\P{cure: 24 hrs at room temp. @ 20psi}\P{ 2 hrs postcure at 66°C}\P\P{MACHINING:}\P{use fixture L3-END16}\P
  0
ARC
  5
D41
100
AcDbEntity
  8
FOOT
100
AcDbCircle
 10
18.475428
 20
14.567582
 30
0.0
 40
0.03125
100
AcDbArc
 50
324.462322
 51
35.537678
  0
ARC
  5
D42
100
AcDbEntity
  8
FOOT
100
AcDbCircle
 10
18.388831
 20
14.446347
 30
0.0
 40
0.03125
100
AcDbArc
 50
180.0
 51
324.462322
  0
ARC
  5
D43
100
AcDbEntity
  8
FOOT
100
AcDbCircle
 10
18.388831
 20
14.688818
 30
0.0
 40
0.03125
100
AcDbArc
 50
35.537678
 51
180.0
  0
LINE
  5
D44
100
AcDbEntity
  8
FOOT
100
AcDbLine
 10
18.357581
 20
14.446347
 30
0.0
 11
18.357581
 21
14.688818
 31
0.0
  0
LINE
  5
D45
100
AcDbEntity
  8
FOOT
100
AcDbLine
 10
18.500857
 20
14.549419
 30
0.0
 11
18.41426
 21
14.428183
 31
0.0
  0
LINE
  5
D46
100
AcDbEntity
  8
FOOT
100
AcDbLine
 10
18.41426
 20
14.706981
 30
0.0
 11
18.500857
 21
14.585746
 31
0.0
  0
LINE
  5
D47
100
AcDbEntity
  8
CENTER
100
AcDbLine
 10
18.741197
 20
14.286332
 30
0.0
 11
18.398648
 21
14.286332
 31
0.0
  0
LINE
  5
D48
100
AcDbEntity
  8
CENTER
100
AcDbLine
 10
18.576342
 20
14.504598
 30
0.0
 11
18.576342
 21
14.069211
 31
0.0
  0
LINE
  5
D49
100
AcDbEntity
  8
FOOT
100
AcDbLine
 10
18.719597
 20
14.304525
 30
0.0
 11
18.601771
 21
14.469481
 31
0.0
  0
ARC
  5
D4A
100
AcDbEntity
  8
FOOT
100
AcDbCircle
 10
18.576342
 20
14.451318
 30
0.0
 40
0.03125
100
AcDbArc
 50
35.537678
 51
144.462322
  0
ARC
  5
D4B
100
AcDbEntity
  8
FOOT
100
AcDbCircle
 10
18.576342
 20
14.121347
 30
0.0
 40
0.03125
100
AcDbArc
 50
215.537678
 51
324.462322
  0
LINE
  5
D4C
100
AcDbEntity
  8
FOOT
100
AcDbLine
 10
18.719597
 20
14.26814
 30
0.0
 11
18.601771
 21
14.103183
 31
0.0
  0
ARC
  5
D4D
100
AcDbEntity
  8
FOOT
100
AcDbCircle
 10
18.694127
 20
14.286332
 30
0.0
 40
0.0313
100
AcDbArc
 50
324.462322
 51
35.537678
  0
ARC
  5
D4E
100
AcDbEntity
  8
FOOT
100
AcDbCircle
 10
18.458557
 20
14.286332
 30
0.0
 40
0.0313
100
AcDbArc
 50
144.462322
 51
215.537678
  0
LINE
  5
D4F
100
AcDbEntity
  8
FOOT
100
AcDbLine
 10
18.550913
 20
14.469481
 30
0.0
 11
18.433087
 21
14.304525
 31
0.0
  0
LINE
  5
D50
100
AcDbEntity
  8
FOOT
100
AcDbLine
 10
18.550913
 20
14.103183
 30
0.0
 11
18.433087
 21
14.26814
 31
0.0
  0
LINE
  5
D52
100
AcDbEntity
  8
CENTER
100
AcDbLine
 10
18.741197
 20
14.848832
 30
0.0
 11
18.398648
 21
14.848832
 31
0.0
  0
LINE
  5
D53
100
AcDbEntity
  8
CENTER
100
AcDbLine
 10
18.576342
 20
15.067098
 30
0.0
 11
18.576342
 21
14.631711
 31
0.0
  0
LINE
  5
D54
100
AcDbEntity
  8
FOOT
100
AcDbLine
 10
18.719597
 20
14.867025
 30
0.0
 11
18.601771
 21
15.031981
 31
0.0
  0
ARC
  5
D55
100
AcDbEntity
  8
FOOT
100
AcDbCircle
 10
18.576342
 20
15.013818
 30
0.0
 40
0.03125
100
AcDbArc
 50
35.537678
 51
144.462322
  0
ARC
  5
D56
100
AcDbEntity
  8
FOOT
100
AcDbCircle
 10
18.576342
 20
14.683847
 30
0.0
 40
0.03125
100
AcDbArc
 50
215.537678
 51
324.462322
  0
LINE
  5
D57
100
AcDbEntity
  8
FOOT
100
AcDbLine
 10
18.719597
 20
14.83064
 30
0.0
 11
18.601771
 21
14.665683
 31
0.0
  0
ARC
  5
D58
100
AcDbEntity
  8
FOOT
100
AcDbCircle
 10
18.694127
 20
14.848832
 30
0.0
 40
0.0313
100
AcDbArc
 50
324.462322
 51
35.537678
  0
ARC
  5
D59
100
AcDbEntity
  8
FOOT
100
AcDbCircle
 10
18.458557
 20
14.848832
 30
0.0
 40
0.0313
100
AcDbArc
 50
144.462322
 51
215.537678
  0
LINE
  5
D5A
100
AcDbEntity
  8
FOOT
100
AcDbLine
 10
18.550913
 20
15.031981
 30
0.0
 11
18.433087
 21
14.867025
 31
0.0
  0
LINE
  5
D5B
100
AcDbEntity
  8
FOOT
100
AcDbLine
 10
18.550913
 20
14.665683
 30
0.0
 11
18.433087
 21
14.83064
 31
0.0
  0
LINE
  5
D5D
100
AcDbEntity
  8
CENTER
100
AcDbLine
 10
18.741197
 20
15.411338
 30
0.0
 11
18.398648
 21
15.411338
 31
0.0
  0
LINE
  5
D5E
100
AcDbEntity
  8
CENTER
100
AcDbLine
 10
18.576342
 20
15.629604
 30
0.0
 11
18.576342
 21
15.194217
 31
0.0
  0
LINE
  5
D5F
100
AcDbEntity
  8
FOOT
100
AcDbLine
 10
18.719597
 20
15.42953
 30
0.0
 11
18.601771
 21
15.594487
 31
0.0
  0
ARC
  5
D60
100
AcDbEntity
  8
FOOT
100
AcDbCircle
 10
18.576342
 20
15.576323
 30
0.0
 40
0.03125
100
AcDbArc
 50
35.537678
 51
144.462322
  0
ARC
  5
D61
100
AcDbEntity
  8
FOOT
100
AcDbCircle
 10
18.576342
 20
15.246352
 30
0.0
 40
0.03125
100
AcDbArc
 50
215.537678
 51
324.462322
  0
LINE
  5
D62
100
AcDbEntity
  8
FOOT
100
AcDbLine
 10
18.719597
 20
15.393145
 30
0.0
 11
18.601771
 21
15.228188
 31
0.0
  0
ARC
  5
D63
100
AcDbEntity
  8
FOOT
100
AcDbCircle
 10
18.694127
 20
15.411338
 30
0.0
 40
0.0313
100
AcDbArc
 50
324.462322
 51
35.537678
  0
ARC
  5
D64
100
AcDbEntity
  8
FOOT
100
AcDbCircle
 10
18.458557
 20
15.411338
 30
0.0
 40
0.0313
100
AcDbArc
 50
144.462322
 51
215.537678
  0
LINE
  5
D65
100
AcDbEntity
  8
FOOT
100
AcDbLine
 10
18.550913
 20
15.594487
 30
0.0
 11
18.433087
 21
15.42953
 31
0.0
  0
LINE
  5
D66
100
AcDbEntity
  8
FOOT
100
AcDbLine
 10
18.550913
 20
15.228188
 30
0.0
 11
18.433087
 21
15.393145
 31
0.0
  0
LINE
  5
D68
100
AcDbEntity
  8
CENTER
100
AcDbLine
 10
18.741197
 20
15.973838
 30
0.0
 11
18.398648
 21
15.973838
 31
0.0
  0
LINE
  5
D69
100
AcDbEntity
  8
CENTER
100
AcDbLine
 10
18.576342
 20
16.192104
 30
0.0
 11
18.576342
 21
15.756717
 31
0.0
  0
LINE
  5
D6A
100
AcDbEntity
  8
FOOT
100
AcDbLine
 10
18.719597
 20
15.99203
 30
0.0
 11
18.601771
 21
16.156987
 31
0.0
  0
ARC
  5
D6B
100
AcDbEntity
  8
FOOT
100
AcDbCircle
 10
18.576342
 20
16.138823
 30
0.0
 40
0.03125
100
AcDbArc
 50
35.537678
 51
144.462322
  0
ARC
  5
D6C
100
AcDbEntity
  8
FOOT
100
AcDbCircle
 10
18.576342
 20
15.808852
 30
0.0
 40
0.03125
100
AcDbArc
 50
215.537678
 51
324.462322
  0
LINE
  5
D6D
100
AcDbEntity
  8
FOOT
100
AcDbLine
 10
18.719597
 20
15.955645
 30
0.0
 11
18.601771
 21
15.790688
 31
0.0
  0
ARC
  5
D6E
100
AcDbEntity
  8
FOOT
100
AcDbCircle
 10
18.694127
 20
15.973838
 30
0.0
 40
0.0313
100
AcDbArc
 50
324.462322
 51
35.537678
  0
ARC
  5
D6F
100
AcDbEntity
  8
FOOT
100
AcDbCircle
 10
18.458557
 20
15.973838
 30
0.0
 40
0.0313
100
AcDbArc
 50
144.462322
 51
215.537678
  0
LINE
  5
D70
100
AcDbEntity
  8
FOOT
100
AcDbLine
 10
18.550913
 20
16.156987
 30
0.0
 11
18.433087
 21
15.99203
 31
0.0
  0
LINE
  5
D71
100
AcDbEntity
  8
FOOT
100
AcDbLine
 10
18.550913
 20
15.790688
 30
0.0
 11
18.433087
 21
15.955645
 31
0.0
  0
LINE
  5
D73
100
AcDbEntity
  8
FOOT
100
AcDbLine
 10
18.41426
 20
15.269484
 30
0.0
 11
18.500857
 21
15.148249
 31
0.0
  0
LINE
  5
D74
100
AcDbEntity
  8
FOOT
100
AcDbLine
 10
18.500857
 20
15.111921
 30
0.0
 11
18.41426
 21
14.990686
 31
0.0
  0
LINE
  5
D75
100
AcDbEntity
  8
FOOT
100
AcDbLine
 10
18.357581
 20
15.008849
 30
0.0
 11
18.357581
 21
15.25132
 31
0.0
  0
ARC
  5
D76
100
AcDbEntity
  8
FOOT
100
AcDbCircle
 10
18.388831
 20
15.25132
 30
0.0
 40
0.03125
100
AcDbArc
 50
35.537678
 51
180.0
  0
ARC
  5
D77
100
AcDbEntity
  8
FOOT
100
AcDbCircle
 10
18.388831
 20
15.008849
 30
0.0
 40
0.03125
100
AcDbArc
 50
180.0
 51
324.462322
  0
ARC
  5
D78
100
AcDbEntity
  8
FOOT
100
AcDbCircle
 10
18.475428
 20
15.130085
 30
0.0
 40
0.03125
100
AcDbArc
 50
324.462322
 51
35.537678
  0
LINE
  5
D79
100
AcDbEntity
  8
FOOT
100
AcDbLine
 10
18.41426
 20
15.831987
 30
0.0
 11
18.500857
 21
15.710751
 31
0.0
  0
LINE
  5
D7A
100
AcDbEntity
  8
FOOT
100
AcDbLine
 10
18.500857
 20
15.674424
 30
0.0
 11
18.41426
 21
15.553188
 31
0.0
  0
LINE
  5
D7B
100
AcDbEntity
  8
FOOT
100
AcDbLine
 10
18.357581
 20
15.571352
 30
0.0
 11
18.357581
 21
15.813823
 31
0.0
  0
ARC
  5
D7C
100
AcDbEntity
  8
FOOT
100
AcDbCircle
 10
18.388831
 20
15.813823
 30
0.0
 40
0.03125
100
AcDbArc
 50
35.537678
 51
180.0
  0
ARC
  5
D7D
100
AcDbEntity
  8
FOOT
100
AcDbCircle
 10
18.388831
 20
15.571352
 30
0.0
 40
0.03125
100
AcDbArc
 50
180.0
 51
324.462322
  0
ARC
  5
D7E
100
AcDbEntity
  8
FOOT
100
AcDbCircle
 10
18.475428
 20
15.692588
 30
0.0
 40
0.03125
100
AcDbArc
 50
324.462322
 51
35.537678
  0
DIMENSION
  5
D93
100
AcDbEntity
  8
DIM
100
AcDbDimension
  2
*D36
 10
21.739821
 20
16.325148
 30
0.0
 11
22.729821
 21
16.595148
 31
0.0
 12
2.016668
 22
0.0
 32
0.0
 70
    32
  3
STANDARD
100
AcDbAlignedDimension
 13
18.959886
 23
15.692588
 33
0.0
 14
19.089321
 24
16.325148
 34
0.0
 50
90.0
100
AcDbRotatedDimension
1001
ACAD
1000
DSTYLE
1002
{
1070
    47
1040
0.001
1070
    48
1040
0.001
1070
   272
1070
     3
1070
    40
1040
0.75
1070
     3
1000
"
1070
     4
1000
mm
1070
   170
1070
     1
1002
}
  0
DIMENSION
  5
DA1
100
AcDbEntity
  8
DIM
100
AcDbDimension
  2
*D37
 10
25.587921
 20
16.325148
 30
0.0
 11
25.587921
 21
15.446365
 31
0.0
 12
2.016668
 22
0.0
 32
0.0
 70
    32
  3
STANDARD
100
AcDbAlignedDimension
 13
18.959886
 23
14.567582
 33
0.0
 14
19.089321
 24
16.325148
 34
0.0
 50
90.0
100
AcDbRotatedDimension
1001
ACAD
1000
DSTYLE
1002
{
1070
    47
1040
0.001
1070
    48
1040
0.001
1070
   272
1070
     3
1070
    40
1040
0.75
1070
     3
1000
"
1070
     4
1000
mm
1070
   170
1070
     1
1002
}
  0
ARC
  5
DFD
100
AcDbEntity
  8
FOOT
100
AcDbCircle
 10
16.312541
 20
8.15307
 30
0.0
 40
0.0625
100
AcDbArc
 50
90.0
 51
180.0
  0
LEADER
  5
DFE
100
AcDbEntity
  8
DIM
100
AcDbLeader
  3
STANDARD
 73
     0
 75
     1
 40
0.135
 41
1.305
 76
     3
 10
16.257708
 20
8.18919
 30
0.0
 10
15.769794
 20
9.026206
 30
0.0
 10
15.634794
 20
9.026206
 30
0.0
 77
   256
1001
ACAD
1000
DSTYLE
1002
{
1070
    71
1070
     1
1070
    48
1040
0.002
1070
   272
1070
     3
1070
    75
1070
     1
1070
    40
1040
0.75
1070
     3
1000
"
1070
     4
1000
mm
1070
   170
1070
     1
1002
}
  0
MTEXT
  5
DFF
100
AcDbEntity
  8
DIM
100
AcDbMText
 10
15.567294
 20
9.026206
 30
0.0
 40
0.135
 41
0.0
 71
     6
 72
     1
  1
{R0.063"[1.59]}
  0
TEXT
  5
E00
100
AcDbEntity
  8
TEXT
100
AcDbText
 10
31.7353
 20
0.964455
 30
0.0
 40
0.12
  1
04
100
AcDbText
  0
INSERT
  5
E0B
100
AcDbEntity
  8
ASHADE
 62
     1
100
AcDbBlockReference
  2
AVE_RENDER
 10
0.0
 20
0.0
 30
0.0
1001
AVE_RENDER
1002
{
1070
     6
1000
Pref
1070
    30
1070
    20
1070
     1
1070
     0
1000

1070
    10
1070
     1
1070
    30
1040
1.0
1070
     1
1040
0.3
1040
0.7
1040
0.0
1040
10.0
1010
-1.0
1020
-1.0
1030
-1.0
1040
0.3
1070
    49
1070
     0
1070
     0
1010
1.0
1020
1.0
1030
1.0
1040
45.0
1070
     1
1070
     0
1000
WCS
1040
0.0
1002
}
  0
INSERT
  5
E0C
100
AcDbEntity
  8
ASHADE
 62
     3
100
AcDbBlockReference
  2
AVE_RENDER
 10
0.0
 20
0.0
 30
0.0
1001
AVE_RENDER
1002
{
1070
     0
1000
Full Opt
1070
     0
1070
     1
1070
     1
1070
     1
1070
     0
1070
     0
1070
     0
1070
     1
1070
     1
1040
0.0001
1040
0.0001
1002
}
  0
INSERT
  5
E0D
100
AcDbEntity
  8
ASHADE
 62
     4
100
AcDbBlockReference
  2
AVE_RENDER
 10
0.0
 20
0.0
 30
0.0
1001
AVE_RENDER
1002
{
1070
     0
1000
Quick Opt
1070
     0
1070
     1
1070
     1
1070
     1
1070
     0
1070
     0
1070
     1
1002
}
  0
INSERT
  5
E0E
100
AcDbEntity
  8
ASHADE
 62
     5
100
AcDbBlockReference
  2
AVE_RENDER
 10
0.0
 20
0.0
 30
0.0
1001
AVE_RENDER
1002
{
1070
     1
1000
Scanl Opt
1070
     2
1070
     0
1070
     2
1040
2.0
1040
4.0
1070
     0
1070
     1
1070
     0
1040
0.03
1002
}
  0
INSERT
  5
E0F
100
AcDbEntity
  8
ASHADE
 62
     6
100
AcDbBlockReference
  2
AVE_RENDER
 10
0.0
 20
0.0
 30
0.0
1001
AVE_RENDER
1002
{
1070
     2
1000
Raytr Opt
1070
     2
1070
     0
1070
     2
1040
2.0
1040
4.0
1070
     0
1070
     1
1070
     1
1040
0.03
1070
     3
1040
0.03
1002
}
  0
INSERT
  5
E10
100
AcDbEntity
  8
ASHADE
 62
     7
100
AcDbBlockReference
  2
AVE_RENDER
 10
0.0
 20
0.0
 30
0.0
1001
AVE_RENDER
1002
{
1070
     0
1000
RFile Opt
1070
     5
1070
   640
1070
   480
1070
 10000
1070
     3
1070
    32
1070
    24
1070
     0
1070
     0
1070
     0
1070
     1
1070
     0
1070
     0
1070
     0
1002
}
  0
INSERT
  5
E11
100
AcDbEntity
  8
ASHADE
 62
     8
100
AcDbBlockReference
  2
AVE_RENDER
 10
0.0
 20
0.0
 30
0.0
1001
AVE_RENDER
1002
{
1070
     0
1000
Fog Opt
1070
     0
1070
     0
1040
0.0
1040
1.0
1040
0.0
1040
1.0
1010
0.5
1020
0.5
1030
0.5
1002
}
  0
INSERT
  5
E12
100
AcDbEntity
  8
ASHADE
 62
     9
100
AcDbBlockReference
  2
AVE_RENDER
 10
0.0
 20
0.0
 30
0.0
1001
AVE_RENDER
1002
{
1070
     0
1000
BG Opt
1070
     0
1070
     1
1010
0.0
1020
0.0
1030
0.0
1010
1.0
1020
0.0
1030
0.0
1010
0.0
1020
1.0
1030
0.0
1010
0.0
1020
0.0
1030
1.0
1040
0.5
1040
0.33
1040
0.0
1000

1070
     1
1000

1070
     1
1070
     1
1040
1.0
1040
1.0
1040
0.0
1040
0.0
1070
     0
1002
}
  0
INSERT
  5
E19
100
AcDbEntity
  8
ASHADE
 62
     1
100
AcDbBlockReference
  2
AVE_GLOBAL
 10
0.0
 20
0.0
 30
0.0
1001
AVE_MATERIAL
1002
{
1000
*GLOBAL*
1000
1
1000
Global finish.
1002
{
1002
}
1002
{
1070
    63
1002
{
1002
{
1010
-1.0
1020
-1.0
1030
-1.0
1002
}
1040
0.1
1000

1040
0.0
1002
{
1002
}
1040
0.0
1002
{
1002
}
1040
0.0
1002
}
1002
{
1002
{
1010
-1.0
1020
-1.0
1030
-1.0
1002
}
1040
0.7
1000

1040
0.0
1002
{
1002
}
1040
0.0
1002
{
1002
}
1040
0.0
1002
}
1002
{
1002
{
1010
-1.0
1020
-1.0
1030
-1.0
1002
}
1040
0.2
1000

1040
0.0
1002
{
1002
}
1040
0.0
1002
{
1002
}
1040
0.0
1002
}
1002
{
1070
     0
1002
{
1070
     1
1002
{
1040
1.0
1040
1.0
1000

1040
0.0
1002
{
1002
}
1040
0.0
1002
{
1002
}
1040
0.0
1002
}
1002
}
1040
1.0
1040
0.0
1040
0.0
1002
}
1002
{
1040
1.0
1040
1.0
1000

1040
0.0
1002
{
1002
}
1040
0.0
1002
{
1002
}
1040
0.0
1002
}
1002
{
1040
0.5
1040
1.0
1000

1040
0.0
1002
{
1002
}
1040
0.0
1002
{
1002
}
1040
0.0
1002
}
1002
{
1070
     0
1040
0.0
1002
{
1002
}
1040
1.0
1002
{
1002
}
1040
0.0
1002
}
1002
{
1040
0.0
1002
{
1002
{
1010
0.0
1020
0.0
1030
0.0
1002
}
1040
1.0
1000

1040
0.0
1002
{
1002
}
1040
0.0
1002
{
1002
}
1040
0.0
1002
}
1002
}
1002
{
1002
{
1070
     1
1002
{
1040
0.0
1040
1.0
1000

1040
0.0
1002
{
1002
}
1040
0.0
1002
{
1002
}
1040
0.0
1002
}
1002
}
1040
0.0
1002
{
1002
}
1010
1.0
1020
0.0
1030
0.0
1010
0.0
1020
1.0
1030
0.0
1010
0.0
1020
0.0
1030
1.0
1070
     0
1002
}
1002
{
1002
{
1040
1.0
1040
1.0
1002
{
1070
     1
1002
{
1040
1.0
1040
1.0
1000

1040
0.0
1002
{
1002
}
1040
0.0
1002
{
1002
}
1040
0.0
1002
}
1002
}
1002
}
1070
     0
1040
0.0
1002
{
1002
}
1002
}
1002
{
1002
}
1002
}
1002
{
1071
        3
1070
     3
1070
     0
1002
{
1070
     2
1070
     0
1070
     0
1040
0.0
1002
}
1070
     0
1070
     2
1002
{
1002
}
1002
}
1002
{
1040
8030.0
1040
190.300003
1040
0.305
1040
228.0
1040
545.0
1040
14.0
1040
17.4
1040
0.456
1002
}
1002
}
  0
INSERT
  5
E7D
100
AcDbEntity
  8
FOOT
100
AcDbBlockReference
  2
*U43
 10
16.521735
 20
15.912069
 30
0.0
 50
90.0
1001
TB_S_MPD
1070
   100
1000
SLOT
1070
   101
1000
TOOLBOX 13.0 SLOT 2.0
1070
   103
1000
STD
1070
   306
1040
0.0394
1070
   307
1040
0.03
1070
   112
1000
SLOT
1070
   102
1000
Near side
1070
   116
1000
T
1070
   308
1040
0.03
1070
   309
1040
0.0197
1070
   310
1040
0.2638
1070
   311
1040
90.0
  0
INSERT
  5
E7E
100
AcDbEntity
  8
FOOT
100
AcDbBlockReference
  2
*U43
 10
16.521735
 20
14.230801
 30
0.0
 50
90.0
1001
TB_S_MPD
1070
   100
1000
SLOT
1070
   101
1000
TOOLBOX 13.0 SLOT 2.0
1070
   103
1000
STD
1070
   306
1040
0.0394
1070
   307
1040
0.03
1070
   112
1000
SLOT
1070
   102
1000
Near side
1070
   116
1000
T
1070
   308
1040
0.03
1070
   309
1040
0.0197
1070
   310
1040
0.2638
1070
   311
1040
90.0
  0
DIMENSION
  5
E8B
100
AcDbEntity
  8
DIM
100
AcDbDimension
  2
*D44
 10
18.70133
 20
12.256538
 30
0.0
 11
17.611532
 21
12.256538
 31
0.0
 12
2.016668
 22
0.0
 32
0.0
 70
    32
  3
STANDARD
100
AcDbAlignedDimension
 13
16.521735
 23
13.954201
 33
0.0
 14
18.70133
 24
18.447318
 34
0.0
100
AcDbRotatedDimension
1001
ACAD
1000
DSTYLE
1002
{
1070
    48
1040
0.002
1070
   272
1070
     3
1070
    76
1070
     1
1070
    40
1040
0.75
1070
     3
1000
"
1070
     4
1000
mm
1070
   170
1070
     1
1002
}
  0
DIMENSION
  5
EB2
100
AcDbEntity
  8
DIM
100
AcDbDimension
  2
*D45
 10
11.94863
 20
16.325148
 30
0.0
 11
12.93863
 21
16.595148
 31
0.0
 12
2.016668
 22
0.0
 32
0.0
 70
    32
  3
STANDARD
100
AcDbAlignedDimension
 13
16.188044
 23
15.819562
 33
0.0
 14
16.250041
 24
16.325148
 34
0.0
 50
90.0
100
AcDbRotatedDimension
1001
ACAD
1000
DSTYLE
1002
{
1070
    48
1040
0.002
1070
   272
1070
     3
1070
    40
1040
0.75
1070
     3
1000
"
1070
     4
1000
mm
1070
   170
1070
     1
1002
}
  0
DIMENSION
  5
EC0
100
AcDbEntity
  8
DIM
100
AcDbDimension
  2
*D46
 10
3.913777
 20
16.325148
 30
0.0
 11
3.913777
 21
15.23172
 31
0.0
 12
2.016668
 22
0.0
 32
0.0
 70
    32
  3
STANDARD
100
AcDbAlignedDimension
 13
16.188044
 23
14.138293
 33
0.0
 14
16.250041
 24
16.325148
 34
0.0
 50
90.0
100
AcDbRotatedDimension
1001
ACAD
1000
DSTYLE
1002
{
1070
    48
1040
0.002
1070
   272
1070
     3
1070
    40
1040
0.75
1070
     3
1000
"
1070
     4
1000
mm
1070
   170
1070
     1
1002
}
  0
DIMENSION
  5
F0B
100
AcDbEntity
  8
DIM
100
AcDbDimension
  2
*D47
 10
10.116602
 20
16.325148
 30
0.0
 11
11.061602
 21
16.595148
 31
0.0
 12
2.016668
 22
0.0
 32
0.0
 70
    32
  3
STANDARD
100
AcDbAlignedDimension
 13
16.376044
 23
16.046562
 33
0.0
 14
16.250041
 24
16.325148
 34
0.0
 50
90.0
100
AcDbRotatedDimension
1001
ACAD
1000
DSTYLE
1002
{
1070
    48
1040
0.002
1070
   272
1070
     3
1070
    40
1040
0.75
1070
     3
1000
"
1070
     4
1000
mm
1070
   170
1070
     1
1002
}
  0
DIMENSION
  5
F1A
100
AcDbEntity
  8
DIM
100
AcDbDimension
  2
*D48
 10
8.129478
 20
16.325148
 30
0.0
 11
9.130728
 21
16.595148
 31
0.0
 12
2.016668
 22
0.0
 32
0.0
 70
    32
  3
STANDARD
100
AcDbAlignedDimension
 13
16.377035
 23
15.780169
 33
0.0
 14
16.250041
 24
16.325148
 34
0.0
 50
90.0
100
AcDbRotatedDimension
1001
ACAD
1000
DSTYLE
1002
{
1070
    48
1040
0.002
1070
   272
1070
     3
1070
    40
1040
0.75
1070
     3
1000
"
1070
     4
1000
mm
1070
   170
1070
     1
1002
}
  0
DIMENSION
  5
F4D
100
AcDbEntity
  8
DIM
100
AcDbDimension
  2
*D49
 10
7.572759
 20
16.325148
 30
0.0
 11
7.572759
 21
15.343924
 31
0.0
 12
2.016668
 22
0.0
 32
0.0
 70
    32
  3
STANDARD
100
AcDbAlignedDimension
 13
16.377035
 23
14.362701
 33
0.0
 14
16.250041
 24
16.325148
 34
0.0
 50
90.0
100
AcDbRotatedDimension
1001
ACAD
1000
DSTYLE
1002
{
1070
    48
1040
0.002
1070
   272
1070
     3
1070
    40
1040
0.75
1070
     3
1000
"
1070
     4
1000
mm
1070
   170
1070
     1
1002
}
  0
DIMENSION
  5
F8B
100
AcDbEntity
  8
DIM
100
AcDbDimension
  2
*D50
 10
2.145774
 20
16.325148
 30
0.0
 11
2.145774
 21
15.21072
 31
0.0
 12
2.016668
 22
0.0
 32
0.0
 70
    32
  3
STANDARD
100
AcDbAlignedDimension
 13
16.376044
 23
14.096293
 33
0.0
 14
16.250041
 24
16.325148
 34
0.0
 50
90.0
100
AcDbRotatedDimension
1001
ACAD
1000
DSTYLE
1002
{
1070
    48
1040
0.002
1070
   272
1070
     3
1070
    40
1040
0.75
1070
     3
1000
"
1070
     4
1000
mm
1070
   170
1070
     1
1002
}
  0
DIMENSION
  5
F99
100
AcDbEntity
  8
DIM
100
AcDbDimension
  2
*D51
 10
23.732656
 20
16.325148
 30
0.0
 11
23.732656
 21
15.727616
 31
0.0
 12
2.016668
 22
0.0
 32
0.0
 70
    32
  3
STANDARD
100
AcDbAlignedDimension
 13
18.998159
 23
15.130085
 33
0.0
 14
19.089321
 24
16.325148
 34
0.0
 50
90.0
100
AcDbRotatedDimension
1001
ACAD
1000
DSTYLE
1002
{
1070
    47
1040
0.001
1070
    71
1070
     1
1070
    48
1040
0.001
1070
   272
1070
     3
1070
    40
1040
0.75
1070
     3
1000
"
1070
     4
1000
mm
1070
   170
1070
     1
1002
}
  0
TEXT
  5
1020
100
AcDbEntity
  8
TEXT
100
AcDbText
 10
27.125
 20
18.661555
 30
0.0
 40
0.08
  1
04
100
AcDbText
  0
TEXT
  5
1021
100
AcDbEntity
  8
TEXT
100
AcDbText
 10
27.4375
 20
18.661555
 30
0.0
 40
0.08
  1
CHANGE SLOT FOR GLUE INJECTION
100
AcDbText
  0
TEXT
  5
1022
100
AcDbEntity
  8
TEXT
100
AcDbText
 10
30.25
 20
18.661555
 30
0.0
 40
0.08
  1
01-29-97
100
AcDbText
  0
DIMENSION
  5
102E
100
AcDbEntity
  8
DIM
100
AcDbDimension
  2
*D52
 10
16.531552
 20
14.11598
 30
0.0
 11
13.854584
 21
11.905369
 31
0.0
 70
   163
  1
{SLOT, <>}\P{2X}
  3
STANDARD$3
100
AcDbDiametricDimension
 15
16.511917
 25
14.081821
 35
0.0
 40
0.0
1001
ACAD
1000
DSTYLE
1002
{
1070
   288
1070
     1
1070
    47
1040
0.001
1070
    48
1040
0.001
1070
   272
1070
     3
1070
    40
1040
0.75
1070
     3
1000
"
1070
     4
1000
mm
1070
   170
1070
     1
1002
}
  0
ENDSEC
  0
SECTION
  2
OBJECTS
  0
DICTIONARY
  5
C
100
AcDbDictionary
  3
ACAD_GROUP
350
D
  3
ACAD_MLINESTYLE
350
E
  3
ACASAPPOBJECT
350
B7E
  3
ACASGREF_MASTER
350
B32
  3
ACCELVIEW
350
CF2
  3
ACDMSYSVARMGR
350
B4E
  3
ACGREF_MASTER
350
B30
  3
ACME_COMMAND_HISTORY
350
B2E
  3
ACME_SCOPE_NAME
350
B2D
  3
AD_APPL
350
B41
  3
AD_DRAWMGR_NAME
350
B61
  3
AD_GREF_MODULE
350
B49
  3
AD_HOLENOTE_REPOSITORY
350
B48
  3
ADSYSVARMGR
350
B37
  3
AMI_MASTER
350
B31
  3
AUTOCAD_ASSEMBLIES_PROJECT
350
B6D
  3
DESIGNER_ASSEMBLIES_SYSVARS
350
B68
  0
DICTIONARY
  5
D
102
{ACAD_REACTORS
330
C
102
}
100
AcDbDictionary
  0
DICTIONARY
  5
E
102
{ACAD_REACTORS
330
C
102
}
100
AcDbDictionary
  3
STANDARD
350
13
  0
ACAD_ZOMBIE_OBJECT
  5
B7E
102
{ACAD_REACTORS
330
C
102
}
100
AcDbZombieObject
 90
      499
 91
      536
 93
        2
310
90
360
B7C
 94
        0
  0
ACAD_ZOMBIE_OBJECT
  5
B32
102
{ACAD_REACTORS
330
C
102
}
100
AcDbZombieObject
 90
      499
 91
      505
 93
       34
310
0100004040
 94
        0
  0
ACAD_ZOMBIE_OBJECT
  5
CF2
102
{ACAD_REACTORS
330
C
102
}
100
AcDbZombieObject
 90
      499
 91
      539
 93
       12
310
97C4
330
B42
330
B8C
330
B8D
330
BA6
330
BB4
330
BC2
330
C0C
330
C1B
330
C42
330
C4F
330
C5C
330
C69
330
C76
330
C83
330
CC6
330
B8D
330
B8C
330
217
330
216
330
A7
330
A6
330
A5
330
A4
330
A3
330
A1
330
A0
330
9F
330
9E
330
9D
330
CEC
330
CEE
330
CED
330
CEF
330
CF1
330
CF0
330
CFA
330
95A
330
923
330
96A
330
D46
330
D45
330
D44
330
D43
330
D42
330
D41
330
D50
330
D4F
330
D4E
330
D4D
330
D4C
330
D4B
330
D4A
330
D49
330
D48
330
D47
330
D5B
330
D5A
330
D59
330
D58
330
D57
330
D56
330
D55
330
D54
330
D53
330
D52
330
D66
330
D65
330
D64
330
D63
330
D62
330
D61
330
D60
330
D5F
330
D5E
330
D5D
330
D71
330
D70
330
D6F
330
D6E
330
D6D
330
D6C
330
D6B
330
D6A
330
D69
330
D68
330
96D
330
D78
330
D77
330
D76
330
D75
330
D74
330
D73
330
D7E
330
D7D
330
D7C
330
D7B
330
D7A
330
D79
330
D93
330
DA1
330
DFD
330
DFE
330
DFF
330
E00
330
E0B
330
E0C
330
E0D
330
E0E
330
E0F
330
E10
330
E11
330
E12
330
E19
330
E2B
330
E2C
330
E3B
330
E49
330
E2C
330
E51
330
E52
330
E53
330
E54
330
E55
330
E56
 94
        0
  0
ACAD_ZOMBIE_OBJECT
  5
B4E
102
{ACAD_REACTORS
330
C
102
}
100
AcDbZombieObject
 90
      499
 91
      510
 93
      176
310
4C5114810100000000000000000000000000000000004F
330
B4F
330
B50
330
B51
330
B52
330
B53
330
B54
330
B56
330
B57
330
B58
330
B59
330
B5A
330
B5B
330
B5C
330
B5D
330
B5E
330
B5F
330
B60
 94
        0
  0
ACAD_ZOMBIE_OBJECT
  5
B30
102
{ACAD_REACTORS
330
C
102
}
100
AcDbZombieObject
 90
      499
 91
      503
 93
      114
310
01000040C000000000000000000000
 94
        0
  0
ACAD_ZOMBIE_OBJECT
  5
B2E
102
{ACAD_REACTORS
330
C
102
}
100
AcDbZombieObject
 90
      499
 91
      501
 93
     2516
310
478050953415645415352313280509534156454153523132805064558504F5254805064558504F525480504554E444F80504554E444F8050653454C45435480504554E444F80504554E444F805044F50454E80508554E444546494E4580508554E444546494E458050A4D454E55554E4C4F4144805084D454E554C4F414480
310
50C41445F434F4E56455254523140805084E202D20554E444F014213880B4815539113C050C414D4C54595045434845434B40C05084E202D20554E444F014253880B481310565154805084E202D20554E444F01411693D3D360141111254D5201411693D3D36014191111151125520141949151149055E01415454D0559160
310
14254D055915054D48C4CA014191561413D4952014191561413D4952014115539113E014115539113E014115539113E014115539113E014113D41153AE
 94
        0
  0
ACAD_ZOMBIE_OBJECT
  5
B2D
102
{ACAD_REACTORS
330
C
102
}
100
AcDbZombieObject
 90
      499
 91
      500
 93
      456
310
01010040931000000000000000000000000000000000000000000000000000000000000000000000000000000000000000000000000009010000
360
B33
360
B34
360
B35
360
B36
360
B38
360
B39
360
B3A
360
B3B
360
B3C
360
B3D
360
B3E
360
B3F
360
B40
360
B43
360
B44
360
B45
360
B46
360
B47
360
B4A
360
B4B
360
B4C
360
B4D
360
B4F
360
B50
360
B51
360
B52
360
B53
360
B54
360
B56
360
B57
360
B58
360
B59
360
B5A
360
B5B
360
B5C
360
B5D
360
B5E
360
B5F
360
B60
360
B69
360
B6A
360
B6B
360
B6C
360
B71
360
B72
360
B73
360
B74
360
B75
360
B79
330
B42
 94
        0
  0
ACAD_ZOMBIE_OBJECT
  5
B41
102
{ACAD_REACTORS
330
C
102
}
100
AcDbZombieObject
 90
      499
 91
      514
 93
       42
310
000100004340
330
B33
 94
        0
  0
ACAD_ZOMBIE_OBJECT
  5
B61
102
{ACAD_REACTORS
330
C
102
}
100
AcDbZombieObject
 90
      499
 91
      526
 93
       42
310
000100004432
330
B4A
 94
        0
  0
ACAD_ZOMBIE_OBJECT
  5
B49
102
{ACAD_REACTORS
330
C
102
}
100
AcDbZombieObject
 90
      499
 91
      521
 93
      114
310
000000428000000000000000000009
 94
        0
  0
ACAD_ZOMBIE_OBJECT
  5
B48
102
{ACAD_REACTORS
330
C
102
}
100
AcDbZombieObject
 90
      499
 91
      520
 93
        8
310
0004
330
B47
 94
        0
  0
ACAD_ZOMBIE_OBJECT
  5
B37
102
{ACAD_REACTORS
330
C
102
}
100
AcDbZombieObject
 90
      499
 91
      510
 93
      104
310
9094410100000000000000000000
330
B38
330
B39
330
B3A
330
B3B
330
B3C
330
B3D
330
B3E
330
B3F
330
B40
 94
        0
  0
ACAD_ZOMBIE_OBJECT
  5
B31
102
{ACAD_REACTORS
330
C
102
}
100
AcDbZombieObject
 90
      499
 91
      504
 93
       34
310
0100004040
 94
        0
  0
ACAD_ZOMBIE_OBJECT
  5
B6D
102
{ACAD_REACTORS
330
C
102
}
100
AcDbZombieObject
 90
      499
 91
      527
 93
       58
310
0100004180000002
330
B73
330
B79
330
B74
 94
        0
  0
ACAD_ZOMBIE_OBJECT
  5
B68
102
{ACAD_REACTORS
330
C
102
}
100
AcDbZombieObject
 90
      499
 91
      510
 93
       64
310
90444101000000002E
330
B69
330
B6A
330
B6B
330
B6C
 94
        0
  0
MLINESTYLE
  5
13
102
{ACAD_REACTORS
330
E
102
}
100
AcDbMlineStyle
  2
STANDARD
 70
     0
  3

 62
     0
 51
90.0
 52
90.0
 71
     2
 49
0.5
 62
   256
  6
BYLAYER
 49
-0.5
 62
   256
  6
BYLAYER
  0
ACAD_ZOMBIE_OBJECT
  5
B7C
100
AcDbZombieObject
 90
      499
 91
      534
 93
      720
310
9064D2E312E313607014B7269BC41100000000000000E03F1EC52B91F85EA10FE1EC52B91F85EA10FD034153471EC52B91F85EA10FC000000FC83D797414650540C000000000000E03F3F2A7C749358940FC000000FC83D797414F
 94
        0
  0
ACAD_ZOMBIE_OBJECT
  5
B33
100
AcDbZombieObject
 90
      499
 91
      506
 93
      280
310
000000000000014119185D1940506462E312E3136014119185D1940506462E312E313600
330
B2D
330
B34
330
B35
330
B37
330
B42
 94
        0
  0
ACAD_ZOMBIE_OBJECT
  5
B34
100
AcDbZombieObject
 90
      499
 91
      507
 93
      120
310
00009024410100000092080002A6A600
330
B2D
330
B44
330
B43
330
0
 94
        0
  0
ACAD_ZOMBIE_OBJECT
  5
B35
100
AcDbZombieObject
 90
      499
 91
      508
 93
       46
310
000000009208
330
B2D
330
0
330
B36
 94
        0
  0
ACAD_ZOMBIE_OBJECT
  5
B36
100
AcDbZombieObject
 90
      499
 91
      509
 93
       22
310
0000A8
330
B2D
 94
        0
  0
ACAD_ZOMBIE_OBJECT
  5
B38
100
AcDbZombieObject
 90
      499
 91
      511
 93
      124
310
00000142905350D3D39114D414D69050
330
B2D
 94
        0
  0
ACAD_ZOMBIE_OBJECT
  5
B39
100
AcDbZombieObject
 90
      499
 91
      511
 93
      124
310
000001429053549553115353D1115010
330
B2D
 94
        0
  0
ACAD_ZOMBIE_OBJECT
  5
B3A
100
AcDbZombieObject
 90
      499
 91
      511
 93
      108
310
00000142105354D2D353D1115010
330
B2D
 94
        0
  0
ACAD_ZOMBIE_OBJECT
  5
B3B
100
AcDbZombieObject
 90
      499
 91
      511
 93
      140
310
000001435053511253511254D41353D11160
330
B2D
 94
        0
  0
ACAD_ZOMBIE_OBJECT
  5
B3C
100
AcDbZombieObject
 90
      499
 91
      512
 93
      180
310
00000142905354D2D05391D513D3000000000000010400
330
B2D
 94
        0
  0
ACAD_ZOMBIE_OBJECT
  5
B3D
100
AcDbZombieObject
 90
      499
 91
      513
 93
      164
310
00000142505354D2D4D516531140505434F4E542A0
330
B2D
 94
        0
  0
ACAD_ZOMBIE_OBJECT
  5
B3E
100
AcDbZombieObject
 90
      499
 91
      511
 93
      108
310
00000142105350D3511112535010
330
B2D
 94
        0
  0
ACAD_ZOMBIE_OBJECT
  5
B3F
100
AcDbZombieObject
 90
      499
 91
      513
 93
      116
310
000001425053541054919253114060
330
B2D
 94
        0
  0
ACAD_ZOMBIE_OBJECT
  5
B40
100
AcDbZombieObject
 90
      499
 91
      511
 93
      100
310
00000142105350D3D35414D5A0
330
B2D
 94
        0
  0
ACAD_ZOMBIE_OBJECT
  5
B43
100
AcDbZombieObject
 90
      499
 91
      516
 93
      164
310
000092090148200A00000440000FFFFFFFF0000000
330
B2D
330
B44
330
B34
330
B42
 94
        0
  0
ACAD_ZOMBIE_OBJECT
  5
B44
100
AcDbZombieObject
 90
      499
 91
      517
 93
       82
310
000040520802482A800000
330
B2D
330
B43
330
B34
330
B42
 94
        0
  0
ACAD_ZOMBIE_OBJECT
  5
B45
100
AcDbZombieObject
 90
      499
 91
      509
 93
       22
310
0000AA
330
B2D
 94
        0
  0
ACAD_ZOMBIE_OBJECT
  5
B46
100
AcDbZombieObject
 90
      499
 91
      518
 93
       38
310
000000920B
330
B2D
330
0
 94
        0
  0
ACAD_ZOMBIE_OBJECT
  5
B47
100
AcDbZombieObject
 90
      499
 91
      519
 93
     3196
310
0000419208050A544852555F4452494C4C0142D09312539117D1149253130050A544852555F43424F52450142D09312539117D0D093D4914050A544852555F4353494E4B0142D09312539117D0D4D25392D0648201459EC94958C8094950535112504815121493D551D20B9F4051C7B252563202525414D444941205820252
310
5414D44455020444545507D014F5EC94958C8094950535112504815121493D551D20B9F57141ED0D093D49148094958C80949505350D112504816080949505350D091115408111151541F405437B252563202525414D4449412058202525414D44455020444545507D5C507B43424F524520252563202525414D4344494120
310
58202525414D434244455020444545507D014EDEC94958C8094950535112504815121493D551D20B9F57141ED0D4D25392C8094958C80949505350D112504816080949505350D4D05391C949591F405417B252563202525414D4449412058202525414D44455020444545507D5C507B4353494E4B20252563202525414D434
310
449412058202525414D4353414E472525647D0
330
B2D
 94
        0
  0
ACAD_ZOMBIE_OBJECT
  5
B4A
100
AcDbZombieObject
 90
      499
 91
      522
 93
      308
310
0000014119185D1940507442E312E313663014119185D1940507442E312E313663405010000004
330
B2D
330
B4B
330
B4D
330
B4E
 94
        0
  0
ACAD_ZOMBIE_OBJECT
  5
B4B
100
AcDbZombieObject
 90
      499
 91
      523
 93
       56
310
0000901441010063
330
B2D
330
B4C
 94
        0
  0
ACAD_ZOMBIE_OBJECT
  5
B4C
100
AcDbZombieObject
 90
      499
 91
      524
 93
       40
310
0000A4410168
330
B2D
 94
        0
  0
ACAD_ZOMBIE_OBJECT
  5
B4D
100
AcDbZombieObject
 90
      499
 91
      525
 93
       68
310
0000A44101920A4820
330
B2D
 94
        0
  0
ACAD_ZOMBIE_OBJECT
  5
B4F
100
AcDbZombieObject
 90
      499
 91
      511
 93
      108
310
000001421053521310D05310D010
330
B2D
 94
        0
  0
ACAD_ZOMBIE_OBJECT
  5
B50
100
AcDbZombieObject
 90
      499
 91
      511
 93
      124
310
000001429053541493D2951654115013
330
B2D
 94
        0
  0
ACAD_ZOMBIE_OBJECT
  5
B51
100
AcDbZombieObject
 90
      499
 91
      511
 93
      124
310
00000142905354915554D15112535010
330
B2D
 94
        0
  0
ACAD_ZOMBIE_OBJECT
  5
B52
100
AcDbZombieObject
 90
      499
 91
      511
 93
      132
310
00000143105354D150D51253D391125366
330
B2D
 94
        0
  0
ACAD_ZOMBIE_OBJECT
  5
B53
100
AcDbZombieObject
 90
      499
 91
      511
 93
      124
310
00000142905355941093D49111549010
330
B2D
 94
        0
  0
ACAD_ZOMBIE_OBJECT
  5
B54
100
AcDbZombieObject
 90
      499
 91
      513
 93
      180
310
00000142905352125113151654114050648494444454E1
330
B2D
 94
        0
  0
ACAD_ZOMBIE_OBJECT
  5
B56
100
AcDbZombieObject
 90
      499
 91
      513
 93
      196
310
00000142905354D150D315165411405085048414E544F4D320
330
B2D
 94
        0
  0
ACAD_ZOMBIE_OBJECT
  5
B57
100
AcDbZombieObject
 90
      499
 91
      511
 93
      108
310
00000142105354D51114D0D51021
330
B2D
 94
        0
  0
ACAD_ZOMBIE_OBJECT
  5
B58
100
AcDbZombieObject
 90
      499
 91
      511
 93
      108
310
00000142105354D5111510541021
330
B2D
 94
        0
  0
ACAD_ZOMBIE_OBJECT
  5
B59
100
AcDbZombieObject
 90
      499
 91
      511
 93
      108
310
00000142105354D5111115131021
330
B2D
 94
        0
  0
ACAD_ZOMBIE_OBJECT
  5
B5A
100
AcDbZombieObject
 90
      499
 91
      512
 93
      148
310
00000141905350D310D34295C8FC2F528BC3F4
330
B2D
 94
        0
  0
ACAD_ZOMBIE_OBJECT
  5
B5B
100
AcDbZombieObject
 90
      499
 91
      512
 93
      156
310
00000141D05350D311D05402B8716D9CEF7C33F4
330
B2D
 94
        0
  0
ACAD_ZOMBIE_OBJECT
  5
B5C
100
AcDbZombieObject
 90
      499
 91
      512
 93
      164
310
00000142105350D313D4D2150295C8FC2F528BC3F0
330
B2D
 94
        0
  0
ACAD_ZOMBIE_OBJECT
  5
B5D
100
AcDbZombieObject
 90
      499
 91
      511
 93
      100
310
00000141D05350D31410549018
330
B2D
 94
        0
  0
ACAD_ZOMBIE_OBJECT
  5
B5E
100
AcDbZombieObject
 90
      499
 91
      511
 93
      100
310
0000014210535590539254D222
330
B2D
 94
        0
  0
ACAD_ZOMBIE_OBJECT
  5
B5F
100
AcDbZombieObject
 90
      499
 91
      512
 93
      188
310
00000142D0535312539155121250D2C295C8FC2F5289C3F1
330
B2D
 94
        0
  0
ACAD_ZOMBIE_OBJECT
  5
B60
100
AcDbZombieObject
 90
      499
 91
      513
 93
      164
310
00000142105350D3151654114050643454E5445520
330
B2D
 94
        0
  0
ACAD_ZOMBIE_OBJECT
  5
B69
100
AcDbZombieObject
 90
      499
 91
      511
 93
      132
310
00000142D05050555513D4D3D315915018
330
B2D
 94
        0
  0
ACAD_ZOMBIE_OBJECT
  5
B6A
100
AcDbZombieObject
 90
      499
 91
      511
 93
      156
310
00000143905050555513D054D4D1535093115010
330
B2D
 94
        0
  0
ACAD_ZOMBIE_OBJECT
  5
B6B
100
AcDbZombieObject
 90
      499
 91
      511
 93
      148
310
00000143505055925155D49154D513D4915012
330
B2D
 94
        0
  0
ACAD_ZOMBIE_OBJECT
  5
B6C
100
AcDbZombieObject
 90
      499
 91
      511
 93
      124
310
00000142D050525394D15495105094E0
330
B2D
 94
        0
  0
ACAD_ZOMBIE_OBJECT
  5
B71
100
AcDbZombieObject
 90
      499
 91
      528
 93
       32
310
0000000069
330
B2D
340
B6E
330
B72
330
B6E
 94
        0
  0
ACAD_ZOMBIE_OBJECT
  5
B72
100
AcDbZombieObject
 90
      499
 91
      529
 93
      143
310
00000142130CCB5153910C0D90400522080C
330
B2D
330
B71
 94
        0
  0
ACAD_ZOMBIE_OBJECT
  5
B73
100
AcDbZombieObject
 90
      499
 91
      530
 93
       72
310
000000A44101A4410100
330
B2D
330
B72
 94
        0
  0
ACAD_ZOMBIE_OBJECT
  5
B74
100
AcDbZombieObject
 90
      499
 91
      531
 93
       80
310
0000901441010000000022
330
B2D
330
B75
330
B75
330
B75
330
B75
 94
        0
  0
ACAD_ZOMBIE_OBJECT
  5
B75
100
AcDbZombieObject
 90
      499
 91
      532
 93
      173
310
00000000406AAAAAAAAAAAAAAAAA806A44101A441010
330
B2D
330
B74
330
B72
 94
        0
  0
ACAD_ZOMBIE_OBJECT
  5
B79
100
AcDbZombieObject
 90
      499
 91
      533
 93
       26
310
0000803F
330
B2D
330
0
 94
        0
  0
ENDSEC
  0
EOF
