  0
SECTION
  2
HEADER
  9
$ACADVER
  1
AC1012
  9
$DWGCODEPAGE
  3
ansi_1252
  9
$INSBASE
 10
0.0
 20
0.0
 30
0.0
  9
$EXTMIN
 10
1.0
 20
0.625
 30
0.0
  9
$EXTMAX
 10
32.04642
 20
20.447595
 30
0.0
  9
$LIMMIN
 10
0.0
 20
0.0
  9
$LIMMAX
 10
32.0
 20
21.0
  9
$ORTHOMODE
 70
     0
  9
$REGENMODE
 70
     1
  9
$FILLMODE
 70
     1
  9
$QTEXTMODE
 70
     0
  9
$MIRRTEXT
 70
     1
  9
$DRAGMODE
 70
     2
  9
$LTSCALE
 40
0.25
  9
$OSMODE
 70
     0
  9
$ATTMODE
 70
     1
  9
$TEXTSIZE
 40
0.12
  9
$TRACEWID
 40
0.05
  9
$TEXTSTYLE
  7
STANDARD
  9
$CLAYER
  8
TEXT
  9
$CELTYPE
  6
BYLAYER
  9
$CECOLOR
 62
   256
  9
$CELTSCALE
 40
1.0
  9
$DELOBJ
 70
     1
  9
$DISPSILH
 70
     0
  9
$DIMSCALE
 40
0.75
  9
$DIMASZ
 40
0.18
  9
$DIMEXO
 40
0.0625
  9
$DIMDLI
 40
0.38
  9
$DIMRND
 40
0.0
  9
$DIMDLE
 40
0.0
  9
$DIMEXE
 40
0.18
  9
$DIMTP
 40
0.0
  9
$DIMTM
 40
0.002
  9
$DIMTXT
 40
0.18
  9
$DIMCEN
 40
0.09
  9
$DIMTSZ
 40
0.0
  9
$DIMTOL
 70
     0
  9
$DIMLIM
 70
     0
  9
$DIMTIH
 70
     1
  9
$DIMTOH
 70
     1
  9
$DIMSE1
 70
     0
  9
$DIMSE2
 70
     0
  9
$DIMTAD
 70
     0
  9
$DIMZIN
 70
     0
  9
$DIMBLK
  1

  9
$DIMASO
 70
     1
  9
$DIMSHO
 70
     1
  9
$DIMPOST
  1
"
  9
$DIMAPOST
  1
mm
  9
$DIMALT
 70
     1
  9
$DIMALTD
 70
     2
  9
$DIMALTF
 40
25.4
  9
$DIMLFAC
 40
1.0
  9
$DIMTOFL
 70
     0
  9
$DIMTVP
 40
0.0
  9
$DIMTIX
 70
     0
  9
$DIMSOXD
 70
     0
  9
$DIMSAH
 70
     0
  9
$DIMBLK1
  1

  9
$DIMBLK2
  1

  9
$DIMSTYLE
  2
STANDARD
  9
$DIMCLRD
 70
     0
  9
$DIMCLRE
 70
     0
  9
$DIMCLRT
 70
     0
  9
$DIMTFAC
 40
1.0
  9
$DIMGAP
 40
0.09
  9
$DIMJUST
 70
     0
  9
$DIMSD1
 70
     0
  9
$DIMSD2
 70
     0
  9
$DIMTOLJ
 70
     1
  9
$DIMTZIN
 70
     0
  9
$DIMALTZ
 70
     0
  9
$DIMALTTZ
 70
     0
  9
$DIMFIT
 70
     0
  9
$DIMUPT
 70
     0
  9
$DIMUNIT
 70
     2
  9
$DIMDEC
 70
     3
  9
$DIMTDEC
 70
     3
  9
$DIMALTU
 70
     2
  9
$DIMALTTD
 70
     2
  9
$DIMTXSTY
  7
STANDARD
  9
$DIMAUNIT
 70
     0
  9
$LUNITS
 70
     2
  9
$LUPREC
 70
     4
  9
$SKETCHINC
 40
0.1
  9
$FILLETRAD
 40
0.0
  9
$AUNITS
 70
     0
  9
$AUPREC
 70
     0
  9
$MENU
  1
C:\CIM\ACAD
  9
$ELEVATION
 40
0.0
  9
$PELEVATION
 40
0.0
  9
$THICKNESS
 40
0.0
  9
$LIMCHECK
 70
     0
  9
$BLIPMODE
 70
     1
  9
$CHAMFERA
 40
0.0
  9
$CHAMFERB
 40
0.0
  9
$CHAMFERC
 40
0.0
  9
$CHAMFERD
 40
0.0
  9
$SKPOLY
 70
     0
  9
$TDCREATE
 40
2449975.576883565
  9
$TDUPDATE
 40
2450478.610332534
  9
$TDINDWG
 40
0.4403568056
  9
$TDUSRTIMER
 40
0.4403568056
  9
$USRTIMER
 70
     1
  9
$ANGBASE
 50
0.0
  9
$ANGDIR
 70
     0
  9
$PDMODE
 70
     0
  9
$PDSIZE
 40
0.0
  9
$PLINEWID
 40
0.0
  9
$COORDS
 70
     1
  9
$SPLFRAME
 70
     0
  9
$SPLINETYPE
 70
     6
  9
$SPLINESEGS
 70
     8
  9
$ATTDIA
 70
     0
  9
$ATTREQ
 70
     1
  9
$HANDLING
 70
     1
  9
$HANDSEED
  5
1B8C
  9
$SURFTAB1
 70
     6
  9
$SURFTAB2
 70
     6
  9
$SURFTYPE
 70
     6
  9
$SURFU
 70
     6
  9
$SURFV
 70
     6
  9
$UCSNAME
  2

  9
$UCSORG
 10
0.0
 20
0.0
 30
0.0
  9
$UCSXDIR
 10
1.0
 20
0.0
 30
0.0
  9
$UCSYDIR
 10
0.0
 20
1.0
 30
0.0
  9
$PUCSNAME
  2

  9
$PUCSORG
 10
0.0
 20
0.0
 30
0.0
  9
$PUCSXDIR
 10
1.0
 20
0.0
 30
0.0
  9
$PUCSYDIR
 10
0.0
 20
1.0
 30
0.0
  9
$USERI1
 70
     0
  9
$USERI2
 70
     0
  9
$USERI3
 70
     0
  9
$USERI4
 70
     0
  9
$USERI5
 70
     0
  9
$USERR1
 40
0.0
  9
$USERR2
 40
0.0
  9
$USERR3
 40
0.0
  9
$USERR4
 40
0.0
  9
$USERR5
 40
0.0
  9
$WORLDVIEW
 70
     1
  9
$SHADEDGE
 70
     3
  9
$SHADEDIF
 70
    70
  9
$TILEMODE
 70
     1
  9
$MAXACTVP
 70
    16
  9
$PINSBASE
 10
0.0
 20
0.0
 30
0.0
  9
$PLIMCHECK
 70
     0
  9
$PEXTMIN
 10
1.000000E+20
 20
1.000000E+20
 30
1.000000E+20
  9
$PEXTMAX
 10
-1.000000E+20
 20
-1.000000E+20
 30
-1.000000E+20
  9
$PLIMMIN
 10
0.0
 20
0.0
  9
$PLIMMAX
 10
12.0
 20
9.0
  9
$UNITMODE
 70
     0
  9
$VISRETAIN
 70
     0
  9
$PLINEGEN
 70
     0
  9
$PSLTSCALE
 70
     1
  9
$TREEDEPTH
 70
  3020
  9
$PICKSTYLE
 70
     1
  9
$CMLSTYLE
  2
STANDARD
  9
$CMLJUST
 70
     0
  9
$CMLSCALE
 40
1.0
  9
$SAVEIMAGES
 70
     0
  0
ENDSEC
  0
SECTION
  2
CLASSES
  0
CLASS
  1
ACMESCOPE
  2
AcMeScope
  3
ACME_MODULE_NAME
 90
        0
280
     0
281
     0
  0
CLASS
  1
ACMECOMMANDHISTORY
  2
AcMeCommandHistory
  3
ACME_MODULE_NAME
 90
        0
280
     0
281
     0
  0
CLASS
  1
AcRfInsAdjusterMgr
  2
AcRfInsAdjusterMgr
  3
ACME_MODULE_NAME
 90
        0
280
     0
281
     0
  0
CLASS
  1
ACGREFMASTER
  2
AcGrefMaster
  3
"AcadRfServer"
 90
        0
280
     0
281
     0
  0
CLASS
  1
AmiMaster
  2
AmiMaster
  3
"AmiServices"
 90
        0
280
     0
281
     0
  0
CLASS
  1
ACASGREFMASTER
  2
AcAsGrefMaster
  3
"AutoSurfResolver"
 90
        0
280
     0
281
     0
  0
CLASS
  1
ADAPPL
  2
AcAdAppl
  3
"DesignerServices"
 90
        0
280
     0
281
     0
  0
CLASS
  1
DEPMGR
  2
AcAdDepMgr
  3
"DesignerServices"
 90
        0
280
     0
281
     0
  0
CLASS
  1
PARAMMGR
  2
AcAdParamMgr
  3
"DesignerServices"
 90
        0
280
     0
281
     0
  0
CLASS
  1
PARAMSCOPE
  2
AcAdParamScope
  3
"DesignerServices"
 90
        0
280
     0
281
     0
  0
CLASS
  1
"IM_SYSVAR_MAN"
  2
AcImSysVarManager
  3
"ADAM"
 90
        0
280
     0
281
     0
  0
CLASS
  1
SYSTEM_VAR_INT
  2
AcImIntSysVar
  3
"ADAM"
 90
        0
280
     0
281
     0
  0
CLASS
  1
SYSTEM_VAR_REAL
  2
AcImRealSysVar
  3
"ADAM"
 90
        0
280
     0
281
     0
  0
CLASS
  1
SYSTEM_VAR_STR
  2
AcImStrSysVar
  3
"ADAM"
 90
        0
280
     0
281
     0
  0
CLASS
  1
NAMEDAPPL
  2
AcAdNamedAppl
  3
"DesignerServices"
 90
        0
280
     0
281
     0
  0
CLASS
  1
ADPART
  2
AcAdPart
  3
"DesignerServices"
 90
        0
280
     0
281
     1
  0
CLASS
  1
ADBASE
  2
AcAdBase
  3
"DesignerServices"
 90
        0
280
     0
281
     0
  0
CLASS
  1
BODYID
  2
AcAdBodyId
  3
"DesignerServices"
 90
        0
280
     0
281
     0
  0
CLASS
  1
WORKPLANEDISPLAYMGR
  2
AcAdDisplayMgr
  3
"DesignerServices"
 90
        0
280
     0
281
     0
  0
CLASS
  1
ADHNTMPLT
  2
AdHoleNoteTemplateMgr
  3
"DesignerServices"
 90
        0
280
     0
281
     0
  0
CLASS
  1
AM_HNTEMPLATE_MGR_NAME
  2
AdHoleNoteTemplateMgrName
  3
"DesignerServices"
 90
        0
280
     0
281
     0
  0
CLASS
  1
AcAdGrefModule
  2
AcAdGrefModule
  3
AD_GREF_SERVICES_NSTR
 90
        0
280
     0
281
     0
  0
CLASS
  1
AM_DRAWING_MGR
  2
AcDmDwgMgr
  3
"Designer_Drawing_Mgmt"
 90
        0
280
     0
281
     0
  0
CLASS
  1
AM_DWG_DOCUMENT
  2
AcDmDwgDocument
  3
"Designer_Drawing_Mgmt"
 90
        0
280
     0
281
     0
  0
CLASS
  1
AM_DWG_SHEET
  2
AcDmSheet
  3
"Designer_Drawing_Mgmt"
 90
        0
280
     0
281
     0
  0
CLASS
  1
AM_VIEWDIMPARMAP
  2
AcDmViewDimParMap
  3
"Designer_Drawing_Mgmt"
 90
        0
280
     0
281
     0
  0
CLASS
  1
AM_DWGMGR_NAME
  2
AcDmDwgMgrName
  3
"Designer_Drawing_Mgmt"
 90
        0
280
     0
281
     0
  0
CLASS
  1
ACAMPROJECT
  2
AcAmProject
  3
"DesignerAssemblies"
 90
        0
280
     0
281
     0
  0
CLASS
  1
ACAMGRCOMPDEF
  2
AcAmGrCompDef
  3
"DesignerAssemblies"
 90
        0
280
     0
281
     0
  0
CLASS
  1
ACAMCOMPDEF
  2
AcAmCompDef
  3
"DesignerAssemblies"
 90
        0
280
     0
281
     0
  0
CLASS
  1
ACAMCOMPDEFMGR
  2
AcAmCompDefMgr
  3
"DesignerAssemblies"
 90
        0
280
     0
281
     0
  0
CLASS
  1
AMCONTEXTMGR
  2
AcAmContextMgr
  3
"DesignerAssemblies"
 90
        0
280
     0
281
     0
  0
CLASS
  1
AcAmContextModeler
  2
AcAmContextModeler
  3
"DesignerAssemblies"
 90
        0
280
     0
281
     0
  0
CLASS
  1
ACAMDRAWINGMAN
  2
AcAmDrawingMan
  3
"DesignerAssemblies"
 90
        0
280
     0
281
     0
  0
CLASS
  1
ASSYSVARS
  2
AcAsSysVars
  3
"AutoSurf"
 90
        0
280
     0
281
     0
  0
CLASS
  1
ASSTATICVARS
  2
AcAsStaticVars
  3
"AutoSurf"
 90
        0
280
     0
281
     0
  0
CLASS
  1
ASAPP
  2
AcAsAppObject
  3
"AutoSurf"
 90
        0
280
     0
281
     0
  0
CLASS
  1
AGDICTIONARY
  2
AgDictionary
  3
"AccelView"
 90
        1
280
     0
281
     0
  0
ENDSEC
  0
SECTION
  2
TABLES
  0
TABLE
  2
VPORT
  5
8
100
AcDbSymbolTable
 70
     2
  0
VPORT
  5
1B8B
100
AcDbSymbolTableRecord
100
AcDbViewportTableRecord
  2
*ACTIVE
 70
     0
 10
0.0
 20
0.0
 11
1.0
 21
1.0
 12
16.878833
 22
10.536298
 13
0.0
 23
0.0
 14
0.0625
 24
0.0625
 15
1.0
 25
1.0
 16
0.0
 26
0.0
 36
1.0
 17
0.0
 27
0.0
 37
0.0
 40
19.822595
 41
1.602094
 42
50.0
 43
0.0
 44
0.0
 50
0.0
 51
0.0
 71
     0
 72
   100
 73
     1
 74
     0
 75
     0
 76
     1
 77
     0
 78
     0
  0
ENDTAB
  0
TABLE
  2
LTYPE
  5
5
100
AcDbSymbolTable
 70
     6
  0
LTYPE
  5
14
100
AcDbSymbolTableRecord
100
AcDbLinetypeTableRecord
  2
BYBLOCK
 70
     0
  3

 72
    65
 73
     0
 40
0.0
  0
LTYPE
  5
15
100
AcDbSymbolTableRecord
100
AcDbLinetypeTableRecord
  2
BYLAYER
 70
     0
  3

 72
    65
 73
     0
 40
0.0
  0
LTYPE
  5
16
100
AcDbSymbolTableRecord
100
AcDbLinetypeTableRecord
  2
CONTINUOUS
 70
    64
  3
Solid line
 72
    65
 73
     0
 40
0.0
  0
LTYPE
  5
24
100
AcDbSymbolTableRecord
100
AcDbLinetypeTableRecord
  2
CENTER
 70
    64
  3
____ _ ____ _ ____ _ ____ _ ____ _ ____ _ ____ 
 72
    65
 73
     4
 40
2.0
 49
1.25
 74
     0
 49
-0.25
 74
     0
 49
0.25
 74
     0
 49
-0.25
 74
     0
  0
LTYPE
  5
26
100
AcDbSymbolTableRecord
100
AcDbLinetypeTableRecord
  2
HIDDEN
 70
    64
  3
__ __ __ __ __ __ __ __ __ __ __ __ __ __ __ __
 72
    65
 73
     2
 40
0.375
 49
0.25
 74
     0
 49
-0.125
 74
     0
  0
LTYPE
  5
14C5
100
AcDbSymbolTableRecord
100
AcDbLinetypeTableRecord
  2
PHANTOM2
 70
     0
  3
___ _ _ ___ _ _ ___ _ _ ___ _ _ ___ _ _ ___ _ _
 72
    65
 73
     6
 40
1.25
 49
0.625
 74
     0
 49
-0.125
 74
     0
 49
0.125
 74
     0
 49
-0.125
 74
     0
 49
0.125
 74
     0
 49
-0.125
 74
     0
  0
LTYPE
  5
14EF
100
AcDbSymbolTableRecord
100
AcDbLinetypeTableRecord
  2
ASULTYPE
 70
     0
  3
Solid line
 72
    65
 73
     2
 40
3.0
 49
2.5
 74
     0
 49
0.5
 74
     0
  0
LTYPE
  5
14F0
100
AcDbSymbolTableRecord
100
AcDbLinetypeTableRecord
  2
ASVLTYPE
 70
     0
  3
__ __ __ __ __ __ __ __ __ __ __ __ __ __ __ __ __ __ __ __ __
 72
    65
 73
     2
 40
0.75
 49
0.5
 74
     0
 49
-0.25
 74
     0
  0
ENDTAB
  0
TABLE
  2
LAYER
  5
2
100
AcDbSymbolTable
 70
    20
  0
LAYER
  5
F
100
AcDbSymbolTableRecord
100
AcDbLayerTableRecord
  2
0
 70
    65
 62
     7
  6
CONTINUOUS
  0
LAYER
  5
23
100
AcDbSymbolTableRecord
100
AcDbLayerTableRecord
  2
CENTER
 70
    64
 62
     1
  6
CENTER
  0
LAYER
  5
25
100
AcDbSymbolTableRecord
100
AcDbLayerTableRecord
  2
HIDDEN
 70
    64
 62
     7
  6
HIDDEN
  0
LAYER
  5
29
100
AcDbSymbolTableRecord
100
AcDbLayerTableRecord
  2
DIM
 70
    64
 62
     3
  6
CONTINUOUS
  0
LAYER
  5
2A
100
AcDbSymbolTableRecord
100
AcDbLayerTableRecord
  2
TEXT
 70
    64
 62
     7
  6
CONTINUOUS
  0
LAYER
  5
2F
100
AcDbSymbolTableRecord
100
AcDbLayerTableRecord
  2
HCHARTS
 70
    64
 62
     3
  6
CONTINUOUS
  0
LAYER
  5
48
100
AcDbSymbolTableRecord
100
AcDbLayerTableRecord
  2
BORDER
 70
    64
 62
     6
  6
CONTINUOUS
  0
LAYER
  5
98
100
AcDbSymbolTableRecord
100
AcDbLayerTableRecord
  2
FOOT
 70
    64
 62
     7
  6
CONTINUOUS
  0
LAYER
  5
15B
100
AcDbSymbolTableRecord
100
AcDbLayerTableRecord
  2
DEFPOINTS
 70
    64
 62
     7
  6
CONTINUOUS
  0
LAYER
  5
444
100
AcDbSymbolTableRecord
100
AcDbLayerTableRecord
  2
HATCH
 70
    64
 62
     7
  6
CONTINUOUS
  0
LAYER
  5
AF7
100
AcDbSymbolTableRecord
100
AcDbLayerTableRecord
  2
KEVLAR
 70
    64
 62
     7
  6
CONTINUOUS
  0
LAYER
  5
14D3
100
AcDbSymbolTableRecord
100
AcDbLayerTableRecord
  2
AM_VIEWS
 70
     0
 62
    -7
  6
CONTINUOUS
  0
LAYER
  5
14D4
100
AcDbSymbolTableRecord
100
AcDbLayerTableRecord
  2
AM_PARDIM
 70
     0
 62
     3
  6
CONTINUOUS
  0
LAYER
  5
14D5
100
AcDbSymbolTableRecord
100
AcDbLayerTableRecord
  2
AM_REFDIM
 70
     0
 62
     4
  6
CONTINUOUS
  0
LAYER
  5
14D6
100
AcDbSymbolTableRecord
100
AcDbLayerTableRecord
  2
AM_VIS
 70
     0
 62
     7
  6
CONTINUOUS
  0
LAYER
  5
14D7
100
AcDbSymbolTableRecord
100
AcDbLayerTableRecord
  2
AM_HID
 70
    64
 62
     7
  6
HIDDEN
  0
LAYER
  5
14E6
100
AcDbSymbolTableRecord
100
AcDbLayerTableRecord
  2
AM_TR
 70
     0
 62
     7
  6
CONTINUOUS
  0
LAYER
  5
14E7
100
AcDbSymbolTableRecord
100
AcDbLayerTableRecord
  2
AM_BM
 70
     0
 62
     7
  6
CONTINUOUS
  0
LAYER
  5
14E8
100
AcDbSymbolTableRecord
100
AcDbLayerTableRecord
  2
AM_BL
 70
     0
 62
     7
  6
CONTINUOUS
  0
LAYER
  5
19CA
100
AcDbSymbolTableRecord
100
AcDbLayerTableRecord
  2
ASHADE
 70
    68
 62
     7
  6
CONTINUOUS
  0
ENDTAB
  0
TABLE
  2
STYLE
  5
3
100
AcDbSymbolTable
 70
     4
  0
STYLE
  5
10
100
AcDbSymbolTableRecord
100
AcDbTextStyleTableRecord
  2
STANDARD
 70
    64
 40
0.0
 41
1.0
 50
0.0
 71
     0
 42
0.12
  3
txt
  4

  0
STYLE
  5
28
100
AcDbSymbolTableRecord
100
AcDbTextStyleTableRecord
  2
CIM_TB
 70
    64
 40
0.0
 41
1.0
 50
0.0
 71
     0
 42
0.2
  3
romans
  4

  0
STYLE
  5
49
100
AcDbSymbolTableRecord
100
AcDbTextStyleTableRecord
  2
ADESK2
 70
    64
 40
0.0
 41
1.0
 50
0.0
 71
     0
 42
0.065
  3
romans
  4

  0
STYLE
  5
19C7
100
AcDbSymbolTableRecord
100
AcDbTextStyleTableRecord
  2
ASHADE
 70
    64
 40
0.2
 41
1.0
 50
0.0
 71
     0
 42
0.12
  3
simplex
  4

  0
ENDTAB
  0
TABLE
  2
VIEW
  5
6
100
AcDbSymbolTable
 70
     0
  0
ENDTAB
  0
TABLE
  2
UCS
  5
7
100
AcDbSymbolTable
 70
     1
  0
UCS
  5
2D
100
AcDbSymbolTableRecord
100
AcDbUCSTableRecord
  2
CIM_TB_HOLD
 70
     0
 10
0.0
 20
0.0
 30
0.0
 11
1.0
 21
0.0
 31
0.0
 12
0.0
 22
1.0
 32
0.0
  0
ENDTAB
  0
TABLE
  2
APPID
  5
9
100
AcDbSymbolTable
 70
    11
  0
APPID
  5
11
100
AcDbSymbolTableRecord
100
AcDbRegAppTableRecord
  2
ACAD
 70
     0
  0
APPID
  5
22
100
AcDbSymbolTableRecord
100
AcDbRegAppTableRecord
  2
TB_S_MPD
 70
     0
  0
APPID
  5
14D2
100
AcDbSymbolTableRecord
100
AcDbRegAppTableRecord
  2
AD_DRAW
 70
     0
  0
APPID
  5
14EA
100
AcDbSymbolTableRecord
100
AcDbRegAppTableRecord
  2
DESIGNERASSEMBLIES
 70
     0
  0
APPID
  5
14EB
100
AcDbSymbolTableRecord
100
AcDbRegAppTableRecord
  2
MCAD_NO_VIS
 70
     0
  0
APPID
  5
14F1
100
AcDbSymbolTableRecord
100
AcDbRegAppTableRecord
  2
ASURF_PCURVE_APPNAME
 70
     0
  0
APPID
  5
19C8
100
AcDbSymbolTableRecord
100
AcDbRegAppTableRecord
  2
AVE_RENDER
 70
     0
  0
APPID
  5
19C9
100
AcDbSymbolTableRecord
100
AcDbRegAppTableRecord
  2
AVE_ENTITY_MATERIAL
 70
     0
  0
APPID
  5
19D6
100
AcDbSymbolTableRecord
100
AcDbRegAppTableRecord
  2
AVE_FINISH
 70
     0
  0
APPID
  5
19D7
100
AcDbSymbolTableRecord
100
AcDbRegAppTableRecord
  2
AVE_MATERIAL
 70
     0
  0
APPID
  5
19D8
100
AcDbSymbolTableRecord
100
AcDbRegAppTableRecord
  2
AVE_GLOBAL
 70
     0
  0
ENDTAB
  0
TABLE
  2
DIMSTYLE
  5
A
100
AcDbSymbolTable
 70
     3
  0
DIMSTYLE
105
1D
100
AcDbSymbolTableRecord
100
AcDbDimStyleTableRecord
  2
STANDARD
 70
     0
  3
"
  4
mm
  5

  6

  7

 40
1.0
 41
0.18
 42
0.0625
 43
0.38
 44
0.18
 45
0.0
 46
0.0
 47
0.001
 48
0.001
140
0.18
141
0.09
142
0.0
143
25.4
144
1.0
145
0.0
146
1.0
147
0.09
 71
     0
 72
     0
 73
     1
 74
     1
 75
     0
 76
     0
 77
     0
 78
     0
170
     1
171
     2
172
     0
173
     0
174
     0
175
     0
176
     0
177
     0
178
     0
270
     2
271
     3
272
     3
273
     2
274
     2
340
10
275
     0
280
     0
281
     0
282
     0
283
     1
284
     0
285
     0
286
     0
287
     0
288
     0
  0
DIMSTYLE
105
2B
100
AcDbSymbolTableRecord
100
AcDbDimStyleTableRecord
  2
STANDARD$4
 70
     0
  3
"
  4
mm
  5

  6

  7

 40
1.0
 41
0.18
 42
0.0625
 43
0.38
 44
0.18
 45
0.0
 46
0.0
 47
0.0
 48
0.0
140
0.18
141
0.09
142
0.0
143
25.4
144
1.0
145
0.0
146
1.0
147
0.09
 71
     0
 72
     0
 73
     1
 74
     1
 75
     0
 76
     0
 77
     0
 78
     0
170
     1
171
     2
172
     0
173
     0
174
     0
175
     0
176
     0
177
     0
178
     0
270
     2
271
     3
272
     4
273
     2
274
     2
340
10
275
     0
280
     0
281
     0
282
     0
283
     1
284
     0
285
     0
286
     0
287
     3
288
     1
  0
DIMSTYLE
105
2C
100
AcDbSymbolTableRecord
100
AcDbDimStyleTableRecord
  2
STANDARD$3
 70
     0
  3

  4

  5

  6

  7

 40
1.0
 41
0.18
 42
0.0625
 43
0.38
 44
0.18
 45
0.0
 46
0.0
 47
0.0
 48
0.0
140
0.18
141
0.09
142
0.0
143
25.4
144
1.0
145
0.0
146
1.0
147
0.09
 71
     0
 72
     0
 73
     1
 74
     1
 75
     0
 76
     0
 77
     0
 78
     0
170
     0
171
     2
172
     0
173
     0
174
     0
175
     0
176
     0
177
     0
178
     0
270
     2
271
     4
272
     4
273
     2
274
     2
340
10
275
     0
280
     0
281
     0
282
     0
283
     1
284
     0
285
     0
286
     0
287
     3
288
     0
  0
ENDTAB
  0
TABLE
  2
BLOCK_RECORD
  5
1
100
AcDbSymbolTable
 70
    54
  0
BLOCK_RECORD
  5
1A
100
AcDbSymbolTableRecord
100
AcDbBlockTableRecord
  2
*MODEL_SPACE
  0
BLOCK_RECORD
  5
17
100
AcDbSymbolTableRecord
100
AcDbBlockTableRecord
  2
*PAPER_SPACE
  0
BLOCK_RECORD
  5
4A
100
AcDbSymbolTableRecord
100
AcDbBlockTableRecord
  2
C-BORDER
  0
BLOCK_RECORD
  5
99
100
AcDbSymbolTableRecord
100
AcDbBlockTableRecord
  2
FT-L3-F
  0
BLOCK_RECORD
  5
AF8
100
AcDbSymbolTableRecord
100
AcDbBlockTableRecord
  2
D-BORDER
  0
BLOCK_RECORD
  5
C8E
100
AcDbSymbolTableRecord
100
AcDbBlockTableRecord
  2
*U3
  0
BLOCK_RECORD
  5
C9A
100
AcDbSymbolTableRecord
100
AcDbBlockTableRecord
  2
*U4
  0
BLOCK_RECORD
  5
CAD
100
AcDbSymbolTableRecord
100
AcDbBlockTableRecord
  2
*U5
  0
BLOCK_RECORD
  5
CF0
100
AcDbSymbolTableRecord
100
AcDbBlockTableRecord
  2
*D6
  0
BLOCK_RECORD
  5
CFD
100
AcDbSymbolTableRecord
100
AcDbBlockTableRecord
  2
*D7
  0
BLOCK_RECORD
  5
DC1
100
AcDbSymbolTableRecord
100
AcDbBlockTableRecord
  2
*D8
  0
BLOCK_RECORD
  5
DEC
100
AcDbSymbolTableRecord
100
AcDbBlockTableRecord
  2
*D9
  0
BLOCK_RECORD
  5
F55
100
AcDbSymbolTableRecord
100
AcDbBlockTableRecord
  2
*U10
  0
BLOCK_RECORD
  5
F76
100
AcDbSymbolTableRecord
100
AcDbBlockTableRecord
  2
CUTOUT
  0
BLOCK_RECORD
  5
F96
100
AcDbSymbolTableRecord
100
AcDbBlockTableRecord
  2
CUTOUT2
  0
BLOCK_RECORD
  5
14DE
100
AcDbSymbolTableRecord
100
AcDbBlockTableRecord
  2
*U13
  0
BLOCK_RECORD
  5
14F2
100
AcDbSymbolTableRecord
100
AcDbBlockTableRecord
  2
*U14
  0
BLOCK_RECORD
  5
14FD
100
AcDbSymbolTableRecord
100
AcDbBlockTableRecord
  2
*U15
  0
BLOCK_RECORD
  5
152E
100
AcDbSymbolTableRecord
100
AcDbBlockTableRecord
  2
*X16
  0
BLOCK_RECORD
  5
1558
100
AcDbSymbolTableRecord
100
AcDbBlockTableRecord
  2
*D17
  0
BLOCK_RECORD
  5
1565
100
AcDbSymbolTableRecord
100
AcDbBlockTableRecord
  2
*D18
  0
BLOCK_RECORD
  5
1581
100
AcDbSymbolTableRecord
100
AcDbBlockTableRecord
  2
*D19
  0
BLOCK_RECORD
  5
15AA
100
AcDbSymbolTableRecord
100
AcDbBlockTableRecord
  2
*D20
  0
BLOCK_RECORD
  5
15DD
100
AcDbSymbolTableRecord
100
AcDbBlockTableRecord
  2
*D21
  0
BLOCK_RECORD
  5
15EA
100
AcDbSymbolTableRecord
100
AcDbBlockTableRecord
  2
*D22
  0
BLOCK_RECORD
  5
15F7
100
AcDbSymbolTableRecord
100
AcDbBlockTableRecord
  2
*D23
  0
BLOCK_RECORD
  5
1604
100
AcDbSymbolTableRecord
100
AcDbBlockTableRecord
  2
*D24
  0
BLOCK_RECORD
  5
1611
100
AcDbSymbolTableRecord
100
AcDbBlockTableRecord
  2
*D25
  0
BLOCK_RECORD
  5
162B
100
AcDbSymbolTableRecord
100
AcDbBlockTableRecord
  2
*D26
  0
BLOCK_RECORD
  5
1639
100
AcDbSymbolTableRecord
100
AcDbBlockTableRecord
  2
*D27
  0
BLOCK_RECORD
  5
1647
100
AcDbSymbolTableRecord
100
AcDbBlockTableRecord
  2
*D28
  0
BLOCK_RECORD
  5
1655
100
AcDbSymbolTableRecord
100
AcDbBlockTableRecord
  2
*D29
  0
BLOCK_RECORD
  5
166F
100
AcDbSymbolTableRecord
100
AcDbBlockTableRecord
  2
*D30
  0
BLOCK_RECORD
  5
168B
100
AcDbSymbolTableRecord
100
AcDbBlockTableRecord
  2
*D31
  0
BLOCK_RECORD
  5
16D0
100
AcDbSymbolTableRecord
100
AcDbBlockTableRecord
  2
*D32
  0
BLOCK_RECORD
  5
16DE
100
AcDbSymbolTableRecord
100
AcDbBlockTableRecord
  2
*D33
  0
BLOCK_RECORD
  5
1711
100
AcDbSymbolTableRecord
100
AcDbBlockTableRecord
  2
*D34
  0
BLOCK_RECORD
  5
176B
100
AcDbSymbolTableRecord
100
AcDbBlockTableRecord
  2
*D35
  0
BLOCK_RECORD
  5
184B
100
AcDbSymbolTableRecord
100
AcDbBlockTableRecord
  2
*D36
  0
BLOCK_RECORD
  5
1871
100
AcDbSymbolTableRecord
100
AcDbBlockTableRecord
  2
*D37
  0
BLOCK_RECORD
  5
195C
100
AcDbSymbolTableRecord
100
AcDbBlockTableRecord
  2
*D38
  0
BLOCK_RECORD
  5
196B
100
AcDbSymbolTableRecord
100
AcDbBlockTableRecord
  2
*D39
  0
BLOCK_RECORD
  5
1990
100
AcDbSymbolTableRecord
100
AcDbBlockTableRecord
  2
*D40
  0
BLOCK_RECORD
  5
19CB
100
AcDbSymbolTableRecord
100
AcDbBlockTableRecord
  2
AVE_RENDER
  0
BLOCK_RECORD
  5
19D9
100
AcDbSymbolTableRecord
100
AcDbBlockTableRecord
  2
AVE_GLOBAL
  0
BLOCK_RECORD
  5
1A68
100
AcDbSymbolTableRecord
100
AcDbBlockTableRecord
  2
*U48
  0
BLOCK_RECORD
  5
1A7E
100
AcDbSymbolTableRecord
100
AcDbBlockTableRecord
  2
*D49
  0
BLOCK_RECORD
  5
1ACA
100
AcDbSymbolTableRecord
100
AcDbBlockTableRecord
  2
*D50
  0
BLOCK_RECORD
  5
1AD9
100
AcDbSymbolTableRecord
100
AcDbBlockTableRecord
  2
*D51
  0
BLOCK_RECORD
  5
1B19
100
AcDbSymbolTableRecord
100
AcDbBlockTableRecord
  2
*D52
  0
BLOCK_RECORD
  5
1B33
100
AcDbSymbolTableRecord
100
AcDbBlockTableRecord
  2
*D53
  0
ENDTAB
  0
ENDSEC
  0
SECTION
  2
BLOCKS
  0
BLOCK
  5
1B
100
AcDbEntity
  8
0
100
AcDbBlockBegin
  2
*MODEL_SPACE
 70
     0
 10
0.0
 20
0.0
 30
0.0
  3
*MODEL_SPACE
  1

  0
ENDBLK
  5
1C
100
AcDbEntity
  8
0
100
AcDbBlockEnd
  0
BLOCK
  5
18
100
AcDbEntity
 67
     1
  8
0
100
AcDbBlockBegin
  2
*PAPER_SPACE
 70
     0
 10
0.0
 20
0.0
 30
0.0
  3
*PAPER_SPACE
  1

  0
ENDBLK
  5
19
100
AcDbEntity
 67
     1
  8
0
100
AcDbBlockEnd
  0
BLOCK
  5
80
100
AcDbEntity
  8
0
100
AcDbBlockBegin
  2
C-BORDER
 70
     0
 10
0.0
 20
0.0
 30
0.0
  3
C-BORDER
  1

  0
TEXT
  5
4B
100
AcDbEntity
  8
TEXT
100
AcDbText
 10
15.40792
 20
1.861505
 30
0.0
 40
0.065
  1
  %%P 0.5%%D
  7
ADESK2
100
AcDbText
  0
TEXT
  5
4C
100
AcDbEntity
  8
TEXT
100
AcDbText
 10
15.40792
 20
1.966743
 30
0.0
 40
0.065
  1
ANGULAR
  7
ADESK2
100
AcDbText
  0
TEXT
  5
4D
100
AcDbEntity
  8
TEXT
100
AcDbText
 10
14.61466
 20
1.653744
 30
0.0
 40
0.065
  1
DO NOT SCALE DRAWING
  7
ADESK2
 72
     1
 11
15.229065
 21
1.653744
 31
0.0
100
AcDbText
  0
TEXT
  5
4E
100
AcDbEntity
  8
TEXT
100
AcDbText
 10
14.544023
 20
1.756267
 30
0.0
 40
0.065
  1
.XXX %%P .005
  7
ADESK2
100
AcDbText
  0
TEXT
  5
4F
100
AcDbEntity
  8
TEXT
100
AcDbText
 10
14.544023
 20
1.861505
 30
0.0
 40
0.065
  1
.XX  %%P .05
  7
ADESK2
100
AcDbText
  0
TEXT
  5
50
100
AcDbEntity
  8
TEXT
100
AcDbText
 10
14.544023
 20
1.966743
 30
0.0
 40
0.065
  1
DECIMALS
  7
ADESK2
100
AcDbText
  0
TEXT
  5
51
100
AcDbEntity
  8
TEXT
100
AcDbText
 10
14.930374
 20
2.074613
 30
0.0
 40
0.065
  1
TOLERANCES
  7
ADESK2
 72
     1
 11
15.229065
 21
2.074613
 31
0.0
100
AcDbText
  0
TEXT
  5
52
100
AcDbEntity
  8
TEXT
100
AcDbText
 10
14.532636
 20
2.179851
 30
0.0
 40
0.065
  1
DIMENSIONS ARE IN INCHES
  7
ADESK2
 72
     1
 11
15.229065
 21
2.179851
 31
0.0
100
AcDbText
  0
TEXT
  5
53
100
AcDbEntity
  8
TEXT
100
AcDbText
 10
14.458351
 20
2.285089
 30
0.0
 40
0.065
  1
UNLESS OTHERWISE SPECIFIED:
  7
ADESK2
 72
     1
 11
15.229065
 21
2.285089
 31
0.0
100
AcDbText
  0
TEXT
  5
54
100
AcDbEntity
  8
BORDER
100
AcDbText
 10
16.916608
 20
2.075566
 30
0.0
 40
0.15
  1
HIGH ENERGY PHYSICS
100
AcDbText
  0
LINE
  5
55
100
AcDbEntity
  8
BORDER
100
AcDbLine
 10
0.5
 20
15.375
 30
0.0
 11
20.5
 21
15.375
 31
0.0
  0
TEXT
  5
56
100
AcDbEntity
  8
TEXT
100
AcDbText
 10
16.680137
 20
1.165354
 30
0.0
 40
0.075
  1
FILE #
100
AcDbText
  0
TEXT
  5
57
100
AcDbEntity
  8
BORDER
100
AcDbText
 10
16.367704
 20
0.951962
 30
0.0
 40
0.15
  1
C
100
AcDbText
  0
LINE
  5
58
100
AcDbEntity
  8
BORDER
100
AcDbLine
 10
0.5
 20
0.625
 30
0.0
 11
20.5
 21
0.625
 31
0.0
  0
LINE
  5
59
100
AcDbEntity
  8
BORDER
100
AcDbLine
 10
0.5
 20
15.375
 30
0.0
 11
0.5
 21
0.625
 31
0.0
  0
LINE
  5
5A
100
AcDbEntity
  8
BORDER
100
AcDbLine
 10
20.5
 20
0.625
 30
0.0
 11
20.5
 21
15.375
 31
0.0
  0
LINE
  5
5B
100
AcDbEntity
  8
BORDER
100
AcDbLine
 10
14.228025
 20
2.824147
 30
0.0
 11
20.500862
 21
2.824147
 31
0.0
  0
TEXT
  5
5C
100
AcDbEntity
  8
BORDER
100
AcDbText
 10
14.407029
 20
2.549228
 30
0.0
 40
0.15
  1
UNIVERSITY OF CALIFORNIA @ SANTA BARBARA
100
AcDbText
  0
TEXT
  5
5D
100
AcDbEntity
  8
TEXT
100
AcDbText
 10
14.297375
 20
1.479964
 30
0.0
 40
0.065
  1
DRAWN
  7
ADESK2
100
AcDbText
  0
LINE
  5
5E
100
AcDbEntity
  8
BORDER
100
AcDbLine
 10
14.229065
 20
0.625
 30
0.0
 11
14.229065
 21
2.824147
 31
0.0
  0
LINE
  5
5F
100
AcDbEntity
  8
BORDER
100
AcDbLine
 10
14.229065
 20
2.401501
 30
0.0
 11
20.500862
 21
2.401501
 31
0.0
  0
LINE
  5
60
100
AcDbEntity
  8
TEXT
100
AcDbLine
 10
14.229065
 20
0.966501
 30
0.0
 11
16.229065
 21
0.966501
 31
0.0
  0
LINE
  5
61
100
AcDbEntity
  8
TEXT
100
AcDbLine
 10
14.229065
 20
1.281501
 30
0.0
 11
20.500862
 21
1.281501
 31
0.0
  0
LINE
  5
62
100
AcDbEntity
  8
TEXT
100
AcDbLine
 10
16.229065
 20
0.901501
 30
0.0
 11
20.500862
 21
0.901501
 31
0.0
  0
LINE
  5
63
100
AcDbEntity
  8
BORDER
100
AcDbLine
 10
16.229065
 20
1.901501
 30
0.0
 11
20.500862
 21
1.901501
 31
0.0
  0
LINE
  5
64
100
AcDbEntity
  8
BORDER
100
AcDbLine
 10
16.229065
 20
0.625
 30
0.0
 11
16.229065
 21
2.401501
 31
0.0
  0
LINE
  5
65
100
AcDbEntity
  8
TEXT
100
AcDbLine
 10
17.229065
 20
0.625
 30
0.0
 11
17.229065
 21
0.901501
 31
0.0
  0
LINE
  5
66
100
AcDbEntity
  8
TEXT
100
AcDbLine
 10
18.729065
 20
0.625
 30
0.0
 11
18.729065
 21
0.901501
 31
0.0
  0
LINE
  5
67
100
AcDbEntity
  8
TEXT
100
AcDbLine
 10
16.609065
 20
0.901501
 30
0.0
 11
16.609065
 21
1.281501
 31
0.0
  0
LINE
  5
68
100
AcDbEntity
  8
TEXT
100
AcDbLine
 10
17.729065
 20
0.901501
 30
0.0
 11
17.729065
 21
1.281501
 31
0.0
  0
LINE
  5
69
100
AcDbEntity
  8
TEXT
100
AcDbLine
 10
20.099065
 20
0.901501
 30
0.0
 11
20.099065
 21
1.281501
 31
0.0
  0
TEXT
  5
6A
100
AcDbEntity
  8
TEXT
100
AcDbText
 10
16.281365
 20
0.744001
 30
0.0
 40
0.065
  1
SCALE
  7
ADESK2
100
AcDbText
  0
TEXT
  5
6B
100
AcDbEntity
  8
TEXT
100
AcDbText
 10
18.781865
 20
0.744001
 30
0.0
 40
0.065
  1
SHEET
  7
ADESK2
100
AcDbText
  0
TEXT
  5
6C
100
AcDbEntity
  8
TEXT
100
AcDbText
 10
16.316965
 20
1.167401
 30
0.0
 40
0.065
  1
SIZE
  7
ADESK2
100
AcDbText
  0
TEXT
  5
6D
100
AcDbEntity
  8
TEXT
100
AcDbText
 10
17.800065
 20
1.167401
 30
0.0
 40
0.065
  1
DWG NO.
  7
ADESK2
100
AcDbText
  0
TEXT
  5
6E
100
AcDbEntity
  8
TEXT
100
AcDbText
 10
20.179565
 20
1.167401
 30
0.0
 40
0.065
  1
REV
  7
ADESK2
100
AcDbText
  0
LINE
  5
6F
100
AcDbEntity
  8
TEXT
100
AcDbLine
 10
15.445694
 20
15.018795
 30
0.0
 11
20.5
 21
15.018795
 31
0.0
  0
LINE
  5
70
100
AcDbEntity
  8
TEXT
100
AcDbLine
 10
15.445694
 20
14.768795
 30
0.0
 11
20.5
 21
14.768795
 31
0.0
  0
LINE
  5
71
100
AcDbEntity
  8
TEXT
100
AcDbLine
 10
15.445694
 20
15.328859
 30
0.0
 11
15.445694
 21
14.768795
 31
0.0
  0
LINE
  5
72
100
AcDbEntity
  8
TEXT
100
AcDbLine
 10
15.835946
 20
14.768795
 30
0.0
 11
15.835946
 21
15.018795
 31
0.0
  0
LINE
  5
73
100
AcDbEntity
  8
TEXT
100
AcDbLine
 10
18.575946
 20
14.768795
 30
0.0
 11
18.575946
 21
15.018795
 31
0.0
  0
LINE
  5
74
100
AcDbEntity
  8
TEXT
100
AcDbLine
 10
19.455946
 20
14.768795
 30
0.0
 11
19.455946
 21
15.018795
 31
0.0
  0
TEXT
  5
75
100
AcDbEntity
  8
TEXT
100
AcDbText
 10
17.666146
 20
15.101295
 30
0.0
 40
0.065
  1
REVISIONS
  7
ADESK2
100
AcDbText
  0
TEXT
  5
76
100
AcDbEntity
  8
TEXT
100
AcDbText
 10
15.536046
 20
14.859095
 30
0.0
 40
0.065
  1
REV
  7
ADESK2
100
AcDbText
  0
TEXT
  5
77
100
AcDbEntity
  8
TEXT
100
AcDbText
 10
16.837946
 20
14.859095
 30
0.0
 40
0.065
  1
DESCRIPTION
  7
ADESK2
100
AcDbText
  0
TEXT
  5
78
100
AcDbEntity
  8
TEXT
100
AcDbText
 10
18.903646
 20
14.859095
 30
0.0
 40
0.065
  1
DATE
  7
ADESK2
100
AcDbText
  0
TEXT
  5
79
100
AcDbEntity
  8
TEXT
100
AcDbText
 10
19.697346
 20
14.859095
 30
0.0
 40
0.065
  1
APPROVED
  7
ADESK2
100
AcDbText
  0
LINE
  5
7A
100
AcDbEntity
  8
TEXT
100
AcDbLine
 10
14.229065
 20
1.591501
 30
0.0
 11
16.229065
 21
1.591501
 31
0.0
  0
TEXT
  5
7B
100
AcDbEntity
  8
TEXT
100
AcDbText
 10
14.309065
 20
1.171501
 30
0.0
 40
0.065
  1
CHECKED
  7
ADESK2
100
AcDbText
  0
TEXT
  5
7C
100
AcDbEntity
  8
TEXT
100
AcDbText
 10
14.309065
 20
0.856501
 30
0.0
 40
0.065
  1
DESIGN
  7
ADESK2
100
AcDbText
  0
LINE
  5
7D
100
AcDbEntity
  8
TEXT
100
AcDbLine
 10
15.729049
 20
1.591501
 30
0.0
 11
15.729049
 21
0.625
 31
0.0
  0
TEXT
  5
7E
100
AcDbEntity
  8
TEXT
100
AcDbText
 10
15.852468
 20
1.474951
 30
0.0
 40
0.065
  1
DATE
  7
ADESK2
100
AcDbText
  0
TEXT
  5
7F
100
AcDbEntity
  8
TEXT
100
AcDbText
 10
19.612036
 20
0.744377
 30
0.0
 40
0.065
  1
OF
  7
ADESK2
100
AcDbText
  0
ENDBLK
  5
81
100
AcDbEntity
  8
0
100
AcDbBlockEnd
  0
BLOCK
  5
A7
100
AcDbEntity
  8
0
100
AcDbBlockBegin
  2
FT-L3-F
 70
     0
 10
0.0
 20
0.0
 30
0.0
  3
FT-L3-F
  1

  0
LINE
  5
1267
100
AcDbEntity
  8
FOOT
100
AcDbLine
 10
70.848246
 20
11.333438
 30
0.0
 11
68.581601
 21
17.560989
 31
0.0
  0
LINE
  5
1268
100
AcDbEntity
  8
FOOT
100
AcDbLine
 10
35.57351
 20
2.824127
 30
0.0
 11
17.382498
 21
2.824127
 31
0.0
  0
LINE
  5
1269
100
AcDbEntity
  8
FOOT
100
AcDbLine
 10
14.999998
 20
0.0
 30
0.0
 11
0.0
 21
0.0
 31
0.0
  0
LINE
  5
126A
100
AcDbEntity
  8
FOOT
100
AcDbLine
 10
0.0
 20
0.0
 30
0.0
 11
0.0
 21
5.0
 31
0.0
  0
LINE
  5
126B
100
AcDbEntity
  8
FOOT
100
AcDbLine
 10
41.100528
 20
20.0
 30
0.0
 11
53.420179
 21
20.0
 31
0.0
  0
LINE
  5
126C
100
AcDbEntity
  8
FOOT
100
AcDbLine
 10
14.999998
 20
0.0
 30
0.0
 11
14.999998
 21
0.441627
 31
0.0
  0
LINE
  5
126D
100
AcDbEntity
  8
FOOT
100
AcDbLine
 10
72.450957
 20
16.282877
 30
0.0
 11
35.57351
 21
2.824127
 31
0.0
  0
LINE
  5
126E
100
AcDbEntity
  8
FOOT
100
AcDbLine
 10
0.0
 20
5.0
 30
0.0
 11
41.100528
 21
20.0
 31
0.0
  0
LINE
  5
126F
100
AcDbEntity
  8
FOOT
100
AcDbLine
 10
72.450957
 20
16.282877
 30
0.0
 11
69.708252
 21
23.797985
 31
0.0
  0
LINE
  5
1270
100
AcDbEntity
  8
FOOT
100
AcDbLine
 10
53.468015
 20
20.0
 30
0.0
 11
67.143785
 21
24.991093
 31
0.0
  0
ARC
  5
1271
100
AcDbEntity
  8
FOOT
100
AcDbCircle
 10
67.829465
 20
23.112305
 30
0.0
 40
2.0
100
AcDbArc
 50
20.05
 51
110.05
  0
CIRCLE
  5
1272
100
AcDbEntity
  8
FOOT
100
AcDbCircle
 10
9.369998
 20
4.775
 30
0.0
 40
1.5875
  0
CIRCLE
  5
1273
100
AcDbEntity
  8
FOOT
100
AcDbCircle
 10
46.369998
 20
14.775
 30
0.0
 40
1.5875
  0
ARC
  5
1274
100
AcDbEntity
  8
FOOT
100
AcDbCircle
 10
17.382498
 20
0.441627
 30
0.0
 40
2.3825
100
AcDbArc
 50
90.0
 51
180.0
  0
ENDBLK
  5
A8
100
AcDbEntity
  8
0
100
AcDbBlockEnd
  0
BLOCK
  5
B3B
100
AcDbEntity
  8
TEXT
100
AcDbBlockBegin
  2
D-BORDER
 70
     0
 10
0.0
 20
0.0
 30
0.0
  3
D-BORDER
  1

  0
LINE
  5
AF9
100
AcDbEntity
  8
TEXT
100
AcDbLine
 10
1.0
 20
19.947595
 30
0.0
 11
3.5625
 21
19.947595
 31
0.0
  0
LINE
  5
AFA
100
AcDbEntity
  8
TEXT
100
AcDbLine
 10
3.5625
 20
19.947595
 30
0.0
 11
3.5625
 21
20.447595
 31
0.0
  0
CIRCLE
  5
AFB
100
AcDbEntity
  8
TEXT
100
AcDbCircle
 10
1.677871
 20
20.184056
 30
0.0
 40
0.1875
  0
CIRCLE
  5
AFC
100
AcDbEntity
  8
TEXT
100
AcDbCircle
 10
1.677871
 20
20.184056
 30
0.0
 40
0.09375
  0
LINE
  5
AFD
100
AcDbEntity
  8
TEXT
  6
CENTER
100
AcDbLine
 10
1.443951
 20
20.184056
 30
0.0
 11
2.896621
 21
20.184056
 31
0.0
  0
LINE
  5
AFE
100
AcDbEntity
  8
TEXT
  6
CENTER
100
AcDbLine
 10
1.677871
 20
19.955375
 30
0.0
 11
1.677871
 21
20.423251
 31
0.0
  0
LINE
  5
AFF
100
AcDbEntity
  8
TEXT
100
AcDbLine
 10
2.146621
 20
20.277806
 30
0.0
 11
2.631263
 21
20.371556
 31
0.0
  0
LINE
  5
B00
100
AcDbEntity
  8
TEXT
100
AcDbLine
 10
2.146621
 20
20.090306
 30
0.0
 11
2.631263
 21
19.996556
 31
0.0
  0
LINE
  5
B01
100
AcDbEntity
  8
TEXT
100
AcDbLine
 10
2.146621
 20
20.090306
 30
0.0
 11
2.146621
 21
20.277806
 31
0.0
  0
LINE
  5
B02
100
AcDbEntity
  8
TEXT
100
AcDbLine
 10
2.631263
 20
20.371556
 30
0.0
 11
2.631263
 21
19.996556
 31
0.0
  0
TEXT
  5
B03
100
AcDbEntity
  8
TEXT
100
AcDbText
 10
1.1875
 20
19.762423
 30
0.0
 40
0.1
  1
THIRD ANGLE PROJECTION
100
AcDbText
  0
LINE
  5
B04
100
AcDbEntity
  8
TEXT
100
AcDbLine
 10
3.5625
 20
19.947595
 30
0.0
 11
3.5625
 21
19.697595
 31
0.0
  0
LINE
  5
B05
100
AcDbEntity
  8
TEXT
100
AcDbLine
 10
3.5625
 20
19.697595
 30
0.0
 11
1.0
 21
19.697595
 31
0.0
  0
TEXT
  5
B06
100
AcDbEntity
  8
TEXT
100
AcDbText
 10
31.135292
 20
0.744377
 30
0.0
 40
0.065
  1
OF
  7
ADESK2
100
AcDbText
  0
TEXT
  5
B07
100
AcDbEntity
  8
TEXT
100
AcDbText
 10
27.375724
 20
1.474951
 30
0.0
 40
0.065
  1
DATE
  7
ADESK2
100
AcDbText
  0
LINE
  5
B08
100
AcDbEntity
  8
TEXT
100
AcDbLine
 10
27.252305
 20
1.591501
 30
0.0
 11
27.252305
 21
0.625
 31
0.0
  0
TEXT
  5
B09
100
AcDbEntity
  8
TEXT
100
AcDbText
 10
25.832321
 20
0.856501
 30
0.0
 40
0.065
  1
DESIGN
  7
ADESK2
100
AcDbText
  0
TEXT
  5
B0A
100
AcDbEntity
  8
TEXT
100
AcDbText
 10
25.832321
 20
1.171501
 30
0.0
 40
0.065
  1
CHECKED
  7
ADESK2
100
AcDbText
  0
LINE
  5
B0B
100
AcDbEntity
  8
TEXT
100
AcDbLine
 10
25.752321
 20
1.591501
 30
0.0
 11
27.752321
 21
1.591501
 31
0.0
  0
TEXT
  5
B0C
100
AcDbEntity
  8
TEXT
100
AcDbText
 10
31.234702
 20
19.965196
 30
0.0
 40
0.065
  1
APPROVED
  7
ADESK2
100
AcDbText
  0
TEXT
  5
B0D
100
AcDbEntity
  8
TEXT
100
AcDbText
 10
30.441002
 20
19.965196
 30
0.0
 40
0.065
  1
DATE
  7
ADESK2
100
AcDbText
  0
TEXT
  5
B0E
100
AcDbEntity
  8
TEXT
100
AcDbText
 10
28.375302
 20
19.965196
 30
0.0
 40
0.065
  1
DESCRIPTION
  7
ADESK2
100
AcDbText
  0
TEXT
  5
B0F
100
AcDbEntity
  8
TEXT
100
AcDbText
 10
27.073402
 20
19.965196
 30
0.0
 40
0.065
  1
REV
  7
ADESK2
100
AcDbText
  0
TEXT
  5
B10
100
AcDbEntity
  8
TEXT
100
AcDbText
 10
29.203502
 20
20.207396
 30
0.0
 40
0.065
  1
REVISIONS
  7
ADESK2
100
AcDbText
  0
LINE
  5
B11
100
AcDbEntity
  8
TEXT
100
AcDbLine
 10
30.993302
 20
19.874896
 30
0.0
 11
30.993302
 21
20.124896
 31
0.0
  0
LINE
  5
B12
100
AcDbEntity
  8
TEXT
100
AcDbLine
 10
30.113302
 20
19.874896
 30
0.0
 11
30.113302
 21
20.124896
 31
0.0
  0
LINE
  5
B13
100
AcDbEntity
  8
TEXT
100
AcDbLine
 10
27.373302
 20
19.874896
 30
0.0
 11
27.373302
 21
20.124896
 31
0.0
  0
LINE
  5
B14
100
AcDbEntity
  8
TEXT
100
AcDbLine
 10
26.983049
 20
20.434959
 30
0.0
 11
26.983049
 21
19.874896
 31
0.0
  0
LINE
  5
B15
100
AcDbEntity
  8
TEXT
100
AcDbLine
 10
26.983049
 20
19.874896
 30
0.0
 11
32.037356
 21
19.874896
 31
0.0
  0
LINE
  5
B16
100
AcDbEntity
  8
TEXT
100
AcDbLine
 10
26.983049
 20
20.124896
 30
0.0
 11
32.037356
 21
20.124896
 31
0.0
  0
TEXT
  5
B17
100
AcDbEntity
  8
TEXT
100
AcDbText
 10
31.702821
 20
1.167401
 30
0.0
 40
0.065
  1
REV
  7
ADESK2
100
AcDbText
  0
TEXT
  5
B18
100
AcDbEntity
  8
TEXT
100
AcDbText
 10
29.323321
 20
1.167401
 30
0.0
 40
0.065
  1
DWG NO.
  7
ADESK2
100
AcDbText
  0
TEXT
  5
B19
100
AcDbEntity
  8
TEXT
100
AcDbText
 10
27.840221
 20
1.167401
 30
0.0
 40
0.065
  1
SIZE
  7
ADESK2
100
AcDbText
  0
TEXT
  5
B1A
100
AcDbEntity
  8
TEXT
100
AcDbText
 10
30.305121
 20
0.744001
 30
0.0
 40
0.065
  1
SHEET
  7
ADESK2
100
AcDbText
  0
TEXT
  5
B1B
100
AcDbEntity
  8
TEXT
100
AcDbText
 10
27.804621
 20
0.744001
 30
0.0
 40
0.065
  1
SCALE
  7
ADESK2
100
AcDbText
  0
LINE
  5
B1C
100
AcDbEntity
  8
TEXT
100
AcDbLine
 10
31.622321
 20
0.901501
 30
0.0
 11
31.622321
 21
1.281501
 31
0.0
  0
LINE
  5
B1D
100
AcDbEntity
  8
TEXT
100
AcDbLine
 10
29.252321
 20
0.901501
 30
0.0
 11
29.252321
 21
1.281501
 31
0.0
  0
LINE
  5
B1E
100
AcDbEntity
  8
TEXT
100
AcDbLine
 10
28.132321
 20
0.901501
 30
0.0
 11
28.132321
 21
1.281501
 31
0.0
  0
LINE
  5
B1F
100
AcDbEntity
  8
TEXT
100
AcDbLine
 10
30.252321
 20
0.625
 30
0.0
 11
30.252321
 21
0.901501
 31
0.0
  0
LINE
  5
B20
100
AcDbEntity
  8
TEXT
100
AcDbLine
 10
28.752321
 20
0.625
 30
0.0
 11
28.752321
 21
0.901501
 31
0.0
  0
LINE
  5
B21
100
AcDbEntity
  8
BORDER
100
AcDbLine
 10
27.752321
 20
0.625
 30
0.0
 11
27.752321
 21
2.401501
 31
0.0
  0
LINE
  5
B22
100
AcDbEntity
  8
BORDER
100
AcDbLine
 10
27.752321
 20
1.901501
 30
0.0
 11
32.024118
 21
1.901501
 31
0.0
  0
LINE
  5
B23
100
AcDbEntity
  8
TEXT
100
AcDbLine
 10
27.752321
 20
0.901501
 30
0.0
 11
32.024118
 21
0.901501
 31
0.0
  0
LINE
  5
B24
100
AcDbEntity
  8
TEXT
100
AcDbLine
 10
25.752321
 20
1.281501
 30
0.0
 11
32.024118
 21
1.281501
 31
0.0
  0
LINE
  5
B25
100
AcDbEntity
  8
TEXT
100
AcDbLine
 10
25.752321
 20
0.966501
 30
0.0
 11
27.752321
 21
0.966501
 31
0.0
  0
LINE
  5
B26
100
AcDbEntity
  8
BORDER
100
AcDbLine
 10
25.752321
 20
2.401501
 30
0.0
 11
32.024118
 21
2.401501
 31
0.0
  0
LINE
  5
B27
100
AcDbEntity
  8
BORDER
100
AcDbLine
 10
25.752321
 20
0.625
 30
0.0
 11
25.752321
 21
2.824147
 31
0.0
  0
TEXT
  5
B28
100
AcDbEntity
  8
TEXT
100
AcDbText
 10
25.820631
 20
1.479964
 30
0.0
 40
0.065
  1
DRAWN
  7
ADESK2
100
AcDbText
  0
TEXT
  5
B29
100
AcDbEntity
  8
BORDER
100
AcDbText
 10
25.930285
 20
2.549228
 30
0.0
 40
0.15
  1
UNIVERSITY OF CALIFORNIA @ SANTA BARBARA
100
AcDbText
  0
LINE
  5
B2A
100
AcDbEntity
  8
BORDER
100
AcDbLine
 10
25.75128
 20
2.824147
 30
0.0
 11
32.024118
 21
2.824147
 31
0.0
  0
LINE
  5
B2B
100
AcDbEntity
  8
BORDER
100
AcDbLine
 10
32.04642
 20
0.625
 30
0.0
 11
32.04642
 21
20.447595
 31
0.0
  0
LINE
  5
B2C
100
AcDbEntity
  8
BORDER
100
AcDbLine
 10
1.0
 20
20.447595
 30
0.0
 11
1.0
 21
0.625
 31
0.0
  0
LINE
  5
B2D
100
AcDbEntity
  8
BORDER
100
AcDbLine
 10
1.0
 20
0.625
 30
0.0
 11
32.04642
 21
0.625
 31
0.0
  0
TEXT
  5
B2E
100
AcDbEntity
  8
TEXT
100
AcDbText
 10
28.203393
 20
1.165354
 30
0.0
 40
0.075
  1
DIRECTORY
100
AcDbText
  0
LINE
  5
B2F
100
AcDbEntity
  8
BORDER
100
AcDbLine
 10
1.0
 20
20.447595
 30
0.0
 11
32.04642
 21
20.447595
 31
0.0
  0
TEXT
  5
B30
100
AcDbEntity
  8
BORDER
100
AcDbText
 10
28.439864
 20
2.075566
 30
0.0
 40
0.15
  1
HIGH ENERGY PHYSICS
100
AcDbText
  0
TEXT
  5
B31
100
AcDbEntity
  8
BORDER
100
AcDbText
 10
27.876167
 20
0.934778
 30
0.0
 40
0.2
  1
D
100
AcDbText
  0
TEXT
  5
B32
100
AcDbEntity
  8
TEXT
100
AcDbText
 10
25.981606
 20
2.285089
 30
0.0
 40
0.065
  1
UNLESS OTHERWISE SPECIFIED:
  7
ADESK2
 72
     1
 11
26.752321
 21
2.285089
 31
0.0
100
AcDbText
  0
TEXT
  5
B33
100
AcDbEntity
  8
TEXT
100
AcDbText
 10
26.055892
 20
2.179851
 30
0.0
 40
0.065
  1
DIMENSIONS ARE IN INCHES
  7
ADESK2
 72
     1
 11
26.752321
 21
2.179851
 31
0.0
100
AcDbText
  0
TEXT
  5
B34
100
AcDbEntity
  8
TEXT
100
AcDbText
 10
26.45363
 20
2.074613
 30
0.0
 40
0.065
  1
TOLERANCES
  7
ADESK2
 72
     1
 11
26.752321
 21
2.074613
 31
0.0
100
AcDbText
  0
TEXT
  5
B35
100
AcDbEntity
  8
TEXT
100
AcDbText
 10
26.067279
 20
1.966743
 30
0.0
 40
0.065
  1
DECIMALS
  7
ADESK2
100
AcDbText
  0
TEXT
  5
B36
100
AcDbEntity
  8
TEXT
100
AcDbText
 10
26.067279
 20
1.861505
 30
0.0
 40
0.065
  1
.XX  %%P .05
  7
ADESK2
100
AcDbText
  0
TEXT
  5
B37
100
AcDbEntity
  8
TEXT
100
AcDbText
 10
26.067279
 20
1.756267
 30
0.0
 40
0.065
  1
.XXX %%P .005
  7
ADESK2
100
AcDbText
  0
TEXT
  5
B38
100
AcDbEntity
  8
TEXT
100
AcDbText
 10
26.137916
 20
1.653744
 30
0.0
 40
0.065
  1
DO NOT SCALE DRAWING
  7
ADESK2
 72
     1
 11
26.752321
 21
1.653744
 31
0.0
100
AcDbText
  0
TEXT
  5
B39
100
AcDbEntity
  8
TEXT
100
AcDbText
 10
26.931176
 20
1.966743
 30
0.0
 40
0.065
  1
ANGULAR
  7
ADESK2
100
AcDbText
  0
TEXT
  5
B3A
100
AcDbEntity
  8
TEXT
100
AcDbText
 10
26.931176
 20
1.861505
 30
0.0
 40
0.065
  1
  %%P 0.5%%D
  7
ADESK2
100
AcDbText
  0
ENDBLK
  5
B3C
100
AcDbEntity
  8
TEXT
100
AcDbBlockEnd
  0
BLOCK
  5
C8F
100
AcDbEntity
  8
0
100
AcDbBlockBegin
  2
*U3
 70
    65
 10
0.0
 20
0.0
 30
0.0
  3
*U3
  1
*TB
  0
CIRCLE
  5
C90
100
AcDbEntity
  8
FOOT
100
AcDbCircle
 10
0.0
 20
0.0
 30
0.0
 40
0.046875
  0
LINE
  5
C91
100
AcDbEntity
  8
CENTER
100
AcDbLine
 10
-0.015625
 20
0.0
 30
0.0
 11
0.015625
 21
0.0
 31
0.0
  0
LINE
  5
C92
100
AcDbEntity
  8
CENTER
100
AcDbLine
 10
0.0
 20
-0.015625
 30
0.0
 11
0.0
 21
0.015625
 31
0.0
  0
LINE
  5
C93
100
AcDbEntity
  8
CENTER
100
AcDbLine
 10
0.03125
 20
0.0
 30
0.0
 11
0.171875
 21
0.0
 31
0.0
  0
LINE
  5
C94
100
AcDbEntity
  8
CENTER
100
AcDbLine
 10
0.0
 20
0.03125
 30
0.0
 11
0.0
 21
0.171875
 31
0.0
  0
LINE
  5
C95
100
AcDbEntity
  8
CENTER
100
AcDbLine
 10
-0.03125
 20
0.0
 30
0.0
 11
-0.171875
 21
0.0
 31
0.0
  0
LINE
  5
C96
100
AcDbEntity
  8
CENTER
100
AcDbLine
 10
0.0
 20
-0.03125
 30
0.0
 11
0.0
 21
-0.171875
 31
0.0
  0
ENDBLK
  5
C97
100
AcDbEntity
  8
0
100
AcDbBlockEnd
  0
BLOCK
  5
C9B
100
AcDbEntity
  8
0
100
AcDbBlockBegin
  2
*U4
 70
    65
 10
0.0
 20
0.0
 30
0.0
  3
*U4
  1
*TB
  0
CIRCLE
  5
C9C
100
AcDbEntity
  8
FOOT
100
AcDbCircle
 10
0.0
 20
0.0
 30
0.0
 40
0.058
  0
LINE
  5
C9D
100
AcDbEntity
  8
CENTER
100
AcDbLine
 10
-0.019333
 20
0.0
 30
0.0
 11
0.019333
 21
0.0
 31
0.0
  0
LINE
  5
C9E
100
AcDbEntity
  8
CENTER
100
AcDbLine
 10
0.0
 20
-0.019333
 30
0.0
 11
0.0
 21
0.019333
 31
0.0
  0
LINE
  5
C9F
100
AcDbEntity
  8
CENTER
100
AcDbLine
 10
0.038667
 20
0.0
 30
0.0
 11
0.183
 21
0.0
 31
0.0
  0
LINE
  5
CA0
100
AcDbEntity
  8
CENTER
100
AcDbLine
 10
0.0
 20
0.038667
 30
0.0
 11
0.0
 21
0.183
 31
0.0
  0
LINE
  5
CA1
100
AcDbEntity
  8
CENTER
100
AcDbLine
 10
-0.038667
 20
0.0
 30
0.0
 11
-0.183
 21
0.0
 31
0.0
  0
LINE
  5
CA2
100
AcDbEntity
  8
CENTER
100
AcDbLine
 10
0.0
 20
-0.038667
 30
0.0
 11
0.0
 21
-0.183
 31
0.0
  0
ENDBLK
  5
CA3
100
AcDbEntity
  8
0
100
AcDbBlockEnd
  0
BLOCK
  5
CAE
100
AcDbEntity
  8
0
100
AcDbBlockBegin
  2
*U5
 70
    65
 10
0.0
 20
0.0
 30
0.0
  3
*U5
  1
*TB
  0
POLYLINE
  5
CAF
100
AcDbEntity
  8
FOOT
100
AcDb2dPolyline
 66
     1
 10
0.0
 20
0.0
 30
0.0
 70
     1
  0
VERTEX
  5
CB0
100
AcDbEntity
  8
FOOT
100
AcDbVertex
100
AcDb2dVertex
 10
0.0
 20
0.063
 30
0.0
 42
1.0
  0
VERTEX
  5
CB1
100
AcDbEntity
  8
FOOT
100
AcDbVertex
100
AcDb2dVertex
 10
0.0
 20
-0.063
 30
0.0
  0
VERTEX
  5
CB2
100
AcDbEntity
  8
FOOT
100
AcDbVertex
100
AcDb2dVertex
 10
0.185
 20
-0.063
 30
0.0
 42
1.0
  0
VERTEX
  5
CB3
100
AcDbEntity
  8
FOOT
100
AcDbVertex
100
AcDb2dVertex
 10
0.185
 20
0.063
 30
0.0
  0
SEQEND
  5
CB4
100
AcDbEntity
  8
FOOT
  0
LINE
  5
CB5
100
AcDbEntity
  8
CENTER
100
AcDbLine
 10
-0.021
 20
0.0
 30
0.0
 11
0.021
 21
0.0
 31
0.0
  0
LINE
  5
CB6
100
AcDbEntity
  8
CENTER
100
AcDbLine
 10
0.0
 20
-0.021
 30
0.0
 11
0.0
 21
0.021
 31
0.0
  0
LINE
  5
CB7
100
AcDbEntity
  8
CENTER
100
AcDbLine
 10
0.042
 20
0.0
 30
0.0
 11
0.188
 21
0.0
 31
0.0
  0
LINE
  5
CB8
100
AcDbEntity
  8
CENTER
100
AcDbLine
 10
0.0
 20
0.042
 30
0.0
 11
0.0
 21
0.188
 31
0.0
  0
LINE
  5
CB9
100
AcDbEntity
  8
CENTER
100
AcDbLine
 10
-0.042
 20
0.0
 30
0.0
 11
-0.188
 21
0.0
 31
0.0
  0
LINE
  5
CBA
100
AcDbEntity
  8
CENTER
100
AcDbLine
 10
0.0
 20
-0.042
 30
0.0
 11
0.0
 21
-0.188
 31
0.0
  0
LINE
  5
CBB
100
AcDbEntity
  8
CENTER
100
AcDbLine
 10
0.164
 20
0.0
 30
0.0
 11
0.206
 21
0.0
 31
0.0
  0
LINE
  5
CBC
100
AcDbEntity
  8
CENTER
100
AcDbLine
 10
0.185
 20
-0.021
 30
0.0
 11
0.185
 21
0.021
 31
0.0
  0
LINE
  5
CBD
100
AcDbEntity
  8
CENTER
100
AcDbLine
 10
0.227
 20
0.0
 30
0.0
 11
0.373
 21
0.0
 31
0.0
  0
LINE
  5
CBE
100
AcDbEntity
  8
CENTER
100
AcDbLine
 10
0.185
 20
0.042
 30
0.0
 11
0.185
 21
0.188
 31
0.0
  0
LINE
  5
CBF
100
AcDbEntity
  8
CENTER
100
AcDbLine
 10
0.143
 20
0.0
 30
0.0
 11
-0.003
 21
0.0
 31
0.0
  0
LINE
  5
CC0
100
AcDbEntity
  8
CENTER
100
AcDbLine
 10
0.185
 20
-0.042
 30
0.0
 11
0.185
 21
-0.188
 31
0.0
  0
ENDBLK
  5
CC1
100
AcDbEntity
  8
0
100
AcDbBlockEnd
  0
BLOCK
  5
1346
100
AcDbEntity
  8
0
100
AcDbBlockBegin
  2
*D6
 70
    65
 10
0.0
 20
0.0
 30
0.0
  3
*D6
  1
*TB
  0
LINE
  5
1347
100
AcDbEntity
  8
0
  6
BYBLOCK
 62
     0
100
AcDbLine
 10
16.241107
 20
15.267128
 30
0.0
 11
16.241107
 21
12.64317
 31
0.0
  0
LINE
  5
1348
100
AcDbEntity
  8
0
  6
BYBLOCK
 62
     0
100
AcDbLine
 10
16.376107
 20
12.77817
 30
0.0
 11
16.511107
 21
12.77817
 31
0.0
  0
LINE
  5
1349
100
AcDbEntity
  8
0
  6
BYBLOCK
 62
     0
100
AcDbLine
 10
13.856072
 20
12.77817
 30
0.0
 11
13.721072
 21
12.77817
 31
0.0
  0
SOLID
  5
134A
100
AcDbEntity
  8
0
  6
BYBLOCK
 62
     0
100
AcDbTrace
 10
16.376107
 20
12.80067
 30
0.0
 11
16.376107
 21
12.75567
 31
0.0
 12
16.241107
 22
12.77817
 32
0.0
 13
16.241107
 23
12.77817
 33
0.0
  0
SOLID
  5
134B
100
AcDbEntity
  8
0
  6
BYBLOCK
 62
     0
100
AcDbTrace
 10
13.856072
 20
12.80067
 30
0.0
 11
13.856072
 21
12.75567
 31
0.0
 12
13.991072
 22
12.77817
 32
0.0
 13
13.991072
 23
12.77817
 33
0.0
  0
MTEXT
  5
134C
100
AcDbEntity
  8
0
  6
BYBLOCK
 62
     0
100
AcDbMText
 10
12.101072
 20
12.77817
 30
0.0
 40
0.135
 41
0.0
 71
     5
 72
     1
  1
\A1;2.250"±0.001"[57.15mm±0.03mm]
  0
POINT
  5
134D
100
AcDbEntity
  8
DEFPOINTS
  6
BYBLOCK
 62
     0
100
AcDbPoint
 10
16.241107
 20
15.314003
 30
0.0
  0
POINT
  5
134E
100
AcDbEntity
  8
DEFPOINTS
  6
BYBLOCK
 62
     0
100
AcDbPoint
 10
13.991072
 20
18.569991
 30
0.0
  0
POINT
  5
134F
100
AcDbEntity
  8
DEFPOINTS
  6
BYBLOCK
 62
     0
100
AcDbPoint
 10
13.991072
 20
12.77817
 30
0.0
  0
ENDBLK
  5
1350
100
AcDbEntity
  8
0
100
AcDbBlockEnd
  0
BLOCK
  5
1351
100
AcDbEntity
  8
0
100
AcDbBlockBegin
  2
*D7
 70
    65
 10
0.0
 20
0.0
 30
0.0
  3
*D7
  1
*TB
  0
LINE
  5
1352
100
AcDbEntity
  8
0
  6
BYBLOCK
 62
     0
100
AcDbLine
 10
15.116116
 20
15.256003
 30
0.0
 11
15.116116
 21
13.073075
 31
0.0
  0
LINE
  5
1353
100
AcDbEntity
  8
0
  6
BYBLOCK
 62
     0
100
AcDbLine
 10
15.251116
 20
13.208075
 30
0.0
 11
15.386116
 21
13.208075
 31
0.0
  0
LINE
  5
1354
100
AcDbEntity
  8
0
  6
BYBLOCK
 62
     0
100
AcDbLine
 10
13.856072
 20
13.208075
 30
0.0
 11
13.721072
 21
13.208075
 31
0.0
  0
SOLID
  5
1355
100
AcDbEntity
  8
0
  6
BYBLOCK
 62
     0
100
AcDbTrace
 10
15.251116
 20
13.230575
 30
0.0
 11
15.251116
 21
13.185575
 31
0.0
 12
15.116116
 22
13.208075
 32
0.0
 13
15.116116
 23
13.208075
 33
0.0
  0
SOLID
  5
1356
100
AcDbEntity
  8
0
  6
BYBLOCK
 62
     0
100
AcDbTrace
 10
13.856072
 20
13.230575
 30
0.0
 11
13.856072
 21
13.185575
 31
0.0
 12
13.991072
 22
13.208075
 32
0.0
 13
13.991072
 23
13.208075
 33
0.0
  0
MTEXT
  5
1357
100
AcDbEntity
  8
0
  6
BYBLOCK
 62
     0
100
AcDbMText
 10
12.866072
 20
13.208075
 30
0.0
 40
0.135
 41
0.0
 71
     5
 72
     1
  1
\A1;1.125"[28.58mm]
  0
POINT
  5
1358
100
AcDbEntity
  8
DEFPOINTS
  6
BYBLOCK
 62
     0
100
AcDbPoint
 10
15.116116
 20
15.302878
 30
0.0
  0
POINT
  5
1359
100
AcDbEntity
  8
DEFPOINTS
  6
BYBLOCK
 62
     0
100
AcDbPoint
 10
13.991072
 20
18.569991
 30
0.0
  0
POINT
  5
135A
100
AcDbEntity
  8
DEFPOINTS
  6
BYBLOCK
 62
     0
100
AcDbPoint
 10
13.991072
 20
13.208075
 30
0.0
  0
ENDBLK
  5
135B
100
AcDbEntity
  8
0
100
AcDbBlockEnd
  0
BLOCK
  5
1ABD
100
AcDbEntity
  8
0
100
AcDbBlockBegin
  2
*D8
 70
    65
 10
0.0
 20
0.0
 30
0.0
  3
*D8
  1
*TB
  0
LINE
  5
1ABE
100
AcDbEntity
  8
0
  6
BYBLOCK
 62
     0
100
AcDbLine
 10
16.588267
 20
16.36029
 30
0.0
 11
19.066754
 21
16.36029
 31
0.0
  0
LINE
  5
1ABF
100
AcDbEntity
  8
0
  6
BYBLOCK
 62
     0
100
AcDbLine
 10
16.526258
 20
16.680937
 30
0.0
 11
19.066754
 21
16.680937
 31
0.0
  0
LINE
  5
1AC0
100
AcDbEntity
  8
0
  6
BYBLOCK
 62
     0
100
AcDbLine
 10
18.931754
 20
16.22529
 30
0.0
 11
18.931754
 21
16.09029
 31
0.0
  0
LINE
  5
1AC1
100
AcDbEntity
  8
0
  6
BYBLOCK
 62
     0
100
AcDbLine
 10
18.931754
 20
16.815937
 30
0.0
 11
18.931754
 21
16.950937
 31
0.0
  0
LINE
  5
1AC2
100
AcDbEntity
  8
0
  6
BYBLOCK
 62
     0
100
AcDbLine
 10
18.931754
 20
16.950937
 30
0.0
 11
19.066754
 21
16.950937
 31
0.0
  0
SOLID
  5
1AC3
100
AcDbEntity
  8
0
  6
BYBLOCK
 62
     0
100
AcDbTrace
 10
18.909254
 20
16.22529
 30
0.0
 11
18.954254
 21
16.22529
 31
0.0
 12
18.931754
 22
16.36029
 32
0.0
 13
18.931754
 23
16.36029
 33
0.0
  0
SOLID
  5
1AC4
100
AcDbEntity
  8
0
  6
BYBLOCK
 62
     0
100
AcDbTrace
 10
18.909254
 20
16.815937
 30
0.0
 11
18.954254
 21
16.815937
 31
0.0
 12
18.931754
 22
16.680937
 32
0.0
 13
18.931754
 23
16.680937
 33
0.0
  0
MTEXT
  5
1AC5
100
AcDbEntity
  8
0
  6
BYBLOCK
 62
     0
100
AcDbMText
 10
19.843004
 20
16.950937
 30
0.0
 40
0.135
 41
0.0
 71
     5
 72
     1
  1
\A1;0.321"[8.14mm]
  0
POINT
  5
1AC6
100
AcDbEntity
  8
DEFPOINTS
  6
BYBLOCK
 62
     0
100
AcDbPoint
 10
16.541392
 20
16.36029
 30
0.0
  0
POINT
  5
1AC7
100
AcDbEntity
  8
DEFPOINTS
  6
BYBLOCK
 62
     0
100
AcDbPoint
 10
16.479383
 20
16.680937
 30
0.0
  0
POINT
  5
1AC8
100
AcDbEntity
  8
DEFPOINTS
  6
BYBLOCK
 62
     0
100
AcDbPoint
 10
18.931754
 20
16.680937
 30
0.0
  0
ENDBLK
  5
1AC9
100
AcDbEntity
  8
0
100
AcDbBlockEnd
  0
BLOCK
  5
1B27
100
AcDbEntity
  8
0
100
AcDbBlockBegin
  2
*D9
 70
    65
 10
0.0
 20
0.0
 30
0.0
  3
*D9
  1
*TB
  0
LINE
  5
1B28
100
AcDbEntity
  8
0
  6
BYBLOCK
 62
     0
100
AcDbLine
 10
16.588267
 20
14.679123
 30
0.0
 11
25.912325
 21
14.679123
 31
0.0
  0
LINE
  5
1B29
100
AcDbEntity
  8
0
  6
BYBLOCK
 62
     0
100
AcDbLine
 10
16.526258
 20
16.680937
 30
0.0
 11
25.912325
 21
16.680937
 31
0.0
  0
LINE
  5
1B2A
100
AcDbEntity
  8
0
  6
BYBLOCK
 62
     0
100
AcDbLine
 10
25.777325
 20
14.814123
 30
0.0
 11
25.777325
 21
15.54503
 31
0.0
  0
LINE
  5
1B2B
100
AcDbEntity
  8
0
  6
BYBLOCK
 62
     0
100
AcDbLine
 10
25.777325
 20
16.545937
 30
0.0
 11
25.777325
 21
15.81503
 31
0.0
  0
SOLID
  5
1B2C
100
AcDbEntity
  8
0
  6
BYBLOCK
 62
     0
100
AcDbTrace
 10
25.754825
 20
14.814123
 30
0.0
 11
25.799825
 21
14.814123
 31
0.0
 12
25.777325
 22
14.679123
 32
0.0
 13
25.777325
 23
14.679123
 33
0.0
  0
SOLID
  5
1B2D
100
AcDbEntity
  8
0
  6
BYBLOCK
 62
     0
100
AcDbTrace
 10
25.754825
 20
16.545937
 30
0.0
 11
25.799825
 21
16.545937
 31
0.0
 12
25.777325
 22
16.680937
 32
0.0
 13
25.777325
 23
16.680937
 33
0.0
  0
MTEXT
  5
1B2E
100
AcDbEntity
  8
0
  6
BYBLOCK
 62
     0
100
AcDbMText
 10
25.777325
 20
15.68003
 30
0.0
 40
0.135
 41
0.0
 71
     5
 72
     1
  1
\A1;2.002"[50.85mm]
  0
POINT
  5
1B2F
100
AcDbEntity
  8
DEFPOINTS
  6
BYBLOCK
 62
     0
100
AcDbPoint
 10
16.541392
 20
14.679123
 30
0.0
  0
POINT
  5
1B30
100
AcDbEntity
  8
DEFPOINTS
  6
BYBLOCK
 62
     0
100
AcDbPoint
 10
16.479383
 20
16.680937
 30
0.0
  0
POINT
  5
1B31
100
AcDbEntity
  8
DEFPOINTS
  6
BYBLOCK
 62
     0
100
AcDbPoint
 10
25.777325
 20
16.680937
 30
0.0
  0
ENDBLK
  5
1B32
100
AcDbEntity
  8
0
100
AcDbBlockEnd
  0
BLOCK
  5
F56
100
AcDbEntity
  8
0
100
AcDbBlockBegin
  2
*U10
 70
    65
 10
0.0
 20
0.0
 30
0.0
  3
*U10
  1
*TB
  0
CIRCLE
  5
F57
100
AcDbEntity
  8
FOOT
100
AcDbCircle
 10
0.0
 20
0.0
 30
0.0
 40
0.046875
  0
LINE
  5
F58
100
AcDbEntity
  8
CENTER
100
AcDbLine
 10
-0.015625
 20
0.0
 30
0.0
 11
0.015625
 21
0.0
 31
0.0
  0
LINE
  5
F59
100
AcDbEntity
  8
CENTER
100
AcDbLine
 10
0.0
 20
-0.015625
 30
0.0
 11
0.0
 21
0.015625
 31
0.0
  0
LINE
  5
F5A
100
AcDbEntity
  8
CENTER
100
AcDbLine
 10
0.03125
 20
0.0
 30
0.0
 11
0.171875
 21
0.0
 31
0.0
  0
LINE
  5
F5B
100
AcDbEntity
  8
CENTER
100
AcDbLine
 10
0.0
 20
0.03125
 30
0.0
 11
0.0
 21
0.171875
 31
0.0
  0
LINE
  5
F5C
100
AcDbEntity
  8
CENTER
100
AcDbLine
 10
-0.03125
 20
0.0
 30
0.0
 11
-0.171875
 21
0.0
 31
0.0
  0
LINE
  5
F5D
100
AcDbEntity
  8
CENTER
100
AcDbLine
 10
0.0
 20
-0.03125
 30
0.0
 11
0.0
 21
-0.171875
 31
0.0
  0
ENDBLK
  5
F5E
100
AcDbEntity
  8
0
100
AcDbBlockEnd
  0
BLOCK
  5
F8F
100
AcDbEntity
  8
FOOT
100
AcDbBlockBegin
  2
CUTOUT
 70
     0
 10
0.0
 20
0.0
 30
0.0
  3
CUTOUT
  1

  0
LINE
  5
F77
100
AcDbEntity
  8
FOOT
100
AcDbLine
 10
-0.110277
 20
0.377515
 30
0.0
 11
-0.196874
 21
0.25628
 31
0.0
  0
LINE
  5
F78
100
AcDbEntity
  8
FOOT
100
AcDbLine
 10
-0.196874
 20
0.535078
 30
0.0
 11
-0.110277
 21
0.413843
 31
0.0
  0
LINE
  5
F79
100
AcDbEntity
  8
FOOT
100
AcDbLine
 10
-0.253553
 20
0.274443
 30
0.0
 11
-0.253553
 21
0.516914
 31
0.0
  0
ARC
  5
F7A
100
AcDbEntity
  8
FOOT
100
AcDbCircle
 10
-0.222303
 20
0.516914
 30
0.0
 40
0.03125
100
AcDbArc
 50
35.537678
 51
180.0
  0
ARC
  5
F7B
100
AcDbEntity
  8
FOOT
100
AcDbCircle
 10
-0.222303
 20
0.274443
 30
0.0
 40
0.03125
100
AcDbArc
 50
180.0
 51
324.462322
  0
LINE
  5
F7C
100
AcDbEntity
  8
FOOT
100
AcDbLine
 10
0.086151
 20
0.163843
 30
0.0
 11
-0.009374
 21
0.297578
 31
0.0
  0
LINE
  5
F7D
100
AcDbEntity
  8
FOOT
100
AcDbLine
 10
-0.060232
 20
0.297578
 30
0.0
 11
-0.155758
 21
0.163843
 31
0.0
  0
LINE
  5
F7E
100
AcDbEntity
  8
FOOT
100
AcDbLine
 10
0.183947
 20
0.274443
 30
0.0
 11
0.183947
 21
0.516914
 31
0.0
  0
LINE
  5
F7F
100
AcDbEntity
  8
FOOT
100
AcDbLine
 10
0.127268
 20
0.535078
 30
0.0
 11
0.040671
 21
0.413843
 31
0.0
  0
LINE
  5
F80
100
AcDbEntity
  8
FOOT
100
AcDbLine
 10
0.086151
 20
0.627515
 30
0.0
 11
-0.009374
 21
0.49378
 31
0.0
  0
LINE
  5
F81
100
AcDbEntity
  8
FOOT
100
AcDbLine
 10
-0.130329
 20
0.676929
 30
0.0
 11
0.060722
 21
0.676929
 31
0.0
  0
ARC
  5
F82
100
AcDbEntity
  8
FOOT
100
AcDbCircle
 10
-0.034803
 20
0.511943
 30
0.0
 40
0.03125
100
AcDbArc
 50
215.537678
 51
324.462322
  0
LINE
  5
F83
100
AcDbEntity
  8
FOOT
100
AcDbLine
 10
-0.060232
 20
0.49378
 30
0.0
 11
-0.155758
 21
0.627515
 31
0.0
  0
ARC
  5
F84
100
AcDbEntity
  8
FOOT
100
AcDbCircle
 10
-0.130329
 20
0.645679
 30
0.0
 40
0.03125
100
AcDbArc
 50
90.0
 51
215.537678
  0
ARC
  5
F85
100
AcDbEntity
  8
FOOT
100
AcDbCircle
 10
0.152697
 20
0.516914
 30
0.0
 40
0.03125
100
AcDbArc
 50
0.0
 51
144.462322
  0
ARC
  5
F86
100
AcDbEntity
  8
FOOT
100
AcDbCircle
 10
0.060722
 20
0.645679
 30
0.0
 40
0.03125
100
AcDbArc
 50
324.462322
 51
90.0
  0
ARC
  5
F87
100
AcDbEntity
  8
FOOT
100
AcDbCircle
 10
-0.135707
 20
0.395679
 30
0.0
 40
0.03125
100
AcDbArc
 50
324.462322
 51
35.537678
  0
ARC
  5
F88
100
AcDbEntity
  8
FOOT
100
AcDbCircle
 10
-0.034803
 20
0.279414
 30
0.0
 40
0.03125
100
AcDbArc
 50
35.537678
 51
144.462322
  0
ARC
  5
F89
100
AcDbEntity
  8
FOOT
100
AcDbCircle
 10
0.152697
 20
0.274443
 30
0.0
 40
0.03125
100
AcDbArc
 50
215.537678
 51
0.0
  0
ARC
  5
F8A
100
AcDbEntity
  8
FOOT
100
AcDbCircle
 10
0.0661
 20
0.395679
 30
0.0
 40
0.03125
100
AcDbArc
 50
144.462322
 51
215.537678
  0
LINE
  5
F8B
100
AcDbEntity
  8
FOOT
100
AcDbLine
 10
0.040671
 20
0.377515
 30
0.0
 11
0.127268
 21
0.25628
 31
0.0
  0
LINE
  5
F8C
100
AcDbEntity
  8
FOOT
100
AcDbLine
 10
-0.130329
 20
0.114429
 30
0.0
 11
0.060722
 21
0.114429
 31
0.0
  0
ARC
  5
F8D
100
AcDbEntity
  8
FOOT
100
AcDbCircle
 10
-0.130329
 20
0.145679
 30
0.0
 40
0.03125
100
AcDbArc
 50
144.462322
 51
270.0
  0
ARC
  5
F8E
100
AcDbEntity
  8
FOOT
100
AcDbCircle
 10
0.060722
 20
0.145679
 30
0.0
 40
0.03125
100
AcDbArc
 50
270.0
 51
35.537678
  0
ENDBLK
  5
F90
100
AcDbEntity
  8
FOOT
100
AcDbBlockEnd
  0
BLOCK
  5
FBF
100
AcDbEntity
  8
FOOT
100
AcDbBlockBegin
  2
CUTOUT2
 70
     0
 10
0.0
 20
0.0
 30
0.0
  3
CUTOUT2
  1

  0
LINE
  5
F97
100
AcDbEntity
  8
FOOT
100
AcDbLine
 10
-0.106727
 20
0.200539
 30
0.0
 11
-0.193324
 21
0.079304
 31
0.0
  0
LINE
  5
F98
100
AcDbEntity
  8
FOOT
100
AcDbLine
 10
-0.193324
 20
0.358102
 30
0.0
 11
-0.106727
 21
0.236866
 31
0.0
  0
LINE
  5
F99
100
AcDbEntity
  8
FOOT
100
AcDbLine
 10
-0.250003
 20
0.097467
 30
0.0
 11
-0.250003
 21
0.339938
 31
0.0
  0
ARC
  5
F9A
100
AcDbEntity
  8
FOOT
100
AcDbCircle
 10
-0.218753
 20
0.339938
 30
0.0
 40
0.03125
100
AcDbArc
 50
35.537678
 51
180.0
  0
ARC
  5
F9B
100
AcDbEntity
  8
FOOT
100
AcDbCircle
 10
-0.218753
 20
0.097467
 30
0.0
 40
0.03125
100
AcDbArc
 50
180.0
 51
324.462322
  0
LINE
  5
F9C
100
AcDbEntity
  8
FOOT
100
AcDbLine
 10
0.187497
 20
0.097467
 30
0.0
 11
0.187497
 21
0.339938
 31
0.0
  0
LINE
  5
F9D
100
AcDbEntity
  8
FOOT
100
AcDbLine
 10
0.130818
 20
0.358102
 30
0.0
 11
0.044221
 21
0.236866
 31
0.0
  0
LINE
  5
F9E
100
AcDbEntity
  8
FOOT
100
AcDbLine
 10
0.112002
 20
0.48176
 30
0.0
 11
-0.005824
 21
0.316804
 31
0.0
  0
ARC
  5
F9F
100
AcDbEntity
  8
FOOT
100
AcDbCircle
 10
-0.031253
 20
0.334967
 30
0.0
 40
0.03125
100
AcDbArc
 50
215.537678
 51
324.462322
  0
LINE
  5
FA0
100
AcDbEntity
  8
FOOT
100
AcDbLine
 10
-0.056682
 20
0.316804
 30
0.0
 11
-0.174508
 21
0.48176
 31
0.0
  0
ARC
  5
FA1
100
AcDbEntity
  8
FOOT
100
AcDbCircle
 10
0.156247
 20
0.339938
 30
0.0
 40
0.03125
100
AcDbArc
 50
0.0
 51
144.462322
  0
ARC
  5
FA2
100
AcDbEntity
  8
FOOT
100
AcDbCircle
 10
-0.132157
 20
0.218703
 30
0.0
 40
0.03125
100
AcDbArc
 50
324.462322
 51
35.537678
  0
ARC
  5
FA3
100
AcDbEntity
  8
FOOT
100
AcDbCircle
 10
0.156247
 20
0.097467
 30
0.0
 40
0.03125
100
AcDbArc
 50
215.537678
 51
0.0
  0
ARC
  5
FA4
100
AcDbEntity
  8
FOOT
100
AcDbCircle
 10
0.06965
 20
0.218703
 30
0.0
 40
0.03125
100
AcDbArc
 50
144.462322
 51
215.537678
  0
LINE
  5
FA5
100
AcDbEntity
  8
FOOT
100
AcDbLine
 10
0.044221
 20
0.200539
 30
0.0
 11
0.130818
 21
0.079304
 31
0.0
  0
LINE
  5
FA6
100
AcDbEntity
  8
FOOT
100
AcDbLine
 10
-0.056682
 20
0.683102
 30
0.0
 11
-0.174508
 21
0.518145
 31
0.0
  0
ARC
  5
FA7
100
AcDbEntity
  8
FOOT
100
AcDbCircle
 10
-0.031253
 20
0.664938
 30
0.0
 40
0.03125
100
AcDbArc
 50
35.537678
 51
144.462322
  0
LINE
  5
FA8
100
AcDbEntity
  8
FOOT
100
AcDbLine
 10
0.112002
 20
0.518145
 30
0.0
 11
-0.005824
 21
0.683102
 31
0.0
  0
ARC
  5
FA9
100
AcDbEntity
  8
FOOT
100
AcDbCircle
 10
-0.149039
 20
0.499953
 30
0.0
 40
0.0313
100
AcDbArc
 50
144.462322
 51
215.537678
  0
ARC
  5
FAA
100
AcDbEntity
  8
FOOT
100
AcDbCircle
 10
0.086532
 20
0.499953
 30
0.0
 40
0.0313
100
AcDbArc
 50
324.462322
 51
35.537678
  0
LINE
  5
FAB
100
AcDbEntity
  8
FOOT
100
AcDbLine
 10
-0.250003
 20
0.902438
 30
0.0
 11
-0.250003
 21
0.659967
 31
0.0
  0
LINE
  5
FAC
100
AcDbEntity
  8
FOOT
100
AcDbLine
 10
-0.106727
 20
0.799366
 30
0.0
 11
-0.193324
 21
0.920602
 31
0.0
  0
ARC
  5
FAD
100
AcDbEntity
  8
FOOT
100
AcDbCircle
 10
-0.218753
 20
0.902438
 30
0.0
 40
0.03125
100
AcDbArc
 50
35.537678
 51
180.0
  0
LINE
  5
FAE
100
AcDbEntity
  8
FOOT
100
AcDbLine
 10
-0.193324
 20
0.641804
 30
0.0
 11
-0.106727
 21
0.763039
 31
0.0
  0
ARC
  5
FAF
100
AcDbEntity
  8
FOOT
100
AcDbCircle
 10
-0.218753
 20
0.659967
 30
0.0
 40
0.03125
100
AcDbArc
 50
180.0
 51
324.462322
  0
LINE
  5
FB0
100
AcDbEntity
  8
FOOT
100
AcDbLine
 10
0.044221
 20
0.799366
 30
0.0
 11
0.130818
 21
0.920602
 31
0.0
  0
LINE
  5
FB1
100
AcDbEntity
  8
FOOT
100
AcDbLine
 10
0.187497
 20
0.902438
 30
0.0
 11
0.187497
 21
0.659967
 31
0.0
  0
ARC
  5
FB2
100
AcDbEntity
  8
FOOT
100
AcDbCircle
 10
0.156247
 20
0.902438
 30
0.0
 40
0.03125
100
AcDbArc
 50
0.0
 51
144.462322
  0
ARC
  5
FB3
100
AcDbEntity
  8
FOOT
100
AcDbCircle
 10
0.156247
 20
0.659967
 30
0.0
 40
0.03125
100
AcDbArc
 50
215.537678
 51
0.0
  0
LINE
  5
FB4
100
AcDbEntity
  8
FOOT
100
AcDbLine
 10
0.130818
 20
0.641804
 30
0.0
 11
0.044221
 21
0.763039
 31
0.0
  0
ARC
  5
FB5
100
AcDbEntity
  8
FOOT
100
AcDbCircle
 10
0.06965
 20
0.781203
 30
0.0
 40
0.03125
100
AcDbArc
 50
144.462322
 51
215.537678
  0
ARC
  5
FB6
100
AcDbEntity
  8
FOOT
100
AcDbCircle
 10
-0.132157
 20
0.781203
 30
0.0
 40
0.03125
100
AcDbArc
 50
324.462322
 51
35.537678
  0
LINE
  5
FB7
100
AcDbEntity
  8
FOOT
100
AcDbLine
 10
-0.056682
 20
0.879304
 30
0.0
 11
-0.152208
 21
1.013039
 31
0.0
  0
LINE
  5
FB8
100
AcDbEntity
  8
FOOT
100
AcDbLine
 10
0.089701
 20
1.013039
 30
0.0
 11
-0.005824
 21
0.879304
 31
0.0
  0
ARC
  5
FB9
100
AcDbEntity
  8
FOOT
100
AcDbCircle
 10
-0.126779
 20
1.031203
 30
0.0
 40
0.03125
100
AcDbArc
 50
90.0
 51
215.537678
  0
ARC
  5
FBA
100
AcDbEntity
  8
FOOT
100
AcDbCircle
 10
0.064272
 20
1.031203
 30
0.0
 40
0.03125
100
AcDbArc
 50
324.462322
 51
90.0
  0
LINE
  5
FBB
100
AcDbEntity
  8
FOOT
100
AcDbLine
 10
-0.126779
 20
1.062453
 30
0.0
 11
0.064272
 21
1.062453
 31
0.0
  0
ARC
  5
FBC
100
AcDbEntity
  8
FOOT
100
AcDbCircle
 10
-0.031253
 20
0.897467
 30
0.0
 40
0.03125
100
AcDbArc
 50
215.537678
 51
324.462322
  0
LINE
  5
FBD
100
AcDbEntity
  8
CENTER
100
AcDbLine
 10
-0.031253
 20
0.281686
 30
0.0
 11
-0.031253
 21
0.717074
 31
0.0
  0
LINE
  5
FBE
100
AcDbEntity
  8
CENTER
100
AcDbLine
 10
0.133602
 20
0.499953
 30
0.0
 11
-0.208947
 21
0.499953
 31
0.0
  0
ENDBLK
  5
FC0
100
AcDbEntity
  8
FOOT
100
AcDbBlockEnd
  0
BLOCK
  5
14DF
100
AcDbEntity
  8
DIM
100
AcDbBlockBegin
  2
*U13
 70
     1
 10
0.0
 20
0.0
 30
0.0
  3
*U13
  1

  0
ENDBLK
  5
14E0
100
AcDbEntity
  8
DIM
100
AcDbBlockEnd
  0
BLOCK
  5
14F3
100
AcDbEntity
  8
0
100
AcDbBlockBegin
  2
*U14
 70
    65
 10
0.0
 20
0.0
 30
0.0
  3
*U14
  1
*TB
  0
CIRCLE
  5
14F4
100
AcDbEntity
  8
KEVLAR
100
AcDbCircle
 10
0.0
 20
0.0
 30
0.0
 40
0.046875
  0
LINE
  5
14F5
100
AcDbEntity
  8
CENTER
100
AcDbLine
 10
-0.015625
 20
0.0
 30
0.0
 11
0.015625
 21
0.0
 31
0.0
  0
LINE
  5
14F6
100
AcDbEntity
  8
CENTER
100
AcDbLine
 10
0.0
 20
-0.015625
 30
0.0
 11
0.0
 21
0.015625
 31
0.0
  0
LINE
  5
14F7
100
AcDbEntity
  8
CENTER
100
AcDbLine
 10
0.03125
 20
0.0
 30
0.0
 11
0.171875
 21
0.0
 31
0.0
  0
LINE
  5
14F8
100
AcDbEntity
  8
CENTER
100
AcDbLine
 10
0.0
 20
0.03125
 30
0.0
 11
0.0
 21
0.171875
 31
0.0
  0
LINE
  5
14F9
100
AcDbEntity
  8
CENTER
100
AcDbLine
 10
-0.03125
 20
0.0
 30
0.0
 11
-0.171875
 21
0.0
 31
0.0
  0
LINE
  5
14FA
100
AcDbEntity
  8
CENTER
100
AcDbLine
 10
0.0
 20
-0.03125
 30
0.0
 11
0.0
 21
-0.171875
 31
0.0
  0
ENDBLK
  5
14FB
100
AcDbEntity
  8
0
100
AcDbBlockEnd
  0
BLOCK
  5
14FE
100
AcDbEntity
  8
0
100
AcDbBlockBegin
  2
*U15
 70
    65
 10
0.0
 20
0.0
 30
0.0
  3
*U15
  1
*TB
  0
CIRCLE
  5
14FF
100
AcDbEntity
  8
KEVLAR
100
AcDbCircle
 10
0.0
 20
0.0
 30
0.0
 40
0.046875
  0
LINE
  5
1500
100
AcDbEntity
  8
CENTER
100
AcDbLine
 10
-0.015625
 20
0.0
 30
0.0
 11
0.015625
 21
0.0
 31
0.0
  0
LINE
  5
1501
100
AcDbEntity
  8
CENTER
100
AcDbLine
 10
0.0
 20
-0.015625
 30
0.0
 11
0.0
 21
0.015625
 31
0.0
  0
LINE
  5
1502
100
AcDbEntity
  8
CENTER
100
AcDbLine
 10
0.03125
 20
0.0
 30
0.0
 11
0.171875
 21
0.0
 31
0.0
  0
LINE
  5
1503
100
AcDbEntity
  8
CENTER
100
AcDbLine
 10
0.0
 20
0.03125
 30
0.0
 11
0.0
 21
0.171875
 31
0.0
  0
LINE
  5
1504
100
AcDbEntity
  8
CENTER
100
AcDbLine
 10
-0.03125
 20
0.0
 30
0.0
 11
-0.171875
 21
0.0
 31
0.0
  0
LINE
  5
1505
100
AcDbEntity
  8
CENTER
100
AcDbLine
 10
0.0
 20
-0.03125
 30
0.0
 11
0.0
 21
-0.171875
 31
0.0
  0
ENDBLK
  5
1506
100
AcDbEntity
  8
0
100
AcDbBlockEnd
  0
BLOCK
  5
152F
100
AcDbEntity
  8
0
100
AcDbBlockBegin
  2
*X16
 70
    65
 10
0.0
 20
0.0
 30
0.0
  3
*X16
  1
*TB
  0
LINE
  5
1531
100
AcDbEntity
  8
0
 62
     0
100
AcDbLine
 10
14.786302
 20
4.533254
 30
0.0
 11
14.809675
 21
4.556627
 31
0.0
  0
LINE
  5
1532
100
AcDbEntity
  8
0
 62
     0
100
AcDbLine
 10
14.721547
 20
4.556887
 30
0.0
 11
14.74492
 21
4.58026
 31
0.0
  0
LINE
  5
1533
100
AcDbEntity
  8
0
 62
     0
100
AcDbLine
 10
14.656791
 20
4.58052
 30
0.0
 11
14.680165
 21
4.603893
 31
0.0
  0
LINE
  5
1534
100
AcDbEntity
  8
0
 62
     0
100
AcDbLine
 10
14.592036
 20
4.604153
 30
0.0
 11
14.615409
 21
4.627526
 31
0.0
  0
LINE
  5
1535
100
AcDbEntity
  8
0
 62
     0
100
AcDbLine
 10
14.527281
 20
4.627786
 30
0.0
 11
14.550654
 21
4.651159
 31
0.0
  0
LINE
  5
1536
100
AcDbEntity
  8
0
 62
     0
100
AcDbLine
 10
14.462525
 20
4.651419
 30
0.0
 11
14.485899
 21
4.674792
 31
0.0
  0
LINE
  5
1537
100
AcDbEntity
  8
0
 62
     0
100
AcDbLine
 10
14.39777
 20
4.675052
 30
0.0
 11
14.421143
 21
4.698425
 31
0.0
  0
LINE
  5
1538
100
AcDbEntity
  8
0
 62
     0
100
AcDbLine
 10
14.333015
 20
4.698685
 30
0.0
 11
14.356388
 21
4.722058
 31
0.0
  0
LINE
  5
1539
100
AcDbEntity
  8
0
 62
     0
100
AcDbLine
 10
14.268259
 20
4.722318
 30
0.0
 11
14.291633
 21
4.745691
 31
0.0
  0
LINE
  5
153A
100
AcDbEntity
  8
0
 62
     0
100
AcDbLine
 10
14.203504
 20
4.745951
 30
0.0
 11
14.226877
 21
4.769324
 31
0.0
  0
LINE
  5
153B
100
AcDbEntity
  8
0
 62
     0
100
AcDbLine
 10
14.138749
 20
4.769584
 30
0.0
 11
14.162122
 21
4.792957
 31
0.0
  0
LINE
  5
153C
100
AcDbEntity
  8
0
 62
     0
100
AcDbLine
 10
14.073993
 20
4.793217
 30
0.0
 11
14.097367
 21
4.81659
 31
0.0
  0
LINE
  5
153D
100
AcDbEntity
  8
0
 62
     0
100
AcDbLine
 10
14.009238
 20
4.81685
 30
0.0
 11
14.032611
 21
4.840223
 31
0.0
  0
LINE
  5
153E
100
AcDbEntity
  8
0
 62
     0
100
AcDbLine
 10
13.944483
 20
4.840483
 30
0.0
 11
13.967856
 21
4.863856
 31
0.0
  0
LINE
  5
153F
100
AcDbEntity
  8
0
 62
     0
100
AcDbLine
 10
13.879727
 20
4.864116
 30
0.0
 11
13.903101
 21
4.887489
 31
0.0
  0
LINE
  5
1540
100
AcDbEntity
  8
0
 62
     0
100
AcDbLine
 10
13.814972
 20
4.887749
 30
0.0
 11
13.838345
 21
4.911122
 31
0.0
  0
LINE
  5
1541
100
AcDbEntity
  8
0
 62
     0
100
AcDbLine
 10
13.750217
 20
4.911382
 30
0.0
 11
13.77359
 21
4.934755
 31
0.0
  0
LINE
  5
1542
100
AcDbEntity
  8
0
 62
     0
100
AcDbLine
 10
13.685461
 20
4.935015
 30
0.0
 11
13.708835
 21
4.958388
 31
0.0
  0
LINE
  5
1543
100
AcDbEntity
  8
0
 62
     0
100
AcDbLine
 10
13.620706
 20
4.958648
 30
0.0
 11
13.644079
 21
4.982021
 31
0.0
  0
LINE
  5
1544
100
AcDbEntity
  8
0
 62
     0
100
AcDbLine
 10
14.851057
 20
4.509621
 30
0.0
 11
14.87443
 21
4.532994
 31
0.0
  0
LINE
  5
1545
100
AcDbEntity
  8
0
 62
     0
100
AcDbLine
 10
14.915813
 20
4.485988
 30
0.0
 11
14.939186
 21
4.509361
 31
0.0
  0
LINE
  5
1546
100
AcDbEntity
  8
0
 62
     0
100
AcDbLine
 10
14.993467
 20
4.475253
 30
0.0
 11
15.023486
 21
4.505272
 31
0.0
  0
LINE
  5
1547
100
AcDbEntity
  8
0
 62
     0
100
AcDbLine
 10
15.081855
 20
4.475253
 30
0.0
 11
15.111874
 21
4.505272
 31
0.0
  0
LINE
  5
1548
100
AcDbEntity
  8
0
 62
     0
100
AcDbLine
 10
15.170243
 20
4.475253
 30
0.0
 11
15.200262
 21
4.505272
 31
0.0
  0
LINE
  5
1549
100
AcDbEntity
  8
0
 62
     0
100
AcDbLine
 10
15.258632
 20
4.475253
 30
0.0
 11
15.288651
 21
4.505272
 31
0.0
  0
LINE
  5
154A
100
AcDbEntity
  8
0
 62
     0
100
AcDbLine
 10
15.34702
 20
4.475253
 30
0.0
 11
15.377039
 21
4.505272
 31
0.0
  0
LINE
  5
154B
100
AcDbEntity
  8
0
 62
     0
100
AcDbLine
 10
15.435408
 20
4.475253
 30
0.0
 11
15.465427
 21
4.505272
 31
0.0
  0
LINE
  5
154C
100
AcDbEntity
  8
0
 62
     0
100
AcDbLine
 10
15.523797
 20
4.475253
 30
0.0
 11
15.553816
 21
4.505272
 31
0.0
  0
LINE
  5
154D
100
AcDbEntity
  8
0
 62
     0
100
AcDbLine
 10
15.612185
 20
4.475253
 30
0.0
 11
15.642204
 21
4.505272
 31
0.0
  0
LINE
  5
154E
100
AcDbEntity
  8
0
 62
     0
100
AcDbLine
 10
15.700573
 20
4.475253
 30
0.0
 11
15.730592
 21
4.505272
 31
0.0
  0
LINE
  5
154F
100
AcDbEntity
  8
0
 62
     0
100
AcDbLine
 10
15.788962
 20
4.475253
 30
0.0
 11
15.818981
 21
4.505272
 31
0.0
  0
LINE
  5
1550
100
AcDbEntity
  8
0
 62
     0
100
AcDbLine
 10
15.87735
 20
4.475253
 30
0.0
 11
15.907369
 21
4.505272
 31
0.0
  0
LINE
  5
1551
100
AcDbEntity
  8
0
 62
     0
100
AcDbLine
 10
15.965739
 20
4.475253
 30
0.0
 11
15.995757
 21
4.505272
 31
0.0
  0
LINE
  5
1552
100
AcDbEntity
  8
0
 62
     0
100
AcDbLine
 10
16.054127
 20
4.475253
 30
0.0
 11
16.084146
 21
4.505272
 31
0.0
  0
LINE
  5
1553
100
AcDbEntity
  8
0
 62
     0
100
AcDbLine
 10
16.142515
 20
4.475253
 30
0.0
 11
16.172534
 21
4.505272
 31
0.0
  0
LINE
  5
1554
100
AcDbEntity
  8
0
 62
     0
100
AcDbLine
 10
16.230904
 20
4.475253
 30
0.0
 11
16.260922
 21
4.505272
 31
0.0
  0
LINE
  5
1555
100
AcDbEntity
  8
0
 62
     0
100
AcDbLine
 10
16.319292
 20
4.475253
 30
0.0
 11
16.349311
 21
4.505272
 31
0.0
  0
LINE
  5
1556
100
AcDbEntity
  8
0
 62
     0
100
AcDbLine
 10
16.40768
 20
4.475253
 30
0.0
 11
16.437699
 21
4.505272
 31
0.0
  0
ENDBLK
  5
1557
100
AcDbEntity
  8
0
100
AcDbBlockEnd
  0
BLOCK
  5
1559
100
AcDbEntity
  8
0
100
AcDbBlockBegin
  2
*D17
 70
    65
 10
0.0
 20
0.0
 30
0.0
  3
*D17
  1
*TB
  0
LINE
  5
155A
100
AcDbEntity
  8
0
  6
BYBLOCK
 62
     0
100
AcDbLine
 10
13.603467
 20
4.91504
 30
0.0
 11
13.198471
 21
3.805337
 31
0.0
  0
LINE
  5
155B
100
AcDbEntity
  8
0
  6
BYBLOCK
 62
     0
100
AcDbLine
 10
13.846254
 20
3.712633
 30
0.0
 11
13.973072
 21
3.66635
 31
0.0
  0
LINE
  5
155C
100
AcDbEntity
  8
0
  6
BYBLOCK
 62
     0
100
AcDbLine
 10
13.117936
 20
3.978439
 30
0.0
 11
12.991118
 21
4.024722
 31
0.0
  0
SOLID
  5
155D
100
AcDbEntity
  8
0
  6
BYBLOCK
 62
     0
100
AcDbTrace
 10
13.853968
 20
3.733769
 30
0.0
 11
13.83854
 21
3.691497
 31
0.0
 12
13.719436
 22
3.758916
 32
0.0
 13
13.719436
 23
3.758916
 33
0.0
  0
SOLID
  5
155E
100
AcDbEntity
  8
0
  6
BYBLOCK
 62
     0
100
AcDbTrace
 10
13.12565
 20
3.999575
 30
0.0
 11
13.110223
 21
3.957303
 31
0.0
 12
13.244755
 22
3.932156
 32
0.0
 13
13.244755
 23
3.932156
 33
0.0
  0
MTEXT
  5
155F
100
AcDbEntity
  8
0
  6
BYBLOCK
 62
     0
100
AcDbMText
 10
12.187937
 20
4.317851
 30
0.0
 40
0.135
 41
0.0
 71
     5
 72
     1
  1
\A1;0.505"[12.83mm]
 11
0.939394
 21
-0.34284
 31
0.0
  0
POINT
  5
1560
100
AcDbEntity
  8
DEFPOINTS
  6
BYBLOCK
 62
     0
100
AcDbPoint
 10
13.18282
 20
2.288569
 30
0.0
 50
20.05
  0
POINT
  5
1561
100
AcDbEntity
  8
DEFPOINTS
  6
BYBLOCK
 62
     0
100
AcDbPoint
 10
13.619538
 20
4.959074
 30
0.0
 50
20.05
  0
POINT
  5
1562
100
AcDbEntity
  8
DEFPOINTS
  6
BYBLOCK
 62
     0
100
AcDbPoint
 10
13.244755
 20
3.932156
 30
0.0
 50
20.05
  0
ENDBLK
  5
1563
100
AcDbEntity
  8
0
100
AcDbBlockEnd
  0
BLOCK
  5
1566
100
AcDbEntity
  8
0
100
AcDbBlockBegin
  2
*D18
 70
    65
 10
0.0
 20
0.0
 30
0.0
  3
*D18
  1
*TB
  0
LINE
  5
1567
100
AcDbEntity
  8
0
  6
BYBLOCK
 62
     0
100
AcDbLine
 10
14.929154
 20
4.431219
 30
0.0
 11
14.390479
 21
2.955232
 31
0.0
  0
LINE
  5
1568
100
AcDbEntity
  8
0
  6
BYBLOCK
 62
     0
100
AcDbLine
 10
14.563581
 20
3.035767
 30
0.0
 11
14.690399
 21
2.989483
 31
0.0
  0
LINE
  5
1569
100
AcDbEntity
  8
0
  6
BYBLOCK
 62
     0
100
AcDbLine
 10
13.458939
 20
3.438916
 30
0.0
 11
13.332121
 21
3.485199
 31
0.0
  0
SOLID
  5
156A
100
AcDbEntity
  8
0
  6
BYBLOCK
 62
     0
100
AcDbTrace
 10
14.571295
 20
3.056903
 30
0.0
 11
14.555867
 21
3.01463
 31
0.0
 12
14.436763
 22
3.08205
 32
0.0
 13
14.436763
 23
3.08205
 33
0.0
  0
SOLID
  5
156B
100
AcDbEntity
  8
0
  6
BYBLOCK
 62
     0
100
AcDbTrace
 10
13.466653
 20
3.460052
 30
0.0
 11
13.451225
 21
3.417779
 31
0.0
 12
13.585757
 22
3.392632
 32
0.0
 13
13.585757
 23
3.392632
 33
0.0
  0
MTEXT
  5
156C
100
AcDbEntity
  8
0
  6
BYBLOCK
 62
     0
100
AcDbMText
 10
12.539507
 20
3.77447
 30
0.0
 40
0.135
 41
0.0
 71
     5
 72
     1
  1
\A1;0.906"[23.01mm]
 11
0.939394
 21
-0.34284
 31
0.0
  0
POINT
  5
156D
100
AcDbEntity
  8
DEFPOINTS
  6
BYBLOCK
 62
     0
100
AcDbPoint
 10
14.945225
 20
4.475253
 30
0.0
 50
20.05
  0
POINT
  5
156E
100
AcDbEntity
  8
DEFPOINTS
  6
BYBLOCK
 62
     0
100
AcDbPoint
 10
13.18282
 20
2.288569
 30
0.0
 50
20.05
  0
POINT
  5
156F
100
AcDbEntity
  8
DEFPOINTS
  6
BYBLOCK
 62
     0
100
AcDbPoint
 10
13.585757
 20
3.392632
 30
0.0
 50
20.05
  0
ENDBLK
  5
1570
100
AcDbEntity
  8
0
100
AcDbBlockEnd
  0
BLOCK
  5
19B8
100
AcDbEntity
  8
0
100
AcDbBlockBegin
  2
*D19
 70
    65
 10
0.0
 20
0.0
 30
0.0
  3
*D19
  1

  0
LINE
  5
19B9
100
AcDbEntity
  8
0
  6
BYBLOCK
 62
     0
100
AcDbLine
 10
13.575504
 20
4.975145
 30
0.0
 11
10.793153
 21
5.990588
 31
0.0
  0
LINE
  5
19BA
100
AcDbEntity
  8
0
  6
BYBLOCK
 62
     0
100
AcDbLine
 10
11.017023
 20
6.210228
 30
0.0
 11
11.063306
 21
6.337047
 31
0.0
  0
LINE
  5
19BB
100
AcDbEntity
  8
0
  6
BYBLOCK
 62
     0
100
AcDbLine
 10
10.873688
 20
5.817487
 30
0.0
 11
10.827405
 21
5.690669
 31
0.0
  0
LINE
  5
19BC
100
AcDbEntity
  8
0
  6
BYBLOCK
 62
     0
100
AcDbLine
 10
10.827405
 20
5.690669
 30
0.0
 11
10.700587
 21
5.736952
 31
0.0
  0
SOLID
  5
19BD
100
AcDbEntity
  8
0
  6
BYBLOCK
 62
     0
100
AcDbTrace
 10
10.995886
 20
6.217942
 30
0.0
 11
11.038159
 21
6.202515
 31
0.0
 12
10.970739
 22
6.08341
 32
0.0
 13
10.970739
 23
6.08341
 33
0.0
  0
SOLID
  5
19BE
100
AcDbEntity
  8
0
  6
BYBLOCK
 62
     0
100
AcDbTrace
 10
10.852552
 20
5.825201
 30
0.0
 11
10.894825
 21
5.809773
 31
0.0
 12
10.919972
 22
5.944305
 32
0.0
 13
10.919972
 23
5.944305
 33
0.0
  0
MTEXT
  5
19BF
100
AcDbEntity
  8
0
  6
BYBLOCK
 62
     0
100
AcDbMText
 10
9.950246
 20
6.010795
 30
0.0
 40
0.135
 41
0.0
 71
     5
 72
     1
  1
\A1;0.148"[3.76mm]
 11
0.939394
 21
-0.34284
 31
0.0
  0
POINT
  5
19C0
100
AcDbEntity
  8
DEFPOINTS
  6
BYBLOCK
 62
     0
100
AcDbPoint
 10
7.439104
 20
7.372312
 30
0.0
 50
20.05
  0
POINT
  5
19C1
100
AcDbEntity
  8
DEFPOINTS
  6
BYBLOCK
 62
     0
100
AcDbPoint
 10
13.619538
 20
4.959074
 30
0.0
 50
20.05
  0
POINT
  5
19C2
100
AcDbEntity
  8
DEFPOINTS
  6
BYBLOCK
 62
     0
100
AcDbPoint
 10
10.919972
 20
5.944305
 30
0.0
 50
20.05
  0
ENDBLK
  5
19C3
100
AcDbEntity
  8
0
100
AcDbBlockEnd
  0
BLOCK
  5
15B7
100
AcDbEntity
  8
0
100
AcDbBlockBegin
  2
*D20
 70
    65
 10
0.0
 20
0.0
 30
0.0
  3
*D20
  1
*TB
  0
LINE
  5
15B8
100
AcDbEntity
  8
0
  6
BYBLOCK
 62
     0
100
AcDbLine
 10
13.603536
 20
5.051954
 30
0.0
 11
9.023395
 21
6.723517
 31
0.0
  0
LINE
  5
15B9
100
AcDbEntity
  8
0
  6
BYBLOCK
 62
     0
100
AcDbLine
 10
9.219232
 20
6.866348
 30
0.0
 11
9.265516
 21
6.993166
 31
0.0
  0
LINE
  5
15BA
100
AcDbEntity
  8
0
  6
BYBLOCK
 62
     0
100
AcDbLine
 10
9.10393
 20
6.550415
 30
0.0
 11
9.057646
 21
6.423597
 31
0.0
  0
LINE
  5
15BB
100
AcDbEntity
  8
0
  6
BYBLOCK
 62
     0
100
AcDbLine
 10
9.057646
 20
6.423597
 30
0.0
 11
8.930828
 21
6.46988
 31
0.0
  0
SOLID
  5
15BC
100
AcDbEntity
  8
0
  6
BYBLOCK
 62
     0
100
AcDbTrace
 10
9.198096
 20
6.874062
 30
0.0
 11
9.240369
 21
6.858634
 31
0.0
 12
9.172949
 22
6.73953
 32
0.0
 13
9.172949
 23
6.73953
 33
0.0
  0
SOLID
  5
15BD
100
AcDbEntity
  8
0
  6
BYBLOCK
 62
     0
100
AcDbTrace
 10
9.082793
 20
6.558129
 30
0.0
 11
9.125066
 21
6.542701
 31
0.0
 12
9.150213
 22
6.677233
 32
0.0
 13
9.150213
 23
6.677233
 33
0.0
  0
MTEXT
  5
15BE
100
AcDbEntity
  8
0
  6
BYBLOCK
 62
     0
100
AcDbMText
 10
8.191055
 20
6.739867
 30
0.0
 40
0.135
 41
0.0
 71
     5
 72
     1
  1
\A1;0.066"[1.68mm]
 11
0.939394
 21
-0.34284
 31
0.0
  0
POINT
  5
15BF
100
AcDbEntity
  8
DEFPOINTS
  6
BYBLOCK
 62
     0
100
AcDbPoint
 10
7.439104
 20
7.372312
 30
0.0
 50
20.05
  0
POINT
  5
15C0
100
AcDbEntity
  8
DEFPOINTS
  6
BYBLOCK
 62
     0
100
AcDbPoint
 10
13.64757
 20
5.035883
 30
0.0
 50
20.05
  0
POINT
  5
15C1
100
AcDbEntity
  8
DEFPOINTS
  6
BYBLOCK
 62
     0
100
AcDbPoint
 10
9.150213
 20
6.677233
 30
0.0
 50
20.05
  0
ENDBLK
  5
15C2
100
AcDbEntity
  8
0
100
AcDbBlockEnd
  0
BLOCK
  5
15DE
100
AcDbEntity
  8
0
100
AcDbBlockBegin
  2
*D21
 70
    65
 10
0.0
 20
0.0
 30
0.0
  3
*D21
  1
*TB
  0
LINE
  5
15DF
100
AcDbEntity
  8
0
  6
BYBLOCK
 62
     0
100
AcDbLine
 10
13.64757
 20
5.082758
 30
0.0
 11
13.64757
 21
6.354017
 31
0.0
  0
LINE
  5
15E0
100
AcDbEntity
  8
0
  6
BYBLOCK
 62
     0
100
AcDbLine
 10
14.279987
 20
6.219017
 30
0.0
 11
14.414987
 21
6.219017
 31
0.0
  0
LINE
  5
15E1
100
AcDbEntity
  8
0
  6
BYBLOCK
 62
     0
100
AcDbLine
 10
13.51257
 20
6.219017
 30
0.0
 11
13.37757
 21
6.219017
 31
0.0
  0
SOLID
  5
15E2
100
AcDbEntity
  8
0
  6
BYBLOCK
 62
     0
100
AcDbTrace
 10
14.279987
 20
6.241517
 30
0.0
 11
14.279987
 21
6.196517
 31
0.0
 12
14.144987
 22
6.219017
 32
0.0
 13
14.144987
 23
6.219017
 33
0.0
  0
SOLID
  5
15E3
100
AcDbEntity
  8
0
  6
BYBLOCK
 62
     0
100
AcDbTrace
 10
13.51257
 20
6.241517
 30
0.0
 11
13.51257
 21
6.196517
 31
0.0
 12
13.64757
 22
6.219017
 32
0.0
 13
13.64757
 23
6.219017
 33
0.0
  0
MTEXT
  5
15E4
100
AcDbEntity
  8
0
  6
BYBLOCK
 62
     0
100
AcDbMText
 10
12.51132
 20
6.219017
 30
0.0
 40
0.135
 41
0.0
 71
     5
 72
     1
  1
\A1;0.497"[12.63mm]
  0
POINT
  5
15E5
100
AcDbEntity
  8
DEFPOINTS
  6
BYBLOCK
 62
     0
100
AcDbPoint
 10
14.144987
 20
1.956518
 30
0.0
  0
POINT
  5
15E6
100
AcDbEntity
  8
DEFPOINTS
  6
BYBLOCK
 62
     0
100
AcDbPoint
 10
13.64757
 20
5.035883
 30
0.0
  0
POINT
  5
15E7
100
AcDbEntity
  8
DEFPOINTS
  6
BYBLOCK
 62
     0
100
AcDbPoint
 10
13.64757
 20
6.219017
 30
0.0
  0
ENDBLK
  5
15E8
100
AcDbEntity
  8
0
100
AcDbBlockEnd
  0
BLOCK
  5
15EB
100
AcDbEntity
  8
0
100
AcDbBlockBegin
  2
*D22
 70
    65
 10
0.0
 20
0.0
 30
0.0
  3
*D22
  1
*TB
  0
LINE
  5
15EC
100
AcDbEntity
  8
0
  6
BYBLOCK
 62
     0
100
AcDbLine
 10
15.370093
 20
5.082758
 30
0.0
 11
15.370093
 21
6.808636
 31
0.0
  0
LINE
  5
15ED
100
AcDbEntity
  8
0
  6
BYBLOCK
 62
     0
100
AcDbLine
 10
15.505093
 20
6.673636
 30
0.0
 11
15.640093
 21
6.673636
 31
0.0
  0
LINE
  5
15EE
100
AcDbEntity
  8
0
  6
BYBLOCK
 62
     0
100
AcDbLine
 10
14.009987
 20
6.673636
 30
0.0
 11
13.874987
 21
6.673636
 31
0.0
  0
SOLID
  5
15EF
100
AcDbEntity
  8
0
  6
BYBLOCK
 62
     0
100
AcDbTrace
 10
15.505093
 20
6.696136
 30
0.0
 11
15.505093
 21
6.651136
 31
0.0
 12
15.370093
 22
6.673636
 32
0.0
 13
15.370093
 23
6.673636
 33
0.0
  0
SOLID
  5
15F0
100
AcDbEntity
  8
0
  6
BYBLOCK
 62
     0
100
AcDbTrace
 10
14.009987
 20
6.696136
 30
0.0
 11
14.009987
 21
6.651136
 31
0.0
 12
14.144987
 22
6.673636
 32
0.0
 13
14.144987
 23
6.673636
 33
0.0
  0
MTEXT
  5
15F1
100
AcDbEntity
  8
0
  6
BYBLOCK
 62
     0
100
AcDbMText
 10
13.042487
 20
6.673636
 30
0.0
 40
0.135
 41
0.0
 71
     5
 72
     1
  1
\A1;1.225"[31.12mm]
  0
POINT
  5
15F2
100
AcDbEntity
  8
DEFPOINTS
  6
BYBLOCK
 62
     0
100
AcDbPoint
 10
15.370093
 20
5.035883
 30
0.0
  0
POINT
  5
15F3
100
AcDbEntity
  8
DEFPOINTS
  6
BYBLOCK
 62
     0
100
AcDbPoint
 10
14.144987
 20
1.956518
 30
0.0
  0
POINT
  5
15F4
100
AcDbEntity
  8
DEFPOINTS
  6
BYBLOCK
 62
     0
100
AcDbPoint
 10
14.144987
 20
6.673636
 30
0.0
  0
ENDBLK
  5
15F5
100
AcDbEntity
  8
0
100
AcDbBlockEnd
  0
BLOCK
  5
15F8
100
AcDbEntity
  8
0
100
AcDbBlockBegin
  2
*D23
 70
    65
 10
0.0
 20
0.0
 30
0.0
  3
*D23
  1
*TB
  0
LINE
  5
15F9
100
AcDbEntity
  8
0
  6
BYBLOCK
 62
     0
100
AcDbLine
 10
15.979355
 20
4.878155
 30
0.0
 11
15.979355
 21
7.196957
 31
0.0
  0
LINE
  5
15FA
100
AcDbEntity
  8
0
  6
BYBLOCK
 62
     0
100
AcDbLine
 10
16.114355
 20
7.061957
 30
0.0
 11
16.249355
 21
7.061957
 31
0.0
  0
LINE
  5
15FB
100
AcDbEntity
  8
0
  6
BYBLOCK
 62
     0
100
AcDbLine
 10
14.009987
 20
7.061957
 30
0.0
 11
13.874987
 21
7.061957
 31
0.0
  0
SOLID
  5
15FC
100
AcDbEntity
  8
0
  6
BYBLOCK
 62
     0
100
AcDbTrace
 10
16.114355
 20
7.084457
 30
0.0
 11
16.114355
 21
7.039457
 31
0.0
 12
15.979355
 22
7.061957
 32
0.0
 13
15.979355
 23
7.061957
 33
0.0
  0
SOLID
  5
15FD
100
AcDbEntity
  8
0
  6
BYBLOCK
 62
     0
100
AcDbTrace
 10
14.009987
 20
7.084457
 30
0.0
 11
14.009987
 21
7.039457
 31
0.0
 12
14.144987
 22
7.061957
 32
0.0
 13
14.144987
 23
7.061957
 33
0.0
  0
MTEXT
  5
15FE
100
AcDbEntity
  8
0
  6
BYBLOCK
 62
     0
100
AcDbMText
 10
12.243737
 20
7.061957
 30
0.0
 40
0.135
 41
0.0
 71
     5
 72
     1
  1
\A1;1.834"±0.001"[46.59mm±0.03mm]
  0
POINT
  5
15FF
100
AcDbEntity
  8
DEFPOINTS
  6
BYBLOCK
 62
     0
100
AcDbPoint
 10
15.979355
 20
4.83128
 30
0.0
  0
POINT
  5
1600
100
AcDbEntity
  8
DEFPOINTS
  6
BYBLOCK
 62
     0
100
AcDbPoint
 10
14.144987
 20
1.956518
 30
0.0
  0
POINT
  5
1601
100
AcDbEntity
  8
DEFPOINTS
  6
BYBLOCK
 62
     0
100
AcDbPoint
 10
14.144987
 20
7.061957
 30
0.0
  0
ENDBLK
  5
1602
100
AcDbEntity
  8
0
100
AcDbBlockEnd
  0
BLOCK
  5
1605
100
AcDbEntity
  8
0
100
AcDbBlockBegin
  2
*D24
 70
    65
 10
0.0
 20
0.0
 30
0.0
  3
*D24
  1
*TB
  0
LINE
  5
1606
100
AcDbEntity
  8
0
  6
BYBLOCK
 62
     0
100
AcDbLine
 10
16.479383
 20
4.677913
 30
0.0
 11
16.479383
 21
7.618514
 31
0.0
  0
LINE
  5
1607
100
AcDbEntity
  8
0
  6
BYBLOCK
 62
     0
100
AcDbLine
 10
16.344383
 20
7.483514
 30
0.0
 11
16.212185
 21
7.483514
 31
0.0
  0
LINE
  5
1608
100
AcDbEntity
  8
0
  6
BYBLOCK
 62
     0
100
AcDbLine
 10
14.279987
 20
7.483514
 30
0.0
 11
14.412185
 21
7.483514
 31
0.0
  0
SOLID
  5
1609
100
AcDbEntity
  8
0
  6
BYBLOCK
 62
     0
100
AcDbTrace
 10
16.344383
 20
7.506014
 30
0.0
 11
16.344383
 21
7.461014
 31
0.0
 12
16.479383
 22
7.483514
 32
0.0
 13
16.479383
 23
7.483514
 33
0.0
  0
SOLID
  5
160A
100
AcDbEntity
  8
0
  6
BYBLOCK
 62
     0
100
AcDbTrace
 10
14.279987
 20
7.506014
 30
0.0
 11
14.279987
 21
7.461014
 31
0.0
 12
14.144987
 22
7.483514
 32
0.0
 13
14.144987
 23
7.483514
 33
0.0
  0
MTEXT
  5
160B
100
AcDbEntity
  8
0
  6
BYBLOCK
 62
     0
100
AcDbMText
 10
15.312185
 20
7.483514
 30
0.0
 40
0.135
 41
0.0
 71
     5
 72
     1
  1
\A1;2.334"[59.29mm]
  0
POINT
  5
160C
100
AcDbEntity
  8
DEFPOINTS
  6
BYBLOCK
 62
     0
100
AcDbPoint
 10
16.479383
 20
4.631038
 30
0.0
  0
POINT
  5
160D
100
AcDbEntity
  8
DEFPOINTS
  6
BYBLOCK
 62
     0
100
AcDbPoint
 10
14.144987
 20
1.956518
 30
0.0
  0
POINT
  5
160E
100
AcDbEntity
  8
DEFPOINTS
  6
BYBLOCK
 62
     0
100
AcDbPoint
 10
14.144987
 20
7.483514
 30
0.0
  0
ENDBLK
  5
160F
100
AcDbEntity
  8
0
100
AcDbBlockEnd
  0
BLOCK
  5
1612
100
AcDbEntity
  8
0
100
AcDbBlockBegin
  2
*D25
 70
    65
 10
0.0
 20
0.0
 30
0.0
  3
*D25
  1
*TB
  0
LINE
  5
1613
100
AcDbEntity
  8
0
  6
BYBLOCK
 62
     0
100
AcDbLine
 10
15.809531
 20
10.248245
 30
0.0
 11
15.31295
 21
8.887595
 31
0.0
  0
LINE
  5
1614
100
AcDbEntity
  8
0
  6
BYBLOCK
 62
     0
100
AcDbLine
 10
15.232415
 20
9.060696
 30
0.0
 11
15.105597
 21
9.10698
 31
0.0
  0
LINE
  5
1615
100
AcDbEntity
  8
0
  6
BYBLOCK
 62
     0
100
AcDbLine
 10
15.731589
 20
8.878518
 30
0.0
 11
15.858408
 21
8.832235
 31
0.0
  0
SOLID
  5
1616
100
AcDbEntity
  8
0
  6
BYBLOCK
 62
     0
100
AcDbTrace
 10
15.240129
 20
9.081833
 30
0.0
 11
15.224701
 21
9.03956
 31
0.0
 12
15.359234
 22
9.014413
 32
0.0
 13
15.359234
 23
9.014413
 33
0.0
  0
SOLID
  5
1617
100
AcDbEntity
  8
0
  6
BYBLOCK
 62
     0
100
AcDbTrace
 10
15.739303
 20
8.899655
 30
0.0
 11
15.723875
 21
8.857382
 31
0.0
 12
15.604771
 22
8.924802
 32
0.0
 13
15.604771
 23
8.924802
 33
0.0
  0
MTEXT
  5
1618
100
AcDbEntity
  8
0
  6
BYBLOCK
 62
     0
100
AcDbMText
 10
17.316816
 20
8.299976
 30
0.0
 40
0.135
 41
0.0
 71
     5
 72
     1
  1
\A1;0.261"±0.001"[6.64mm±0.03mm]
 11
0.939394
 21
-0.34284
 31
0.0
  0
POINT
  5
1619
100
AcDbEntity
  8
DEFPOINTS
  6
BYBLOCK
 62
     0
100
AcDbPoint
 10
15.825602
 20
10.292279
 30
0.0
 50
20.05
  0
POINT
  5
161A
100
AcDbEntity
  8
DEFPOINTS
  6
BYBLOCK
 62
     0
100
AcDbPoint
 10
16.795212
 20
12.186651
 30
0.0
 50
20.05
  0
POINT
  5
161B
100
AcDbEntity
  8
DEFPOINTS
  6
BYBLOCK
 62
     0
100
AcDbPoint
 10
15.604771
 20
8.924802
 30
0.0
 50
20.05
  0
ENDBLK
  5
161C
100
AcDbEntity
  8
0
100
AcDbBlockEnd
  0
BLOCK
  5
162C
100
AcDbEntity
  8
0
100
AcDbBlockBegin
  2
*D26
 70
    65
 10
0.0
 20
0.0
 30
0.0
  3
*D26
  1
*TB
  0
LINE
  5
162D
100
AcDbEntity
  8
0
  6
BYBLOCK
 62
     0
100
AcDbLine
 10
15.416968
 20
5.035883
 30
0.0
 11
17.072621
 21
5.035883
 31
0.0
  0
LINE
  5
162E
100
AcDbEntity
  8
0
  6
BYBLOCK
 62
     0
100
AcDbLine
 10
16.937621
 20
4.789941
 30
0.0
 11
16.937621
 21
4.654941
 31
0.0
  0
LINE
  5
162F
100
AcDbEntity
  8
0
  6
BYBLOCK
 62
     0
100
AcDbLine
 10
16.937621
 20
5.170883
 30
0.0
 11
16.937621
 21
5.305883
 31
0.0
  0
LINE
  5
1630
100
AcDbEntity
  8
0
  6
BYBLOCK
 62
     0
100
AcDbLine
 10
16.937621
 20
5.305883
 30
0.0
 11
17.072621
 21
5.305883
 31
0.0
  0
SOLID
  5
1631
100
AcDbEntity
  8
0
  6
BYBLOCK
 62
     0
100
AcDbTrace
 10
16.915121
 20
4.789941
 30
0.0
 11
16.960121
 21
4.789941
 31
0.0
 12
16.937621
 22
4.924941
 32
0.0
 13
16.937621
 23
4.924941
 33
0.0
  0
SOLID
  5
1632
100
AcDbEntity
  8
0
  6
BYBLOCK
 62
     0
100
AcDbTrace
 10
16.915121
 20
5.170883
 30
0.0
 11
16.960121
 21
5.170883
 31
0.0
 12
16.937621
 22
5.035883
 32
0.0
 13
16.937621
 23
5.035883
 33
0.0
  0
MTEXT
  5
1633
100
AcDbEntity
  8
0
  6
BYBLOCK
 62
     0
100
AcDbMText
 10
17.826371
 20
5.305883
 30
0.0
 40
0.135
 41
0.0
 71
     5
 72
     1
  1
\A1;0.111"[2.82mm]
  0
POINT
  5
1634
100
AcDbEntity
  8
DEFPOINTS
  6
BYBLOCK
 62
     0
100
AcDbPoint
 10
9.42423
 20
4.924941
 30
0.0
  0
POINT
  5
1635
100
AcDbEntity
  8
DEFPOINTS
  6
BYBLOCK
 62
     0
100
AcDbPoint
 10
15.370093
 20
5.035883
 30
0.0
  0
POINT
  5
1636
100
AcDbEntity
  8
DEFPOINTS
  6
BYBLOCK
 62
     0
100
AcDbPoint
 10
16.937621
 20
5.035883
 30
0.0
  0
ENDBLK
  5
1637
100
AcDbEntity
  8
0
100
AcDbBlockEnd
  0
BLOCK
  5
163A
100
AcDbEntity
  8
0
100
AcDbBlockBegin
  2
*D27
 70
    65
 10
0.0
 20
0.0
 30
0.0
  3
*D27
  1
*TB
  0
LINE
  5
163B
100
AcDbEntity
  8
0
  6
BYBLOCK
 62
     0
100
AcDbLine
 10
16.198105
 20
4.659405
 30
0.0
 11
18.812605
 21
4.659405
 31
0.0
  0
LINE
  5
163C
100
AcDbEntity
  8
0
  6
BYBLOCK
 62
     0
100
AcDbLine
 10
18.677605
 20
4.524405
 30
0.0
 11
18.677605
 21
4.389405
 31
0.0
  0
LINE
  5
163D
100
AcDbEntity
  8
0
  6
BYBLOCK
 62
     0
100
AcDbLine
 10
18.677605
 20
5.059941
 30
0.0
 11
18.677605
 21
5.194941
 31
0.0
  0
LINE
  5
163E
100
AcDbEntity
  8
0
  6
BYBLOCK
 62
     0
100
AcDbLine
 10
18.677605
 20
5.194941
 30
0.0
 11
18.812605
 21
5.194941
 31
0.0
  0
SOLID
  5
163F
100
AcDbEntity
  8
0
  6
BYBLOCK
 62
     0
100
AcDbTrace
 10
18.655105
 20
4.524405
 30
0.0
 11
18.700105
 21
4.524405
 31
0.0
 12
18.677605
 22
4.659405
 32
0.0
 13
18.677605
 23
4.659405
 33
0.0
  0
SOLID
  5
1640
100
AcDbEntity
  8
0
  6
BYBLOCK
 62
     0
100
AcDbTrace
 10
18.655105
 20
5.059941
 30
0.0
 11
18.700105
 21
5.059941
 31
0.0
 12
18.677605
 22
4.924941
 32
0.0
 13
18.677605
 23
4.924941
 33
0.0
  0
MTEXT
  5
1641
100
AcDbEntity
  8
0
  6
BYBLOCK
 62
     0
100
AcDbMText
 10
20.387605
 20
5.194941
 30
0.0
 40
0.135
 41
0.0
 71
     5
 72
     1
  1
\A1;0.266"±0.001"[6.74mm±0.03mm]
  0
POINT
  5
1642
100
AcDbEntity
  8
DEFPOINTS
  6
BYBLOCK
 62
     0
100
AcDbPoint
 10
16.15123
 20
4.659405
 30
0.0
  0
POINT
  5
1643
100
AcDbEntity
  8
DEFPOINTS
  6
BYBLOCK
 62
     0
100
AcDbPoint
 10
9.42423
 20
4.924941
 30
0.0
  0
POINT
  5
1644
100
AcDbEntity
  8
DEFPOINTS
  6
BYBLOCK
 62
     0
100
AcDbPoint
 10
18.677605
 20
4.924941
 30
0.0
  0
ENDBLK
  5
1645
100
AcDbEntity
  8
0
100
AcDbBlockEnd
  0
BLOCK
  5
1663
100
AcDbEntity
  8
0
100
AcDbBlockBegin
  2
*D28
 70
    65
 10
0.0
 20
0.0
 30
0.0
  3
*D28
  1
*TB
  0
LINE
  5
1664
100
AcDbEntity
  8
0
  6
BYBLOCK
 62
     0
100
AcDbLine
 10
16.526258
 20
4.631038
 30
0.0
 11
22.313701
 21
4.631038
 31
0.0
  0
LINE
  5
1665
100
AcDbEntity
  8
0
  6
BYBLOCK
 62
     0
100
AcDbLine
 10
22.178701
 20
4.496038
 30
0.0
 11
22.178701
 21
4.361038
 31
0.0
  0
LINE
  5
1666
100
AcDbEntity
  8
0
  6
BYBLOCK
 62
     0
100
AcDbLine
 10
22.178701
 20
5.059941
 30
0.0
 11
22.178701
 21
5.194941
 31
0.0
  0
LINE
  5
1667
100
AcDbEntity
  8
0
  6
BYBLOCK
 62
     0
100
AcDbLine
 10
22.178701
 20
5.194941
 30
0.0
 11
22.313701
 21
5.194941
 31
0.0
  0
SOLID
  5
1668
100
AcDbEntity
  8
0
  6
BYBLOCK
 62
     0
100
AcDbTrace
 10
22.156201
 20
4.496038
 30
0.0
 11
22.201201
 21
4.496038
 31
0.0
 12
22.178701
 22
4.631038
 32
0.0
 13
22.178701
 23
4.631038
 33
0.0
  0
SOLID
  5
1669
100
AcDbEntity
  8
0
  6
BYBLOCK
 62
     0
100
AcDbTrace
 10
22.156201
 20
5.059941
 30
0.0
 11
22.201201
 21
5.059941
 31
0.0
 12
22.178701
 22
4.924941
 32
0.0
 13
22.178701
 23
4.924941
 33
0.0
  0
MTEXT
  5
166A
100
AcDbEntity
  8
0
  6
BYBLOCK
 62
     0
100
AcDbMText
 10
23.134951
 20
5.194941
 30
0.0
 40
0.135
 41
0.0
 71
     5
 72
     1
  1
\A1;0.294"[7.47mm]
  0
POINT
  5
166B
100
AcDbEntity
  8
DEFPOINTS
  6
BYBLOCK
 62
     0
100
AcDbPoint
 10
16.479383
 20
4.631038
 30
0.0
  0
POINT
  5
166C
100
AcDbEntity
  8
DEFPOINTS
  6
BYBLOCK
 62
     0
100
AcDbPoint
 10
29.076
 20
4.924941
 30
0.0
  0
POINT
  5
166D
100
AcDbEntity
  8
DEFPOINTS
  6
BYBLOCK
 62
     0
100
AcDbPoint
 10
22.178701
 20
4.924941
 30
0.0
  0
ENDBLK
  5
166E
100
AcDbEntity
  8
0
100
AcDbBlockEnd
  0
BLOCK
  5
19A0
100
AcDbEntity
  8
0
100
AcDbBlockBegin
  2
*D29
 70
    65
 10
0.0
 20
0.0
 30
0.0
  3
*D29
  1

  0
LINE
  5
19A1
100
AcDbEntity
  8
0
  6
BYBLOCK
 62
     0
100
AcDbLine
 10
16.526258
 20
4.475253
 30
0.0
 11
24.32997
 21
4.475253
 31
0.0
  0
LINE
  5
19A2
100
AcDbEntity
  8
0
  6
BYBLOCK
 62
     0
100
AcDbLine
 10
24.19497
 20
4.340253
 30
0.0
 11
24.19497
 21
4.205253
 31
0.0
  0
LINE
  5
19A3
100
AcDbEntity
  8
0
  6
BYBLOCK
 62
     0
100
AcDbLine
 10
24.19497
 20
5.059941
 30
0.0
 11
24.19497
 21
5.194941
 31
0.0
  0
LINE
  5
19A4
100
AcDbEntity
  8
0
  6
BYBLOCK
 62
     0
100
AcDbLine
 10
24.19497
 20
5.194941
 30
0.0
 11
24.32997
 21
5.194941
 31
0.0
  0
SOLID
  5
19A5
100
AcDbEntity
  8
0
  6
BYBLOCK
 62
     0
100
AcDbTrace
 10
24.17247
 20
4.340253
 30
0.0
 11
24.21747
 21
4.340253
 31
0.0
 12
24.19497
 22
4.475253
 32
0.0
 13
24.19497
 23
4.475253
 33
0.0
  0
SOLID
  5
19A6
100
AcDbEntity
  8
0
  6
BYBLOCK
 62
     0
100
AcDbTrace
 10
24.17247
 20
5.059941
 30
0.0
 11
24.21747
 21
5.059941
 31
0.0
 12
24.19497
 22
4.924941
 32
0.0
 13
24.19497
 23
4.924941
 33
0.0
  0
MTEXT
  5
19A7
100
AcDbEntity
  8
0
  6
BYBLOCK
 62
     0
100
AcDbMText
 10
26.07822
 20
5.194941
 30
0.0
 40
0.135
 41
0.0
 71
     5
 72
     1
  1
\A1;0.450"\S 0.000"^ -0.002";{\o\l\H0.324000;[}11.42mm\S 0.00mm^ -0.05mm;{\o\l\H0.324000;]}
  0
POINT
  5
19A8
100
AcDbEntity
  8
DEFPOINTS
  6
BYBLOCK
 62
     0
100
AcDbPoint
 10
16.479383
 20
4.475253
 30
0.0
  0
POINT
  5
19A9
100
AcDbEntity
  8
DEFPOINTS
  6
BYBLOCK
 62
     0
100
AcDbPoint
 10
9.42423
 20
4.924941
 30
0.0
  0
POINT
  5
19AA
100
AcDbEntity
  8
DEFPOINTS
  6
BYBLOCK
 62
     0
100
AcDbPoint
 10
24.19497
 20
4.924941
 30
0.0
  0
ENDBLK
  5
19AB
100
AcDbEntity
  8
0
100
AcDbBlockEnd
  0
BLOCK
  5
167E
100
AcDbEntity
  8
0
100
AcDbBlockBegin
  2
*D30
 70
    65
 10
0.0
 20
0.0
 30
0.0
  3
*D30
  1
*TB
  0
LINE
  5
167F
100
AcDbEntity
  8
0
  6
BYBLOCK
 62
     0
100
AcDbLine
 10
16.526258
 20
4.505272
 30
0.0
 11
28.086672
 21
4.505272
 31
0.0
  0
LINE
  5
1680
100
AcDbEntity
  8
0
  6
BYBLOCK
 62
     0
100
AcDbLine
 10
16.526258
 20
4.475253
 30
0.0
 11
28.086672
 21
4.475253
 31
0.0
  0
LINE
  5
1681
100
AcDbEntity
  8
0
  6
BYBLOCK
 62
     0
100
AcDbLine
 10
27.951672
 20
4.640272
 30
0.0
 11
27.951672
 21
4.775272
 31
0.0
  0
LINE
  5
1682
100
AcDbEntity
  8
0
  6
BYBLOCK
 62
     0
100
AcDbLine
 10
27.951672
 20
4.340253
 30
0.0
 11
27.951672
 21
4.205253
 31
0.0
  0
LINE
  5
1683
100
AcDbEntity
  8
0
  6
BYBLOCK
 62
     0
100
AcDbLine
 10
27.951672
 20
4.205253
 30
0.0
 11
27.816672
 21
4.205253
 31
0.0
  0
SOLID
  5
1684
100
AcDbEntity
  8
0
  6
BYBLOCK
 62
     0
100
AcDbTrace
 10
27.929172
 20
4.640272
 30
0.0
 11
27.974172
 21
4.640272
 31
0.0
 12
27.951672
 22
4.505272
 32
0.0
 13
27.951672
 23
4.505272
 33
0.0
  0
SOLID
  5
1685
100
AcDbEntity
  8
0
  6
BYBLOCK
 62
     0
100
AcDbTrace
 10
27.929172
 20
4.340253
 30
0.0
 11
27.974172
 21
4.340253
 31
0.0
 12
27.951672
 22
4.475253
 32
0.0
 13
27.951672
 23
4.475253
 33
0.0
  0
MTEXT
  5
1686
100
AcDbEntity
  8
0
  6
BYBLOCK
 62
     0
100
AcDbMText
 10
26.275422
 20
4.205253
 30
0.0
 40
0.135
 41
0.0
 71
     5
 72
     1
  1
\A1;{0.030"±0.001"[0.76mm±0.03mm]}\P{WALL THICKNESS}
  0
POINT
  5
1687
100
AcDbEntity
  8
DEFPOINTS
  6
BYBLOCK
 62
     0
100
AcDbPoint
 10
16.479383
 20
4.505272
 30
0.0
  0
POINT
  5
1688
100
AcDbEntity
  8
DEFPOINTS
  6
BYBLOCK
 62
     0
100
AcDbPoint
 10
16.479383
 20
4.475253
 30
0.0
  0
POINT
  5
1689
100
AcDbEntity
  8
DEFPOINTS
  6
BYBLOCK
 62
     0
100
AcDbPoint
 10
27.951672
 20
4.475253
 30
0.0
  0
ENDBLK
  5
168A
100
AcDbEntity
  8
0
100
AcDbBlockEnd
  0
BLOCK
  5
16A7
100
AcDbEntity
  8
0
100
AcDbBlockBegin
  2
*D31
 70
    65
 10
0.0
 20
0.0
 30
0.0
  3
*D31
  1
*TB
  0
LINE
  5
16A8
100
AcDbEntity
  8
0
  6
BYBLOCK
 62
     0
100
AcDbLine
 10
13.572357
 20
16.650937
 30
0.0
 11
10.897735
 21
16.650937
 31
0.0
  0
LINE
  5
16A9
100
AcDbEntity
  8
0
  6
BYBLOCK
 62
     0
100
AcDbLine
 10
13.572663
 20
16.680937
 30
0.0
 11
10.897735
 21
16.680937
 31
0.0
  0
LINE
  5
16AA
100
AcDbEntity
  8
0
  6
BYBLOCK
 62
     0
100
AcDbLine
 10
11.032735
 20
16.515937
 30
0.0
 11
11.032735
 21
16.380937
 31
0.0
  0
LINE
  5
16AB
100
AcDbEntity
  8
0
  6
BYBLOCK
 62
     0
100
AcDbLine
 10
11.032735
 20
16.815937
 30
0.0
 11
11.032735
 21
16.950937
 31
0.0
  0
LINE
  5
16AC
100
AcDbEntity
  8
0
  6
BYBLOCK
 62
     0
100
AcDbLine
 10
11.032735
 20
16.950937
 30
0.0
 11
11.167735
 21
16.950937
 31
0.0
  0
SOLID
  5
16AD
100
AcDbEntity
  8
0
  6
BYBLOCK
 62
     0
100
AcDbTrace
 10
11.010235
 20
16.515937
 30
0.0
 11
11.055235
 21
16.515937
 31
0.0
 12
11.032735
 22
16.650937
 32
0.0
 13
11.032735
 23
16.650937
 33
0.0
  0
SOLID
  5
16AE
100
AcDbEntity
  8
0
  6
BYBLOCK
 62
     0
100
AcDbTrace
 10
11.010235
 20
16.815937
 30
0.0
 11
11.055235
 21
16.815937
 31
0.0
 12
11.032735
 22
16.680937
 32
0.0
 13
11.032735
 23
16.680937
 33
0.0
  0
MTEXT
  5
16AF
100
AcDbEntity
  8
0
  6
BYBLOCK
 62
     0
100
AcDbMText
 10
11.955235
 20
16.950937
 30
0.0
 40
0.135
 41
0.0
 71
     5
 72
     1
  1
\A1;0.030"[0.76mm]
  0
POINT
  5
16B0
100
AcDbEntity
  8
DEFPOINTS
  6
BYBLOCK
 62
     0
100
AcDbPoint
 10
13.619232
 20
16.650937
 30
0.0
  0
POINT
  5
16B1
100
AcDbEntity
  8
DEFPOINTS
  6
BYBLOCK
 62
     0
100
AcDbPoint
 10
13.619538
 20
16.680937
 30
0.0
  0
POINT
  5
16B2
100
AcDbEntity
  8
DEFPOINTS
  6
BYBLOCK
 62
     0
100
AcDbPoint
 10
11.032735
 20
16.680937
 30
0.0
  0
ENDBLK
  5
16B3
100
AcDbEntity
  8
0
100
AcDbBlockEnd
  0
BLOCK
  5
1865
100
AcDbEntity
  8
0
100
AcDbBlockBegin
  2
*D32
 70
    65
 10
0.0
 20
0.0
 30
0.0
  3
*D32
  1
*TB
  0
LINE
  5
1866
100
AcDbEntity
  8
0
  6
BYBLOCK
 62
     0
100
AcDbLine
 10
13.572663
 20
14.32082
 30
0.0
 11
6.651852
 21
14.32082
 31
0.0
  0
LINE
  5
1867
100
AcDbEntity
  8
0
  6
BYBLOCK
 62
     0
100
AcDbLine
 10
13.572663
 20
16.680937
 30
0.0
 11
6.651852
 21
16.680937
 31
0.0
  0
LINE
  5
1868
100
AcDbEntity
  8
0
  6
BYBLOCK
 62
     0
100
AcDbLine
 10
6.786852
 20
14.45582
 30
0.0
 11
6.786852
 21
15.365878
 31
0.0
  0
LINE
  5
1869
100
AcDbEntity
  8
0
  6
BYBLOCK
 62
     0
100
AcDbLine
 10
6.786852
 20
16.545937
 30
0.0
 11
6.786852
 21
15.635878
 31
0.0
  0
SOLID
  5
186A
100
AcDbEntity
  8
0
  6
BYBLOCK
 62
     0
100
AcDbTrace
 10
6.764352
 20
14.45582
 30
0.0
 11
6.809352
 21
14.45582
 31
0.0
 12
6.786852
 22
14.32082
 32
0.0
 13
6.786852
 23
14.32082
 33
0.0
  0
SOLID
  5
186B
100
AcDbEntity
  8
0
  6
BYBLOCK
 62
     0
100
AcDbTrace
 10
6.764352
 20
16.545937
 30
0.0
 11
6.809352
 21
16.545937
 31
0.0
 12
6.786852
 22
16.680937
 32
0.0
 13
6.786852
 23
16.680937
 33
0.0
  0
MTEXT
  5
186C
100
AcDbEntity
  8
0
  6
BYBLOCK
 62
     0
100
AcDbMText
 10
6.786852
 20
15.500878
 30
0.0
 40
0.135
 41
0.0
 71
     5
 72
     1
  1
\A1;2.360"[59.95mm]
  0
POINT
  5
186D
100
AcDbEntity
  8
DEFPOINTS
  6
BYBLOCK
 62
     0
100
AcDbPoint
 10
13.619538
 20
14.32082
 30
0.0
  0
POINT
  5
186E
100
AcDbEntity
  8
DEFPOINTS
  6
BYBLOCK
 62
     0
100
AcDbPoint
 10
13.619538
 20
16.680937
 30
0.0
  0
POINT
  5
186F
100
AcDbEntity
  8
DEFPOINTS
  6
BYBLOCK
 62
     0
100
AcDbPoint
 10
6.786852
 20
16.680937
 30
0.0
  0
ENDBLK
  5
1870
100
AcDbEntity
  8
0
100
AcDbBlockEnd
  0
BLOCK
  5
1859
100
AcDbEntity
  8
0
100
AcDbBlockBegin
  2
*D33
 70
    65
 10
0.0
 20
0.0
 30
0.0
  3
*D33
  1
*TB
  0
LINE
  5
185A
100
AcDbEntity
  8
0
  6
BYBLOCK
 62
     0
100
AcDbLine
 10
13.572663
 20
14.29082
 30
0.0
 11
4.765554
 21
14.29082
 31
0.0
  0
LINE
  5
185B
100
AcDbEntity
  8
0
  6
BYBLOCK
 62
     0
100
AcDbLine
 10
13.572663
 20
16.680937
 30
0.0
 11
4.765554
 21
16.680937
 31
0.0
  0
LINE
  5
185C
100
AcDbEntity
  8
0
  6
BYBLOCK
 62
     0
100
AcDbLine
 10
4.900554
 20
14.42582
 30
0.0
 11
4.900554
 21
15.350878
 31
0.0
  0
LINE
  5
185D
100
AcDbEntity
  8
0
  6
BYBLOCK
 62
     0
100
AcDbLine
 10
4.900554
 20
16.545937
 30
0.0
 11
4.900554
 21
15.620878
 31
0.0
  0
SOLID
  5
185E
100
AcDbEntity
  8
0
  6
BYBLOCK
 62
     0
100
AcDbTrace
 10
4.878054
 20
14.42582
 30
0.0
 11
4.923054
 21
14.42582
 31
0.0
 12
4.900554
 22
14.29082
 32
0.0
 13
4.900554
 23
14.29082
 33
0.0
  0
SOLID
  5
185F
100
AcDbEntity
  8
0
  6
BYBLOCK
 62
     0
100
AcDbTrace
 10
4.878054
 20
16.545937
 30
0.0
 11
4.923054
 21
16.545937
 31
0.0
 12
4.900554
 22
16.680937
 32
0.0
 13
4.900554
 23
16.680937
 33
0.0
  0
MTEXT
  5
1860
100
AcDbEntity
  8
0
  6
BYBLOCK
 62
     0
100
AcDbMText
 10
4.900554
 20
15.485878
 30
0.0
 40
0.135
 41
0.0
 71
     5
 72
     1
  1
\A1;2.390"[60.71mm]
  0
POINT
  5
1861
100
AcDbEntity
  8
DEFPOINTS
  6
BYBLOCK
 62
     0
100
AcDbPoint
 10
13.619538
 20
14.29082
 30
0.0
  0
POINT
  5
1862
100
AcDbEntity
  8
DEFPOINTS
  6
BYBLOCK
 62
     0
100
AcDbPoint
 10
13.619538
 20
16.680937
 30
0.0
  0
POINT
  5
1863
100
AcDbEntity
  8
DEFPOINTS
  6
BYBLOCK
 62
     0
100
AcDbPoint
 10
4.900554
 20
16.680937
 30
0.0
  0
ENDBLK
  5
1864
100
AcDbEntity
  8
0
100
AcDbBlockEnd
  0
BLOCK
  5
1712
100
AcDbEntity
  8
0
100
AcDbBlockBegin
  2
*D34
 70
    65
 10
0.0
 20
0.0
 30
0.0
  3
*D34
  1
*TB
  0
LINE
  5
1713
100
AcDbEntity
  8
0
  6
BYBLOCK
 62
     0
100
AcDbLine
 10
16.353392
 20
16.595165
 30
0.0
 11
16.353392
 21
18.230107
 31
0.0
  0
LINE
  5
1714
100
AcDbEntity
  8
0
  6
BYBLOCK
 62
     0
100
AcDbLine
 10
16.218392
 20
18.095107
 30
0.0
 11
16.126689
 21
18.095107
 31
0.0
  0
LINE
  5
1715
100
AcDbEntity
  8
0
  6
BYBLOCK
 62
     0
100
AcDbLine
 10
14.279987
 20
18.095107
 30
0.0
 11
14.371689
 21
18.095107
 31
0.0
  0
SOLID
  5
1716
100
AcDbEntity
  8
0
  6
BYBLOCK
 62
     0
100
AcDbTrace
 10
16.218392
 20
18.117607
 30
0.0
 11
16.218392
 21
18.072607
 31
0.0
 12
16.353392
 22
18.095107
 32
0.0
 13
16.353392
 23
18.095107
 33
0.0
  0
SOLID
  5
1717
100
AcDbEntity
  8
0
  6
BYBLOCK
 62
     0
100
AcDbTrace
 10
14.279987
 20
18.117607
 30
0.0
 11
14.279987
 21
18.072607
 31
0.0
 12
14.144987
 22
18.095107
 32
0.0
 13
14.144987
 23
18.095107
 33
0.0
  0
MTEXT
  5
1718
100
AcDbEntity
  8
0
  6
BYBLOCK
 62
     0
100
AcDbMText
 10
15.249189
 20
18.095107
 30
0.0
 40
0.135
 41
0.0
 71
     5
 72
     1
  1
\A1;2.208"[56.09mm]
  0
POINT
  5
1719
100
AcDbEntity
  8
DEFPOINTS
  6
BYBLOCK
 62
     0
100
AcDbPoint
 10
16.353392
 20
16.54829
 30
0.0
  0
POINT
  5
171A
100
AcDbEntity
  8
DEFPOINTS
  6
BYBLOCK
 62
     0
100
AcDbPoint
 10
14.144987
 20
18.593842
 30
0.0
  0
POINT
  5
171B
100
AcDbEntity
  8
DEFPOINTS
  6
BYBLOCK
 62
     0
100
AcDbPoint
 10
14.144987
 20
18.095107
 30
0.0
  0
ENDBLK
  5
171C
100
AcDbEntity
  8
0
100
AcDbBlockEnd
  0
BLOCK
  5
1AE8
100
AcDbEntity
  8
0
100
AcDbBlockBegin
  2
*D35
 70
    65
 10
0.0
 20
0.0
 30
0.0
  3
*D35
  1
*TB
  0
LINE
  5
1AE9
100
AcDbEntity
  8
0
  6
BYBLOCK
 62
     0
100
AcDbLine
 10
16.588267
 20
16.17529
 30
0.0
 11
22.75253
 21
16.17529
 31
0.0
  0
LINE
  5
1AEA
100
AcDbEntity
  8
0
  6
BYBLOCK
 62
     0
100
AcDbLine
 10
16.526258
 20
16.680937
 30
0.0
 11
22.75253
 21
16.680937
 31
0.0
  0
LINE
  5
1AEB
100
AcDbEntity
  8
0
  6
BYBLOCK
 62
     0
100
AcDbLine
 10
22.61753
 20
16.04029
 30
0.0
 11
22.61753
 21
15.90529
 31
0.0
  0
LINE
  5
1AEC
100
AcDbEntity
  8
0
  6
BYBLOCK
 62
     0
100
AcDbLine
 10
22.61753
 20
16.815937
 30
0.0
 11
22.61753
 21
16.950937
 31
0.0
  0
LINE
  5
1AED
100
AcDbEntity
  8
0
  6
BYBLOCK
 62
     0
100
AcDbLine
 10
22.61753
 20
16.950937
 30
0.0
 11
22.75253
 21
16.950937
 31
0.0
  0
SOLID
  5
1AEE
100
AcDbEntity
  8
0
  6
BYBLOCK
 62
     0
100
AcDbTrace
 10
22.59503
 20
16.04029
 30
0.0
 11
22.64003
 21
16.04029
 31
0.0
 12
22.61753
 22
16.17529
 32
0.0
 13
22.61753
 23
16.17529
 33
0.0
  0
SOLID
  5
1AEF
100
AcDbEntity
  8
0
  6
BYBLOCK
 62
     0
100
AcDbTrace
 10
22.59503
 20
16.815937
 30
0.0
 11
22.64003
 21
16.815937
 31
0.0
 12
22.61753
 22
16.680937
 32
0.0
 13
22.61753
 23
16.680937
 33
0.0
  0
MTEXT
  5
1AF0
100
AcDbEntity
  8
0
  6
BYBLOCK
 62
     0
100
AcDbMText
 10
23.60753
 20
16.950937
 30
0.0
 40
0.135
 41
0.0
 71
     5
 72
     1
  1
\A1;0.506"[12.84mm]
  0
POINT
  5
1AF1
100
AcDbEntity
  8
DEFPOINTS
  6
BYBLOCK
 62
     0
100
AcDbPoint
 10
16.541392
 20
16.17529
 30
0.0
  0
POINT
  5
1AF2
100
AcDbEntity
  8
DEFPOINTS
  6
BYBLOCK
 62
     0
100
AcDbPoint
 10
16.479383
 20
16.680937
 30
0.0
  0
POINT
  5
1AF3
100
AcDbEntity
  8
DEFPOINTS
  6
BYBLOCK
 62
     0
100
AcDbPoint
 10
22.61753
 20
16.680937
 30
0.0
  0
ENDBLK
  5
1AF4
100
AcDbEntity
  8
0
100
AcDbBlockEnd
  0
BLOCK
  5
1B65
100
AcDbEntity
  8
0
100
AcDbBlockBegin
  2
*D36
 70
    65
 10
0.0
 20
0.0
 30
0.0
  3
*D36
  1
*TB
  0
LINE
  5
1B66
100
AcDbEntity
  8
0
  6
BYBLOCK
 62
     0
100
AcDbLine
 10
16.526258
 20
16.680937
 30
0.0
 11
27.811836
 21
16.680937
 31
0.0
  0
LINE
  5
1B67
100
AcDbEntity
  8
0
  6
BYBLOCK
 62
     0
100
AcDbLine
 10
16.588267
 20
14.494123
 30
0.0
 11
27.811836
 21
14.494123
 31
0.0
  0
LINE
  5
1B68
100
AcDbEntity
  8
0
  6
BYBLOCK
 62
     0
100
AcDbLine
 10
27.676836
 20
16.545937
 30
0.0
 11
27.676836
 21
15.72253
 31
0.0
  0
LINE
  5
1B69
100
AcDbEntity
  8
0
  6
BYBLOCK
 62
     0
100
AcDbLine
 10
27.676836
 20
14.629123
 30
0.0
 11
27.676836
 21
15.45253
 31
0.0
  0
SOLID
  5
1B6A
100
AcDbEntity
  8
0
  6
BYBLOCK
 62
     0
100
AcDbTrace
 10
27.654336
 20
16.545937
 30
0.0
 11
27.699336
 21
16.545937
 31
0.0
 12
27.676836
 22
16.680937
 32
0.0
 13
27.676836
 23
16.680937
 33
0.0
  0
SOLID
  5
1B6B
100
AcDbEntity
  8
0
  6
BYBLOCK
 62
     0
100
AcDbTrace
 10
27.654336
 20
14.629123
 30
0.0
 11
27.699336
 21
14.629123
 31
0.0
 12
27.676836
 22
14.494123
 32
0.0
 13
27.676836
 23
14.494123
 33
0.0
  0
MTEXT
  5
1B6C
100
AcDbEntity
  8
0
  6
BYBLOCK
 62
     0
100
AcDbMText
 10
27.676836
 20
15.58753
 30
0.0
 40
0.135
 41
0.0
 71
     5
 72
     1
  1
\A1;2.187"[55.55mm]
  0
POINT
  5
1B6D
100
AcDbEntity
  8
DEFPOINTS
  6
BYBLOCK
 62
     0
100
AcDbPoint
 10
16.479383
 20
16.680937
 30
0.0
  0
POINT
  5
1B6E
100
AcDbEntity
  8
DEFPOINTS
  6
BYBLOCK
 62
     0
100
AcDbPoint
 10
16.541392
 20
14.494123
 30
0.0
  0
POINT
  5
1B6F
100
AcDbEntity
  8
DEFPOINTS
  6
BYBLOCK
 62
     0
100
AcDbPoint
 10
27.676836
 20
14.494123
 30
0.0
  0
ENDBLK
  5
1B70
100
AcDbEntity
  8
0
100
AcDbBlockEnd
  0
BLOCK
  5
1872
100
AcDbEntity
  8
0
100
AcDbBlockBegin
  2
*D37
 70
    65
 10
0.0
 20
0.0
 30
0.0
  3
*D37
  1

  0
LINE
  5
1873
100
AcDbEntity
  8
0
  6
BYBLOCK
 62
     0
100
AcDbLine
 10
13.572663
 20
16.680937
 30
0.0
 11
8.720702
 21
16.680937
 31
0.0
  0
LINE
  5
1874
100
AcDbEntity
  8
0
  6
BYBLOCK
 62
     0
100
AcDbLine
 10
13.640206
 20
15.485878
 30
0.0
 11
8.720702
 21
15.485878
 31
0.0
  0
LINE
  5
1875
100
AcDbEntity
  8
0
  6
BYBLOCK
 62
     0
100
AcDbLine
 10
8.855702
 20
16.545937
 30
0.0
 11
8.855702
 21
16.218408
 31
0.0
  0
LINE
  5
1876
100
AcDbEntity
  8
0
  6
BYBLOCK
 62
     0
100
AcDbLine
 10
8.855702
 20
15.620878
 30
0.0
 11
8.855702
 21
15.948408
 31
0.0
  0
SOLID
  5
1877
100
AcDbEntity
  8
0
  6
BYBLOCK
 62
     0
100
AcDbTrace
 10
8.833202
 20
16.545937
 30
0.0
 11
8.878202
 21
16.545937
 31
0.0
 12
8.855702
 22
16.680937
 32
0.0
 13
8.855702
 23
16.680937
 33
0.0
  0
SOLID
  5
1878
100
AcDbEntity
  8
0
  6
BYBLOCK
 62
     0
100
AcDbTrace
 10
8.833202
 20
15.620878
 30
0.0
 11
8.878202
 21
15.620878
 31
0.0
 12
8.855702
 22
15.485878
 32
0.0
 13
8.855702
 23
15.485878
 33
0.0
  0
MTEXT
  5
1879
100
AcDbEntity
  8
0
  6
BYBLOCK
 62
     0
100
AcDbMText
 10
8.855702
 20
16.083408
 30
0.0
 40
0.135
 41
0.0
 71
     5
 72
     1
  1
\A1;1.195"±0.001"[30.35mm±0.03mm]
  0
POINT
  5
187A
100
AcDbEntity
  8
DEFPOINTS
  6
BYBLOCK
 62
     0
100
AcDbPoint
 10
13.619538
 20
16.680937
 30
0.0
  0
POINT
  5
187B
100
AcDbEntity
  8
DEFPOINTS
  6
BYBLOCK
 62
     0
100
AcDbPoint
 10
13.687081
 20
15.485878
 30
0.0
  0
POINT
  5
187C
100
AcDbEntity
  8
DEFPOINTS
  6
BYBLOCK
 62
     0
100
AcDbPoint
 10
8.855702
 20
15.485878
 30
0.0
  0
ENDBLK
  5
187D
100
AcDbEntity
  8
0
100
AcDbBlockEnd
  0
BLOCK
  5
195D
100
AcDbEntity
  8
0
100
AcDbBlockBegin
  2
*D38
 70
    65
 10
0.0
 20
0.0
 30
0.0
  3
*D38
  1
*TB
  0
LINE
  5
195E
100
AcDbEntity
  8
0
  6
BYBLOCK
 62
     0
100
AcDbLine
 10
16.739307
 20
10.740572
 30
0.0
 11
17.76844
 21
10.36498
 31
0.0
  0
LINE
  5
195F
100
AcDbEntity
  8
0
  6
BYBLOCK
 62
     0
100
AcDbLine
 10
17.424053
 20
11.163953
 30
0.0
 11
17.985279
 21
10.959129
 31
0.0
  0
LINE
  5
1960
100
AcDbEntity
  8
0
  6
BYBLOCK
 62
     0
100
AcDbLine
 10
17.595338
 20
10.284446
 30
0.0
 11
17.549055
 21
10.157628
 31
0.0
  0
LINE
  5
1961
100
AcDbEntity
  8
0
  6
BYBLOCK
 62
     0
100
AcDbLine
 10
17.904744
 20
11.13223
 30
0.0
 11
17.951028
 21
11.259048
 31
0.0
  0
LINE
  5
1962
100
AcDbEntity
  8
0
  6
BYBLOCK
 62
     0
100
AcDbLine
 10
17.951028
 20
11.259048
 30
0.0
 11
18.077846
 21
11.212765
 31
0.0
  0
SOLID
  5
1963
100
AcDbEntity
  8
0
  6
BYBLOCK
 62
     0
100
AcDbTrace
 10
17.574202
 20
10.29216
 30
0.0
 11
17.616474
 21
10.276732
 31
0.0
 12
17.641621
 22
10.411264
 32
0.0
 13
17.641621
 23
10.411264
 33
0.0
  0
SOLID
  5
1964
100
AcDbEntity
  8
0
  6
BYBLOCK
 62
     0
100
AcDbTrace
 10
17.883608
 20
11.139944
 30
0.0
 11
17.925881
 21
11.124516
 31
0.0
 12
17.858461
 22
11.005412
 32
0.0
 13
17.858461
 23
11.005412
 33
0.0
  0
MTEXT
  5
1965
100
AcDbEntity
  8
0
  6
BYBLOCK
 62
     0
100
AcDbMText
 10
18.881028
 20
10.919637
 30
0.0
 40
0.135
 41
0.0
 71
     5
 72
     1
  1
\A1;0.632"[16.07mm]
 11
0.939394
 21
-0.34284
 31
0.0
  0
POINT
  5
1966
100
AcDbEntity
  8
DEFPOINTS
  6
BYBLOCK
 62
     0
100
AcDbPoint
 10
16.695272
 20
10.756642
 30
0.0
 50
20.05
  0
POINT
  5
1967
100
AcDbEntity
  8
DEFPOINTS
  6
BYBLOCK
 62
     0
100
AcDbPoint
 10
17.380019
 20
11.180024
 30
0.0
 50
20.05
  0
POINT
  5
1968
100
AcDbEntity
  8
DEFPOINTS
  6
BYBLOCK
 62
     0
100
AcDbPoint
 10
17.858461
 20
11.005412
 30
0.0
 50
20.05
  0
ENDBLK
  5
1969
100
AcDbEntity
  8
0
100
AcDbBlockEnd
  0
BLOCK
  5
196C
100
AcDbEntity
  8
0
100
AcDbBlockBegin
  2
*D39
 70
    65
 10
0.0
 20
0.0
 30
0.0
  3
*D39
  1
*TB
  0
LINE
  5
196D
100
AcDbEntity
  8
0
  6
BYBLOCK
 62
     0
100
AcDbLine
 10
16.35361
 20
9.683749
 30
0.0
 11
18.484629
 21
8.906014
 31
0.0
  0
LINE
  5
196E
100
AcDbEntity
  8
0
  6
BYBLOCK
 62
     0
100
AcDbLine
 10
17.424053
 20
11.163953
 30
0.0
 11
19.087165
 21
10.556986
 31
0.0
  0
LINE
  5
196F
100
AcDbEntity
  8
0
  6
BYBLOCK
 62
     0
100
AcDbLine
 10
18.404094
 20
9.079116
 30
0.0
 11
18.612795
 21
9.650965
 31
0.0
  0
LINE
  5
1970
100
AcDbEntity
  8
0
  6
BYBLOCK
 62
     0
100
AcDbLine
 10
18.914064
 20
10.476451
 30
0.0
 11
18.705362
 21
9.904602
 31
0.0
  0
SOLID
  5
1971
100
AcDbEntity
  8
0
  6
BYBLOCK
 62
     0
100
AcDbTrace
 10
18.382958
 20
9.08683
 30
0.0
 11
18.42523
 21
9.071402
 31
0.0
 12
18.357811
 22
8.952298
 32
0.0
 13
18.357811
 23
8.952298
 33
0.0
  0
SOLID
  5
1972
100
AcDbEntity
  8
0
  6
BYBLOCK
 62
     0
100
AcDbTrace
 10
18.892927
 20
10.484165
 30
0.0
 11
18.9352
 21
10.468737
 31
0.0
 12
18.960347
 22
10.603269
 32
0.0
 13
18.960347
 23
10.603269
 33
0.0
  0
MTEXT
  5
1973
100
AcDbEntity
  8
0
  6
BYBLOCK
 62
     0
100
AcDbMText
 10
18.659079
 20
9.777783
 30
0.0
 40
0.135
 41
0.0
 71
     5
 72
     1
  1
\A1;1.757"[44.64mm]
 11
0.939394
 21
-0.34284
 31
0.0
  0
POINT
  5
1974
100
AcDbEntity
  8
DEFPOINTS
  6
BYBLOCK
 62
     0
100
AcDbPoint
 10
16.309576
 20
9.699819
 30
0.0
 50
20.05
  0
POINT
  5
1975
100
AcDbEntity
  8
DEFPOINTS
  6
BYBLOCK
 62
     0
100
AcDbPoint
 10
17.380019
 20
11.180024
 30
0.0
 50
20.05
  0
POINT
  5
1976
100
AcDbEntity
  8
DEFPOINTS
  6
BYBLOCK
 62
     0
100
AcDbPoint
 10
18.960347
 20
10.603269
 30
0.0
 50
20.05
  0
ENDBLK
  5
1977
100
AcDbEntity
  8
0
100
AcDbBlockEnd
  0
BLOCK
  5
1991
100
AcDbEntity
  8
0
100
AcDbBlockBegin
  2
*D40
 70
    65
 10
0.0
 20
0.0
 30
0.0
  3
*D40
  1

  0
LINE
  5
1992
100
AcDbEntity
  8
0
  6
BYBLOCK
 62
     0
100
AcDbLine
 10
13.166749
 20
2.244535
 30
0.0
 11
12.962343
 21
1.684456
 31
0.0
  0
LINE
  5
1993
100
AcDbEntity
  8
0
  6
BYBLOCK
 62
     0
100
AcDbLine
 10
14.144987
 20
1.909643
 30
0.0
 11
14.144987
 21
1.475392
 31
0.0
  0
ARC
  5
1994
100
AcDbEntity
  8
0
  6
BYBLOCK
 62
     0
100
AcDbCircle
 10
14.144987
 20
4.924941
 30
0.0
 40
3.314549
100
AcDbArc
 50
252.283791
 51
253.579186
  0
ARC
  5
1995
100
AcDbEntity
  8
0
  6
BYBLOCK
 62
     0
100
AcDbCircle
 10
14.144987
 20
4.924941
 30
0.0
 40
3.314549
100
AcDbArc
 50
266.246401
 51
267.666209
  0
SOLID
  5
1996
100
AcDbEntity
  8
0
  6
BYBLOCK
 62
     0
100
AcDbTrace
 10
13.129079
 20
1.746294
 30
0.0
 11
13.143643
 21
1.788872
 31
0.0
 12
13.008626
 22
1.811274
 32
0.0
 13
13.008626
 23
1.811274
 33
0.0
  0
SOLID
  5
1997
100
AcDbEntity
  8
0
  6
BYBLOCK
 62
     0
100
AcDbTrace
 10
14.010473
 20
1.635636
 30
0.0
 11
14.009556
 21
1.590646
 31
0.0
 12
14.144987
 22
1.610392
 32
0.0
 13
14.144987
 23
1.610392
 33
0.0
  0
MTEXT
  5
1998
100
AcDbEntity
  8
0
  6
BYBLOCK
 62
     0
100
AcDbMText
 10
13.567997
 20
1.660999
 30
0.0
 40
0.135
 41
0.0
 71
     5
 72
     1
  1
\A1;20.05°
  0
POINT
  5
1999
100
AcDbEntity
  8
DEFPOINTS
  6
BYBLOCK
 62
     0
100
AcDbPoint
 10
13.378723
 20
1.700181
 30
0.0
  0
POINT
  5
199A
100
AcDbEntity
  8
DEFPOINTS
  6
BYBLOCK
 62
     0
100
AcDbPoint
 10
14.144987
 20
1.956518
 30
0.0
  0
POINT
  5
199B
100
AcDbEntity
  8
DEFPOINTS
  6
BYBLOCK
 62
     0
100
AcDbPoint
 10
13.18282
 20
2.288569
 30
0.0
  0
POINT
  5
199C
100
AcDbEntity
  8
DEFPOINTS
  6
BYBLOCK
 62
     0
100
AcDbPoint
 10
16.795212
 20
12.186651
 30
0.0
  0
POINT
  5
199D
100
AcDbEntity
  8
DEFPOINTS
  6
BYBLOCK
 62
     0
100
AcDbPoint
 10
14.144987
 20
18.593842
 30
0.0
  0
ENDBLK
  5
199E
100
AcDbEntity
  8
0
100
AcDbBlockEnd
  0
BLOCK
  5
19CC
100
AcDbEntity
  8
ASHADE
100
AcDbBlockBegin
  2
AVE_RENDER
 70
    64
 10
0.0
 20
0.0
 30
0.0
  3
AVE_RENDER
  1
AVE_RENDER
  0
ENDBLK
  5
19CD
100
AcDbEntity
  8
0
100
AcDbBlockEnd
  0
BLOCK
  5
19DA
100
AcDbEntity
  8
ASHADE
100
AcDbBlockBegin
  2
AVE_GLOBAL
 70
    64
 10
0.0
 20
0.0
 30
0.0
  3
AVE_GLOBAL
  1
AVE_GLOBAL
  0
ENDBLK
  5
19DB
100
AcDbEntity
  8
0
100
AcDbBlockEnd
  0
BLOCK
  5
1A69
100
AcDbEntity
  8
0
100
AcDbBlockBegin
  2
*U48
 70
    65
 10
0.0
 20
0.0
 30
0.0
  3
*U48
  1
*TB
  0
POLYLINE
  5
1A6A
100
AcDbEntity
  8
FOOT
100
AcDb2dPolyline
 66
     1
 10
0.0
 20
0.0
 30
0.0
 70
     1
  0
VERTEX
  5
1A6B
100
AcDbEntity
  8
FOOT
100
AcDbVertex
100
AcDb2dVertex
 10
-0.1319
 20
0.0197
 30
0.0
 42
1.0
  0
VERTEX
  5
1A6C
100
AcDbEntity
  8
FOOT
100
AcDbVertex
100
AcDb2dVertex
 10
-0.1319
 20
-0.0197
 30
0.0
  0
VERTEX
  5
1A6D
100
AcDbEntity
  8
FOOT
100
AcDbVertex
100
AcDb2dVertex
 10
0.1319
 20
-0.0197
 30
0.0
 42
1.0
  0
VERTEX
  5
1A6E
100
AcDbEntity
  8
FOOT
100
AcDbVertex
100
AcDb2dVertex
 10
0.1319
 20
0.0197
 30
0.0
  0
SEQEND
  5
1A6F
100
AcDbEntity
  8
FOOT
  0
LINE
  5
1A70
100
AcDbEntity
  8
CENTER
100
AcDbLine
 10
-0.138467
 20
0.0
 30
0.0
 11
-0.125333
 21
0.0
 31
0.0
  0
LINE
  5
1A71
100
AcDbEntity
  8
CENTER
100
AcDbLine
 10
-0.1319
 20
-0.006567
 30
0.0
 11
-0.1319
 21
0.006567
 31
0.0
  0
LINE
  5
1A72
100
AcDbEntity
  8
CENTER
100
AcDbLine
 10
-0.118767
 20
0.0
 30
0.0
 11
0.0128
 21
0.0
 31
0.0
  0
LINE
  5
1A73
100
AcDbEntity
  8
CENTER
100
AcDbLine
 10
-0.1319
 20
0.013133
 30
0.0
 11
-0.1319
 21
0.1447
 31
0.0
  0
LINE
  5
1A74
100
AcDbEntity
  8
CENTER
100
AcDbLine
 10
-0.145033
 20
0.0
 30
0.0
 11
-0.2766
 21
0.0
 31
0.0
  0
LINE
  5
1A75
100
AcDbEntity
  8
CENTER
100
AcDbLine
 10
-0.1319
 20
-0.013133
 30
0.0
 11
-0.1319
 21
-0.1447
 31
0.0
  0
LINE
  5
1A76
100
AcDbEntity
  8
CENTER
100
AcDbLine
 10
0.125333
 20
0.0
 30
0.0
 11
0.138467
 21
0.0
 31
0.0
  0
LINE
  5
1A77
100
AcDbEntity
  8
CENTER
100
AcDbLine
 10
0.1319
 20
-0.006567
 30
0.0
 11
0.1319
 21
0.006567
 31
0.0
  0
LINE
  5
1A78
100
AcDbEntity
  8
CENTER
100
AcDbLine
 10
0.145033
 20
0.0
 30
0.0
 11
0.2766
 21
0.0
 31
0.0
  0
LINE
  5
1A79
100
AcDbEntity
  8
CENTER
100
AcDbLine
 10
0.1319
 20
0.013133
 30
0.0
 11
0.1319
 21
0.1447
 31
0.0
  0
LINE
  5
1A7A
100
AcDbEntity
  8
CENTER
100
AcDbLine
 10
0.118767
 20
0.0
 30
0.0
 11
-0.0128
 21
0.0
 31
0.0
  0
LINE
  5
1A7B
100
AcDbEntity
  8
CENTER
100
AcDbLine
 10
0.1319
 20
-0.013133
 30
0.0
 11
0.1319
 21
-0.1447
 31
0.0
  0
ENDBLK
  5
1A7C
100
AcDbEntity
  8
0
100
AcDbBlockEnd
  0
BLOCK
  5
1A7F
100
AcDbEntity
  8
0
100
AcDbBlockBegin
  2
*D49
 70
    65
 10
0.0
 20
0.0
 30
0.0
  3
*D49
  1
*TB
  0
LINE
  5
1A80
100
AcDbEntity
  8
0
  6
BYBLOCK
 62
     0
100
AcDbLine
 10
16.207694
 20
16.591265
 30
0.0
 11
16.207694
 21
17.867607
 31
0.0
  0
LINE
  5
1A81
100
AcDbEntity
  8
0
  6
BYBLOCK
 62
     0
100
AcDbLine
 10
16.342694
 20
17.732607
 30
0.0
 11
16.477694
 21
17.732607
 31
0.0
  0
LINE
  5
1A82
100
AcDbEntity
  8
0
  6
BYBLOCK
 62
     0
100
AcDbLine
 10
14.009987
 20
17.732607
 30
0.0
 11
13.874987
 21
17.732607
 31
0.0
  0
SOLID
  5
1A83
100
AcDbEntity
  8
0
  6
BYBLOCK
 62
     0
100
AcDbTrace
 10
16.342694
 20
17.755107
 30
0.0
 11
16.342694
 21
17.710107
 31
0.0
 12
16.207694
 22
17.732607
 32
0.0
 13
16.207694
 23
17.732607
 33
0.0
  0
SOLID
  5
1A84
100
AcDbEntity
  8
0
  6
BYBLOCK
 62
     0
100
AcDbTrace
 10
14.009987
 20
17.755107
 30
0.0
 11
14.009987
 21
17.710107
 31
0.0
 12
14.144987
 22
17.732607
 32
0.0
 13
14.144987
 23
17.732607
 33
0.0
  0
MTEXT
  5
1A85
100
AcDbEntity
  8
0
  6
BYBLOCK
 62
     0
100
AcDbMText
 10
12.986237
 20
17.732607
 30
0.0
 40
0.135
 41
0.0
 71
     5
 72
     1
  1
\A1;2.063"[52.39mm]
  0
POINT
  5
1A86
100
AcDbEntity
  8
DEFPOINTS
  6
BYBLOCK
 62
     0
100
AcDbPoint
 10
16.207694
 20
16.54439
 30
0.0
  0
POINT
  5
1A87
100
AcDbEntity
  8
DEFPOINTS
  6
BYBLOCK
 62
     0
100
AcDbPoint
 10
14.144987
 20
18.593842
 30
0.0
  0
POINT
  5
1A88
100
AcDbEntity
  8
DEFPOINTS
  6
BYBLOCK
 62
     0
100
AcDbPoint
 10
14.144987
 20
17.732607
 30
0.0
  0
ENDBLK
  5
1A89
100
AcDbEntity
  8
0
100
AcDbBlockEnd
  0
BLOCK
  5
1ACB
100
AcDbEntity
  8
0
100
AcDbBlockBegin
  2
*D50
 70
    65
 10
0.0
 20
0.0
 30
0.0
  3
*D50
  1
*TB
  0
LINE
  5
1ACC
100
AcDbEntity
  8
0
  6
BYBLOCK
 62
     0
100
AcDbLine
 10
16.399269
 20
16.39969
 30
0.0
 11
17.331153
 21
16.39969
 31
0.0
  0
LINE
  5
1ACD
100
AcDbEntity
  8
0
  6
BYBLOCK
 62
     0
100
AcDbLine
 10
16.526258
 20
16.680937
 30
0.0
 11
17.331153
 21
16.680937
 31
0.0
  0
LINE
  5
1ACE
100
AcDbEntity
  8
0
  6
BYBLOCK
 62
     0
100
AcDbLine
 10
17.196153
 20
16.26469
 30
0.0
 11
17.196153
 21
16.12969
 31
0.0
  0
LINE
  5
1ACF
100
AcDbEntity
  8
0
  6
BYBLOCK
 62
     0
100
AcDbLine
 10
17.196153
 20
16.815937
 30
0.0
 11
17.196153
 21
16.950937
 31
0.0
  0
LINE
  5
1AD0
100
AcDbEntity
  8
0
  6
BYBLOCK
 62
     0
100
AcDbLine
 10
17.196153
 20
16.950937
 30
0.0
 11
17.331153
 21
16.950937
 31
0.0
  0
SOLID
  5
1AD1
100
AcDbEntity
  8
0
  6
BYBLOCK
 62
     0
100
AcDbTrace
 10
17.173653
 20
16.26469
 30
0.0
 11
17.218653
 21
16.26469
 31
0.0
 12
17.196153
 22
16.39969
 32
0.0
 13
17.196153
 23
16.39969
 33
0.0
  0
SOLID
  5
1AD2
100
AcDbEntity
  8
0
  6
BYBLOCK
 62
     0
100
AcDbTrace
 10
17.173653
 20
16.815937
 30
0.0
 11
17.218653
 21
16.815937
 31
0.0
 12
17.196153
 22
16.680937
 32
0.0
 13
17.196153
 23
16.680937
 33
0.0
  0
MTEXT
  5
1AD3
100
AcDbEntity
  8
0
  6
BYBLOCK
 62
     0
100
AcDbMText
 10
18.107403
 20
16.950937
 30
0.0
 40
0.135
 41
0.0
 71
     5
 72
     1
  1
\A1;0.281"[7.14mm]
  0
POINT
  5
1AD4
100
AcDbEntity
  8
DEFPOINTS
  6
BYBLOCK
 62
     0
100
AcDbPoint
 10
16.352394
 20
16.39969
 30
0.0
  0
POINT
  5
1AD5
100
AcDbEntity
  8
DEFPOINTS
  6
BYBLOCK
 62
     0
100
AcDbPoint
 10
16.479383
 20
16.680937
 30
0.0
  0
POINT
  5
1AD6
100
AcDbEntity
  8
DEFPOINTS
  6
BYBLOCK
 62
     0
100
AcDbPoint
 10
17.196153
 20
16.680937
 30
0.0
  0
ENDBLK
  5
1AD7
100
AcDbEntity
  8
0
100
AcDbBlockEnd
  0
BLOCK
  5
1ADA
100
AcDbEntity
  8
0
100
AcDbBlockBegin
  2
*D51
 70
    65
 10
0.0
 20
0.0
 30
0.0
  3
*D51
  1
*TB
  0
LINE
  5
1ADB
100
AcDbEntity
  8
0
  6
BYBLOCK
 62
     0
100
AcDbLine
 10
16.399269
 20
16.13589
 30
0.0
 11
20.820323
 21
16.13589
 31
0.0
  0
LINE
  5
1ADC
100
AcDbEntity
  8
0
  6
BYBLOCK
 62
     0
100
AcDbLine
 10
16.526258
 20
16.680937
 30
0.0
 11
20.820323
 21
16.680937
 31
0.0
  0
LINE
  5
1ADD
100
AcDbEntity
  8
0
  6
BYBLOCK
 62
     0
100
AcDbLine
 10
20.685323
 20
16.00089
 30
0.0
 11
20.685323
 21
15.86589
 31
0.0
  0
LINE
  5
1ADE
100
AcDbEntity
  8
0
  6
BYBLOCK
 62
     0
100
AcDbLine
 10
20.685323
 20
16.815937
 30
0.0
 11
20.685323
 21
16.950937
 31
0.0
  0
LINE
  5
1ADF
100
AcDbEntity
  8
0
  6
BYBLOCK
 62
     0
100
AcDbLine
 10
20.685323
 20
16.950937
 30
0.0
 11
20.820323
 21
16.950937
 31
0.0
  0
SOLID
  5
1AE0
100
AcDbEntity
  8
0
  6
BYBLOCK
 62
     0
100
AcDbTrace
 10
20.662823
 20
16.00089
 30
0.0
 11
20.707823
 21
16.00089
 31
0.0
 12
20.685323
 22
16.13589
 32
0.0
 13
20.685323
 23
16.13589
 33
0.0
  0
SOLID
  5
1AE1
100
AcDbEntity
  8
0
  6
BYBLOCK
 62
     0
100
AcDbTrace
 10
20.662823
 20
16.815937
 30
0.0
 11
20.707823
 21
16.815937
 31
0.0
 12
20.685323
 22
16.680937
 32
0.0
 13
20.685323
 23
16.680937
 33
0.0
  0
MTEXT
  5
1AE2
100
AcDbEntity
  8
0
  6
BYBLOCK
 62
     0
100
AcDbMText
 10
21.686573
 20
16.950937
 30
0.0
 40
0.135
 41
0.0
 71
     5
 72
     1
  1
\A1;0.545"[13.84mm]
  0
POINT
  5
1AE3
100
AcDbEntity
  8
DEFPOINTS
  6
BYBLOCK
 62
     0
100
AcDbPoint
 10
16.352394
 20
16.13589
 30
0.0
  0
POINT
  5
1AE4
100
AcDbEntity
  8
DEFPOINTS
  6
BYBLOCK
 62
     0
100
AcDbPoint
 10
16.479383
 20
16.680937
 30
0.0
  0
POINT
  5
1AE5
100
AcDbEntity
  8
DEFPOINTS
  6
BYBLOCK
 62
     0
100
AcDbPoint
 10
20.685323
 20
16.680937
 30
0.0
  0
ENDBLK
  5
1AE6
100
AcDbEntity
  8
0
100
AcDbBlockEnd
  0
BLOCK
  5
1B1A
100
AcDbEntity
  8
0
100
AcDbBlockBegin
  2
*D52
 70
    65
 10
0.0
 20
0.0
 30
0.0
  3
*D52
  1
*TB
  0
LINE
  5
1B1B
100
AcDbEntity
  8
0
  6
BYBLOCK
 62
     0
100
AcDbLine
 10
16.400267
 20
14.721123
 30
0.0
 11
24.020377
 21
14.721123
 31
0.0
  0
LINE
  5
1B1C
100
AcDbEntity
  8
0
  6
BYBLOCK
 62
     0
100
AcDbLine
 10
16.526258
 20
16.680937
 30
0.0
 11
24.020377
 21
16.680937
 31
0.0
  0
LINE
  5
1B1D
100
AcDbEntity
  8
0
  6
BYBLOCK
 62
     0
100
AcDbLine
 10
23.885377
 20
14.856123
 30
0.0
 11
23.885377
 21
15.56603
 31
0.0
  0
LINE
  5
1B1E
100
AcDbEntity
  8
0
  6
BYBLOCK
 62
     0
100
AcDbLine
 10
23.885377
 20
16.545937
 30
0.0
 11
23.885377
 21
15.83603
 31
0.0
  0
SOLID
  5
1B1F
100
AcDbEntity
  8
0
  6
BYBLOCK
 62
     0
100
AcDbTrace
 10
23.862877
 20
14.856123
 30
0.0
 11
23.907877
 21
14.856123
 31
0.0
 12
23.885377
 22
14.721123
 32
0.0
 13
23.885377
 23
14.721123
 33
0.0
  0
SOLID
  5
1B20
100
AcDbEntity
  8
0
  6
BYBLOCK
 62
     0
100
AcDbTrace
 10
23.862877
 20
16.545937
 30
0.0
 11
23.907877
 21
16.545937
 31
0.0
 12
23.885377
 22
16.680937
 32
0.0
 13
23.885377
 23
16.680937
 33
0.0
  0
MTEXT
  5
1B21
100
AcDbEntity
  8
0
  6
BYBLOCK
 62
     0
100
AcDbMText
 10
23.885377
 20
15.70103
 30
0.0
 40
0.135
 41
0.0
 71
     5
 72
     1
  1
\A1;1.960"[49.78mm]
  0
POINT
  5
1B22
100
AcDbEntity
  8
DEFPOINTS
  6
BYBLOCK
 62
     0
100
AcDbPoint
 10
16.353392
 20
14.721123
 30
0.0
  0
POINT
  5
1B23
100
AcDbEntity
  8
DEFPOINTS
  6
BYBLOCK
 62
     0
100
AcDbPoint
 10
16.479383
 20
16.680937
 30
0.0
  0
POINT
  5
1B24
100
AcDbEntity
  8
DEFPOINTS
  6
BYBLOCK
 62
     0
100
AcDbPoint
 10
23.885377
 20
16.680937
 30
0.0
  0
ENDBLK
  5
1B25
100
AcDbEntity
  8
0
100
AcDbBlockEnd
  0
BLOCK
  5
1B71
100
AcDbEntity
  8
0
100
AcDbBlockBegin
  2
*D53
 70
    65
 10
0.0
 20
0.0
 30
0.0
  3
*D53
  1
*TB
  0
LINE
  5
1B72
100
AcDbEntity
  8
0
  6
BYBLOCK
 62
     0
100
AcDbLine
 10
16.399269
 20
14.454723
 30
0.0
 11
29.792833
 21
14.454723
 31
0.0
  0
LINE
  5
1B73
100
AcDbEntity
  8
0
  6
BYBLOCK
 62
     0
100
AcDbLine
 10
16.526258
 20
16.680937
 30
0.0
 11
29.792833
 21
16.680937
 31
0.0
  0
LINE
  5
1B74
100
AcDbEntity
  8
0
  6
BYBLOCK
 62
     0
100
AcDbLine
 10
29.657833
 20
14.589723
 30
0.0
 11
29.657833
 21
15.43283
 31
0.0
  0
LINE
  5
1B75
100
AcDbEntity
  8
0
  6
BYBLOCK
 62
     0
100
AcDbLine
 10
29.657833
 20
16.545937
 30
0.0
 11
29.657833
 21
15.70283
 31
0.0
  0
SOLID
  5
1B76
100
AcDbEntity
  8
0
  6
BYBLOCK
 62
     0
100
AcDbTrace
 10
29.635333
 20
14.589723
 30
0.0
 11
29.680333
 21
14.589723
 31
0.0
 12
29.657833
 22
14.454723
 32
0.0
 13
29.657833
 23
14.454723
 33
0.0
  0
SOLID
  5
1B77
100
AcDbEntity
  8
0
  6
BYBLOCK
 62
     0
100
AcDbTrace
 10
29.635333
 20
16.545937
 30
0.0
 11
29.680333
 21
16.545937
 31
0.0
 12
29.657833
 22
16.680937
 32
0.0
 13
29.657833
 23
16.680937
 33
0.0
  0
MTEXT
  5
1B78
100
AcDbEntity
  8
0
  6
BYBLOCK
 62
     0
100
AcDbMText
 10
29.657833
 20
15.56783
 30
0.0
 40
0.135
 41
0.0
 71
     5
 72
     1
  1
\A1;2.226"[56.55mm]
  0
POINT
  5
1B79
100
AcDbEntity
  8
DEFPOINTS
  6
BYBLOCK
 62
     0
100
AcDbPoint
 10
16.352394
 20
14.454723
 30
0.0
  0
POINT
  5
1B7A
100
AcDbEntity
  8
DEFPOINTS
  6
BYBLOCK
 62
     0
100
AcDbPoint
 10
16.479383
 20
16.680937
 30
0.0
  0
POINT
  5
1B7B
100
AcDbEntity
  8
DEFPOINTS
  6
BYBLOCK
 62
     0
100
AcDbPoint
 10
29.657833
 20
16.680937
 30
0.0
  0
ENDBLK
  5
1B7C
100
AcDbEntity
  8
0
100
AcDbBlockEnd
  0
ENDSEC
  0
SECTION
  2
ENTITIES
  0
POLYLINE
  5
CA
100
AcDbEntity
  8
FOOT
100
AcDb2dPolyline
 66
     1
 10
0.0
 20
0.0
 30
0.0
 70
     1
  0
VERTEX
  5
CB
100
AcDbEntity
  8
FOOT
100
AcDbVertex
100
AcDb2dVertex
 10
13.619538
 20
14.29082
 30
0.0
  0
VERTEX
  5
CC
100
AcDbEntity
  8
FOOT
100
AcDbVertex
100
AcDb2dVertex
 10
13.619538
 20
16.680937
 30
0.0
  0
VERTEX
  5
CD
100
AcDbEntity
  8
FOOT
100
AcDbVertex
100
AcDb2dVertex
 10
16.479383
 20
16.680937
 30
0.0
  0
VERTEX
  5
CE
100
AcDbEntity
  8
FOOT
100
AcDbVertex
100
AcDb2dVertex
 10
16.479383
 20
14.29082
 30
0.0
  0
SEQEND
  5
CF
100
AcDbEntity
  8
FOOT
  0
LINE
  5
D1
100
AcDbEntity
  8
FOOT
100
AcDbLine
 10
13.619538
 20
14.32082
 30
0.0
 11
16.479383
 21
14.32082
 31
0.0
  0
LINE
  5
D2
100
AcDbEntity
  8
FOOT
100
AcDbLine
 10
13.619232
 20
16.650937
 30
0.0
 11
16.479383
 21
16.650937
 31
0.0
  0
LINE
  5
D4
100
AcDbEntity
  8
FOOT
100
AcDbLine
 10
15.370093
 20
14.29082
 30
0.0
 11
15.370093
 21
14.32082
 31
0.0
  0
LINE
  5
D6
100
AcDbEntity
  8
FOOT
100
AcDbLine
 10
15.370093
 20
16.650937
 30
0.0
 11
15.370093
 21
16.680937
 31
0.0
  0
LINE
  5
D9
100
AcDbEntity
  8
FOOT
100
AcDbLine
 10
14.939013
 20
14.32082
 30
0.0
 11
14.939013
 21
16.650937
 31
0.0
  0
LINE
  5
12F
100
AcDbEntity
  8
FOOT
100
AcDbLine
 10
13.64757
 20
14.29082
 30
0.0
 11
13.64757
 21
14.32082
 31
0.0
  0
LINE
  5
130
100
AcDbEntity
  8
FOOT
100
AcDbLine
 10
13.629813
 20
14.32082
 30
0.0
 11
13.629813
 21
16.650937
 31
0.0
  0
LINE
  5
131
100
AcDbEntity
  8
FOOT
100
AcDbLine
 10
13.64757
 20
16.650937
 30
0.0
 11
13.64757
 21
16.680937
 31
0.0
  0
SOLID
  5
365
100
AcDbEntity
  8
TEXT
  6
CONTINUOUS
100
AcDbTrace
 10
12.860917
 20
16.832262
 30
0.0
 11
12.905917
 21
16.832262
 31
0.0
 12
12.883417
 22
16.967262
 32
0.0
 13
12.883417
 23
16.967262
 33
0.0
  0
LINE
  5
366
100
AcDbEntity
  8
TEXT
  6
CONTINUOUS
100
AcDbLine
 10
12.883417
 20
16.832262
 30
0.0
 11
12.883417
 21
15.785841
 31
0.0
  0
LINE
  5
367
100
AcDbEntity
  8
TEXT
  6
CONTINUOUS
100
AcDbLine
 10
12.883417
 20
15.785841
 30
0.0
 11
13.469944
 21
15.785841
 31
0.0
  0
SOLID
  5
3B4
100
AcDbEntity
  8
TEXT
  6
CONTINUOUS
100
AcDbTrace
 10
16.94029
 20
16.832262
 30
0.0
 11
16.98529
 21
16.832262
 31
0.0
 12
16.96279
 22
16.967262
 32
0.0
 13
16.96279
 23
16.967262
 33
0.0
  0
LINE
  5
3B5
100
AcDbEntity
  8
TEXT
  6
CONTINUOUS
100
AcDbLine
 10
16.96279
 20
16.832262
 30
0.0
 11
16.96279
 21
15.785841
 31
0.0
  0
LINE
  5
3B6
100
AcDbEntity
  8
TEXT
  6
CONTINUOUS
100
AcDbLine
 10
16.96279
 20
15.785841
 30
0.0
 11
16.571533
 21
15.785841
 31
0.0
  0
TEXT
  5
3B7
100
AcDbEntity
  8
TEXT
100
AcDbText
 10
12.795438
 20
17.062536
 30
0.0
 40
0.3
  1
A
100
AcDbText
  0
TEXT
  5
3B8
100
AcDbEntity
  8
TEXT
100
AcDbText
 10
16.882143
 20
17.062536
 30
0.0
 40
0.3
  1
A
100
AcDbText
  0
TEXT
  5
3B9
100
AcDbEntity
  8
TEXT
100
AcDbText
 10
15.499734
 20
1.944863
 30
0.0
 40
0.3
  1
A-A
100
AcDbText
  0
TEXT
  5
3BA
100
AcDbEntity
  8
TEXT
100
AcDbText
 10
14.42199
 20
1.944863
 30
0.0
 40
0.135
  1
SECTION
100
AcDbText
  0
TEXT
  5
3BD
100
AcDbEntity
  8
TEXT
100
AcDbText
 10
28.631393
 20
1.496095
 30
0.0
 40
0.12
  1
LAYER 3 FORWARD ENDPIECE
100
AcDbText
  0
TEXT
  5
3BE
100
AcDbEntity
  8
TEXT
100
AcDbText
 10
28.302043
 20
0.956531
 30
0.0
 40
0.12
  1
C:\B-FAC
100
AcDbText
  0
TEXT
  5
3BF
100
AcDbEntity
  8
TEXT
100
AcDbText
 10
30.16836
 20
0.993112
 30
0.0
 40
0.12
  1
L3-END02
100
AcDbText
  0
TEXT
  5
3C0
100
AcDbEntity
  8
TEXT
100
AcDbText
 10
28.274597
 20
0.682177
 30
0.0
 40
0.12
  1
1=1
100
AcDbText
  0
TEXT
  5
3C1
100
AcDbEntity
  8
TEXT
100
AcDbText
 10
26.435725
 20
1.349773
 30
0.0
 40
0.12
  1
S. KYRE
100
AcDbText
  0
TEXT
  5
3C2
100
AcDbEntity
  8
TEXT
100
AcDbText
 10
27.304844
 20
1.331482
 30
0.0
 40
0.06
  1
02-06-96
100
AcDbText
  0
LINE
  5
413
100
AcDbEntity
  8
FOOT
100
AcDbLine
 10
14.945225
 20
4.475253
 30
0.0
 11
13.619538
 21
4.959074
 31
0.0
1001
ACAD
1000
ASC_BOUNDS
1002
{
1070
    19
1005
1530
1002
}
  0
LINE
  5
415
100
AcDbEntity
  8
FOOT
100
AcDbLine
 10
13.619538
 20
4.959074
 30
0.0
 11
13.64757
 21
5.035883
 31
0.0
1001
ACAD
1000
ASC_BOUNDS
1002
{
1070
    19
1005
1530
1002
}
  0
LINE
  5
419
100
AcDbEntity
  8
FOOT
100
AcDbLine
 10
16.479383
 20
4.475253
 30
0.0
 11
14.945225
 21
4.475253
 31
0.0
1001
ACAD
1000
ASC_BOUNDS
1002
{
1070
    19
1005
1530
1002
}
  0
LINE
  5
41A
100
AcDbEntity
  8
FOOT
100
AcDbLine
 10
13.64757
 20
5.035883
 30
0.0
 11
15.370093
 21
5.035883
 31
0.0
  0
LINE
  5
41B
100
AcDbEntity
  8
FOOT
100
AcDbLine
 10
16.479383
 20
4.475253
 30
0.0
 11
16.479383
 21
4.631038
 31
0.0
1001
ACAD
1000
ASC_BOUNDS
1002
{
1070
    19
1005
1530
1002
}
  0
LINE
  5
426
100
AcDbEntity
  8
FOOT
100
AcDbLine
 10
14.950389
 20
4.505272
 30
0.0
 11
13.629813
 21
4.987228
 31
0.0
1001
ACAD
1000
ASC_BOUNDS
1002
{
1070
    19
1005
1530
1002
}
  0
LINE
  5
42B
100
AcDbEntity
  8
FOOT
100
AcDbLine
 10
16.479383
 20
4.505272
 30
0.0
 11
14.950389
 21
4.505272
 31
0.0
1001
ACAD
1000
ASC_BOUNDS
1002
{
1070
    19
1005
1530
1002
}
  0
LINE
  5
74B
100
AcDbEntity
  8
FOOT
100
AcDbLine
 10
16.479383
 20
4.631038
 30
0.0
 11
15.370093
 21
5.035883
 31
0.0
  0
INSERT
  5
850
100
AcDbEntity
  8
0
100
AcDbBlockReference
  2
FT-L3-F
 10
13.580082
 20
6.953882
 30
0.0
 41
0.03937
 42
0.03937
 43
0.03937
 50
339.95
  0
LINE
  5
AF5
100
AcDbEntity
  8
CENTER
100
AcDbLine
 10
14.144987
 20
1.956518
 30
0.0
 11
14.144987
 21
18.593842
 31
0.0
1001
ACAD
1000
ASC_BOUNDS
1002
{
1070
    19
1002
}
  0
LINE
  5
AF6
100
AcDbEntity
  8
CENTER
100
AcDbLine
 10
9.42423
 20
4.924941
 30
0.0
 11
29.076
 21
4.924941
 31
0.0
  0
INSERT
  5
B3D
100
AcDbEntity
  8
TEXT
100
AcDbBlockReference
  2
D-BORDER
 10
0.0
 20
0.0
 30
0.0
  0
LINE
  5
BE7
100
AcDbEntity
  8
CENTER
100
AcDbLine
 10
19.434054
 20
2.994649
 30
0.0
 11
7.439104
 21
7.372312
 31
0.0
  0
LINE
  5
BE8
100
AcDbEntity
  8
CENTER
100
AcDbLine
 10
13.18282
 20
2.288569
 30
0.0
 11
16.795212
 21
12.186651
 31
0.0
  0
INSERT
  5
C99
100
AcDbEntity
  8
FOOT
100
AcDbBlockReference
  2
*U3
 10
16.241107
 20
15.485878
 30
0.0
1001
TB_S_MPD
1070
   100
1000
HOLE
1070
   101
1000
TOOLBOX 13.0 HOLE 2.0
1070
   112
1000
3/32 (.0938) DIAMETER HOLE
1070
   102
1000
Near side
1070
   103
1000
ANSI-Fraction
1070
   104
1000
hole
1070
   105
1000
_usf
1070
   304
1040
0.0
1070
   305
1040
0.0
1070
   306
1040
0.09375
1070
   302
1040
0.0
1070
   303
1040
0.0
1070
   307
1040
0.03
1070
   300
1040
0.125
1070
   110
1000
1
1070
   111
1000
3/32
1070
   116
1000
T
1070
   308
1040
0.03
  0
INSERT
  5
CA4
100
AcDbEntity
  8
FOOT
100
AcDbBlockReference
  2
*U4
 10
15.116116
 20
15.485878
 30
0.0
1001
TB_S_MPD
1070
   100
1000
HOLE
1070
   101
1000
TOOLBOX 13.0 HOLE 2.0
1070
   112
1000
#32 (.116) DIAMETER HOLE
1070
   102
1000
Near side
1070
   103
1000
ANSI-Number
1070
   104
1000
hole
1070
   105
1000
_usn
1070
   304
1040
0.0
1070
   305
1040
0.0
1070
   306
1040
0.116
1070
   302
1040
0.0
1070
   303
1040
0.0
1070
   307
1040
0.03
1070
   300
1040
0.125
1070
   110
1000
1
1070
   111
1000
#32
1070
   116
1000
T
1070
   308
1040
0.03
  0
INSERT
  5
CC2
100
AcDbEntity
  8
FOOT
100
AcDbBlockReference
  2
*U5
 10
16.353392
 20
14.494123
 30
0.0
 50
90.0
1001
TB_S_MPD
1070
   100
1000
SLOT
1070
   101
1000
TOOLBOX 13.0 SLOT 2.0
1070
   103
1000
STD
1070
   306
1040
0.126
1070
   307
1040
0.03
1070
   112
1000
SLOT
1070
   102
1000
Near side
1070
   116
1000
T
1070
   308
1040
0.03
1070
   309
1040
0.063
1070
   310
1040
0.185
1070
   311
1040
90.0
  0
INSERT
  5
CC3
100
AcDbEntity
  8
FOOT
100
AcDbBlockReference
  2
*U5
 10
16.353392
 20
16.17529
 30
0.0
 50
90.0
1001
TB_S_MPD
1070
   100
1000
SLOT
1070
   101
1000
TOOLBOX 13.0 SLOT 2.0
1070
   103
1000
STD
1070
   306
1040
0.126
1070
   307
1040
0.03
1070
   112
1000
SLOT
1070
   102
1000
Near side
1070
   116
1000
T
1070
   308
1040
0.03
1070
   309
1040
0.063
1070
   310
1040
0.185
1070
   311
1040
90.0
  0
DIMENSION
  5
CFC
100
AcDbEntity
  8
DIM
100
AcDbDimension
  2
*D6
 10
13.991072
 20
12.77817
 30
0.0
 11
12.101072
 21
12.77817
 31
0.0
 70
    32
  3
STANDARD
100
AcDbAlignedDimension
 13
16.241107
 23
15.314003
 33
0.0
 14
13.991072
 24
18.569991
 34
0.0
100
AcDbRotatedDimension
1001
ACAD
1000
DSTYLE
1002
{
1070
    47
1040
0.001
1070
    71
1070
     1
1070
    48
1040
0.001
1070
   272
1070
     3
1070
    76
1070
     1
1070
    40
1040
0.75
1070
     3
1000
"
1070
     4
1000
mm
1070
   170
1070
     1
1002
}
  0
DIMENSION
  5
D09
100
AcDbEntity
  8
DIM
100
AcDbDimension
  2
*D7
 10
13.991072
 20
13.208075
 30
0.0
 11
12.866072
 21
13.208075
 31
0.0
 70
    32
  3
STANDARD
100
AcDbAlignedDimension
 13
15.116116
 23
15.302878
 33
0.0
 14
13.991072
 24
18.569991
 34
0.0
100
AcDbRotatedDimension
1001
ACAD
1000
DSTYLE
1002
{
1070
    47
1040
0.001
1070
    48
1040
0.001
1070
   272
1070
     3
1070
    76
1070
     1
1070
    40
1040
0.75
1070
     3
1000
"
1070
     4
1000
mm
1070
   170
1070
     1
1002
}
  0
DIMENSION
  5
DCF
100
AcDbEntity
  8
DIM
100
AcDbDimension
  2
*D8
 10
18.931754
 20
16.680937
 30
0.0
 11
19.843004
 21
16.950937
 31
0.0
 70
    32
  3
STANDARD
100
AcDbAlignedDimension
 13
16.541392
 23
16.36029
 33
0.0
 14
16.479383
 24
16.680937
 34
0.0
 50
90.0
100
AcDbRotatedDimension
1001
ACAD
1000
DSTYLE
1002
{
1070
    47
1040
0.001
1070
    48
1040
0.001
1070
   272
1070
     3
1070
    40
1040
0.75
1070
     3
1000
"
1070
     4
1000
mm
1070
   170
1070
     1
1002
}
  0
DIMENSION
  5
DF9
100
AcDbEntity
  8
DIM
100
AcDbDimension
  2
*D9
 10
25.777325
 20
16.680937
 30
0.0
 11
25.777325
 21
15.68003
 31
0.0
 70
    32
  3
STANDARD
100
AcDbAlignedDimension
 13
16.541392
 23
14.679123
 33
0.0
 14
16.479383
 24
16.680937
 34
0.0
 50
90.0
100
AcDbRotatedDimension
1001
ACAD
1000
DSTYLE
1002
{
1070
    47
1040
0.001
1070
    48
1040
0.001
1070
   272
1070
     3
1070
    40
1040
0.75
1070
     3
1000
"
1070
     4
1000
mm
1070
   170
1070
     1
1002
}
  0
MTEXT
  5
E6A
100
AcDbEntity
  8
DIM
100
AcDbMText
 10
17.368159
 20
17.997081
 30
0.0
 40
0.135
 41
0.0
 71
     4
 72
     1
  1
{SLOT, \U+22050.126"[3.20mm]}\P{2X}
  0
TEXT
  5
EDB
100
AcDbEntity
  8
DIM
100
AcDbText
 10
16.941478
 20
12.827765
 30
0.0
 40
0.135
  1
%%C0.116"[2.95mm] 
100
AcDbText
  0
TEXT
  5
EE0
100
AcDbEntity
  8
DIM
100
AcDbText
 10
17.615512
 20
13.489017
 30
0.0
 40
0.135
  1
%%C0.095"%%P0.001"[2.41mm%%P0.03mm]
100
AcDbText
  0
TEXT
  5
EE1
100
AcDbEntity
  8
DIM
100
AcDbText
 10
17.619052
 20
13.266942
 30
0.0
 40
0.135
  1
2 HOLES
100
AcDbText
  0
LEADER
  5
EE3
100
AcDbEntity
  8
DIM
100
AcDbLeader
  3
STANDARD
 73
     0
 74
     0
 75
     1
 40
0.36
 41
3.0825
 76
     3
 10
14.171737
 20
4.865966
 30
0.0
 10
15.270621
 20
3.059188
 30
0.0
 10
15.405621
 20
3.059188
 30
0.0
 77
   256
1001
ACAD
1000
DSTYLE
1002
{
1070
   288
1070
     1
1070
    47
1040
0.001
1070
    48
1040
0.001
1070
   272
1070
     3
1070
    40
1040
0.75
1070
     3
1000
"
1070
     4
1000
mm
1070
   170
1070
     1
1002
}
  0
MTEXT
  5
EE4
100
AcDbEntity
  8
DIM
100
AcDbMText
 10
15.473121
 20
3.059188
 30
0.0
 40
0.135
 41
0.0
 71
     4
 72
     1
  1
{%%c0.095"±0.001"[2.41mm±0.03mm]}\P{4X}
  0
POLYLINE
  5
EEB
100
AcDbEntity
  8
TEXT
 62
     1
100
AcDb2dPolyline
 66
     1
 10
0.0
 20
0.0
 30
0.0
 70
     1
  0
VERTEX
  5
EEC
100
AcDbEntity
  8
TEXT
 62
     1
100
AcDbVertex
100
AcDb2dVertex
 10
29.190538
 20
4.651354
 30
0.0
  0
VERTEX
  5
EED
100
AcDbEntity
  8
TEXT
 62
     1
100
AcDbVertex
100
AcDb2dVertex
 10
29.190538
 20
5.151354
 30
0.0
  0
VERTEX
  5
EEE
100
AcDbEntity
  8
TEXT
 62
     1
100
AcDbVertex
100
AcDb2dVertex
 10
29.690538
 20
5.151354
 30
0.0
  0
VERTEX
  5
EEF
100
AcDbEntity
  8
TEXT
 62
     1
100
AcDbVertex
100
AcDb2dVertex
 10
29.690538
 20
4.651354
 30
0.0
  0
SEQEND
  5
EF0
100
AcDbEntity
  8
TEXT
 62
     1
  0
TEXT
  5
EF1
100
AcDbEntity
  8
TEXT
 62
     1
100
AcDbText
 10
29.372121
 20
4.770072
 30
0.0
 40
0.25
  1
0
100
AcDbText
  0
POLYLINE
  5
F18
100
AcDbEntity
  8
TEXT
 62
     1
100
AcDb2dPolyline
 66
     1
 10
0.0
 20
0.0
 30
0.0
 70
     1
  0
VERTEX
  5
F19
100
AcDbEntity
  8
TEXT
 62
     1
100
AcDbVertex
100
AcDb2dVertex
 10
13.929758
 20
18.719041
 30
0.0
  0
VERTEX
  5
F1A
100
AcDbEntity
  8
TEXT
 62
     1
100
AcDbVertex
100
AcDb2dVertex
 10
13.929758
 20
19.219041
 30
0.0
  0
VERTEX
  5
F1B
100
AcDbEntity
  8
TEXT
 62
     1
100
AcDbVertex
100
AcDb2dVertex
 10
14.429758
 20
19.219041
 30
0.0
  0
VERTEX
  5
F1C
100
AcDbEntity
  8
TEXT
 62
     1
100
AcDbVertex
100
AcDb2dVertex
 10
14.429758
 20
18.719041
 30
0.0
  0
SEQEND
  5
F1D
100
AcDbEntity
  8
TEXT
 62
     1
  0
TEXT
  5
F1E
100
AcDbEntity
  8
TEXT
 62
     1
100
AcDbText
 10
14.111341
 20
18.837759
 30
0.0
 40
0.25
  1
0
100
AcDbText
  0
LINE
  5
F3A
100
AcDbEntity
  8
TEXT
100
AcDbLine
 10
26.983049
 20
19.874896
 30
0.0
 11
26.983049
 21
18.375
 31
0.0
  0
LINE
  5
F3B
100
AcDbEntity
  8
TEXT
100
AcDbLine
 10
27.373302
 20
19.874896
 30
0.0
 11
27.373302
 21
18.375
 31
0.0
  0
LINE
  5
F3C
100
AcDbEntity
  8
TEXT
100
AcDbLine
 10
30.113302
 20
19.874896
 30
0.0
 11
30.113302
 21
18.375
 31
0.0
  0
LINE
  5
F3D
100
AcDbEntity
  8
TEXT
100
AcDbLine
 10
30.993302
 20
19.874896
 30
0.0
 11
30.993302
 21
18.375
 31
0.0
  0
TEXT
  5
F40
100
AcDbEntity
  8
TEXT
100
AcDbText
 10
27.4375
 20
19.625
 30
0.0
 40
0.08
  1
CHANGE WALL THICKNESS TO 0.030"
100
AcDbText
  0
TEXT
  5
F41
100
AcDbEntity
  8
TEXT
100
AcDbText
 10
27.4375
 20
19.468627
 30
0.0
 40
0.08
  1
ADD LOCATING HOLES AND
100
AcDbText
  0
TEXT
  5
F42
100
AcDbEntity
  8
TEXT
100
AcDbText
 10
27.4375
 20
19.335294
 30
0.0
 40
0.08
  1
LIGHTNING HOLES
100
AcDbText
  0
TEXT
  5
F43
100
AcDbEntity
  8
TEXT
100
AcDbText
 10
27.0625
 20
19.625
 30
0.0
 40
0.08
  1
01
100
AcDbText
  0
TEXT
  5
F44
100
AcDbEntity
  8
TEXT
100
AcDbText
 10
27.0625
 20
19.468627
 30
0.0
 40
0.08
  1
02
100
AcDbText
  0
TEXT
  5
F45
100
AcDbEntity
  8
TEXT
100
AcDbText
 10
30.25
 20
19.625
 30
0.0
 40
0.08
  1
11-21-95
100
AcDbText
  0
TEXT
  5
F46
100
AcDbEntity
  8
TEXT
100
AcDbText
 10
30.25
 20
19.468627
 30
0.0
 40
0.08
  1
02-07-96
100
AcDbText
  0
LINE
  5
F52
100
AcDbEntity
  8
FOOT
100
AcDbLine
 10
15.255981
 20
9.442987
 30
0.0
 11
16.555585
 21
8.968685
 31
0.0
  0
LINE
  5
F53
100
AcDbEntity
  8
FOOT
100
AcDbLine
 10
16.054787
 20
11.631743
 30
0.0
 11
17.357104
 21
11.156452
 31
0.0
  0
INSERT
  5
F5F
100
AcDbEntity
  8
FOOT
100
AcDbBlockReference
  2
*U10
 10
15.884528
 20
10.453737
 30
0.0
 50
339.95
1001
TB_S_MPD
1070
   100
1000
HOLE
1070
   101
1000
TOOLBOX 13.0 HOLE 2.0
1070
   112
1000
3/32 (.0938) DIAMETER HOLE
1070
   102
1000
Near side
1070
   103
1000
ANSI-Fraction
1070
   104
1000
hole
1070
   105
1000
_usf
1070
   304
1040
0.0
1070
   305
1040
0.0
1070
   306
1040
0.09375
1070
   302
1040
0.0
1070
   303
1040
0.0
1070
   307
1040
0.03
1070
   300
1040
0.125
1070
   110
1000
1
1070
   111
1000
3/32
1070
   116
1000
T
1070
   308
1040
0.03
  0
ELLIPSE
  5
F60
100
AcDbEntity
  8
FOOT
100
AcDbEllipse
 10
13.858956
 20
15.485878
 30
0.0
 11
0.0
 21
0.046875
 31
0.0
210
0.0
220
0.0
230
1.0
 40
0.71926
 41
0.0
 42
6.2831853071796
  0
LINE
  5
F62
100
AcDbEntity
  8
CENTER
100
AcDbLine
 10
13.843331
 20
15.485878
 30
0.0
 11
13.874581
 21
15.485878
 31
0.0
  0
LINE
  5
F63
100
AcDbEntity
  8
CENTER
100
AcDbLine
 10
13.858956
 20
15.470253
 30
0.0
 11
13.858956
 21
15.501503
 31
0.0
  0
LINE
  5
F64
100
AcDbEntity
  8
CENTER
100
AcDbLine
 10
13.890206
 20
15.485878
 30
0.0
 11
14.030831
 21
15.485878
 31
0.0
  0
LINE
  5
F65
100
AcDbEntity
  8
CENTER
100
AcDbLine
 10
13.858956
 20
15.517128
 30
0.0
 11
13.858956
 21
15.657753
 31
0.0
  0
LINE
  5
F66
100
AcDbEntity
  8
CENTER
100
AcDbLine
 10
13.827706
 20
15.485878
 30
0.0
 11
13.687081
 21
15.485878
 31
0.0
  0
LINE
  5
F67
100
AcDbEntity
  8
CENTER
100
AcDbLine
 10
13.858956
 20
15.454628
 30
0.0
 11
13.858956
 21
15.314003
 31
0.0
  0
LINE
  5
F69
100
AcDbEntity
  8
FOOT
100
AcDbLine
 10
16.757734
 20
9.590136
 30
0.0
 11
16.915414
 21
9.757253
 31
0.0
  0
LINE
  5
F6A
100
AcDbEntity
  8
FOOT
100
AcDbLine
 10
16.915414
 20
9.757253
 30
0.0
 11
16.901079
 21
10.048514
 31
0.0
  0
LINE
  5
F6B
100
AcDbEntity
  8
FOOT
100
AcDbLine
 10
16.901079
 20
10.048514
 30
0.0
 11
17.025312
 21
10.229955
 31
0.0
  0
LINE
  5
F6C
100
AcDbEntity
  8
FOOT
100
AcDbLine
 10
17.025312
 20
10.229955
 30
0.0
 11
17.044425
 21
10.406622
 31
0.0
  0
LINE
  5
F6D
100
AcDbEntity
  8
FOOT
100
AcDbLine
 10
17.044425
 20
10.406622
 30
0.0
 11
17.163879
 21
10.583288
 31
0.0
  0
LINE
  5
F6E
100
AcDbEntity
  8
FOOT
100
AcDbLine
 10
17.163879
 20
10.583288
 30
0.0
 11
17.144766
 21
10.798153
 31
0.0
  0
LINE
  5
F6F
100
AcDbEntity
  8
FOOT
100
AcDbLine
 10
17.144766
 20
10.798153
 30
0.0
 11
17.216439
 21
10.850675
 31
0.0
  0
LINE
  5
F70
100
AcDbEntity
  8
FOOT
100
AcDbLine
 10
17.216439
 20
10.850675
 30
0.0
 11
17.259443
 21
11.05599
 31
0.0
  0
LINE
  5
F71
100
AcDbEntity
  8
FOOT
100
AcDbLine
 10
17.259443
 20
11.05599
 30
0.0
 11
17.380019
 21
11.180024
 31
0.0
  0
LINE
  5
F72
100
AcDbEntity
  8
FOOT
100
AcDbLine
 10
15.245696
 20
9.414806
 30
0.0
 11
16.065072
 21
11.659925
 31
0.0
  0
LINE
  5
F73
100
AcDbEntity
  8
FOOT
100
AcDbLine
 10
16.065072
 20
11.659925
 30
0.0
 11
17.380019
 21
11.180024
 31
0.0
  0
LINE
  5
F75
100
AcDbEntity
  8
FOOT
100
AcDbLine
 10
16.527961
 20
8.946832
 30
0.0
 11
15.245696
 21
9.414806
 31
0.0
  0
LINE
  5
FC2
100
AcDbEntity
  8
FOOT
100
AcDbLine
 10
16.757734
 20
9.590136
 30
0.0
 11
16.742569
 21
9.409915
 31
0.0
  0
LINE
  5
FC3
100
AcDbEntity
  8
FOOT
100
AcDbLine
 10
16.742569
 20
9.409915
 30
0.0
 11
16.595694
 21
9.246209
 31
0.0
  0
LINE
  5
FC4
100
AcDbEntity
  8
FOOT
100
AcDbLine
 10
16.595694
 20
9.246209
 30
0.0
 11
16.635237
 21
9.031698
 31
0.0
  0
LINE
  5
FC5
100
AcDbEntity
  8
FOOT
100
AcDbLine
 10
16.635237
 20
9.031698
 30
0.0
 11
16.527961
 21
8.946832
 31
0.0
  0
LINE
  5
FC7
100
AcDbEntity
  8
FOOT
100
AcDbLine
 10
15.943928
 20
10.712121
 30
0.0
 11
15.821015
 21
10.627922
 31
0.0
  0
LINE
  5
FC8
100
AcDbEntity
  8
FOOT
100
AcDbLine
 10
15.916599
 20
10.889824
 30
0.0
 11
15.956383
 21
10.746247
 31
0.0
  0
LINE
  5
FC9
100
AcDbEntity
  8
FOOT
100
AcDbLine
 10
15.773999
 20
10.664417
 30
0.0
 11
15.857127
 21
10.892193
 31
0.0
  0
ARC
  5
FCA
100
AcDbEntity
  8
FOOT
100
AcDbCircle
 10
15.886483
 20
10.881479
 30
0.0
 40
0.03125
100
AcDbArc
 50
15.487678
 51
159.95
  0
ARC
  5
FCB
100
AcDbEntity
  8
FOOT
100
AcDbCircle
 10
15.803355
 20
10.653703
 30
0.0
 40
0.03125
100
AcDbArc
 50
159.95
 51
304.412322
  0
LINE
  5
FCE
100
AcDbEntity
  8
FOOT
100
AcDbLine
 10
16.245815
 20
10.901309
 30
0.0
 11
16.078576
 21
10.786746
 31
0.0
  0
ARC
  5
FCF
100
AcDbEntity
  8
FOOT
100
AcDbCircle
 10
16.060915
 20
10.812527
 30
0.0
 40
0.03125
100
AcDbArc
 50
195.487678
 51
304.412322
  0
LINE
  5
FD0
100
AcDbEntity
  8
FOOT
100
AcDbLine
 10
16.0308
 20
10.804182
 30
0.0
 11
15.976669
 21
10.999536
 31
0.0
  0
ARC
  5
FD2
100
AcDbEntity
  8
FOOT
100
AcDbCircle
 10
15.926267
 20
10.737902
 30
0.0
 40
0.03125
100
AcDbArc
 50
304.412322
 51
15.487678
  0
ARC
  5
FD4
100
AcDbEntity
  8
FOOT
100
AcDbCircle
 10
16.115843
 20
10.668715
 30
0.0
 40
0.03125
100
AcDbArc
 50
124.412322
 51
195.487678
  0
LINE
  5
FD6
100
AcDbEntity
  8
FOOT
100
AcDbLine
 10
16.156382
 20
11.14828
 30
0.0
 11
15.989143
 21
11.033717
 31
0.0
  0
ARC
  5
FD7
100
AcDbEntity
  8
FOOT
100
AcDbCircle
 10
16.174043
 20
11.122499
 30
0.0
 40
0.03125
100
AcDbArc
 50
15.487678
 51
124.412322
  0
LINE
  5
FD8
100
AcDbEntity
  8
FOOT
100
AcDbLine
 10
16.258289
 20
10.93549
 30
0.0
 11
16.204158
 21
11.130844
 31
0.0
  0
ARC
  5
FD9
100
AcDbEntity
  8
FOOT
100
AcDbCircle
 10
16.006832
 20
11.007895
 30
0.0
 40
0.0313
100
AcDbArc
 50
124.412322
 51
195.487678
  0
ARC
  5
FDA
100
AcDbEntity
  8
FOOT
100
AcDbCircle
 10
16.228126
 20
10.927131
 30
0.0
 40
0.0313
100
AcDbArc
 50
304.412322
 51
15.487678
  0
LINE
  5
FDB
100
AcDbEntity
  8
FOOT
100
AcDbLine
 10
16.049975
 20
11.420602
 30
0.0
 11
15.966846
 21
11.192826
 31
0.0
  0
LINE
  5
FDC
100
AcDbEntity
  8
FOOT
100
AcDbLine
 10
16.14923
 20
11.274656
 30
0.0
 11
16.109446
 21
11.418233
 31
0.0
  0
ARC
  5
FDD
100
AcDbEntity
  8
FOOT
100
AcDbCircle
 10
16.079331
 20
11.409888
 30
0.0
 40
0.03125
100
AcDbArc
 50
15.487678
 51
159.95
  0
LINE
  5
FDE
100
AcDbEntity
  8
FOOT
100
AcDbLine
 10
16.013863
 20
11.156331
 30
0.0
 11
16.136776
 21
11.24053
 31
0.0
  0
ARC
  5
FDF
100
AcDbEntity
  8
FOOT
100
AcDbCircle
 10
15.996202
 20
11.182112
 30
0.0
 40
0.03125
100
AcDbArc
 50
159.95
 51
304.412322
  0
ARC
  5
FE5
100
AcDbEntity
  8
FOOT
100
AcDbCircle
 10
16.308691
 20
11.197124
 30
0.0
 40
0.03125
100
AcDbArc
 50
124.412322
 51
195.487678
  0
ARC
  5
FE6
100
AcDbEntity
  8
FOOT
100
AcDbCircle
 10
16.119115
 20
11.266311
 30
0.0
 40
0.03125
100
AcDbArc
 50
304.412322
 51
15.487678
  0
LINE
  5
FE7
100
AcDbEntity
  8
FOOT
100
AcDbLine
 10
16.223648
 20
11.332591
 30
0.0
 11
16.179762
 21
11.490971
 31
0.0
  0
LINE
  5
FE8
100
AcDbEntity
  8
FOOT
100
AcDbLine
 10
16.40701
 20
11.408035
 30
0.0
 11
16.271424
 21
11.315155
 31
0.0
  0
ARC
  5
FE9
100
AcDbEntity
  8
FOOT
100
AcDbCircle
 10
16.209877
 20
11.499316
 30
0.0
 40
0.03125
100
AcDbArc
 50
69.95
 51
195.487678
  0
ARC
  5
FEA
100
AcDbEntity
  8
FOOT
100
AcDbCircle
 10
16.389349
 20
11.433816
 30
0.0
 40
0.03125
100
AcDbArc
 50
304.412322
 51
69.95
  0
LINE
  5
FEB
100
AcDbEntity
  8
FOOT
100
AcDbLine
 10
16.220591
 20
11.528672
 30
0.0
 11
16.400063
 21
11.463172
 31
0.0
  0
ARC
  5
FEC
100
AcDbEntity
  8
FOOT
100
AcDbCircle
 10
16.253763
 20
11.340936
 30
0.0
 40
0.03125
100
AcDbArc
 50
195.487678
 51
304.412322
  0
LINE
  5
FED
100
AcDbEntity
  8
CENTER
100
AcDbLine
 10
16.042649
 20
10.762475
 30
0.0
 11
16.191917
 21
11.171475
 31
0.0
  0
LINE
  5
FEE
100
AcDbEntity
  8
CENTER
100
AcDbLine
 10
16.272343
 20
10.910994
 30
0.0
 11
15.950555
 21
11.028433
 31
0.0
  0
LINE
  5
FEF
100
AcDbEntity
  8
CENTER
100
AcDbLine
 10
15.886646
 20
9.854171
 30
0.0
 11
15.564858
 21
9.97161
 31
0.0
  0
LINE
  5
FF0
100
AcDbEntity
  8
CENTER
100
AcDbLine
 10
15.806613
 20
10.115728
 30
0.0
 11
15.657344
 21
9.706728
 31
0.0
  0
LINE
  5
FF1
100
AcDbEntity
  8
FOOT
100
AcDbLine
 10
15.860118
 20
9.844486
 30
0.0
 11
15.692879
 21
9.729923
 31
0.0
  0
LINE
  5
FF2
100
AcDbEntity
  8
FOOT
100
AcDbLine
 10
15.770685
 20
10.091457
 30
0.0
 11
15.603446
 21
9.976894
 31
0.0
  0
LINE
  5
FF3
100
AcDbEntity
  8
FOOT
100
AcDbLine
 10
15.872592
 20
9.878667
 30
0.0
 11
15.818461
 21
10.074021
 31
0.0
  0
ARC
  5
FF8
100
AcDbEntity
  8
FOOT
100
AcDbCircle
 10
15.610505
 20
10.125289
 30
0.0
 40
0.03125
100
AcDbArc
 50
159.95
 51
304.412322
  0
LINE
  5
FF9
100
AcDbEntity
  8
FOOT
100
AcDbLine
 10
15.763533
 20
10.217833
 30
0.0
 11
15.723749
 21
10.36141
 31
0.0
  0
ARC
  5
FFA
100
AcDbEntity
  8
FOOT
100
AcDbCircle
 10
15.693634
 20
10.353065
 30
0.0
 40
0.03125
100
AcDbArc
 50
15.487678
 51
159.95
  0
LINE
  5
FFB
100
AcDbEntity
  8
FOOT
100
AcDbLine
 10
15.664278
 20
10.363779
 30
0.0
 11
15.581149
 21
10.136003
 31
0.0
  0
ARC
  5
FFC
100
AcDbEntity
  8
FOOT
100
AcDbCircle
 10
15.922994
 20
10.140301
 30
0.0
 40
0.03125
100
AcDbArc
 50
124.412322
 51
195.487678
  0
ARC
  5
FFD
100
AcDbEntity
  8
FOOT
100
AcDbCircle
 10
15.733418
 20
10.209488
 30
0.0
 40
0.03125
100
AcDbArc
 50
304.412322
 51
15.487678
  0
ARC
  5
FFE
100
AcDbEntity
  8
FOOT
100
AcDbCircle
 10
15.788346
 20
10.065676
 30
0.0
 40
0.03125
100
AcDbArc
 50
15.487678
 51
124.412322
  0
LINE
  5
FFF
100
AcDbEntity
  8
FOOT
100
AcDbLine
 10
15.628166
 20
10.099508
 30
0.0
 11
15.751079
 21
10.183707
 31
0.0
  0
ARC
  5
1000
100
AcDbEntity
  8
FOOT
100
AcDbCircle
 10
15.842429
 20
9.870308
 30
0.0
 40
0.0313
100
AcDbArc
 50
304.412322
 51
15.487678
  0
ARC
  5
1002
100
AcDbEntity
  8
FOOT
100
AcDbCircle
 10
15.459913
 20
9.444387
 30
0.0
 40
0.03125
100
AcDbArc
 50
124.412322
 51
249.95
  0
LINE
  5
1003
100
AcDbEntity
  8
FOOT
100
AcDbLine
 10
15.577838
 20
9.563048
 30
0.0
 11
15.442252
 21
9.470168
 31
0.0
  0
ARC
  5
1004
100
AcDbEntity
  8
FOOT
100
AcDbCircle
 10
15.675219
 20
9.755704
 30
0.0
 40
0.03125
100
AcDbArc
 50
195.487678
 51
304.412322
  0
LINE
  5
1005
100
AcDbEntity
  8
FOOT
100
AcDbLine
 10
15.558231
 20
9.655298
 30
0.0
 11
15.435318
 21
9.571099
 31
0.0
  0
LINE
  5
1006
100
AcDbEntity
  8
FOOT
100
AcDbLine
 10
15.388302
 20
9.607594
 30
0.0
 11
15.47143
 21
9.83537
 31
0.0
  0
ARC
  5
1007
100
AcDbEntity
  8
FOOT
100
AcDbCircle
 10
15.540571
 20
9.681079
 30
0.0
 40
0.03125
100
AcDbArc
 50
304.412322
 51
15.487678
  0
ARC
  5
1008
100
AcDbEntity
  8
FOOT
100
AcDbCircle
 10
15.500786
 20
9.824656
 30
0.0
 40
0.03125
100
AcDbArc
 50
15.487678
 51
159.95
  0
LINE
  5
1009
100
AcDbEntity
  8
FOOT
100
AcDbLine
 10
15.530902
 20
9.833001
 30
0.0
 11
15.570686
 21
9.689424
 31
0.0
  0
ARC
  5
100A
100
AcDbEntity
  8
FOOT
100
AcDbCircle
 10
15.621135
 20
9.951072
 30
0.0
 40
0.0313
100
AcDbArc
 50
124.412322
 51
195.487678
  0
LINE
  5
100B
100
AcDbEntity
  8
FOOT
100
AcDbLine
 10
15.645103
 20
9.747359
 30
0.0
 11
15.590972
 21
9.942713
 31
0.0
  0
ARC
  5
100C
100
AcDbEntity
  8
FOOT
100
AcDbCircle
 10
15.417658
 20
9.59688
 30
0.0
 40
0.03125
100
AcDbArc
 50
159.95
 51
304.412322
  0
LINE
  5
100D
100
AcDbEntity
  8
FOOT
100
AcDbLine
 10
15.6695
 20
9.387232
 30
0.0
 11
15.625614
 21
9.545612
 31
0.0
  0
ARC
  5
100E
100
AcDbEntity
  8
FOOT
100
AcDbCircle
 10
15.595498
 20
9.537267
 30
0.0
 40
0.03125
100
AcDbArc
 50
15.487678
 51
124.412322
  0
ARC
  5
100F
100
AcDbEntity
  8
FOOT
100
AcDbCircle
 10
15.730146
 20
9.611892
 30
0.0
 40
0.03125
100
AcDbArc
 50
124.412322
 51
195.487678
  0
LINE
  5
1015
100
AcDbEntity
  8
FOOT
100
AcDbLine
 10
15.449199
 20
9.415031
 30
0.0
 11
15.628671
 21
9.349531
 31
0.0
  0
ARC
  5
1016
100
AcDbEntity
  8
FOOT
100
AcDbCircle
 10
15.639384
 20
9.378887
 30
0.0
 40
0.03125
100
AcDbArc
 50
249.95
 51
15.487678
  0
LEADER
  5
1067
100
AcDbEntity
  8
DIM
100
AcDbLeader
  3
STANDARD
 73
     0
 74
     0
 75
     1
 40
0.36
 41
2.925
 76
     3
 10
16.808614
 20
11.427505
 30
0.0
 10
17.481343
 20
12.39892
 30
0.0
 10
17.608162
 20
12.352637
 30
0.0
 77
   256
211
0.9393937941349269
221
-0.3428400494994515
231
0.0
1001
ACAD
1000
DSTYLE
1002
{
1070
    47
1040
0.001
1070
    48
1040
0.001
1070
   272
1070
     3
1070
    40
1040
0.75
1070
     3
1000
"
1070
     4
1000
mm
1070
   170
1070
     1
1002
}
  0
MTEXT
  5
1068
100
AcDbEntity
  8
DIM
100
AcDbMText
 10
17.671571
 20
12.329495
 30
0.0
 40
0.135
 41
0.0
 71
     4
 72
     1
  1
{FOR PATTERN OF CUT OUT}\P{SEE DRAWING L3-END04}
 11
0.939394
 21
-0.34284
 31
0.0
  0
LEADER
  5
11FB
100
AcDbEntity
  8
DIM
100
AcDbLeader
  3
STANDARD
 76
     3
 10
16.394324
 20
16.414096
 30
0.0
 10
17.061785
 20
18.105379
 30
0.0
 10
17.264407
 20
18.105379
 30
0.0
 77
   256
1001
ACAD
1000
DSTYLE
1002
{
1070
    47
1040
0.001
1070
    48
1040
0.001
1070
   272
1070
     3
1070
    76
1070
     1
1070
    40
1040
0.75
1070
     3
1000
"
1070
     4
1000
mm
1070
   170
1070
     1
1002
}
  0
LEADER
  5
11FD
100
AcDbEntity
  8
DIM
100
AcDbLeader
  3
STANDARD
 76
     3
 10
16.279278
 20
15.447142
 30
0.0
 10
17.292388
 20
13.553382
 30
0.0
 10
17.49501
 20
13.553382
 30
0.0
 77
   256
1001
ACAD
1000
DSTYLE
1002
{
1070
    47
1040
0.001
1070
    48
1040
0.001
1070
   272
1070
     3
1070
    76
1070
     1
1070
    40
1040
0.75
1070
     3
1000
"
1070
     4
1000
mm
1070
   170
1070
     1
1002
}
  0
LEADER
  5
11FF
100
AcDbEntity
  8
DIM
100
AcDbLeader
  3
STANDARD
 76
     3
 10
15.148915
 20
15.438818
 30
0.0
 10
16.611229
 20
12.895122
 30
0.0
 10
16.814329
 20
12.895122
 30
0.0
 77
   256
1001
ACAD
1000
DSTYLE
1002
{
1070
    47
1040
0.001
1070
    48
1040
0.001
1070
   272
1070
     3
1070
    76
1070
     1
1070
    40
1040
0.75
1070
     3
1000
"
1070
     4
1000
mm
1070
   170
1070
     1
1002
}
  0
ACAD_ZOMBIE_ENTITY
  5
14B2
100
AcDbEntity
  8
DIM
100
AcDbZombieEntity
 90
      498
 91
      515
 92
        8
310
0800000000000000
 93
       97
310
D28000000020290400007802B6
330
14B3
330
14B4
330
14B5
330
14B6
330
14B3
 94
        0
  0
INSERT
  5
14FC
100
AcDbEntity
  8
KEVLAR
100
AcDbBlockReference
  2
*U14
 10
14.144987
 20
4.924941
 30
0.0
 50
339.95
1001
TB_S_MPD
1070
   100
1000
HOLE
1070
   101
1000
TOOLBOX 13.0 HOLE 2.0
1070
   112
1000
3/32 (.0938) DIAMETER HOLE
1070
   102
1000
Near side
1070
   103
1000
ANSI-Fraction
1070
   104
1000
hole
1070
   105
1000
_usf
1070
   304
1040
0.0
1070
   305
1040
0.0
1070
   306
1040
0.09375
1070
   302
1040
0.0
1070
   303
1040
0.0
1070
   307
1040
0.03
1070
   300
1040
0.125
1070
   110
1000
1
1070
   111
1000
3/32
1070
   116
1000
T
1070
   308
1040
0.03
  0
INSERT
  5
1507
100
AcDbEntity
  8
KEVLAR
100
AcDbBlockReference
  2
*U15
 10
15.979355
 20
4.659405
 30
0.0
1001
TB_S_MPD
1070
   100
1000
HOLE
1070
   101
1000
TOOLBOX 13.0 HOLE 2.0
1070
   112
1000
3/32 (.0938) DIAMETER HOLE
1070
   102
1000
Near side
1070
   103
1000
ANSI-Fraction
1070
   104
1000
hole
1070
   105
1000
_usf
1070
   304
1040
0.0
1070
   305
1040
0.0
1070
   306
1040
0.09375
1070
   302
1040
0.0
1070
   303
1040
0.0
1070
   307
1040
0.03
1070
   300
1040
0.125
1070
   110
1000
1
1070
   111
1000
3/32
1070
   116
1000
T
1070
   308
1040
0.03
  0
INSERT
  5
1530
100
AcDbEntity
  8
HATCH
100
AcDbBlockReference
  2
*X16
 10
0.0
 20
0.0
 30
0.0
1001
ACAD
1000
HATCH
1002
{
1070
    19
1000
ANSI31
1040
0.5
1040
0.0
1000
ASC_BOUNDS
1070
     1
1070
     1
1070
     6
1005
42B
1005
426
1005
415
1005
413
1005
419
1005
41B
1000
ASC_SEEDPOINT
1011
15.485172
1021
4.493824
1031
0.0
1002
}
  0
DIMENSION
  5
1564
100
AcDbEntity
  8
DIM
100
AcDbDimension
  2
*D17
 10
13.244755
 20
3.932156
 30
0.0
 11
12.187937
 21
4.317851
 31
0.0
 70
    32
 51
20.05
  3
STANDARD
100
AcDbAlignedDimension
 13
13.18282
 23
2.288569
 33
0.0
 14
13.619538
 24
4.959074
 34
0.0
 50
339.95
100
AcDbRotatedDimension
1001
ACAD
1000
DSTYLE
1002
{
1070
    47
1040
0.0
1070
    48
1040
0.002
1070
    75
1070
     1
1070
    40
1040
0.75
1002
}
  0
DIMENSION
  5
1571
100
AcDbEntity
  8
DIM
100
AcDbDimension
  2
*D18
 10
13.585757
 20
3.392632
 30
0.0
 11
12.539507
 21
3.77447
 31
0.0
 70
    32
 51
20.05
  3
STANDARD
100
AcDbAlignedDimension
 13
14.945225
 23
4.475253
 33
0.0
 14
13.18282
 24
2.288569
 34
0.0
 50
339.95
100
AcDbRotatedDimension
1001
ACAD
1000
DSTYLE
1002
{
1070
    47
1040
0.0
1070
    48
1040
0.002
1070
    76
1070
     1
1070
    40
1040
0.75
1002
}
  0
DIMENSION
  5
158F
100
AcDbEntity
  8
DIM
100
AcDbDimension
  2
*D19
 10
10.919972
 20
5.944305
 30
0.0
 11
9.950246
 21
6.010795
 31
0.0
 70
    32
 51
20.05
  3
STANDARD
100
AcDbAlignedDimension
 13
7.439104
 23
7.372312
 33
0.0
 14
13.619538
 24
4.959074
 34
0.0
 50
69.95
100
AcDbRotatedDimension
1001
ACAD
1000
DSTYLE
1002
{
1070
    47
1040
0.0
1070
    48
1040
0.002
1070
    75
1070
     1
1070
    40
1040
0.75
1002
}
  0
DIMENSION
  5
15B6
100
AcDbEntity
  8
DIM
100
AcDbDimension
  2
*D20
 10
9.150213
 20
6.677233
 30
0.0
 11
8.191055
 21
6.739867
 31
0.0
 70
    32
 51
20.05
  3
STANDARD
100
AcDbAlignedDimension
 13
7.439104
 23
7.372312
 33
0.0
 14
13.64757
 24
5.035883
 34
0.0
 50
69.95
100
AcDbRotatedDimension
1001
ACAD
1000
DSTYLE
1002
{
1070
    47
1040
0.0
1070
    48
1040
0.002
1070
    75
1070
     1
1070
    40
1040
0.75
1002
}
  0
DIMENSION
  5
15E9
100
AcDbEntity
  8
DIM
100
AcDbDimension
  2
*D21
 10
13.64757
 20
6.219017
 30
0.0
 11
12.51132
 21
6.219017
 31
0.0
 70
    32
  3
STANDARD
100
AcDbAlignedDimension
 13
14.144987
 23
1.956518
 33
0.0
 14
13.64757
 24
5.035883
 34
0.0
100
AcDbRotatedDimension
1001
ACAD
1000
DSTYLE
1002
{
1070
    47
1040
0.0
1070
    48
1040
0.002
1070
    75
1070
     1
1070
    40
1040
0.75
1002
}
  0
DIMENSION
  5
15F6
100
AcDbEntity
  8
DIM
100
AcDbDimension
  2
*D22
 10
14.144987
 20
6.673636
 30
0.0
 11
13.042487
 21
6.673636
 31
0.0
 70
    32
  3
STANDARD
100
AcDbAlignedDimension
 13
15.370093
 23
5.035883
 33
0.0
 14
14.144987
 24
1.956518
 34
0.0
100
AcDbRotatedDimension
1001
ACAD
1000
DSTYLE
1002
{
1070
    47
1040
0.0
1070
    48
1040
0.002
1070
    76
1070
     1
1070
    40
1040
0.75
1002
}
  0
DIMENSION
  5
1603
100
AcDbEntity
  8
DIM
100
AcDbDimension
  2
*D23
 10
14.144987
 20
7.061957
 30
0.0
 11
12.243737
 21
7.061957
 31
0.0
 70
    32
  3
STANDARD
100
AcDbAlignedDimension
 13
15.979355
 23
4.83128
 33
0.0
 14
14.144987
 24
1.956518
 34
0.0
100
AcDbRotatedDimension
1001
ACAD
1000
DSTYLE
1002
{
1070
    71
1070
     1
1070
    76
1070
     1
1070
    40
1040
0.75
1002
}
  0
DIMENSION
  5
1610
100
AcDbEntity
  8
DIM
100
AcDbDimension
  2
*D24
 10
14.144987
 20
7.483514
 30
0.0
 11
15.312185
 21
7.483514
 31
0.0
 70
    32
  3
STANDARD
100
AcDbAlignedDimension
 13
16.479383
 23
4.631038
 33
0.0
 14
14.144987
 24
1.956518
 34
0.0
100
AcDbRotatedDimension
1001
ACAD
1000
DSTYLE
1002
{
1070
    76
1070
     1
1070
    40
1040
0.75
1002
}
  0
DIMENSION
  5
161D
100
AcDbEntity
  8
DIM
100
AcDbDimension
  2
*D25
 10
15.604771
 20
8.924802
 30
0.0
 11
17.316816
 21
8.299976
 31
0.0
 70
    32
 51
20.05
  3
STANDARD
100
AcDbAlignedDimension
 13
15.825602
 23
10.292279
 33
0.0
 14
16.795212
 24
12.186651
 34
0.0
 50
339.95
100
AcDbRotatedDimension
1001
ACAD
1000
DSTYLE
1002
{
1070
    71
1070
     1
1070
    76
1070
     1
1070
    40
1040
0.75
1002
}
  0
DIMENSION
  5
1638
100
AcDbEntity
  8
DIM
100
AcDbDimension
  2
*D26
 10
16.937621
 20
5.035883
 30
0.0
 11
17.826371
 21
5.305883
 31
0.0
 70
    32
  3
STANDARD
100
AcDbAlignedDimension
 13
9.42423
 23
4.924941
 33
0.0
 14
15.370093
 24
5.035883
 34
0.0
 50
90.0
100
AcDbRotatedDimension
1001
ACAD
1000
DSTYLE
1002
{
1070
    75
1070
     1
1070
    40
1040
0.75
1002
}
  0
DIMENSION
  5
1646
100
AcDbEntity
  8
DIM
100
AcDbDimension
  2
*D27
 10
18.677605
 20
4.924941
 30
0.0
 11
20.387605
 21
5.194941
 31
0.0
 70
    32
  3
STANDARD
100
AcDbAlignedDimension
 13
16.15123
 23
4.659405
 33
0.0
 14
9.42423
 24
4.924941
 34
0.0
 50
90.0
100
AcDbRotatedDimension
1001
ACAD
1000
DSTYLE
1002
{
1070
    71
1070
     1
1070
    76
1070
     1
1070
    40
1040
0.75
1002
}
  0
DIMENSION
  5
1654
100
AcDbEntity
  8
DIM
100
AcDbDimension
  2
*D28
 10
22.178701
 20
4.924941
 30
0.0
 11
23.134951
 21
5.194941
 31
0.0
 70
    32
  3
STANDARD
100
AcDbAlignedDimension
 13
16.479383
 23
4.631038
 33
0.0
 14
29.076
 24
4.924941
 34
0.0
 50
90.0
100
AcDbRotatedDimension
1001
ACAD
1000
DSTYLE
1002
{
1070
    76
1070
     1
1070
    40
1040
0.75
1002
}
  0
DIMENSION
  5
1662
100
AcDbEntity
  8
DIM
100
AcDbDimension
  2
*D29
 10
24.19497
 20
4.924941
 30
0.0
 11
26.07822
 21
5.194941
 31
0.0
 70
    32
  3
STANDARD
100
AcDbAlignedDimension
 13
16.479383
 23
4.475253
 33
0.0
 14
9.42423
 24
4.924941
 34
0.0
 50
90.0
100
AcDbRotatedDimension
1001
ACAD
1000
DSTYLE
1002
{
1070
    47
1040
0.0
1070
    71
1070
     1
1070
    48
1040
0.002
1070
    76
1070
     1
1070
    40
1040
0.75
1002
}
  0
DIMENSION
  5
167D
100
AcDbEntity
  8
DIM
100
AcDbDimension
  2
*D30
 10
27.951672
 20
4.475253
 30
0.0
 11
26.275422
 21
4.205253
 31
0.0
 70
    32
  1
{<>}\P{WALL THICKNESS}
  3
STANDARD
100
AcDbAlignedDimension
 13
16.479383
 23
4.505272
 33
0.0
 14
16.479383
 24
4.475253
 34
0.0
 50
90.0
100
AcDbRotatedDimension
1001
ACAD
1000
DSTYLE
1002
{
1070
    71
1070
     1
1070
    40
1040
0.75
1002
}
  0
DIMENSION
  5
1699
100
AcDbEntity
  8
DIM
100
AcDbDimension
  2
*D31
 10
11.032735
 20
16.680937
 30
0.0
 11
11.955235
 21
16.950937
 31
0.0
 70
    32
  3
STANDARD
100
AcDbAlignedDimension
 13
13.619232
 23
16.650937
 33
0.0
 14
13.619538
 24
16.680937
 34
0.0
 50
90.0
100
AcDbRotatedDimension
1001
ACAD
1000
DSTYLE
1002
{
1070
    40
1040
0.75
1002
}
  0
DIMENSION
  5
16DD
100
AcDbEntity
  8
DIM
100
AcDbDimension
  2
*D32
 10
6.786852
 20
16.680937
 30
0.0
 11
6.786852
 21
15.500878
 31
0.0
 70
    32
  3
STANDARD
100
AcDbAlignedDimension
 13
13.619538
 23
14.32082
 33
0.0
 14
13.619538
 24
16.680937
 34
0.0
 50
90.0
100
AcDbRotatedDimension
1001
ACAD
1000
DSTYLE
1002
{
1070
    40
1040
0.75
1002
}
  0
DIMENSION
  5
16EB
100
AcDbEntity
  8
DIM
100
AcDbDimension
  2
*D33
 10
4.900554
 20
16.680937
 30
0.0
 11
4.900554
 21
15.485878
 31
0.0
 70
    32
  3
STANDARD
100
AcDbAlignedDimension
 13
13.619538
 23
14.29082
 33
0.0
 14
13.619538
 24
16.680937
 34
0.0
 50
90.0
100
AcDbRotatedDimension
1001
ACAD
1000
DSTYLE
1002
{
1070
    40
1040
0.75
1002
}
  0
DIMENSION
  5
171D
100
AcDbEntity
  8
DIM
100
AcDbDimension
  2
*D34
 10
14.144987
 20
18.095107
 30
0.0
 11
15.249189
 21
18.095107
 31
0.0
 70
    32
  3
STANDARD
100
AcDbAlignedDimension
 13
16.353392
 23
16.54829
 33
0.0
 14
14.144987
 24
18.593842
 34
0.0
100
AcDbRotatedDimension
1001
ACAD
1000
DSTYLE
1002
{
1070
    76
1070
     1
1070
    40
1040
0.75
1002
}
  0
DIMENSION
  5
1779
100
AcDbEntity
  8
DIM
100
AcDbDimension
  2
*D35
 10
22.61753
 20
16.680937
 30
0.0
 11
23.60753
 21
16.950937
 31
0.0
 70
    32
  3
STANDARD
100
AcDbAlignedDimension
 13
16.541392
 23
16.17529
 33
0.0
 14
16.479383
 24
16.680937
 34
0.0
 50
90.0
100
AcDbRotatedDimension
1001
ACAD
1000
DSTYLE
1002
{
1070
    40
1040
0.75
1002
}
  0
TEXT
  5
17ED
100
AcDbEntity
  8
TEXT
100
AcDbText
 10
27.0625
 20
19.151832
 30
0.0
 40
0.08
  1
03
100
AcDbText
  0
TEXT
  5
17EE
100
AcDbEntity
  8
TEXT
100
AcDbText
 10
27.4375
 20
19.018498
 30
0.0
 40
0.08
  1
SILICON
100
AcDbText
  0
TEXT
  5
17EF
100
AcDbEntity
  8
TEXT
100
AcDbText
 10
27.4375
 20
19.151832
 30
0.0
 40
0.08
  1
RAISE FRONT END TO 3mm ABOVE
100
AcDbText
  0
TEXT
  5
17F0
100
AcDbEntity
  8
TEXT
100
AcDbText
 10
30.25
 20
19.151832
 30
0.0
 40
0.08
  1
12-20-96
100
AcDbText
  0
TEXT
  5
17F1
100
AcDbEntity
  8
TEXT
100
AcDbText
 10
27.4375
 20
18.881116
 30
0.0
 40
0.08
  1
MOVE LOCATING HOLES
100
AcDbText
  0
TEXT
  5
17F2
100
AcDbEntity
  8
TEXT
100
AcDbText
 10
27.4375
 20
18.760158
 30
0.0
 40
0.08
  1
CHANGE MATERIAL TO CARBON-FIBER
100
AcDbText
  0
TEXT
  5
17F3
100
AcDbEntity
  8
TEXT
100
AcDbText
 10
31.716472
 20
0.955012
 30
0.0
 40
0.12
  1
04
100
AcDbText
  0
DIMENSION
  5
1858
100
AcDbEntity
  8
DIM
100
AcDbDimension
  2
*D36
 10
27.676836
 20
14.494123
 30
0.0
 11
27.676836
 21
15.58753
 31
0.0
 70
    32
  3
STANDARD
100
AcDbAlignedDimension
 13
16.479383
 23
16.680937
 33
0.0
 14
16.541392
 24
14.494123
 34
0.0
 50
90.0
100
AcDbRotatedDimension
1001
ACAD
1000
DSTYLE
1002
{
1070
    40
1040
0.75
1002
}
  0
DIMENSION
  5
187E
100
AcDbEntity
  8
DIM
100
AcDbDimension
  2
*D37
 10
8.855702
 20
15.485878
 30
0.0
 11
8.855702
 21
16.083408
 31
0.0
 70
    32
  3
STANDARD
100
AcDbAlignedDimension
 13
13.619538
 23
16.680937
 33
0.0
 14
13.687081
 24
15.485878
 34
0.0
 50
90.0
100
AcDbRotatedDimension
1001
ACAD
1000
DSTYLE
1002
{
1070
    71
1070
     1
1070
    40
1040
0.75
1002
}
  0
LINE
  5
18D5
100
AcDbEntity
  8
FOOT
100
AcDbLine
 10
16.161976
 20
10.033716
 30
0.0
 11
15.994738
 21
9.919152
 31
0.0
  0
LINE
  5
18D6
100
AcDbEntity
  8
FOOT
100
AcDbLine
 10
15.946962
 20
9.936588
 30
0.0
 11
15.89283
 21
10.131943
 31
0.0
  0
ARC
  5
18D8
100
AcDbEntity
  8
FOOT
100
AcDbCircle
 10
15.977077
 20
9.944933
 30
0.0
 40
0.03125
100
AcDbArc
 50
195.487678
 51
304.412322
  0
ARC
  5
18D9
100
AcDbEntity
  8
FOOT
100
AcDbCircle
 10
16.144287
 20
10.059538
 30
0.0
 40
0.0313
100
AcDbArc
 50
304.412322
 51
15.487678
  0
ARC
  5
18DA
100
AcDbEntity
  8
FOOT
100
AcDbCircle
 10
16.090204
 20
10.254906
 30
0.0
 40
0.03125
100
AcDbArc
 50
15.487678
 51
124.412322
  0
LINE
  5
18DB
100
AcDbEntity
  8
FOOT
100
AcDbLine
 10
16.174451
 20
10.067896
 30
0.0
 11
16.12032
 21
10.26325
 31
0.0
  0
LINE
  5
18DC
100
AcDbEntity
  8
FOOT
100
AcDbLine
 10
16.072543
 20
10.280687
 30
0.0
 11
15.905305
 21
10.166123
 31
0.0
  0
LINE
  5
18DD
100
AcDbEntity
  8
CENTER
100
AcDbLine
 10
16.108471
 20
10.304957
 30
0.0
 11
15.959203
 21
9.895957
 31
0.0
  0
LINE
  5
18DE
100
AcDbEntity
  8
CENTER
100
AcDbLine
 10
16.188505
 20
10.0434
 30
0.0
 11
15.866717
 21
10.16084
 31
0.0
  0
LINE
  5
18EB
100
AcDbEntity
  8
CENTER
100
AcDbLine
 10
16.574202
 20
11.100223
 30
0.0
 11
16.252413
 21
11.217663
 31
0.0
  0
LINE
  5
18EC
100
AcDbEntity
  8
CENTER
100
AcDbLine
 10
16.344507
 20
10.951704
 30
0.0
 11
16.493775
 21
11.360704
 31
0.0
  0
ARC
  5
18ED
100
AcDbEntity
  8
FOOT
100
AcDbCircle
 10
16.475901
 20
11.311729
 30
0.0
 40
0.03125
100
AcDbArc
 50
15.487678
 51
124.412322
  0
LINE
  5
18EE
100
AcDbEntity
  8
FOOT
100
AcDbLine
 10
16.45824
 20
11.33751
 30
0.0
 11
16.291002
 21
11.222946
 31
0.0
  0
ARC
  5
18EF
100
AcDbEntity
  8
FOOT
100
AcDbCircle
 10
16.529984
 20
11.116361
 30
0.0
 40
0.0313
100
AcDbArc
 50
304.412322
 51
15.487678
  0
LINE
  5
18F0
100
AcDbEntity
  8
FOOT
100
AcDbLine
 10
16.560148
 20
11.124719
 30
0.0
 11
16.506016
 21
11.320073
 31
0.0
  0
LINE
  5
18F1
100
AcDbEntity
  8
FOOT
100
AcDbLine
 10
16.547673
 20
11.090539
 30
0.0
 11
16.380435
 21
10.975975
 31
0.0
  0
LINE
  5
18F2
100
AcDbEntity
  8
FOOT
100
AcDbLine
 10
16.332659
 20
10.993411
 30
0.0
 11
16.278527
 21
11.188766
 31
0.0
  0
ARC
  5
18F3
100
AcDbEntity
  8
FOOT
100
AcDbCircle
 10
16.362774
 20
11.001756
 30
0.0
 40
0.03125
100
AcDbArc
 50
195.487678
 51
304.412322
  0
LINE
  5
18F5
100
AcDbEntity
  8
CENTER
100
AcDbLine
 10
15.995657
 20
9.514991
 30
0.0
 11
15.673869
 21
9.632431
 31
0.0
  0
LINE
  5
18F6
100
AcDbEntity
  8
CENTER
100
AcDbLine
 10
15.765963
 20
9.366472
 30
0.0
 11
15.915231
 21
9.775472
 31
0.0
  0
ARC
  5
18F7
100
AcDbEntity
  8
FOOT
100
AcDbCircle
 10
15.897357
 20
9.726497
 30
0.0
 40
0.03125
100
AcDbArc
 50
15.487678
 51
124.412322
  0
LINE
  5
18F8
100
AcDbEntity
  8
FOOT
100
AcDbLine
 10
15.879696
 20
9.752278
 30
0.0
 11
15.712457
 21
9.637714
 31
0.0
  0
ARC
  5
18F9
100
AcDbEntity
  8
FOOT
100
AcDbCircle
 10
15.95144
 20
9.531129
 30
0.0
 40
0.0313
100
AcDbArc
 50
304.412322
 51
15.487678
  0
LINE
  5
18FA
100
AcDbEntity
  8
FOOT
100
AcDbLine
 10
15.981603
 20
9.539487
 30
0.0
 11
15.927472
 21
9.734841
 31
0.0
  0
LINE
  5
18FB
100
AcDbEntity
  8
FOOT
100
AcDbLine
 10
15.969129
 20
9.505307
 30
0.0
 11
15.80189
 21
9.390743
 31
0.0
  0
LINE
  5
18FC
100
AcDbEntity
  8
FOOT
100
AcDbLine
 10
15.754114
 20
9.408179
 30
0.0
 11
15.699983
 21
9.603534
 31
0.0
  0
ARC
  5
18FD
100
AcDbEntity
  8
FOOT
100
AcDbCircle
 10
15.784229
 20
9.416524
 30
0.0
 40
0.03125
100
AcDbArc
 50
195.487678
 51
304.412322
  0
ARC
  5
18FF
100
AcDbEntity
  8
FOOT
100
AcDbCircle
 10
16.283054
 20
10.78332
 30
0.0
 40
0.03125
100
AcDbArc
 50
15.487678
 51
124.412322
  0
LINE
  5
1900
100
AcDbEntity
  8
CENTER
100
AcDbLine
 10
16.30132
 20
10.833371
 30
0.0
 11
16.152052
 21
10.424371
 31
0.0
  0
LINE
  5
1901
100
AcDbEntity
  8
FOOT
100
AcDbLine
 10
16.265393
 20
10.809101
 30
0.0
 11
16.098154
 21
10.694537
 31
0.0
  0
LINE
  5
1902
100
AcDbEntity
  8
CENTER
100
AcDbLine
 10
16.381354
 20
10.571814
 30
0.0
 11
16.059566
 21
10.689254
 31
0.0
  0
LINE
  5
1903
100
AcDbEntity
  8
FOOT
100
AcDbLine
 10
16.139811
 20
10.465002
 30
0.0
 11
16.08568
 21
10.660357
 31
0.0
  0
ARC
  5
1905
100
AcDbEntity
  8
FOOT
100
AcDbCircle
 10
16.169926
 20
10.473347
 30
0.0
 40
0.03125
100
AcDbArc
 50
195.487678
 51
304.412322
  0
LINE
  5
1906
100
AcDbEntity
  8
FOOT
100
AcDbLine
 10
16.3673
 20
10.59631
 30
0.0
 11
16.313169
 21
10.791664
 31
0.0
  0
ARC
  5
1907
100
AcDbEntity
  8
FOOT
100
AcDbCircle
 10
16.337137
 20
10.587952
 30
0.0
 40
0.0313
100
AcDbArc
 50
304.412322
 51
15.487678
  0
LINE
  5
1908
100
AcDbEntity
  8
FOOT
100
AcDbLine
 10
16.354826
 20
10.56213
 30
0.0
 11
16.187587
 21
10.447566
 31
0.0
  0
ARC
  5
1909
100
AcDbEntity
  8
FOOT
100
AcDbCircle
 10
15.870782
 20
9.294437
 30
0.0
 40
0.03125
100
AcDbArc
 50
124.412322
 51
249.95
  0
LINE
  5
190A
100
AcDbEntity
  8
FOOT
100
AcDbLine
 10
16.03954
 20
9.199581
 30
0.0
 11
15.860068
 21
9.26508
 31
0.0
  0
ARC
  5
190B
100
AcDbEntity
  8
FOOT
100
AcDbCircle
 10
16.006368
 20
9.387317
 30
0.0
 40
0.03125
100
AcDbArc
 50
15.487678
 51
124.412322
  0
LINE
  5
190C
100
AcDbEntity
  8
FOOT
100
AcDbLine
 10
15.853121
 20
9.320218
 30
0.0
 11
15.988707
 21
9.413098
 31
0.0
  0
ARC
  5
190D
100
AcDbEntity
  8
FOOT
100
AcDbCircle
 10
16.1808
 20
9.318365
 30
0.0
 40
0.03125
100
AcDbArc
 50
195.487678
 51
339.95
  0
LINE
  5
190E
100
AcDbEntity
  8
FOOT
100
AcDbLine
 10
16.103749
 20
9.579972
 30
0.0
 11
16.270987
 21
9.694536
 31
0.0
  0
ARC
  5
190F
100
AcDbEntity
  8
FOOT
100
AcDbCircle
 10
16.253298
 20
9.720358
 30
0.0
 40
0.0313
100
AcDbArc
 50
304.412322
 51
15.487678
  0
LINE
  5
1910
100
AcDbEntity
  8
FOOT
100
AcDbLine
 10
16.246268
 20
9.571921
 30
0.0
 11
16.123355
 21
9.487722
 31
0.0
  0
ARC
  5
1911
100
AcDbEntity
  8
FOOT
100
AcDbCircle
 10
16.263928
 20
9.54614
 30
0.0
 40
0.03125
100
AcDbArc
 50
339.95
 51
124.412322
  0
ARC
  5
1912
100
AcDbEntity
  8
FOOT
100
AcDbCircle
 10
16.141016
 20
9.461941
 30
0.0
 40
0.03125
100
AcDbArc
 50
124.412322
 51
195.487678
  0
LINE
  5
1913
100
AcDbEntity
  8
FOOT
100
AcDbLine
 10
16.210156
 20
9.307651
 30
0.0
 11
16.293285
 21
9.535427
 31
0.0
  0
LINE
  5
1914
100
AcDbEntity
  8
FOOT
100
AcDbLine
 10
16.1109
 20
9.453597
 30
0.0
 11
16.150684
 21
9.31002
 31
0.0
  0
ARC
  5
1915
100
AcDbEntity
  8
FOOT
100
AcDbCircle
 10
16.086088
 20
9.605753
 30
0.0
 40
0.03125
100
AcDbArc
 50
195.487678
 51
304.412322
  0
LINE
  5
1916
100
AcDbEntity
  8
FOOT
100
AcDbLine
 10
16.036483
 20
9.395662
 30
0.0
 11
16.080369
 21
9.237281
 31
0.0
  0
ARC
  5
1917
100
AcDbEntity
  8
FOOT
100
AcDbCircle
 10
16.050254
 20
9.228937
 30
0.0
 40
0.03125
100
AcDbArc
 50
249.95
 51
15.487678
  0
ARC
  5
1918
100
AcDbEntity
  8
FOOT
100
AcDbCircle
 10
16.032005
 20
9.801121
 30
0.0
 40
0.0313
100
AcDbArc
 50
124.412322
 51
195.487678
  0
LINE
  5
1919
100
AcDbEntity
  8
FOOT
100
AcDbLine
 10
16.343532
 20
9.838429
 30
0.0
 11
16.303748
 21
9.982006
 31
0.0
  0
ARC
  5
191A
100
AcDbEntity
  8
FOOT
100
AcDbCircle
 10
16.199215
 20
9.915726
 30
0.0
 40
0.03125
100
AcDbArc
 50
15.487678
 51
124.412322
  0
ARC
  5
191B
100
AcDbEntity
  8
FOOT
100
AcDbCircle
 10
16.333863
 20
9.99035
 30
0.0
 40
0.03125
100
AcDbArc
 50
124.412322
 51
195.487678
  0
LINE
  5
191C
100
AcDbEntity
  8
FOOT
100
AcDbLine
 10
16.486132
 20
10.063836
 30
0.0
 11
16.403003
 21
9.83606
 31
0.0
  0
ARC
  5
191D
100
AcDbEntity
  8
FOOT
100
AcDbCircle
 10
16.456776
 20
10.074549
 30
0.0
 40
0.03125
100
AcDbArc
 50
339.95
 51
124.412322
  0
LINE
  5
191E
100
AcDbEntity
  8
FOOT
100
AcDbLine
 10
16.316202
 20
10.016131
 30
0.0
 11
16.439115
 21
10.10033
 31
0.0
  0
ARC
  5
191F
100
AcDbEntity
  8
FOOT
100
AcDbCircle
 10
16.373647
 20
9.846774
 30
0.0
 40
0.03125
100
AcDbArc
 50
195.487678
 51
339.95
  0
LINE
  5
1920
100
AcDbEntity
  8
FOOT
100
AcDbLine
 10
16.014316
 20
9.826943
 30
0.0
 11
16.181554
 21
9.941507
 31
0.0
  0
LINE
  5
1921
100
AcDbEntity
  8
FOOT
100
AcDbLine
 10
16.22933
 20
9.924071
 30
0.0
 11
16.283462
 21
9.728716
 31
0.0
  0
LINE
  5
1922
100
AcDbEntity
  8
FOOT
100
AcDbLine
 10
16.001841
 20
9.792763
 30
0.0
 11
16.055973
 21
9.597409
 31
0.0
  0
LINE
  5
1923
100
AcDbEntity
  8
CENTER
100
AcDbLine
 10
16.217482
 20
9.965778
 30
0.0
 11
16.068214
 21
9.556777
 31
0.0
  0
LINE
  5
1924
100
AcDbEntity
  8
CENTER
100
AcDbLine
 10
15.987787
 20
9.817259
 30
0.0
 11
16.309576
 21
9.699819
 31
0.0
  0
LINE
  5
1925
100
AcDbEntity
  8
CENTER
100
AcDbLine
 10
16.373484
 20
10.874082
 30
0.0
 11
16.695272
 21
10.756642
 31
0.0
  0
LINE
  5
1926
100
AcDbEntity
  8
CENTER
100
AcDbLine
 10
16.453518
 20
10.612525
 30
0.0
 11
16.602786
 21
11.021525
 31
0.0
  0
ARC
  5
1927
100
AcDbEntity
  8
FOOT
100
AcDbCircle
 10
16.664632
 20
11.190985
 30
0.0
 40
0.03125
100
AcDbArc
 50
195.487678
 51
304.412322
  0
LINE
  5
1928
100
AcDbEntity
  8
FOOT
100
AcDbLine
 10
16.810932
 20
11.313222
 30
0.0
 11
16.63146
 21
11.378722
 31
0.0
  0
ARC
  5
1929
100
AcDbEntity
  8
FOOT
100
AcDbCircle
 10
16.620746
 20
11.349365
 30
0.0
 40
0.03125
100
AcDbArc
 50
69.95
 51
195.487678
  0
ARC
  5
192A
100
AcDbEntity
  8
FOOT
100
AcDbCircle
 10
16.800218
 20
11.283866
 30
0.0
 40
0.03125
100
AcDbArc
 50
304.412322
 51
69.95
  0
LINE
  5
192B
100
AcDbEntity
  8
FOOT
100
AcDbLine
 10
16.590631
 20
11.341021
 30
0.0
 11
16.634517
 21
11.182641
 31
0.0
  0
LINE
  5
192C
100
AcDbEntity
  8
FOOT
100
AcDbLine
 10
16.682293
 20
11.165204
 30
0.0
 11
16.817879
 21
11.258085
 31
0.0
  0
ARC
  5
192D
100
AcDbEntity
  8
FOOT
100
AcDbCircle
 10
16.71956
 20
11.047173
 30
0.0
 40
0.03125
100
AcDbArc
 50
124.412322
 51
195.487678
  0
ARC
  5
192E
100
AcDbEntity
  8
FOOT
100
AcDbCircle
 10
16.759344
 20
10.903597
 30
0.0
 40
0.03125
100
AcDbArc
 50
195.487678
 51
339.95
  0
LINE
  5
192F
100
AcDbEntity
  8
FOOT
100
AcDbLine
 10
16.729229
 20
10.895252
 30
0.0
 11
16.689445
 21
11.038829
 31
0.0
  0
ARC
  5
1930
100
AcDbEntity
  8
FOOT
100
AcDbCircle
 10
16.842473
 20
11.131372
 30
0.0
 40
0.03125
100
AcDbArc
 50
339.95
 51
124.412322
  0
LINE
  5
1931
100
AcDbEntity
  8
FOOT
100
AcDbLine
 10
16.701899
 20
11.072954
 30
0.0
 11
16.824812
 21
11.157153
 31
0.0
  0
LINE
  5
1932
100
AcDbEntity
  8
FOOT
100
AcDbLine
 10
16.871829
 20
11.120659
 30
0.0
 11
16.7887
 21
10.892883
 31
0.0
  0
ARC
  5
1933
100
AcDbEntity
  8
FOOT
100
AcDbCircle
 10
16.417702
 20
10.857944
 30
0.0
 40
0.0313
100
AcDbArc
 50
124.412322
 51
195.487678
  0
ARC
  5
1934
100
AcDbEntity
  8
FOOT
100
AcDbCircle
 10
16.638995
 20
10.777181
 30
0.0
 40
0.0313
100
AcDbArc
 50
304.412322
 51
15.487678
  0
LINE
  5
1935
100
AcDbEntity
  8
FOOT
100
AcDbLine
 10
16.400013
 20
10.883766
 30
0.0
 11
16.567251
 21
10.99833
 31
0.0
  0
ARC
  5
1936
100
AcDbEntity
  8
FOOT
100
AcDbCircle
 10
16.584912
 20
10.972549
 30
0.0
 40
0.03125
100
AcDbArc
 50
15.487678
 51
124.412322
  0
LINE
  5
1937
100
AcDbEntity
  8
FOOT
100
AcDbLine
 10
16.615027
 20
10.980894
 30
0.0
 11
16.669159
 21
10.785539
 31
0.0
  0
ARC
  5
1938
100
AcDbEntity
  8
FOOT
100
AcDbCircle
 10
16.526713
 20
10.518764
 30
0.0
 40
0.03125
100
AcDbArc
 50
124.412322
 51
195.487678
  0
LINE
  5
1939
100
AcDbEntity
  8
FOOT
100
AcDbLine
 10
16.489446
 20
10.636795
 30
0.0
 11
16.656684
 21
10.751359
 31
0.0
  0
ARC
  5
193A
100
AcDbEntity
  8
FOOT
100
AcDbCircle
 10
16.471785
 20
10.662576
 30
0.0
 40
0.03125
100
AcDbArc
 50
195.487678
 51
304.412322
  0
LINE
  5
193B
100
AcDbEntity
  8
FOOT
100
AcDbLine
 10
16.387538
 20
10.849586
 30
0.0
 11
16.44167
 21
10.654232
 31
0.0
  0
ARC
  5
193C
100
AcDbEntity
  8
FOOT
100
AcDbCircle
 10
16.566497
 20
10.375188
 30
0.0
 40
0.03125
100
AcDbArc
 50
195.487678
 51
339.95
  0
ARC
  5
193D
100
AcDbEntity
  8
FOOT
100
AcDbCircle
 10
16.649625
 20
10.602963
 30
0.0
 40
0.03125
100
AcDbArc
 50
339.95
 51
124.412322
  0
LINE
  5
193E
100
AcDbEntity
  8
FOOT
100
AcDbLine
 10
16.595853
 20
10.364474
 30
0.0
 11
16.678981
 21
10.59225
 31
0.0
  0
LINE
  5
193F
100
AcDbEntity
  8
FOOT
100
AcDbLine
 10
16.631965
 20
10.628744
 30
0.0
 11
16.509052
 21
10.544545
 31
0.0
  0
LINE
  5
1940
100
AcDbEntity
  8
FOOT
100
AcDbLine
 10
16.496597
 20
10.51042
 30
0.0
 11
16.536381
 21
10.366843
 31
0.0
  0
LINE
  5
1948
100
AcDbEntity
  8
CENTER
100
AcDbLine
 10
16.180636
 20
10.34567
 30
0.0
 11
16.502424
 21
10.228231
 31
0.0
  0
LINE
  5
1949
100
AcDbEntity
  8
CENTER
100
AcDbLine
 10
16.41033
 20
10.494189
 30
0.0
 11
16.261062
 21
10.085189
 31
0.0
  0
LINE
  5
194A
100
AcDbEntity
  8
FOOT
100
AcDbLine
 10
16.422179
 20
10.452482
 30
0.0
 11
16.47631
 21
10.257128
 31
0.0
  0
LINE
  5
194B
100
AcDbEntity
  8
FOOT
100
AcDbLine
 10
16.207164
 20
10.355355
 30
0.0
 11
16.374403
 21
10.469918
 31
0.0
  0
ARC
  5
194C
100
AcDbEntity
  8
FOOT
100
AcDbCircle
 10
16.392064
 20
10.444137
 30
0.0
 40
0.03125
100
AcDbArc
 50
15.487678
 51
124.412322
  0
LINE
  5
194D
100
AcDbEntity
  8
FOOT
100
AcDbLine
 10
16.296597
 20
10.108384
 30
0.0
 11
16.463836
 21
10.222947
 31
0.0
  0
ARC
  5
194E
100
AcDbEntity
  8
FOOT
100
AcDbCircle
 10
16.446147
 20
10.24877
 30
0.0
 40
0.0313
100
AcDbArc
 50
304.412322
 51
15.487678
  0
LINE
  5
194F
100
AcDbEntity
  8
FOOT
100
AcDbLine
 10
16.19469
 20
10.321175
 30
0.0
 11
16.248821
 21
10.12582
 31
0.0
  0
ARC
  5
1950
100
AcDbEntity
  8
FOOT
100
AcDbCircle
 10
16.278936
 20
10.134165
 30
0.0
 40
0.03125
100
AcDbArc
 50
195.487678
 51
304.412322
  0
ARC
  5
1951
100
AcDbEntity
  8
FOOT
100
AcDbCircle
 10
16.224853
 20
10.329533
 30
0.0
 40
0.0313
100
AcDbArc
 50
124.412322
 51
195.487678
  0
CIRCLE
  5
195B
100
AcDbEntity
  8
DIM
100
AcDbCircle
 10
16.338266
 20
10.89492
 30
0.0
 40
0.702054
  0
DIMENSION
  5
196A
100
AcDbEntity
  8
DIM
100
AcDbDimension
  2
*D38
 10
17.858461
 20
11.005412
 30
0.0
 11
18.881028
 21
10.919637
 31
0.0
 70
    32
 51
20.05
  3
STANDARD
100
AcDbAlignedDimension
 13
16.695272
 23
10.756642
 33
0.0
 14
17.380019
 24
11.180024
 34
0.0
 50
69.95
100
AcDbRotatedDimension
1001
ACAD
1000
DSTYLE
1002
{
1070
    40
1040
0.75
1002
}
  0
DIMENSION
  5
1978
100
AcDbEntity
  8
DIM
100
AcDbDimension
  2
*D39
 10
18.960347
 20
10.603269
 30
0.0
 11
18.659079
 21
9.777783
 31
0.0
 70
    32
 51
20.05
  3
STANDARD
100
AcDbAlignedDimension
 13
16.309576
 23
9.699819
 33
0.0
 14
17.380019
 24
11.180024
 34
0.0
 50
69.95
100
AcDbRotatedDimension
1001
ACAD
1000
DSTYLE
1002
{
1070
    40
1040
0.75
1002
}
  0
MTEXT
  5
197F
100
AcDbEntity
  8
TEXT
100
AcDbMText
 10
1.378899
 20
6.227485
 30
0.0
 40
0.15
 41
7.866
 71
     1
 72
     1
  3
{MATERIAL: }\P{0.76mm [0.030"] thick carbon-fiber-epoxy-composite}\P\P{LAMINATE SCHEDULE:}\P{cloth:  - 1 layer Carbon-fiber (0.006" thick ea.)}\P{ xx oz/sq. yd. plain weave @ 90°}\P{ - 1 layer Carbon-fiber (0.001" thick ea.)}\P{ 0.4 oz/sq. yd. mat}\P
  3
{ - 1 layer Carbon-fiber (0.006" thick ea.)}\P{ xx oz/sq. yd. plain weave @ 45°}\P{ 1 layer Carbon-fiber (0.001" thick ea.)}\P{ 0.4 oz/sq. yd. mat}\P{ - 1 layer Carbon-fiber (0.006" thick ea.)}\P{ xx oz/sq. yd. plain weave @ 90°}\P{epoxy: heat resist
  1
ant laminating epoxy}\P{ Ciba-Geigy RP4005R/RP1500H}\P{cure: 24 hrs at room temp. @ 20psi}\P{ 2 hrs postcure at 66°C}\P\P{MACHINING:}\P{use fixture L3-END12}\P
  0
DIMENSION
  5
199F
100
AcDbEntity
  8
DIM
100
AcDbDimension
  2
*D40
 10
14.144987
 20
18.593842
 30
0.0
 11
13.567997
 21
1.660999
 31
0.0
 70
    34
  3
STANDARD
100
AcDb2LineAngularDimension
 13
13.18282
 23
2.288569
 33
0.0
 14
16.795212
 24
12.186651
 34
0.0
 15
14.144987
 25
1.956518
 35
0.0
 16
13.703922
 26
1.639869
 36
0.0
1001
ACAD
1000
DSTYLE
1002
{
1070
    40
1040
0.75
1070
     3
1000

1070
   271
1070
     2
1002
}
  0
INSERT
  5
19CE
100
AcDbEntity
  8
ASHADE
 62
     1
100
AcDbBlockReference
  2
AVE_RENDER
 10
0.0
 20
0.0
 30
0.0
1001
AVE_RENDER
1002
{
1070
     6
1000
Pref
1070
    30
1070
    20
1070
     1
1070
     0
1000

1070
    10
1070
     1
1070
    30
1040
1.0
1070
     1
1040
0.3
1040
0.7
1040
0.0
1040
10.0
1010
-1.0
1020
-1.0
1030
-1.0
1040
0.3
1070
    49
1070
     0
1070
     0
1010
1.0
1020
1.0
1030
1.0
1040
45.0
1070
     1
1070
     0
1000
WCS
1040
0.0
1002
}
  0
INSERT
  5
19CF
100
AcDbEntity
  8
ASHADE
 62
     3
100
AcDbBlockReference
  2
AVE_RENDER
 10
0.0
 20
0.0
 30
0.0
1001
AVE_RENDER
1002
{
1070
     0
1000
Full Opt
1070
     0
1070
     1
1070
     1
1070
     1
1070
     0
1070
     0
1070
     0
1070
     1
1070
     1
1040
0.0001
1040
0.0001
1002
}
  0
INSERT
  5
19D0
100
AcDbEntity
  8
ASHADE
 62
     4
100
AcDbBlockReference
  2
AVE_RENDER
 10
0.0
 20
0.0
 30
0.0
1001
AVE_RENDER
1002
{
1070
     0
1000
Quick Opt
1070
     0
1070
     1
1070
     1
1070
     1
1070
     0
1070
     0
1070
     1
1002
}
  0
INSERT
  5
19D1
100
AcDbEntity
  8
ASHADE
 62
     5
100
AcDbBlockReference
  2
AVE_RENDER
 10
0.0
 20
0.0
 30
0.0
1001
AVE_RENDER
1002
{
1070
     1
1000
Scanl Opt
1070
     2
1070
     0
1070
     2
1040
2.0
1040
4.0
1070
     0
1070
     1
1070
     0
1040
0.03
1002
}
  0
INSERT
  5
19D2
100
AcDbEntity
  8
ASHADE
 62
     6
100
AcDbBlockReference
  2
AVE_RENDER
 10
0.0
 20
0.0
 30
0.0
1001
AVE_RENDER
1002
{
1070
     2
1000
Raytr Opt
1070
     2
1070
     0
1070
     2
1040
2.0
1040
4.0
1070
     0
1070
     1
1070
     1
1040
0.03
1070
     3
1040
0.03
1002
}
  0
INSERT
  5
19D3
100
AcDbEntity
  8
ASHADE
 62
     7
100
AcDbBlockReference
  2
AVE_RENDER
 10
0.0
 20
0.0
 30
0.0
1001
AVE_RENDER
1002
{
1070
     0
1000
RFile Opt
1070
     5
1070
   640
1070
   480
1070
 10000
1070
     3
1070
    32
1070
    24
1070
     0
1070
     0
1070
     0
1070
     1
1070
     0
1070
     0
1070
     0
1002
}
  0
INSERT
  5
19D4
100
AcDbEntity
  8
ASHADE
 62
     8
100
AcDbBlockReference
  2
AVE_RENDER
 10
0.0
 20
0.0
 30
0.0
1001
AVE_RENDER
1002
{
1070
     0
1000
Fog Opt
1070
     0
1070
     0
1040
0.0
1040
1.0
1040
0.0
1040
1.0
1010
0.5
1020
0.5
1030
0.5
1002
}
  0
INSERT
  5
19D5
100
AcDbEntity
  8
ASHADE
 62
     9
100
AcDbBlockReference
  2
AVE_RENDER
 10
0.0
 20
0.0
 30
0.0
1001
AVE_RENDER
1002
{
1070
     0
1000
BG Opt
1070
     0
1070
     1
1010
0.0
1020
0.0
1030
0.0
1010
1.0
1020
0.0
1030
0.0
1010
0.0
1020
1.0
1030
0.0
1010
0.0
1020
0.0
1030
1.0
1040
0.5
1040
0.33
1040
0.0
1000

1070
     1
1000

1070
     1
1070
     1
1040
1.0
1040
1.0
1040
0.0
1040
0.0
1070
     0
1002
}
  0
INSERT
  5
19DC
100
AcDbEntity
  8
ASHADE
 62
     1
100
AcDbBlockReference
  2
AVE_GLOBAL
 10
0.0
 20
0.0
 30
0.0
1001
AVE_MATERIAL
1002
{
1000
*GLOBAL*
1000
1
1000
Global finish.
1002
{
1002
}
1002
{
1070
    63
1002
{
1002
{
1010
-1.0
1020
-1.0
1030
-1.0
1002
}
1040
0.1
1000

1040
0.0
1002
{
1002
}
1040
0.0
1002
{
1002
}
1040
0.0
1002
}
1002
{
1002
{
1010
-1.0
1020
-1.0
1030
-1.0
1002
}
1040
0.7
1000

1040
0.0
1002
{
1002
}
1040
0.0
1002
{
1002
}
1040
0.0
1002
}
1002
{
1002
{
1010
-1.0
1020
-1.0
1030
-1.0
1002
}
1040
0.2
1000

1040
0.0
1002
{
1002
}
1040
0.0
1002
{
1002
}
1040
0.0
1002
}
1002
{
1070
     0
1002
{
1070
     1
1002
{
1040
1.0
1040
1.0
1000

1040
0.0
1002
{
1002
}
1040
0.0
1002
{
1002
}
1040
0.0
1002
}
1002
}
1040
1.0
1040
0.0
1040
0.0
1002
}
1002
{
1040
1.0
1040
1.0
1000

1040
0.0
1002
{
1002
}
1040
0.0
1002
{
1002
}
1040
0.0
1002
}
1002
{
1040
0.5
1040
1.0
1000

1040
0.0
1002
{
1002
}
1040
0.0
1002
{
1002
}
1040
0.0
1002
}
1002
{
1070
     0
1040
0.0
1002
{
1002
}
1040
1.0
1002
{
1002
}
1040
0.0
1002
}
1002
{
1040
0.0
1002
{
1002
{
1010
0.0
1020
0.0
1030
0.0
1002
}
1040
1.0
1000

1040
0.0
1002
{
1002
}
1040
0.0
1002
{
1002
}
1040
0.0
1002
}
1002
}
1002
{
1002
{
1070
     1
1002
{
1040
0.0
1040
1.0
1000

1040
0.0
1002
{
1002
}
1040
0.0
1002
{
1002
}
1040
0.0
1002
}
1002
}
1040
0.0
1002
{
1002
}
1010
1.0
1020
0.0
1030
0.0
1010
0.0
1020
1.0
1030
0.0
1010
0.0
1020
0.0
1030
1.0
1070
     0
1002
}
1002
{
1002
{
1040
1.0
1040
1.0
1002
{
1070
     1
1002
{
1040
1.0
1040
1.0
1000

1040
0.0
1002
{
1002
}
1040
0.0
1002
{
1002
}
1040
0.0
1002
}
1002
}
1002
}
1070
     0
1040
0.0
1002
{
1002
}
1002
}
1002
{
1002
}
1002
}
1002
{
1071
        3
1070
     3
1070
     0
1002
{
1070
     2
1070
     0
1070
     0
1040
0.0
1002
}
1070
     0
1070
     2
1002
{
1002
}
1002
}
1002
{
1040
8030.0
1040
190.300003
1040
0.305
1040
228.0
1040
545.0
1040
14.0
1040
17.4
1040
0.456
1002
}
1002
}
  0
INSERT
  5
1A7D
100
AcDbEntity
  8
FOOT
100
AcDbBlockReference
  2
*U48
 10
16.207694
 20
16.26779
 30
0.0
 50
90.0
1001
TB_S_MPD
1070
   100
1000
SLOT
1070
   101
1000
TOOLBOX 13.0 SLOT 2.0
1070
   103
1000
STD
1070
   306
1040
0.0394
1070
   307
1040
0.03
1070
   112
1000
SLOT
1070
   102
1000
Near side
1070
   116
1000
T
1070
   308
1040
0.03
1070
   309
1040
0.0197
1070
   310
1040
0.2638
1070
   311
1040
90.0
  0
DIMENSION
  5
1A8A
100
AcDbEntity
  8
DIM
100
AcDbDimension
  2
*D49
 10
14.144987
 20
17.732607
 30
0.0
 11
12.986237
 21
17.732607
 31
0.0
 70
    32
  3
STANDARD
100
AcDbAlignedDimension
 13
16.207694
 23
16.54439
 33
0.0
 14
14.144987
 24
18.593842
 34
0.0
100
AcDbRotatedDimension
1001
ACAD
1000
DSTYLE
1002
{
1070
    47
1040
0.0
1070
    48
1040
0.002
1070
    76
1070
     1
1070
    40
1040
0.75
1002
}
  0
INSERT
  5
1A8B
100
AcDbEntity
  8
FOOT
100
AcDbBlockReference
  2
*U48
 10
16.207694
 20
14.586623
 30
0.0
 50
90.0
1001
TB_S_MPD
1070
   100
1000
SLOT
1070
   101
1000
TOOLBOX 13.0 SLOT 2.0
1070
   103
1000
STD
1070
   306
1040
0.0394
1070
   307
1040
0.03
1070
   112
1000
SLOT
1070
   102
1000
Near side
1070
   116
1000
T
1070
   308
1040
0.03
1070
   309
1040
0.0197
1070
   310
1040
0.2638
1070
   311
1040
90.0
  0
DIMENSION
  5
1AD8
100
AcDbEntity
  8
DIM
100
AcDbDimension
  2
*D50
 10
17.196153
 20
16.680937
 30
0.0
 11
18.107403
 21
16.950937
 31
0.0
 70
    32
  3
STANDARD
100
AcDbAlignedDimension
 13
16.352394
 23
16.39969
 33
0.0
 14
16.479383
 24
16.680937
 34
0.0
 50
90.0
100
AcDbRotatedDimension
1001
ACAD
1000
DSTYLE
1002
{
1070
    47
1040
0.0
1070
    48
1040
0.002
1070
    40
1040
0.75
1002
}
  0
DIMENSION
  5
1AE7
100
AcDbEntity
  8
DIM
100
AcDbDimension
  2
*D51
 10
20.685323
 20
16.680937
 30
0.0
 11
21.686573
 21
16.950937
 31
0.0
 70
    32
  3
STANDARD
100
AcDbAlignedDimension
 13
16.352394
 23
16.13589
 33
0.0
 14
16.479383
 24
16.680937
 34
0.0
 50
90.0
100
AcDbRotatedDimension
1001
ACAD
1000
DSTYLE
1002
{
1070
    47
1040
0.0
1070
    48
1040
0.002
1070
    40
1040
0.75
1002
}
  0
DIMENSION
  5
1B26
100
AcDbEntity
  8
DIM
100
AcDbDimension
  2
*D52
 10
23.885377
 20
16.680937
 30
0.0
 11
23.885377
 21
15.70103
 31
0.0
 70
    32
  3
STANDARD
100
AcDbAlignedDimension
 13
16.353392
 23
14.721123
 33
0.0
 14
16.479383
 24
16.680937
 34
0.0
 50
90.0
100
AcDbRotatedDimension
1001
ACAD
1000
DSTYLE
1002
{
1070
    47
1040
0.0
1070
    48
1040
0.002
1070
    40
1040
0.75
1002
}
  0
DIMENSION
  5
1B40
100
AcDbEntity
  8
DIM
100
AcDbDimension
  2
*D53
 10
29.657833
 20
16.680937
 30
0.0
 11
29.657833
 21
15.56783
 31
0.0
 70
    32
  3
STANDARD
100
AcDbAlignedDimension
 13
16.352394
 23
14.454723
 33
0.0
 14
16.479383
 24
16.680937
 34
0.0
 50
90.0
100
AcDbRotatedDimension
1001
ACAD
1000
DSTYLE
1002
{
1070
    47
1040
0.0
1070
    48
1040
0.002
1070
    40
1040
0.75
1002
}
  0
TEXT
  5
1B7D
100
AcDbEntity
  8
TEXT
100
AcDbText
 10
27.0625
 20
18.568021
 30
0.0
 40
0.08
  1
04
100
AcDbText
  0
TEXT
  5
1B7E
100
AcDbEntity
  8
TEXT
100
AcDbText
 10
27.4375
 20
18.568021
 30
0.0
 40
0.08
  1
CHANGE SLOT FOR GLUE INSERTION
100
AcDbText
  0
TEXT
  5
1B7F
100
AcDbEntity
  8
TEXT
100
AcDbText
 10
30.25
 20
18.568021
 30
0.0
 40
0.08
  1
01-29-97
100
AcDbText
  0
LEADER
  5
1B89
100
AcDbEntity
  8
DIM
100
AcDbLeader
  3
STANDARD
 76
     3
 10
16.221602
 20
16.414096
 30
0.0
 10
17.115521
 20
18.692345
 30
0.0
 10
17.318143
 20
18.692345
 30
0.0
 77
   256
1001
ACAD
1000
DSTYLE
1002
{
1070
    47
1040
0.001
1070
    48
1040
0.001
1070
   272
1070
     3
1070
    76
1070
     1
1070
    40
1040
0.75
1070
     3
1000
"
1070
     4
1000
mm
1070
   170
1070
     1
1002
}
  0
MTEXT
  5
1B8A
100
AcDbEntity
  8
DIM
100
AcDbMText
 10
17.421895
 20
18.584048
 30
0.0
 40
0.135
 41
0.0
 71
     4
 72
     1
  1
{SLOT, %%c0.039"[1.00mm]}\P{2X}
  0
ENDSEC
  0
SECTION
  2
OBJECTS
  0
DICTIONARY
  5
C
100
AcDbDictionary
  3
ACAD_GROUP
350
D
  3
ACAD_MLINESTYLE
350
E
  3
ACASAPPOBJECT
350
14EE
  3
ACASGREF_MASTER
350
14A2
  3
ACCELVIEW
350
150B
  3
ACDMSYSVARMGR
350
14BE
  3
ACGREF_MASTER
350
14A0
  3
ACME_COMMAND_HISTORY
350
149E
  3
ACME_SCOPE_NAME
350
149D
  3
AD_APPL
350
14B1
  3
AD_DRAWMGR_NAME
350
14D1
  3
AD_GREF_MODULE
350
14B9
  3
AD_HOLENOTE_REPOSITORY
350
14B8
  3
ADSYSVARMGR
350
14A7
  3
AMI_MASTER
350
14A1
  3
AUTOCAD_ASSEMBLIES_PROJECT
350
14DD
  3
DESIGNER_ASSEMBLIES_SYSVARS
350
14D8
  0
DICTIONARY
  5
D
102
{ACAD_REACTORS
330
C
102
}
100
AcDbDictionary
  0
DICTIONARY
  5
E
102
{ACAD_REACTORS
330
C
102
}
100
AcDbDictionary
  3
STANDARD
350
13
  0
ACAD_ZOMBIE_OBJECT
  5
14EE
102
{ACAD_REACTORS
330
C
102
}
100
AcDbZombieObject
 90
      499
 91
      536
 93
        2
310
90
360
14EC
 94
        0
  0
ACAD_ZOMBIE_OBJECT
  5
14A2
102
{ACAD_REACTORS
330
C
102
}
100
AcDbZombieObject
 90
      499
 91
      505
 93
       34
310
0100004054
 94
        0
  0
ACAD_ZOMBIE_OBJECT
  5
150B
102
{ACAD_REACTORS
330
C
102
}
100
AcDbZombieObject
 90
      499
 91
      537
 93
       12
310
9994
330
14B2
330
14FC
330
1507
330
1530
330
1564
330
1571
330
158F
330
15B6
330
15E9
330
15F6
330
1603
330
1610
330
161D
330
1638
330
1646
330
1654
330
1662
330
167D
330
1699
330
16DD
330
16EB
330
171D
330
1779
330
17EF
330
17EE
330
17ED
330
17F0
330
17F1
330
17F2
330
17F3
330
1858
330
187E
330
18DE
330
18DD
330
18D5
330
18DC
330
18DB
330
18DA
330
18D9
330
18D8
330
18D6
330
18F1
330
18F3
330
18F2
330
18EE
330
18ED
330
18F0
330
18EF
330
18EC
330
18EB
330
18FB
330
18FD
330
18FC
330
18F8
330
18F7
330
18FA
330
18F9
330
18F6
330
18F5
330
1908
330
1903
330
1905
330
1907
330
18FF
330
1906
330
1901
330
1900
330
1902
330
1940
330
193F
330
193E
330
193D
330
193C
330
193B
330
193A
330
1939
330
1938
330
1937
330
1936
330
1935
330
1934
330
1933
330
1932
330
1931
330
1930
330
192F
330
192E
330
192D
330
192C
330
192B
330
192A
330
1929
330
1928
330
1927
330
1926
330
1925
330
1924
330
1923
330
1922
330
1921
330
1920
330
191F
330
191E
330
191D
330
191C
330
191B
330
191A
330
1919
330
1918
330
1917
330
1916
330
1915
330
1914
330
1913
330
1912
330
1911
330
1910
330
190F
330
190E
330
190D
330
190C
330
190B
330
190A
330
1909
330
194D
330
194E
330
1950
330
1951
330
194C
330
194B
330
194A
330
194F
330
1949
330
1948
330
195B
330
196A
330
1978
330
197F
330
199F
330
19CE
330
19CF
330
19D0
330
19D1
330
19D2
330
19D3
330
19D4
330
19D5
330
19DC
330
0
330
0
330
0
330
0
330
0
 94
        0
  0
ACAD_ZOMBIE_OBJECT
  5
14BE
102
{ACAD_REACTORS
330
C
102
}
100
AcDbZombieObject
 90
      499
 91
      510
 93
      176
310
4C5114810100000000000000000000000000000000004F
330
14BF
330
14C0
330
14C1
330
14C2
330
14C3
330
14C4
330
14C6
330
14C7
330
14C8
330
14C9
330
14CA
330
14CB
330
14CC
330
14CD
330
14CE
330
14CF
330
14D0
 94
        0
  0
ACAD_ZOMBIE_OBJECT
  5
14A0
102
{ACAD_REACTORS
330
C
102
}
100
AcDbZombieObject
 90
      499
 91
      503
 93
      114
310
01000040C000000000000000000015
 94
        0
  0
ACAD_ZOMBIE_OBJECT
  5
149E
102
{ACAD_REACTORS
330
C
102
}
100
AcDbZombieObject
 90
      499
 91
      501
 93
     2924
310
4780504554E444F80504554E444F8050444494D31404050B4E202D20524553544F524501411112534C501014293880B4814D1551590548050444494D31404050A4E202D2053455456415201411112534C501014293880B4814D1551590548050444494D31404050A4E202D2053455456415201411112534C501014293880B4
310
814D1551590548050444494D31404050A4E202D20534554564152014115539113E014115539113E014251125353125391505490101461354D1C80B4810DBDB5B585B990810D05390D1531311510B8050944494D4C494E4541528050944494D4C494E45415240405084E202D205A4F4F4D0141D4D514915510D220141D4D514
310
915510D220141D4D514915510D2201411693D3D360141911111511255201411693D3D36014254D055915054D48C4CA014191561413D4952014191561413D4952014115539113E014115539113E014194D1531150D52014115539113E014115539113E014113D41153A0141145552552F
 94
        0
  0
ACAD_ZOMBIE_OBJECT
  5
149D
102
{ACAD_REACTORS
330
C
102
}
100
AcDbZombieObject
 90
      499
 91
      500
 93
      456
310
01010040931000000000000000000000000000000000000000000000000000000000000000000000000000000000000000000000000009010001
360
14A3
360
14A4
360
14A5
360
14A6
360
14A8
360
14A9
360
14AA
360
14AB
360
14AC
360
14AD
360
14AE
360
14AF
360
14B0
360
14B3
360
14B4
360
14B5
360
14B6
360
14B7
360
14BA
360
14BB
360
14BC
360
14BD
360
14BF
360
14C0
360
14C1
360
14C2
360
14C3
360
14C4
360
14C6
360
14C7
360
14C8
360
14C9
360
14CA
360
14CB
360
14CC
360
14CD
360
14CE
360
14CF
360
14D0
360
14D9
360
14DA
360
14DB
360
14DC
360
14E1
360
14E2
360
14E3
360
14E4
360
14E5
360
14E9
330
14B2
 94
        0
  0
ACAD_ZOMBIE_OBJECT
  5
14B1
102
{ACAD_REACTORS
330
C
102
}
100
AcDbZombieObject
 90
      499
 91
      514
 93
       42
310
000100004340
330
14A3
 94
        0
  0
ACAD_ZOMBIE_OBJECT
  5
14D1
102
{ACAD_REACTORS
330
C
102
}
100
AcDbZombieObject
 90
      499
 91
      526
 93
       42
310
000100004413
330
14BA
 94
        0
  0
ACAD_ZOMBIE_OBJECT
  5
14B9
102
{ACAD_REACTORS
330
C
102
}
100
AcDbZombieObject
 90
      499
 91
      521
 93
      114
310
000000428000000000000000000009
 94
        0
  0
ACAD_ZOMBIE_OBJECT
  5
14B8
102
{ACAD_REACTORS
330
C
102
}
100
AcDbZombieObject
 90
      499
 91
      520
 93
        8
310
0004
330
14B7
 94
        0
  0
ACAD_ZOMBIE_OBJECT
  5
14A7
102
{ACAD_REACTORS
330
C
102
}
100
AcDbZombieObject
 90
      499
 91
      510
 93
      104
310
9094410100000000000000000000
330
14A8
330
14A9
330
14AA
330
14AB
330
14AC
330
14AD
330
14AE
330
14AF
330
14B0
 94
        0
  0
ACAD_ZOMBIE_OBJECT
  5
14A1
102
{ACAD_REACTORS
330
C
102
}
100
AcDbZombieObject
 90
      499
 91
      504
 93
       34
310
0100004054
 94
        0
  0
ACAD_ZOMBIE_OBJECT
  5
14DD
102
{ACAD_REACTORS
330
C
102
}
100
AcDbZombieObject
 90
      499
 91
      527
 93
       58
310
0100004180000012
330
14E3
330
14E9
330
14E4
 94
        0
  0
ACAD_ZOMBIE_OBJECT
  5
14D8
102
{ACAD_REACTORS
330
C
102
}
100
AcDbZombieObject
 90
      499
 91
      510
 93
       64
310
9044410100000000FF
330
14D9
330
14DA
330
14DB
330
14DC
 94
        0
  0
MLINESTYLE
  5
13
102
{ACAD_REACTORS
330
E
102
}
100
AcDbMlineStyle
  2
STANDARD
 70
     0
  3

 62
     0
 51
90.0
 52
90.0
 71
     2
 49
0.5
 62
   256
  6
BYLAYER
 49
-0.5
 62
   256
  6
BYLAYER
  0
ACAD_ZOMBIE_OBJECT
  5
14EC
100
AcDbZombieObject
 90
      499
 91
      534
 93
      720
310
9064D2E312E313607014B7269BC41100000000000000E03F1EC52B91F85EA10FE1EC52B91F85EA10FD034153471EC52B91F85EA10FC000000FC83D797414650540C000000000000E03F3F2A7C749358940FC000000FC83D797414F
 94
        0
  0
ACAD_ZOMBIE_OBJECT
  5
14A3
100
AcDbZombieObject
 90
      499
 91
      506
 93
      280
310
000000000000014119185D1940506462E312E3136014119185D1940506462E312E313600
330
149D
330
14A4
330
14A5
330
14A7
330
14B2
 94
        0
  0
ACAD_ZOMBIE_OBJECT
  5
14A4
100
AcDbZombieObject
 90
      499
 91
      507
 93
      120
310
00009024410100000092080002A6A600
330
149D
330
14B3
330
14B4
330
0
 94
        0
  0
ACAD_ZOMBIE_OBJECT
  5
14A5
100
AcDbZombieObject
 90
      499
 91
      508
 93
       46
310
000000009208
330
149D
330
0
330
14A6
 94
        0
  0
ACAD_ZOMBIE_OBJECT
  5
14A6
100
AcDbZombieObject
 90
      499
 91
      509
 93
       22
310
0000A8
330
149D
 94
        0
  0
ACAD_ZOMBIE_OBJECT
  5
14A8
100
AcDbZombieObject
 90
      499
 91
      511
 93
      124
310
00000142905350D3D39114D414D69050
330
149D
 94
        0
  0
ACAD_ZOMBIE_OBJECT
  5
14A9
100
AcDbZombieObject
 90
      499
 91
      511
 93
      124
310
000001429053549553115353D1115010
330
149D
 94
        0
  0
ACAD_ZOMBIE_OBJECT
  5
14AA
100
AcDbZombieObject
 90
      499
 91
      511
 93
      108
310
00000142105354D2D353D1115010
330
149D
 94
        0
  0
ACAD_ZOMBIE_OBJECT
  5
14AB
100
AcDbZombieObject
 90
      499
 91
      511
 93
      140
310
000001435053511253511254D41353D11160
330
149D
 94
        0
  0
ACAD_ZOMBIE_OBJECT
  5
14AC
100
AcDbZombieObject
 90
      499
 91
      512
 93
      180
310
00000142905354D2D05391D513D3000000000000010400
330
149D
 94
        0
  0
ACAD_ZOMBIE_OBJECT
  5
14AD
100
AcDbZombieObject
 90
      499
 91
      513
 93
      164
310
00000142505354D2D4D516531140505434F4E542A0
330
149D
 94
        0
  0
ACAD_ZOMBIE_OBJECT
  5
14AE
100
AcDbZombieObject
 90
      499
 91
      511
 93
      108
310
00000142105350D3511112535010
330
149D
 94
        0
  0
ACAD_ZOMBIE_OBJECT
  5
14AF
100
AcDbZombieObject
 90
      499
 91
      513
 93
      116
310
000001425053541054919253114060
330
149D
 94
        0
  0
ACAD_ZOMBIE_OBJECT
  5
14B0
100
AcDbZombieObject
 90
      499
 91
      511
 93
      100
310
00000142105350D3D35414D5A0
330
149D
 94
        0
  0
ACAD_ZOMBIE_OBJECT
  5
14B3
100
AcDbZombieObject
 90
      499
 91
      516
 93
      164
310
000092090148200A00000440000FFFFFFFF0000000
330
149D
330
14B4
330
14A4
330
14B2
 94
        0
  0
ACAD_ZOMBIE_OBJECT
  5
14B4
100
AcDbZombieObject
 90
      499
 91
      517
 93
       82
310
000040520802482A800000
330
149D
330
14B3
330
14A4
330
14B2
 94
        0
  0
ACAD_ZOMBIE_OBJECT
  5
14B5
100
AcDbZombieObject
 90
      499
 91
      509
 93
       22
310
0000AB
330
149D
 94
        0
  0
ACAD_ZOMBIE_OBJECT
  5
14B6
100
AcDbZombieObject
 90
      499
 91
      518
 93
       38
310
0000009208
330
149D
330
0
 94
        0
  0
ACAD_ZOMBIE_OBJECT
  5
14B7
100
AcDbZombieObject
 90
      499
 91
      519
 93
     3196
310
0000419208050A544852555F4452494C4C0142D09312539117D1149253130050A544852555F43424F52450142D09312539117D0D093D4914050A544852555F4353494E4B0142D09312539117D0D4D25392D0648201459EC94958C8094950535112504815121493D551D20B9F4051C7B252563202525414D444941205820252
310
5414D44455020444545507D014F5EC94958C8094950535112504815121493D551D20B9F57141ED0D093D49148094958C80949505350D112504816080949505350D091115408111151541F405437B252563202525414D4449412058202525414D44455020444545507D5C507B43424F524520252563202525414D4344494120
310
58202525414D434244455020444545507D014EDEC94958C8094950535112504815121493D551D20B9F57141ED0D4D25392C8094958C80949505350D112504816080949505350D4D05391C949591F405417B252563202525414D4449412058202525414D44455020444545507D5C507B4353494E4B20252563202525414D434
310
449412058202525414D4353414E472525647D2
330
149D
 94
        0
  0
ACAD_ZOMBIE_OBJECT
  5
14BA
100
AcDbZombieObject
 90
      499
 91
      522
 93
      308
310
0000014119185D1940507442E312E313663014119185D1940507442E312E313663405010000004
330
149D
330
14BB
330
14BD
330
14BE
 94
        0
  0
ACAD_ZOMBIE_OBJECT
  5
14BB
100
AcDbZombieObject
 90
      499
 91
      523
 93
       56
310
0000901441010090
330
149D
330
14BC
 94
        0
  0
ACAD_ZOMBIE_OBJECT
  5
14BC
100
AcDbZombieObject
 90
      499
 91
      524
 93
       40
310
0000A4410153
330
149D
 94
        0
  0
ACAD_ZOMBIE_OBJECT
  5
14BD
100
AcDbZombieObject
 90
      499
 91
      525
 93
       68
310
0000A44101920A4820
330
149D
 94
        0
  0
ACAD_ZOMBIE_OBJECT
  5
14BF
100
AcDbZombieObject
 90
      499
 91
      511
 93
      108
310
000001421053521310D05310D010
330
149D
 94
        0
  0
ACAD_ZOMBIE_OBJECT
  5
14C0
100
AcDbZombieObject
 90
      499
 91
      511
 93
      124
310
000001429053541493D2951654115013
330
149D
 94
        0
  0
ACAD_ZOMBIE_OBJECT
  5
14C1
100
AcDbZombieObject
 90
      499
 91
      511
 93
      124
310
00000142905354915554D15112535010
330
149D
 94
        0
  0
ACAD_ZOMBIE_OBJECT
  5
14C2
100
AcDbZombieObject
 90
      499
 91
      511
 93
      132
310
00000143105354D150D51253D391125366
330
149D
 94
        0
  0
ACAD_ZOMBIE_OBJECT
  5
14C3
100
AcDbZombieObject
 90
      499
 91
      511
 93
      124
310
00000142905355941093D49111549010
330
149D
 94
        0
  0
ACAD_ZOMBIE_OBJECT
  5
14C4
100
AcDbZombieObject
 90
      499
 91
      513
 93
      180
310
00000142905352125113151654114050648494444454E1
330
149D
 94
        0
  0
ACAD_ZOMBIE_OBJECT
  5
14C6
100
AcDbZombieObject
 90
      499
 91
      513
 93
      196
310
00000142905354D150D315165411405085048414E544F4D320
330
149D
 94
        0
  0
ACAD_ZOMBIE_OBJECT
  5
14C7
100
AcDbZombieObject
 90
      499
 91
      511
 93
      108
310
00000142105354D51114D0D51021
330
149D
 94
        0
  0
ACAD_ZOMBIE_OBJECT
  5
14C8
100
AcDbZombieObject
 90
      499
 91
      511
 93
      108
310
00000142105354D5111510541021
330
149D
 94
        0
  0
ACAD_ZOMBIE_OBJECT
  5
14C9
100
AcDbZombieObject
 90
      499
 91
      511
 93
      108
310
00000142105354D5111115131021
330
149D
 94
        0
  0
ACAD_ZOMBIE_OBJECT
  5
14CA
100
AcDbZombieObject
 90
      499
 91
      512
 93
      148
310
00000141905350D310D34295C8FC2F528BC3F4
330
149D
 94
        0
  0
ACAD_ZOMBIE_OBJECT
  5
14CB
100
AcDbZombieObject
 90
      499
 91
      512
 93
      156
310
00000141D05350D311D05402B8716D9CEF7C33F4
330
149D
 94
        0
  0
ACAD_ZOMBIE_OBJECT
  5
14CC
100
AcDbZombieObject
 90
      499
 91
      512
 93
      164
310
00000142105350D313D4D2150295C8FC2F528BC3F0
330
149D
 94
        0
  0
ACAD_ZOMBIE_OBJECT
  5
14CD
100
AcDbZombieObject
 90
      499
 91
      511
 93
      100
310
00000141D05350D31410549018
330
149D
 94
        0
  0
ACAD_ZOMBIE_OBJECT
  5
14CE
100
AcDbZombieObject
 90
      499
 91
      511
 93
      100
310
0000014210535590539254D222
330
149D
 94
        0
  0
ACAD_ZOMBIE_OBJECT
  5
14CF
100
AcDbZombieObject
 90
      499
 91
      512
 93
      188
310
00000142D0535312539155121250D2C295C8FC2F5289C3F4
330
149D
 94
        0
  0
ACAD_ZOMBIE_OBJECT
  5
14D0
100
AcDbZombieObject
 90
      499
 91
      513
 93
      164
310
00000142105350D3151654114050643454E5445520
330
149D
 94
        0
  0
ACAD_ZOMBIE_OBJECT
  5
14D9
100
AcDbZombieObject
 90
      499
 91
      511
 93
      132
310
00000142D05050555513D4D3D315915010
330
149D
 94
        0
  0
ACAD_ZOMBIE_OBJECT
  5
14DA
100
AcDbZombieObject
 90
      499
 91
      511
 93
      156
310
00000143905050555513D054D4D1535093115010
330
149D
 94
        0
  0
ACAD_ZOMBIE_OBJECT
  5
14DB
100
AcDbZombieObject
 90
      499
 91
      511
 93
      148
310
00000143505055925155D49154D513D4915016
330
149D
 94
        0
  0
ACAD_ZOMBIE_OBJECT
  5
14DC
100
AcDbZombieObject
 90
      499
 91
      511
 93
      124
310
00000142D050525394D15495105094E0
330
149D
 94
        0
  0
ACAD_ZOMBIE_OBJECT
  5
14E1
100
AcDbZombieObject
 90
      499
 91
      528
 93
       32
310
0000000007
330
149D
340
14DE
330
14E2
330
14DE
 94
        0
  0
ACAD_ZOMBIE_OBJECT
  5
14E2
100
AcDbZombieObject
 90
      499
 91
      529
 93
      143
310
00000142130CCB5153910C0C90400522080D
330
149D
330
14E1
 94
        0
  0
ACAD_ZOMBIE_OBJECT
  5
14E3
100
AcDbZombieObject
 90
      499
 91
      530
 93
       72
310
000000A44101A4410162
330
149D
330
14E2
 94
        0
  0
ACAD_ZOMBIE_OBJECT
  5
14E4
100
AcDbZombieObject
 90
      499
 91
      531
 93
       80
310
000090144101000000006D
330
149D
330
14E5
330
14E5
330
14E5
330
14E5
 94
        0
  0
ACAD_ZOMBIE_OBJECT
  5
14E5
100
AcDbZombieObject
 90
      499
 91
      532
 93
      173
310
00000000406AAAAAAAAAAAAAAAAA806A44101A441010
330
149D
330
14E4
330
14E2
 94
        0
  0
ACAD_ZOMBIE_OBJECT
  5
14E9
100
AcDbZombieObject
 90
      499
 91
      533
 93
       26
310
00008016
330
149D
330
0
 94
        0
  0
ENDSEC
  0
EOF
