  0
SECTION
  2
HEADER
  9
$ACADVER
  1
AC1012
  9
$DWGCODEPAGE
  3
ansi_1252
  9
$INSBASE
 10
-132.798612
 20
7.108952
 30
0.0
  9
$EXTMIN
 10
25.4
 20
15.875
 30
0.0
  9
$EXTMAX
 10
813.97907
 20
519.368925
 30
0.0
  9
$LIMMIN
 10
0.0
 20
0.0
  9
$LIMMAX
 10
814.0
 20
534.0
  9
$ORTHOMODE
 70
     1
  9
$REGENMODE
 70
     1
  9
$FILLMODE
 70
     0
  9
$QTEXTMODE
 70
     0
  9
$MIRRTEXT
 70
     1
  9
$DRAGMODE
 70
     2
  9
$LTSCALE
 40
10.0
  9
$OSMODE
 70
     0
  9
$ATTMODE
 70
     1
  9
$TEXTSIZE
 40
3.0
  9
$TRACEWID
 40
0.05
  9
$TEXTSTYLE
  7
STANDARD
  9
$CLAYER
  8
KEVLAR
  9
$CELTYPE
  6
BYLAYER
  9
$CECOLOR
 62
   256
  9
$CELTSCALE
 40
1.0
  9
$DELOBJ
 70
     1
  9
$DISPSILH
 70
     0
  9
$DIMSCALE
 40
10.0
  9
$DIMASZ
 40
0.18
  9
$DIMEXO
 40
0.0625
  9
$DIMDLI
 40
0.38
  9
$DIMRND
 40
0.0
  9
$DIMDLE
 40
0.0
  9
$DIMEXE
 40
0.18
  9
$DIMTP
 40
0.05
  9
$DIMTM
 40
0.0
  9
$DIMTXT
 40
0.3
  9
$DIMCEN
 40
0.09
  9
$DIMTSZ
 40
0.0
  9
$DIMTOL
 70
     1
  9
$DIMLIM
 70
     0
  9
$DIMTIH
 70
     1
  9
$DIMTOH
 70
     1
  9
$DIMSE1
 70
     0
  9
$DIMSE2
 70
     1
  9
$DIMTAD
 70
     0
  9
$DIMZIN
 70
     0
  9
$DIMBLK
  1

  9
$DIMASO
 70
     1
  9
$DIMSHO
 70
     1
  9
$DIMPOST
  1
mm
  9
$DIMAPOST
  1
"
  9
$DIMALT
 70
     1
  9
$DIMALTD
 70
     3
  9
$DIMALTF
 40
0.03937
  9
$DIMLFAC
 40
0.2
  9
$DIMTOFL
 70
     0
  9
$DIMTVP
 40
0.0
  9
$DIMTIX
 70
     0
  9
$DIMSOXD
 70
     0
  9
$DIMSAH
 70
     0
  9
$DIMBLK1
  1

  9
$DIMBLK2
  1

  9
$DIMSTYLE
  2
STANDARD
  9
$DIMCLRD
 70
     0
  9
$DIMCLRE
 70
     0
  9
$DIMCLRT
 70
     0
  9
$DIMTFAC
 40
1.0
  9
$DIMGAP
 40
0.09
  9
$DIMJUST
 70
     0
  9
$DIMSD1
 70
     0
  9
$DIMSD2
 70
     0
  9
$DIMTOLJ
 70
     1
  9
$DIMTZIN
 70
     0
  9
$DIMALTZ
 70
     0
  9
$DIMALTTZ
 70
     0
  9
$DIMFIT
 70
     0
  9
$DIMUPT
 70
     0
  9
$DIMUNIT
 70
     2
  9
$DIMDEC
 70
     2
  9
$DIMTDEC
 70
     2
  9
$DIMALTU
 70
     2
  9
$DIMALTTD
 70
     3
  9
$DIMTXSTY
  7
STANDARD
  9
$DIMAUNIT
 70
     0
  9
$LUNITS
 70
     2
  9
$LUPREC
 70
     4
  9
$SKETCHINC
 40
0.1
  9
$FILLETRAD
 40
2.0
  9
$AUNITS
 70
     0
  9
$AUPREC
 70
     0
  9
$MENU
  1
c:/cim/acad
  9
$ELEVATION
 40
0.0
  9
$PELEVATION
 40
0.0
  9
$THICKNESS
 40
0.0
  9
$LIMCHECK
 70
     0
  9
$BLIPMODE
 70
     1
  9
$CHAMFERA
 40
0.0
  9
$CHAMFERB
 40
0.0
  9
$CHAMFERC
 40
0.0
  9
$CHAMFERD
 40
0.0
  9
$SKPOLY
 70
     0
  9
$TDCREATE
 40
2449877.706174537
  9
$TDUPDATE
 40
2450458.463160058
  9
$TDINDWG
 40
1.0158937037
  9
$TDUSRTIMER
 40
1.0158937037
  9
$USRTIMER
 70
     1
  9
$ANGBASE
 50
0.0
  9
$ANGDIR
 70
     0
  9
$PDMODE
 70
    34
  9
$PDSIZE
 40
5.0
  9
$PLINEWID
 40
0.0
  9
$COORDS
 70
     1
  9
$SPLFRAME
 70
     0
  9
$SPLINETYPE
 70
     6
  9
$SPLINESEGS
 70
     8
  9
$ATTDIA
 70
     0
  9
$ATTREQ
 70
     1
  9
$HANDLING
 70
     1
  9
$HANDSEED
  5
1C35
  9
$SURFTAB1
 70
     6
  9
$SURFTAB2
 70
     6
  9
$SURFTYPE
 70
     6
  9
$SURFU
 70
     6
  9
$SURFV
 70
     6
  9
$UCSNAME
  2
CIM_TB_HOLD
  9
$UCSORG
 10
0.0
 20
0.0
 30
0.0
  9
$UCSXDIR
 10
1.0
 20
0.0
 30
0.0
  9
$UCSYDIR
 10
0.0
 20
1.0
 30
0.0
  9
$PUCSNAME
  2

  9
$PUCSORG
 10
0.0
 20
0.0
 30
0.0
  9
$PUCSXDIR
 10
1.0
 20
0.0
 30
0.0
  9
$PUCSYDIR
 10
0.0
 20
1.0
 30
0.0
  9
$USERI1
 70
     0
  9
$USERI2
 70
     0
  9
$USERI3
 70
     0
  9
$USERI4
 70
     0
  9
$USERI5
 70
     0
  9
$USERR1
 40
0.0
  9
$USERR2
 40
0.0
  9
$USERR3
 40
0.0
  9
$USERR4
 40
0.0
  9
$USERR5
 40
0.0
  9
$WORLDVIEW
 70
     1
  9
$SHADEDGE
 70
     3
  9
$SHADEDIF
 70
    70
  9
$TILEMODE
 70
     1
  9
$MAXACTVP
 70
    16
  9
$PINSBASE
 10
0.0
 20
0.0
 30
0.0
  9
$PLIMCHECK
 70
     0
  9
$PEXTMIN
 10
1.000000E+20
 20
1.000000E+20
 30
1.000000E+20
  9
$PEXTMAX
 10
-1.000000E+20
 20
-1.000000E+20
 30
-1.000000E+20
  9
$PLIMMIN
 10
0.0
 20
0.0
  9
$PLIMMAX
 10
12.0
 20
9.0
  9
$UNITMODE
 70
     0
  9
$VISRETAIN
 70
     0
  9
$PLINEGEN
 70
     0
  9
$PSLTSCALE
 70
     1
  9
$TREEDEPTH
 70
  3020
  9
$PICKSTYLE
 70
     1
  9
$CMLSTYLE
  2
STANDARD
  9
$CMLJUST
 70
     0
  9
$CMLSCALE
 40
1.0
  9
$SAVEIMAGES
 70
     0
  0
ENDSEC
  0
SECTION
  2
CLASSES
  0
CLASS
  1
OLEFRAME
  2
AcDbOleFrame
  3
""
 90
        0
280
     0
281
     1
  0
CLASS
  1
ACMESCOPE
  2
AcMeScope
  3
ACME_MODULE_NAME
 90
        0
280
     0
281
     0
  0
CLASS
  1
ACMECOMMANDHISTORY
  2
AcMeCommandHistory
  3
ACME_MODULE_NAME
 90
        0
280
     0
281
     0
  0
CLASS
  1
AcRfInsAdjusterMgr
  2
AcRfInsAdjusterMgr
  3
ACME_MODULE_NAME
 90
        0
280
     0
281
     0
  0
CLASS
  1
ACGREFMASTER
  2
AcGrefMaster
  3
"AcadRfServer"
 90
        0
280
     0
281
     0
  0
CLASS
  1
AmiMaster
  2
AmiMaster
  3
"AmiServices"
 90
        0
280
     0
281
     0
  0
CLASS
  1
ACASGREFMASTER
  2
AcAsGrefMaster
  3
"AutoSurfResolver"
 90
        0
280
     0
281
     0
  0
CLASS
  1
ADAPPL
  2
AcAdAppl
  3
"DesignerServices"
 90
        0
280
     0
281
     0
  0
CLASS
  1
DEPMGR
  2
AcAdDepMgr
  3
"DesignerServices"
 90
        0
280
     0
281
     0
  0
CLASS
  1
PARAMMGR
  2
AcAdParamMgr
  3
"DesignerServices"
 90
        0
280
     0
281
     0
  0
CLASS
  1
PARAMSCOPE
  2
AcAdParamScope
  3
"DesignerServices"
 90
        0
280
     0
281
     0
  0
CLASS
  1
"IM_SYSVAR_MAN"
  2
AcImSysVarManager
  3
"ADAM"
 90
        0
280
     0
281
     0
  0
CLASS
  1
SYSTEM_VAR_INT
  2
AcImIntSysVar
  3
"ADAM"
 90
        0
280
     0
281
     0
  0
CLASS
  1
SYSTEM_VAR_REAL
  2
AcImRealSysVar
  3
"ADAM"
 90
        0
280
     0
281
     0
  0
CLASS
  1
SYSTEM_VAR_STR
  2
AcImStrSysVar
  3
"ADAM"
 90
        0
280
     0
281
     0
  0
CLASS
  1
NAMEDAPPL
  2
AcAdNamedAppl
  3
"DesignerServices"
 90
        0
280
     0
281
     0
  0
CLASS
  1
ADPART
  2
AcAdPart
  3
"DesignerServices"
 90
        0
280
     0
281
     1
  0
CLASS
  1
ADBASE
  2
AcAdBase
  3
"DesignerServices"
 90
        0
280
     0
281
     0
  0
CLASS
  1
BODYID
  2
AcAdBodyId
  3
"DesignerServices"
 90
        0
280
     0
281
     0
  0
CLASS
  1
WORKPLANEDISPLAYMGR
  2
AcAdDisplayMgr
  3
"DesignerServices"
 90
        0
280
     0
281
     0
  0
CLASS
  1
ADHNTMPLT
  2
AdHoleNoteTemplateMgr
  3
"DesignerServices"
 90
        0
280
     0
281
     0
  0
CLASS
  1
AM_HNTEMPLATE_MGR_NAME
  2
AdHoleNoteTemplateMgrName
  3
"DesignerServices"
 90
        0
280
     0
281
     0
  0
CLASS
  1
AcAdGrefModule
  2
AcAdGrefModule
  3
AD_GREF_SERVICES_NSTR
 90
        0
280
     0
281
     0
  0
CLASS
  1
AM_DRAWING_MGR
  2
AcDmDwgMgr
  3
"Designer_Drawing_Mgmt"
 90
        0
280
     0
281
     0
  0
CLASS
  1
AM_DWG_DOCUMENT
  2
AcDmDwgDocument
  3
"Designer_Drawing_Mgmt"
 90
        0
280
     0
281
     0
  0
CLASS
  1
AM_DWG_SHEET
  2
AcDmSheet
  3
"Designer_Drawing_Mgmt"
 90
        0
280
     0
281
     0
  0
CLASS
  1
AM_VIEWDIMPARMAP
  2
AcDmViewDimParMap
  3
"Designer_Drawing_Mgmt"
 90
        0
280
     0
281
     0
  0
CLASS
  1
AM_DWGMGR_NAME
  2
AcDmDwgMgrName
  3
"Designer_Drawing_Mgmt"
 90
        0
280
     0
281
     0
  0
CLASS
  1
ACAMPROJECT
  2
AcAmProject
  3
"DesignerAssemblies"
 90
        0
280
     0
281
     0
  0
CLASS
  1
ACAMGRCOMPDEF
  2
AcAmGrCompDef
  3
"DesignerAssemblies"
 90
        0
280
     0
281
     0
  0
CLASS
  1
ACAMCOMPDEF
  2
AcAmCompDef
  3
"DesignerAssemblies"
 90
        0
280
     0
281
     0
  0
CLASS
  1
ACAMCOMPDEFMGR
  2
AcAmCompDefMgr
  3
"DesignerAssemblies"
 90
        0
280
     0
281
     0
  0
CLASS
  1
AMCONTEXTMGR
  2
AcAmContextMgr
  3
"DesignerAssemblies"
 90
        0
280
     0
281
     0
  0
CLASS
  1
AcAmContextModeler
  2
AcAmContextModeler
  3
"DesignerAssemblies"
 90
        0
280
     0
281
     0
  0
CLASS
  1
ACAMDRAWINGMAN
  2
AcAmDrawingMan
  3
"DesignerAssemblies"
 90
        0
280
     0
281
     0
  0
CLASS
  1
ASSYSVARS
  2
AcAsSysVars
  3
"AutoSurf"
 90
        0
280
     0
281
     0
  0
CLASS
  1
ASSTATICVARS
  2
AcAsStaticVars
  3
"AutoSurf"
 90
        0
280
     0
281
     0
  0
CLASS
  1
ASAPP
  2
AcAsAppObject
  3
"AutoSurf"
 90
        0
280
     0
281
     0
  0
CLASS
  1
AGDICTIONARY
  2
AgDictionary
  3
"AccelView"
 90
        1
280
     0
281
     0
  0
CLASS
  1
ACRFATTGENMGR
  2
AcRfAttGeneralMgr
  3
"AcadRfServer"
 90
        0
280
     0
281
     0
  0
ENDSEC
  0
SECTION
  2
TABLES
  0
TABLE
  2
VPORT
  5
12
100
AcDbSymbolTable
 70
     2
  0
VPORT
  5
1C34
100
AcDbSymbolTableRecord
100
AcDbViewportTableRecord
  2
*ACTIVE
 70
     0
 10
0.0
 20
0.0
 11
1.0
 21
1.0
 12
449.49533
 22
267.621963
 13
0.0
 23
0.0
 14
1.0
 24
1.0
 15
10.0
 25
10.0
 16
0.0
 26
0.0
 36
1.0
 17
0.0
 27
0.0
 37
0.0
 40
503.702277
 41
1.684575
 42
50.0
 43
0.0
 44
0.0
 50
0.0
 51
0.0
 71
     0
 72
   100
 73
     1
 74
     0
 75
     0
 76
     0
 77
     0
 78
     0
  0
ENDTAB
  0
TABLE
  2
LTYPE
  5
E
100
AcDbSymbolTable
 70
     6
  0
LTYPE
  5
F
100
AcDbSymbolTableRecord
100
AcDbLinetypeTableRecord
  2
BYBLOCK
 70
     0
  3

 72
    65
 73
     0
 40
0.0
  0
LTYPE
  5
9
100
AcDbSymbolTableRecord
100
AcDbLinetypeTableRecord
  2
BYLAYER
 70
     0
  3

 72
    65
 73
     0
 40
0.0
  0
LTYPE
  5
A
100
AcDbSymbolTableRecord
100
AcDbLinetypeTableRecord
  2
CONTINUOUS
 70
    64
  3
Solid line
 72
    65
 73
     0
 40
0.0
  0
LTYPE
  5
39
100
AcDbSymbolTableRecord
100
AcDbLinetypeTableRecord
  2
CENTER
 70
    64
  3
____ _ ____ _ ____ _ ____ _ ____ _ ____ _ ____ 
 72
    65
 73
     4
 40
2.0
 49
1.25
 74
     0
 49
-0.25
 74
     0
 49
0.25
 74
     0
 49
-0.25
 74
     0
  0
LTYPE
  5
3B
100
AcDbSymbolTableRecord
100
AcDbLinetypeTableRecord
  2
HIDDEN
 70
    64
  3
__ __ __ __ __ __ __ __ __ __ __ __ __ __ __ __
 72
    65
 73
     2
 40
0.375
 49
0.25
 74
     0
 49
-0.125
 74
     0
  0
LTYPE
  5
1849
100
AcDbSymbolTableRecord
100
AcDbLinetypeTableRecord
  2
PHANTOM2
 70
     0
  3
___ _ _ ___ _ _ ___ _ _ ___ _ _ ___ _ _ ___ _ _
 72
    65
 73
     6
 40
1.25
 49
0.625
 74
     0
 49
-0.125
 74
     0
 49
0.125
 74
     0
 49
-0.125
 74
     0
 49
0.125
 74
     0
 49
-0.125
 74
     0
  0
LTYPE
  5
1873
100
AcDbSymbolTableRecord
100
AcDbLinetypeTableRecord
  2
ASULTYPE
 70
     0
  3
Solid line
 72
    65
 73
     2
 40
3.0
 49
2.5
 74
     0
 49
0.5
 74
     0
  0
LTYPE
  5
1874
100
AcDbSymbolTableRecord
100
AcDbLinetypeTableRecord
  2
ASVLTYPE
 70
     0
  3
__ __ __ __ __ __ __ __ __ __ __ __ __ __ __ __ __ __ __ __ __
 72
    65
 73
     2
 40
0.75
 49
0.5
 74
     0
 49
-0.25
 74
     0
  0
ENDTAB
  0
TABLE
  2
LAYER
  5
B
100
AcDbSymbolTable
 70
    20
  0
LAYER
  5
8
100
AcDbSymbolTableRecord
100
AcDbLayerTableRecord
  2
0
 70
    65
 62
     7
  6
CONTINUOUS
  0
LAYER
  5
1B
100
AcDbSymbolTableRecord
100
AcDbLayerTableRecord
  2
KEVLAR
 70
    64
 62
     7
  6
CONTINUOUS
  0
LAYER
  5
38
100
AcDbSymbolTableRecord
100
AcDbLayerTableRecord
  2
CENTER
 70
    64
 62
     1
  6
CENTER
  0
LAYER
  5
3A
100
AcDbSymbolTableRecord
100
AcDbLayerTableRecord
  2
HIDDEN
 70
    64
 62
     7
  6
HIDDEN
  0
LAYER
  5
44
100
AcDbSymbolTableRecord
100
AcDbLayerTableRecord
  2
DIM
 70
    64
 62
     3
  6
CONTINUOUS
  0
LAYER
  5
156
100
AcDbSymbolTableRecord
100
AcDbLayerTableRecord
  2
DEFPOINTS
 70
    64
 62
     7
  6
CONTINUOUS
  0
LAYER
  5
34C
100
AcDbSymbolTableRecord
100
AcDbLayerTableRecord
  2
TEXT
 70
    64
 62
     7
  6
CONTINUOUS
  0
LAYER
  5
34D
100
AcDbSymbolTableRecord
100
AcDbLayerTableRecord
  2
BORDER
 70
    64
 62
     6
  6
CONTINUOUS
  0
LAYER
  5
D2C
100
AcDbSymbolTableRecord
100
AcDbLayerTableRecord
  2
FOOT
 70
    64
 62
     1
  6
CONTINUOUS
  0
LAYER
  5
1765
100
AcDbSymbolTableRecord
100
AcDbLayerTableRecord
  2
REDTEXT
 70
    64
 62
     1
  6
CONTINUOUS
  0
LAYER
  5
1857
100
AcDbSymbolTableRecord
100
AcDbLayerTableRecord
  2
AM_VIEWS
 70
     0
 62
    -7
  6
CONTINUOUS
  0
LAYER
  5
1858
100
AcDbSymbolTableRecord
100
AcDbLayerTableRecord
  2
AM_PARDIM
 70
     0
 62
     3
  6
CONTINUOUS
  0
LAYER
  5
1859
100
AcDbSymbolTableRecord
100
AcDbLayerTableRecord
  2
AM_REFDIM
 70
     0
 62
     4
  6
CONTINUOUS
  0
LAYER
  5
185A
100
AcDbSymbolTableRecord
100
AcDbLayerTableRecord
  2
AM_VIS
 70
     0
 62
     7
  6
CONTINUOUS
  0
LAYER
  5
185B
100
AcDbSymbolTableRecord
100
AcDbLayerTableRecord
  2
AM_HID
 70
    64
 62
     7
  6
HIDDEN
  0
LAYER
  5
186A
100
AcDbSymbolTableRecord
100
AcDbLayerTableRecord
  2
AM_TR
 70
     0
 62
     7
  6
CONTINUOUS
  0
LAYER
  5
186B
100
AcDbSymbolTableRecord
100
AcDbLayerTableRecord
  2
AM_BM
 70
     0
 62
     7
  6
CONTINUOUS
  0
LAYER
  5
186C
100
AcDbSymbolTableRecord
100
AcDbLayerTableRecord
  2
AM_BL
 70
     0
 62
     7
  6
CONTINUOUS
  0
LAYER
  5
1AF8
100
AcDbSymbolTableRecord
100
AcDbLayerTableRecord
  2
C-FIBER
 70
    64
 62
     5
  6
CONTINUOUS
  0
LAYER
  5
1C13
100
AcDbSymbolTableRecord
100
AcDbLayerTableRecord
  2
ASHADE
 70
    68
 62
     7
  6
CONTINUOUS
  0
ENDTAB
  0
TABLE
  2
STYLE
  5
C
100
AcDbSymbolTable
 70
     4
  0
STYLE
  5
D
100
AcDbSymbolTableRecord
100
AcDbTextStyleTableRecord
  2
STANDARD
 70
    64
 40
0.0
 41
1.0
 50
0.0
 71
     0
 42
3.0
  3
txt
  4

  0
STYLE
  5
3D
100
AcDbSymbolTableRecord
100
AcDbTextStyleTableRecord
  2
CIM_TB
 70
    64
 40
0.0
 41
1.0
 50
0.0
 71
     0
 42
0.2
  3
romans
  4

  0
STYLE
  5
34E
100
AcDbSymbolTableRecord
100
AcDbTextStyleTableRecord
  2
ADESK2
 70
    64
 40
0.0
 41
1.0
 50
0.0
 71
     0
 42
0.065
  3
romans
  4

  0
STYLE
  5
1C10
100
AcDbSymbolTableRecord
100
AcDbTextStyleTableRecord
  2
ASHADE
 70
    64
 40
0.2
 41
1.0
 50
0.0
 71
     0
 42
3.0
  3
simplex
  4

  0
ENDTAB
  0
TABLE
  2
VIEW
  5
10
100
AcDbSymbolTable
 70
     0
  0
ENDTAB
  0
TABLE
  2
UCS
  5
11
100
AcDbSymbolTable
 70
     1
  0
UCS
  5
48
100
AcDbSymbolTableRecord
100
AcDbUCSTableRecord
  2
CIM_TB_HOLD
 70
     0
 10
0.0
 20
0.0
 30
0.0
 11
1.0
 21
0.0
 31
0.0
 12
0.0
 22
1.0
 32
0.0
  0
ENDTAB
  0
TABLE
  2
APPID
  5
14
100
AcDbSymbolTable
 70
    11
  0
APPID
  5
15
100
AcDbSymbolTableRecord
100
AcDbRegAppTableRecord
  2
ACAD
 70
     0
  0
APPID
  5
37
100
AcDbSymbolTableRecord
100
AcDbRegAppTableRecord
  2
TB_S_MPD
 70
     0
  0
APPID
  5
1856
100
AcDbSymbolTableRecord
100
AcDbRegAppTableRecord
  2
AD_DRAW
 70
     0
  0
APPID
  5
186E
100
AcDbSymbolTableRecord
100
AcDbRegAppTableRecord
  2
DESIGNERASSEMBLIES
 70
     0
  0
APPID
  5
186F
100
AcDbSymbolTableRecord
100
AcDbRegAppTableRecord
  2
MCAD_NO_VIS
 70
     0
  0
APPID
  5
1875
100
AcDbSymbolTableRecord
100
AcDbRegAppTableRecord
  2
ASURF_PCURVE_APPNAME
 70
     0
  0
APPID
  5
1C11
100
AcDbSymbolTableRecord
100
AcDbRegAppTableRecord
  2
AVE_RENDER
 70
     0
  0
APPID
  5
1C12
100
AcDbSymbolTableRecord
100
AcDbRegAppTableRecord
  2
AVE_ENTITY_MATERIAL
 70
     0
  0
APPID
  5
1C1F
100
AcDbSymbolTableRecord
100
AcDbRegAppTableRecord
  2
AVE_FINISH
 70
     0
  0
APPID
  5
1C20
100
AcDbSymbolTableRecord
100
AcDbRegAppTableRecord
  2
AVE_MATERIAL
 70
     0
  0
APPID
  5
1C21
100
AcDbSymbolTableRecord
100
AcDbRegAppTableRecord
  2
AVE_GLOBAL
 70
     0
  0
ENDTAB
  0
TABLE
  2
DIMSTYLE
  5
16
100
AcDbSymbolTable
 70
     2
  0
DIMSTYLE
105
1C
100
AcDbSymbolTableRecord
100
AcDbDimStyleTableRecord
  2
STANDARD
 70
     0
  3

  4

  5

  6

  7

 40
1.0
 41
0.18
 42
0.0625
 43
0.38
 44
0.18
 45
0.0
 46
0.0
 47
0.0
 48
0.0
140
0.18
141
0.09
142
0.0
143
25.4
144
1.0
145
0.0
146
1.0
147
0.09
 71
     0
 72
     0
 73
     1
 74
     1
 75
     0
 76
     0
 77
     0
 78
     0
170
     0
171
     2
172
     0
173
     0
174
     0
175
     0
176
     0
177
     0
178
     0
270
     2
271
     4
272
     4
273
     2
274
     2
340
D
275
     0
280
     0
281
     0
282
     0
283
     1
284
     0
285
     0
286
     0
287
     3
288
     0
  0
DIMSTYLE
105
EB6
100
AcDbSymbolTableRecord
100
AcDbDimStyleTableRecord
  2
SU1
 70
     0
  3

  4

  5

  6

  7

 40
1.0
 41
0.18
 42
0.0625
 43
0.38
 44
0.18
 45
0.0
 46
0.0
 47
0.001
 48
0.0
140
0.18
141
0.09
142
0.0
143
25.4
144
1.0
145
0.0
146
1.0
147
0.09
 71
     0
 72
     0
 73
     1
 74
     1
 75
     0
 76
     0
 77
     0
 78
     0
170
     0
171
     2
172
     0
173
     0
174
     0
175
     0
176
     0
177
     0
178
     0
270
     2
271
     3
272
     3
273
     2
274
     2
340
D
275
     0
280
     0
281
     0
282
     0
283
     1
284
     0
285
     0
286
     0
287
     0
288
     0
  0
ENDTAB
  0
TABLE
  2
BLOCK_RECORD
  5
1
100
AcDbSymbolTable
 70
    35
  0
BLOCK_RECORD
  5
2
100
AcDbSymbolTableRecord
100
AcDbBlockTableRecord
  2
*MODEL_SPACE
  0
BLOCK_RECORD
  5
3
100
AcDbSymbolTableRecord
100
AcDbBlockTableRecord
  2
*PAPER_SPACE
  0
BLOCK_RECORD
  5
34F
100
AcDbSymbolTableRecord
100
AcDbBlockTableRecord
  2
C-BORDER
  0
BLOCK_RECORD
  5
388
100
AcDbSymbolTableRecord
100
AcDbBlockTableRecord
  2
BEAMS-1
  0
BLOCK_RECORD
  5
D2D
100
AcDbSymbolTableRecord
100
AcDbBlockTableRecord
  2
FT-L2-B
  0
BLOCK_RECORD
  5
D3B
100
AcDbSymbolTableRecord
100
AcDbBlockTableRecord
  2
FT-L2-F
  0
BLOCK_RECORD
  5
D5E
100
AcDbSymbolTableRecord
100
AcDbBlockTableRecord
  2
*D4
  0
BLOCK_RECORD
  5
1506
100
AcDbSymbolTableRecord
100
AcDbBlockTableRecord
  2
*D5
  0
BLOCK_RECORD
  5
1582
100
AcDbSymbolTableRecord
100
AcDbBlockTableRecord
  2
D-BORDER
  0
BLOCK_RECORD
  5
1862
100
AcDbSymbolTableRecord
100
AcDbBlockTableRecord
  2
*U7
  0
BLOCK_RECORD
  5
1898
100
AcDbSymbolTableRecord
100
AcDbBlockTableRecord
  2
*D8
  0
BLOCK_RECORD
  5
18A6
100
AcDbSymbolTableRecord
100
AcDbBlockTableRecord
  2
*D9
  0
BLOCK_RECORD
  5
18B4
100
AcDbSymbolTableRecord
100
AcDbBlockTableRecord
  2
*D10
  0
BLOCK_RECORD
  5
18C2
100
AcDbSymbolTableRecord
100
AcDbBlockTableRecord
  2
*D11
  0
BLOCK_RECORD
  5
18D0
100
AcDbSymbolTableRecord
100
AcDbBlockTableRecord
  2
*D12
  0
BLOCK_RECORD
  5
18DE
100
AcDbSymbolTableRecord
100
AcDbBlockTableRecord
  2
*D13
  0
BLOCK_RECORD
  5
1934
100
AcDbSymbolTableRecord
100
AcDbBlockTableRecord
  2
*D14
  0
BLOCK_RECORD
  5
1972
100
AcDbSymbolTableRecord
100
AcDbBlockTableRecord
  2
*D15
  0
BLOCK_RECORD
  5
197F
100
AcDbSymbolTableRecord
100
AcDbBlockTableRecord
  2
*D16
  0
BLOCK_RECORD
  5
198C
100
AcDbSymbolTableRecord
100
AcDbBlockTableRecord
  2
*D17
  0
BLOCK_RECORD
  5
1999
100
AcDbSymbolTableRecord
100
AcDbBlockTableRecord
  2
*D18
  0
BLOCK_RECORD
  5
19A6
100
AcDbSymbolTableRecord
100
AcDbBlockTableRecord
  2
*D19
  0
BLOCK_RECORD
  5
19B3
100
AcDbSymbolTableRecord
100
AcDbBlockTableRecord
  2
*D20
  0
BLOCK_RECORD
  5
19C0
100
AcDbSymbolTableRecord
100
AcDbBlockTableRecord
  2
*D21
  0
BLOCK_RECORD
  5
1A04
100
AcDbSymbolTableRecord
100
AcDbBlockTableRecord
  2
*D22
  0
BLOCK_RECORD
  5
1A1E
100
AcDbSymbolTableRecord
100
AcDbBlockTableRecord
  2
*D23
  0
BLOCK_RECORD
  5
1A38
100
AcDbSymbolTableRecord
100
AcDbBlockTableRecord
  2
*D24
  0
BLOCK_RECORD
  5
1A8D
100
AcDbSymbolTableRecord
100
AcDbBlockTableRecord
  2
*D25
  0
BLOCK_RECORD
  5
1A9A
100
AcDbSymbolTableRecord
100
AcDbBlockTableRecord
  2
*D26
  0
BLOCK_RECORD
  5
1AA7
100
AcDbSymbolTableRecord
100
AcDbBlockTableRecord
  2
*D27
  0
BLOCK_RECORD
  5
1ACA
100
AcDbSymbolTableRecord
100
AcDbBlockTableRecord
  2
*D28
  0
BLOCK_RECORD
  5
1AFB
100
AcDbSymbolTableRecord
100
AcDbBlockTableRecord
  2
*D29
  0
BLOCK_RECORD
  5
1B09
100
AcDbSymbolTableRecord
100
AcDbBlockTableRecord
  2
*D30
  0
BLOCK_RECORD
  5
1B2F
100
AcDbSymbolTableRecord
100
AcDbBlockTableRecord
  2
*D31
  0
BLOCK_RECORD
  5
1B3D
100
AcDbSymbolTableRecord
100
AcDbBlockTableRecord
  2
*D32
  0
BLOCK_RECORD
  5
1C14
100
AcDbSymbolTableRecord
100
AcDbBlockTableRecord
  2
AVE_RENDER
  0
BLOCK_RECORD
  5
1C22
100
AcDbSymbolTableRecord
100
AcDbBlockTableRecord
  2
AVE_GLOBAL
  0
ENDTAB
  0
ENDSEC
  0
SECTION
  2
BLOCKS
  0
BLOCK
  5
4
100
AcDbEntity
  8
0
100
AcDbBlockBegin
  2
*MODEL_SPACE
 70
     0
 10
0.0
 20
0.0
 30
0.0
  3
*MODEL_SPACE
  1

  0
ENDBLK
  5
5
100
AcDbEntity
  8
0
100
AcDbBlockEnd
  0
BLOCK
  5
6
100
AcDbEntity
 67
     1
  8
0
100
AcDbBlockBegin
  2
*PAPER_SPACE
 70
     0
 10
0.0
 20
0.0
 30
0.0
  3
*PAPER_SPACE
  1

  0
ENDBLK
  5
7
100
AcDbEntity
 67
     1
  8
0
100
AcDbBlockEnd
  0
BLOCK
  5
385
100
AcDbEntity
  8
TEXT
100
AcDbBlockBegin
  2
C-BORDER
 70
     0
 10
0.0
 20
0.0
 30
0.0
  3
C-BORDER
  1

  0
LINE
  5
EB7
100
AcDbEntity
  8
TEXT
100
AcDbLine
 10
0.5
 20
14.875
 30
0.0
 11
3.0625
 21
14.875
 31
0.0
  0
LINE
  5
EB8
100
AcDbEntity
  8
TEXT
100
AcDbLine
 10
3.0625
 20
14.875
 30
0.0
 11
3.0625
 21
15.375
 31
0.0
  0
CIRCLE
  5
EB9
100
AcDbEntity
  8
TEXT
100
AcDbCircle
 10
1.177871
 20
15.111461
 30
0.0
 40
0.1875
  0
CIRCLE
  5
EBA
100
AcDbEntity
  8
TEXT
100
AcDbCircle
 10
1.177871
 20
15.111461
 30
0.0
 40
0.09375
  0
LINE
  5
EBB
100
AcDbEntity
  8
TEXT
  6
CENTER
100
AcDbLine
 10
0.943951
 20
15.111461
 30
0.0
 11
2.396621
 21
15.111461
 31
0.0
  0
LINE
  5
EBC
100
AcDbEntity
  8
TEXT
  6
CENTER
100
AcDbLine
 10
1.177871
 20
14.882779
 30
0.0
 11
1.177871
 21
15.350656
 31
0.0
  0
LINE
  5
EBD
100
AcDbEntity
  8
TEXT
100
AcDbLine
 10
1.646621
 20
15.205211
 30
0.0
 11
2.131263
 21
15.298961
 31
0.0
  0
LINE
  5
EBE
100
AcDbEntity
  8
TEXT
100
AcDbLine
 10
1.646621
 20
15.017711
 30
0.0
 11
2.131263
 21
14.923961
 31
0.0
  0
LINE
  5
EBF
100
AcDbEntity
  8
TEXT
100
AcDbLine
 10
1.646621
 20
15.017711
 30
0.0
 11
1.646621
 21
15.205211
 31
0.0
  0
LINE
  5
EC0
100
AcDbEntity
  8
TEXT
100
AcDbLine
 10
2.131263
 20
15.298961
 30
0.0
 11
2.131263
 21
14.923961
 31
0.0
  0
TEXT
  5
EC1
100
AcDbEntity
  8
TEXT
100
AcDbText
 10
0.6875
 20
14.689828
 30
0.0
 40
0.1
  1
THIRD ANGLE PROJECTION
100
AcDbText
  0
LINE
  5
EC2
100
AcDbEntity
  8
TEXT
100
AcDbLine
 10
3.0625
 20
14.875
 30
0.0
 11
3.0625
 21
14.625
 31
0.0
  0
LINE
  5
EC3
100
AcDbEntity
  8
TEXT
100
AcDbLine
 10
3.0625
 20
14.625
 30
0.0
 11
0.5
 21
14.625
 31
0.0
  0
TEXT
  5
EC4
100
AcDbEntity
  8
TEXT
100
AcDbText
 10
15.40792
 20
1.861505
 30
0.0
 40
0.065
  1
  %%P 0.5%%D
  7
ADESK2
100
AcDbText
  0
TEXT
  5
EC5
100
AcDbEntity
  8
TEXT
100
AcDbText
 10
15.40792
 20
1.966743
 30
0.0
 40
0.065
  1
ANGULAR
  7
ADESK2
100
AcDbText
  0
TEXT
  5
EC6
100
AcDbEntity
  8
TEXT
100
AcDbText
 10
14.61466
 20
1.653744
 30
0.0
 40
0.065
  1
DO NOT SCALE DRAWING
  7
ADESK2
 72
     1
 11
15.229065
 21
1.653744
 31
0.0
100
AcDbText
  0
TEXT
  5
EC7
100
AcDbEntity
  8
TEXT
100
AcDbText
 10
14.544023
 20
1.756267
 30
0.0
 40
0.065
  1
.XXX %%P .005
  7
ADESK2
100
AcDbText
  0
TEXT
  5
EC8
100
AcDbEntity
  8
TEXT
100
AcDbText
 10
14.544023
 20
1.861505
 30
0.0
 40
0.065
  1
.XX  %%P .05
  7
ADESK2
100
AcDbText
  0
TEXT
  5
EC9
100
AcDbEntity
  8
TEXT
100
AcDbText
 10
14.544023
 20
1.966743
 30
0.0
 40
0.065
  1
DECIMALS
  7
ADESK2
100
AcDbText
  0
TEXT
  5
ECA
100
AcDbEntity
  8
TEXT
100
AcDbText
 10
14.930374
 20
2.074613
 30
0.0
 40
0.065
  1
TOLERANCES
  7
ADESK2
 72
     1
 11
15.229065
 21
2.074613
 31
0.0
100
AcDbText
  0
TEXT
  5
ECB
100
AcDbEntity
  8
TEXT
100
AcDbText
 10
14.532636
 20
2.179851
 30
0.0
 40
0.065
  1
DIMENSIONS ARE IN INCHES
  7
ADESK2
 72
     1
 11
15.229065
 21
2.179851
 31
0.0
100
AcDbText
  0
TEXT
  5
ECC
100
AcDbEntity
  8
TEXT
100
AcDbText
 10
14.458351
 20
2.285089
 30
0.0
 40
0.065
  1
UNLESS OTHERWISE SPECIFIED:
  7
ADESK2
 72
     1
 11
15.229065
 21
2.285089
 31
0.0
100
AcDbText
  0
TEXT
  5
ECD
100
AcDbEntity
  8
BORDER
100
AcDbText
 10
16.916608
 20
2.075566
 30
0.0
 40
0.15
  1
HIGH ENERGY PHYSICS
100
AcDbText
  0
LINE
  5
ECE
100
AcDbEntity
  8
BORDER
100
AcDbLine
 10
0.5
 20
15.375
 30
0.0
 11
20.5
 21
15.375
 31
0.0
  0
TEXT
  5
ECF
100
AcDbEntity
  8
TEXT
100
AcDbText
 10
16.680137
 20
1.165354
 30
0.0
 40
0.075
  1
DIRECTORY
100
AcDbText
  0
TEXT
  5
ED0
100
AcDbEntity
  8
BORDER
100
AcDbText
 10
16.367704
 20
0.951962
 30
0.0
 40
0.15
  1
C
100
AcDbText
  0
LINE
  5
ED1
100
AcDbEntity
  8
BORDER
100
AcDbLine
 10
0.5
 20
0.625
 30
0.0
 11
20.5
 21
0.625
 31
0.0
  0
LINE
  5
ED2
100
AcDbEntity
  8
BORDER
100
AcDbLine
 10
0.5
 20
15.375
 30
0.0
 11
0.5
 21
0.625
 31
0.0
  0
LINE
  5
ED3
100
AcDbEntity
  8
BORDER
100
AcDbLine
 10
20.5
 20
0.625
 30
0.0
 11
20.5
 21
15.375
 31
0.0
  0
LINE
  5
ED4
100
AcDbEntity
  8
BORDER
100
AcDbLine
 10
14.228025
 20
2.824147
 30
0.0
 11
20.500862
 21
2.824147
 31
0.0
  0
TEXT
  5
ED5
100
AcDbEntity
  8
BORDER
100
AcDbText
 10
14.407029
 20
2.549228
 30
0.0
 40
0.15
  1
UNIVERSITY OF CALIFORNIA @ SANTA BARBARA
100
AcDbText
  0
TEXT
  5
ED6
100
AcDbEntity
  8
TEXT
100
AcDbText
 10
14.297375
 20
1.479964
 30
0.0
 40
0.065
  1
DRAWN
  7
ADESK2
100
AcDbText
  0
LINE
  5
ED7
100
AcDbEntity
  8
BORDER
100
AcDbLine
 10
14.229065
 20
0.625
 30
0.0
 11
14.229065
 21
2.824147
 31
0.0
  0
LINE
  5
ED8
100
AcDbEntity
  8
BORDER
100
AcDbLine
 10
14.229065
 20
2.401501
 30
0.0
 11
20.500862
 21
2.401501
 31
0.0
  0
LINE
  5
ED9
100
AcDbEntity
  8
TEXT
100
AcDbLine
 10
14.229065
 20
0.966501
 30
0.0
 11
16.229065
 21
0.966501
 31
0.0
  0
LINE
  5
EDA
100
AcDbEntity
  8
TEXT
100
AcDbLine
 10
14.229065
 20
1.281501
 30
0.0
 11
20.500862
 21
1.281501
 31
0.0
  0
LINE
  5
EDB
100
AcDbEntity
  8
TEXT
100
AcDbLine
 10
16.229065
 20
0.901501
 30
0.0
 11
20.500862
 21
0.901501
 31
0.0
  0
LINE
  5
EDC
100
AcDbEntity
  8
BORDER
100
AcDbLine
 10
16.229065
 20
1.901501
 30
0.0
 11
20.500862
 21
1.901501
 31
0.0
  0
LINE
  5
EDD
100
AcDbEntity
  8
BORDER
100
AcDbLine
 10
16.229065
 20
0.625
 30
0.0
 11
16.229065
 21
2.401501
 31
0.0
  0
LINE
  5
EDE
100
AcDbEntity
  8
TEXT
100
AcDbLine
 10
17.229065
 20
0.625
 30
0.0
 11
17.229065
 21
0.901501
 31
0.0
  0
LINE
  5
EDF
100
AcDbEntity
  8
TEXT
100
AcDbLine
 10
18.729065
 20
0.625
 30
0.0
 11
18.729065
 21
0.901501
 31
0.0
  0
LINE
  5
EE0
100
AcDbEntity
  8
TEXT
100
AcDbLine
 10
16.609065
 20
0.901501
 30
0.0
 11
16.609065
 21
1.281501
 31
0.0
  0
LINE
  5
EE1
100
AcDbEntity
  8
TEXT
100
AcDbLine
 10
17.729065
 20
0.901501
 30
0.0
 11
17.729065
 21
1.281501
 31
0.0
  0
LINE
  5
EE2
100
AcDbEntity
  8
TEXT
100
AcDbLine
 10
20.099065
 20
0.901501
 30
0.0
 11
20.099065
 21
1.281501
 31
0.0
  0
TEXT
  5
EE3
100
AcDbEntity
  8
TEXT
100
AcDbText
 10
16.281365
 20
0.744001
 30
0.0
 40
0.065
  1
SCALE
  7
ADESK2
100
AcDbText
  0
TEXT
  5
EE4
100
AcDbEntity
  8
TEXT
100
AcDbText
 10
18.781865
 20
0.744001
 30
0.0
 40
0.065
  1
SHEET
  7
ADESK2
100
AcDbText
  0
TEXT
  5
EE5
100
AcDbEntity
  8
TEXT
100
AcDbText
 10
16.316965
 20
1.167401
 30
0.0
 40
0.065
  1
SIZE
  7
ADESK2
100
AcDbText
  0
TEXT
  5
EE6
100
AcDbEntity
  8
TEXT
100
AcDbText
 10
17.800065
 20
1.167401
 30
0.0
 40
0.065
  1
DWG NO.
  7
ADESK2
100
AcDbText
  0
TEXT
  5
EE7
100
AcDbEntity
  8
TEXT
100
AcDbText
 10
20.179565
 20
1.167401
 30
0.0
 40
0.065
  1
REV
  7
ADESK2
100
AcDbText
  0
LINE
  5
EE8
100
AcDbEntity
  8
TEXT
100
AcDbLine
 10
15.445694
 20
15.018795
 30
0.0
 11
20.5
 21
15.018795
 31
0.0
  0
LINE
  5
EE9
100
AcDbEntity
  8
TEXT
100
AcDbLine
 10
15.445694
 20
14.768795
 30
0.0
 11
20.5
 21
14.768795
 31
0.0
  0
LINE
  5
EEA
100
AcDbEntity
  8
TEXT
100
AcDbLine
 10
15.445694
 20
15.328859
 30
0.0
 11
15.445694
 21
14.768795
 31
0.0
  0
LINE
  5
EEB
100
AcDbEntity
  8
TEXT
100
AcDbLine
 10
15.835946
 20
14.768795
 30
0.0
 11
15.835946
 21
15.018795
 31
0.0
  0
LINE
  5
EEC
100
AcDbEntity
  8
TEXT
100
AcDbLine
 10
18.575946
 20
14.768795
 30
0.0
 11
18.575946
 21
15.018795
 31
0.0
  0
LINE
  5
EED
100
AcDbEntity
  8
TEXT
100
AcDbLine
 10
19.455946
 20
14.768795
 30
0.0
 11
19.455946
 21
15.018795
 31
0.0
  0
TEXT
  5
EEE
100
AcDbEntity
  8
TEXT
100
AcDbText
 10
17.666146
 20
15.101295
 30
0.0
 40
0.065
  1
REVISIONS
  7
ADESK2
100
AcDbText
  0
TEXT
  5
EEF
100
AcDbEntity
  8
TEXT
100
AcDbText
 10
15.536046
 20
14.859095
 30
0.0
 40
0.065
  1
REV
  7
ADESK2
100
AcDbText
  0
TEXT
  5
EF0
100
AcDbEntity
  8
TEXT
100
AcDbText
 10
16.837946
 20
14.859095
 30
0.0
 40
0.065
  1
DESCRIPTION
  7
ADESK2
100
AcDbText
  0
TEXT
  5
EF1
100
AcDbEntity
  8
TEXT
100
AcDbText
 10
18.903646
 20
14.859095
 30
0.0
 40
0.065
  1
DATE
  7
ADESK2
100
AcDbText
  0
TEXT
  5
EF2
100
AcDbEntity
  8
TEXT
100
AcDbText
 10
19.697346
 20
14.859095
 30
0.0
 40
0.065
  1
APPROVED
  7
ADESK2
100
AcDbText
  0
LINE
  5
EF3
100
AcDbEntity
  8
TEXT
100
AcDbLine
 10
14.229065
 20
1.591501
 30
0.0
 11
16.229065
 21
1.591501
 31
0.0
  0
TEXT
  5
EF4
100
AcDbEntity
  8
TEXT
100
AcDbText
 10
14.309065
 20
1.171501
 30
0.0
 40
0.065
  1
CHECKED
  7
ADESK2
100
AcDbText
  0
TEXT
  5
EF5
100
AcDbEntity
  8
TEXT
100
AcDbText
 10
14.309065
 20
0.856501
 30
0.0
 40
0.065
  1
DESIGN
  7
ADESK2
100
AcDbText
  0
LINE
  5
EF6
100
AcDbEntity
  8
TEXT
100
AcDbLine
 10
15.729049
 20
1.591501
 30
0.0
 11
15.729049
 21
0.625
 31
0.0
  0
TEXT
  5
EF7
100
AcDbEntity
  8
TEXT
100
AcDbText
 10
15.852468
 20
1.474951
 30
0.0
 40
0.065
  1
DATE
  7
ADESK2
100
AcDbText
  0
TEXT
  5
EF8
100
AcDbEntity
  8
TEXT
100
AcDbText
 10
19.612036
 20
0.744377
 30
0.0
 40
0.065
  1
OF
  7
ADESK2
100
AcDbText
  0
ENDBLK
  5
386
100
AcDbEntity
  8
TEXT
100
AcDbBlockEnd
  0
BLOCK
  5
3D6
100
AcDbEntity
  8
TEXT
100
AcDbBlockBegin
  2
BEAMS-1
 70
     0
 10
0.0
 20
0.0
 30
0.0
  3
BEAMS-1
  1

  0
LINE
  5
110F
100
AcDbEntity
  8
KEVLAR
100
AcDbLine
 10
102.68
 20
39.6468
 30
0.0
 11
102.68
 21
33.225
 31
0.0
1001
ACAD
1000
ASC_BOUNDS
1002
{
1070
    19
1002
}
  0
LINE
  5
1110
100
AcDbEntity
  8
KEVLAR
100
AcDbLine
 10
-102.632579
 20
65.280019
 30
0.0
 11
-92.145
 21
59.225
 31
0.0
1001
ACAD
1000
ASC_BOUNDS
1002
{
1070
    19
1002
}
  0
LINE
  5
1111
100
AcDbEntity
  8
KEVLAR
100
AcDbLine
 10
-60.761749
 20
39.6468
 30
0.0
 11
102.68
 21
39.6468
 31
0.0
1001
ACAD
1000
ASC_BOUNDS
1002
{
1070
    19
1002
}
  0
LINE
  5
1112
100
AcDbEntity
  8
KEVLAR
100
AcDbLine
 10
-119.337293
 20
51.10099
 30
0.0
 11
-119.337293
 21
54.566523
 31
0.0
1001
ACAD
1000
ASC_BOUNDS
1002
{
1070
    19
1002
}
  0
LINE
  5
1113
100
AcDbEntity
  8
KEVLAR
100
AcDbLine
 10
-117.337293
 20
56.566523
 30
0.0
 11
155.164462
 21
56.566523
 31
0.0
1001
ACAD
1000
ASC_BOUNDS
1002
{
1070
    19
1002
}
  0
LINE
  5
1114
100
AcDbEntity
  8
KEVLAR
100
AcDbLine
 10
-119.337293
 20
51.10099
 30
0.0
 11
-79.982659
 21
51.100949
 31
0.0
1001
ACAD
1000
ASC_BOUNDS
1002
{
1070
    19
1002
}
  0
LINE
  5
1115
100
AcDbEntity
  8
KEVLAR
100
AcDbLine
 10
157.164462
 20
51.100951
 30
0.0
 11
157.164462
 21
54.566523
 31
0.0
  0
LINE
  5
1116
100
AcDbEntity
  8
KEVLAR
100
AcDbLine
 10
-61.145
 20
40.225
 30
0.0
 11
-28.7075
 21
40.225
 31
0.0
1001
ACAD
1000
ASC_BOUNDS
1002
{
1070
    19
1002
}
  0
LINE
  5
1117
100
AcDbEntity
  8
KEVLAR
100
AcDbLine
 10
157.164462
 20
51.100951
 30
0.0
 11
123.572637
 21
51.100951
 31
0.0
1001
ACAD
1000
ASC_BOUNDS
1002
{
1070
    19
1002
}
  0
LINE
  5
1118
100
AcDbEntity
  8
KEVLAR
100
AcDbLine
 10
102.68
 20
40.225
 30
0.0
 11
123.572637
 21
51.100951
 31
0.0
1001
ACAD
1000
ASC_BOUNDS
1002
{
1070
    19
1002
}
  0
LINE
  5
1119
100
AcDbEntity
  8
KEVLAR
100
AcDbLine
 10
-60.761749
 20
39.6468
 30
0.0
 11
-49.145
 21
33.225
 31
0.0
1001
ACAD
1000
ASC_BOUNDS
1002
{
1070
    19
1005
0
1002
}
  0
LINE
  5
111A
100
AcDbEntity
  8
KEVLAR
100
AcDbLine
 10
43.052726
 20
40.225
 30
0.0
 11
43.052726
 21
40.225
 31
0.0
  0
LINE
  5
111B
100
AcDbEntity
  8
KEVLAR
100
AcDbLine
 10
59.177726
 20
40.225
 30
0.0
 11
59.177726
 21
40.225
 31
0.0
  0
LINE
  5
111C
100
AcDbEntity
  8
KEVLAR
100
AcDbLine
 10
-26.7075
 20
42.225
 30
0.0
 11
-22.7075
 21
42.225
 31
0.0
1001
ACAD
1000
ASC_BOUNDS
1002
{
1070
    19
1002
}
  0
LINE
  5
111D
100
AcDbEntity
  8
KEVLAR
100
AcDbLine
 10
-20.7075
 20
40.225
 30
0.0
 11
62.2425
 21
40.225
 31
0.0
1001
ACAD
1000
ASC_BOUNDS
1002
{
1070
    19
1005
0
1005
0
1002
}
  0
ARC
  5
111E
100
AcDbEntity
  8
KEVLAR
100
AcDbCircle
 10
-26.7075
 20
40.225
 30
0.0
 40
2.0
100
AcDbArc
 50
90.0
 51
180.0
1001
ACAD
1000
ASC_BOUNDS
1002
{
1070
    19
1002
}
  0
ARC
  5
111F
100
AcDbEntity
  8
KEVLAR
100
AcDbCircle
 10
-22.7075
 20
40.225
 30
0.0
 40
2.0
100
AcDbArc
 50
0.0
 51
90.0
1001
ACAD
1000
ASC_BOUNDS
1002
{
1070
    19
1002
}
  0
LINE
  5
1120
100
AcDbEntity
  8
KEVLAR
100
AcDbLine
 10
-13.7075
 20
35.225
 30
0.0
 11
-17.7075
 21
35.225
 31
0.0
1001
ACAD
1000
ASC_BOUNDS
1002
{
1070
    19
1002
}
  0
LINE
  5
1121
100
AcDbEntity
  8
KEVLAR
100
AcDbLine
 10
-19.7075
 20
33.225
 30
0.0
 11
-49.145
 21
33.225
 31
0.0
1001
ACAD
1000
ASC_BOUNDS
1002
{
1070
    19
1002
}
  0
ARC
  5
1122
100
AcDbEntity
  8
KEVLAR
100
AcDbCircle
 10
-13.7075
 20
33.225
 30
0.0
 40
2.0
100
AcDbArc
 50
0.0
 51
90.0
1001
ACAD
1000
ASC_BOUNDS
1002
{
1070
    19
1002
}
  0
ARC
  5
1123
100
AcDbEntity
  8
KEVLAR
100
AcDbCircle
 10
-17.7075
 20
33.225
 30
0.0
 40
2.0
100
AcDbArc
 50
90.0
 51
180.0
1001
ACAD
1000
ASC_BOUNDS
1002
{
1070
    19
1002
}
  0
LINE
  5
1124
100
AcDbEntity
  8
KEVLAR
100
AcDbLine
 10
47.081321
 20
33.225
 30
0.0
 11
47.081321
 21
33.225
 31
0.0
  0
LINE
  5
1125
100
AcDbEntity
  8
KEVLAR
100
AcDbLine
 10
63.086321
 20
33.225
 30
0.0
 11
63.086321
 21
33.225
 31
0.0
  0
LINE
  5
1126
100
AcDbEntity
  8
KEVLAR
100
AcDbLine
 10
102.68
 20
33.225
 30
0.0
 11
73.2425
 21
33.225
 31
0.0
1001
ACAD
1000
ASC_BOUNDS
1002
{
1070
    19
1002
}
  0
LINE
  5
1127
100
AcDbEntity
  8
KEVLAR
100
AcDbLine
 10
-149.262862
 20
65.280019
 30
0.0
 11
-149.262862
 21
77.225
 31
0.0
  0
LINE
  5
1128
100
AcDbEntity
  8
KEVLAR
100
AcDbLine
 10
-149.262862
 20
65.280019
 30
0.0
 11
-102.632579
 21
65.280019
 31
0.0
  0
LINE
  5
1129
100
AcDbEntity
  8
KEVLAR
100
AcDbLine
 10
-79.982659
 20
51.100949
 30
0.0
 11
-61.145
 21
40.225
 31
0.0
1001
ACAD
1000
ASC_BOUNDS
1002
{
1070
    19
1002
}
  0
LINE
  5
112A
100
AcDbEntity
  8
KEVLAR
100
AcDbLine
 10
153.63
 20
59.225
 30
0.0
 11
153.63
 21
60.049127
 31
0.0
  0
LINE
  5
112B
100
AcDbEntity
  8
KEVLAR
100
AcDbLine
 10
155.63
 20
62.049127
 30
0.0
 11
174.203512
 21
62.049127
 31
0.0
  0
ARC
  5
112C
100
AcDbEntity
  8
KEVLAR
100
AcDbCircle
 10
155.63
 20
60.049127
 30
0.0
 40
2.0
100
AcDbArc
 50
90.0
 51
180.0
  0
LINE
  5
112D
100
AcDbEntity
  8
KEVLAR
100
AcDbLine
 10
114.6925
 20
59.225
 30
0.0
 11
78.7175
 21
59.225
 31
0.0
  0
LINE
  5
112E
100
AcDbEntity
  8
KEVLAR
100
AcDbLine
 10
192.098017
 20
79.225
 30
0.0
 11
-147.262862
 21
79.225
 31
0.0
  0
ARC
  5
112F
100
AcDbEntity
  8
KEVLAR
100
AcDbCircle
 10
-147.262862
 20
77.225
 30
0.0
 40
2.0
100
AcDbArc
 50
90.0
 51
180.0
  0
ARC
  5
1130
100
AcDbEntity
  8
KEVLAR
100
AcDbCircle
 10
-117.337293
 20
54.566523
 30
0.0
 40
2.0
100
AcDbArc
 50
90.0
 51
180.0
1001
ACAD
1000
ASC_BOUNDS
1002
{
1070
    19
1002
}
  0
ARC
  5
1131
100
AcDbEntity
  8
KEVLAR
100
AcDbCircle
 10
155.164462
 20
54.566523
 30
0.0
 40
2.0
100
AcDbArc
 50
0.0
 51
90.0
  0
LINE
  5
1132
100
AcDbEntity
  8
KEVLAR
100
AcDbLine
 10
-55.2075
 20
61.225
 30
0.0
 11
-59.2075
 21
61.225
 31
0.0
  0
LINE
  5
1133
100
AcDbEntity
  8
KEVLAR
100
AcDbLine
 10
-61.2075
 20
59.225
 30
0.0
 11
-61.2075
 21
59.225
 31
0.0
  0
LINE
  5
1134
100
AcDbEntity
  8
KEVLAR
100
AcDbLine
 10
-53.2075
 20
59.225
 30
0.0
 11
-53.2075
 21
59.225
 31
0.0
  0
LINE
  5
1135
100
AcDbEntity
  8
KEVLAR
100
AcDbLine
 10
-61.2075
 20
59.225
 30
0.0
 11
-92.145
 21
59.225
 31
0.0
  0
ARC
  5
1136
100
AcDbEntity
  8
KEVLAR
100
AcDbCircle
 10
-55.2075
 20
59.225
 30
0.0
 40
2.0
100
AcDbArc
 50
0.0
 51
90.0
  0
ARC
  5
1137
100
AcDbEntity
  8
KEVLAR
100
AcDbCircle
 10
-59.2075
 20
59.225
 30
0.0
 40
2.0
100
AcDbArc
 50
90.0
 51
180.0
  0
ARC
  5
1138
100
AcDbEntity
  8
KEVLAR
100
AcDbCircle
 10
-11.2325
 20
59.225
 30
0.0
 40
2.0
100
AcDbArc
 50
0.0
 51
90.0
  0
LINE
  5
1139
100
AcDbEntity
  8
KEVLAR
100
AcDbLine
 10
-11.2325
 20
61.225
 30
0.0
 11
-15.2325
 21
61.225
 31
0.0
  0
ARC
  5
113A
100
AcDbEntity
  8
KEVLAR
100
AcDbCircle
 10
-15.2325
 20
59.225
 30
0.0
 40
2.0
100
AcDbArc
 50
90.0
 51
180.0
  0
ARC
  5
113B
100
AcDbEntity
  8
KEVLAR
100
AcDbCircle
 10
76.7175
 20
59.225
 30
0.0
 40
2.0
100
AcDbArc
 50
0.0
 51
90.0
  0
LINE
  5
113C
100
AcDbEntity
  8
KEVLAR
100
AcDbLine
 10
76.7175
 20
61.225
 30
0.0
 11
72.7175
 21
61.225
 31
0.0
  0
ARC
  5
113D
100
AcDbEntity
  8
KEVLAR
100
AcDbCircle
 10
72.7175
 20
59.225
 30
0.0
 40
2.0
100
AcDbArc
 50
90.0
 51
180.0
  0
ARC
  5
113E
100
AcDbEntity
  8
KEVLAR
100
AcDbCircle
 10
116.6925
 20
59.225
 30
0.0
 40
2.0
100
AcDbArc
 50
90.0
 51
180.0
  0
LINE
  5
113F
100
AcDbEntity
  8
KEVLAR
100
AcDbLine
 10
120.6925
 20
61.225
 30
0.0
 11
116.6925
 21
61.225
 31
0.0
  0
ARC
  5
1140
100
AcDbEntity
  8
KEVLAR
100
AcDbCircle
 10
120.6925
 20
59.225
 30
0.0
 40
2.0
100
AcDbArc
 50
0.0
 51
90.0
  0
LINE
  5
1141
100
AcDbEntity
  8
KEVLAR
100
AcDbLine
 10
122.6925
 20
59.225
 30
0.0
 11
153.63
 21
59.225
 31
0.0
  0
LINE
  5
1142
100
AcDbEntity
  8
KEVLAR
100
AcDbLine
 10
70.7175
 20
59.225
 30
0.0
 11
-9.2325
 21
59.225
 31
0.0
  0
LINE
  5
1143
100
AcDbEntity
  8
KEVLAR
100
AcDbLine
 10
-17.2325
 20
59.225
 30
0.0
 11
-53.2075
 21
59.225
 31
0.0
  0
LINE
  5
1144
100
AcDbEntity
  8
KEVLAR
100
AcDbLine
 10
174.203512
 20
62.049127
 30
0.0
 11
211.080959
 21
75.507877
 31
0.0
  0
LINE
  5
1145
100
AcDbEntity
  8
KEVLAR
100
AcDbLine
 10
211.080959
 20
75.507877
 30
0.0
 11
208.338254
 21
83.022985
 31
0.0
  0
LINE
  5
1146
100
AcDbEntity
  8
KEVLAR
100
AcDbLine
 10
205.773786
 20
84.216093
 30
0.0
 11
192.098017
 21
79.225
 31
0.0
  0
ARC
  5
1147
100
AcDbEntity
  8
KEVLAR
100
AcDbCircle
 10
206.459467
 20
82.337305
 30
0.0
 40
2.0
100
AcDbArc
 50
20.05
 51
110.05
  0
LINE
  5
1148
100
AcDbEntity
  8
KEVLAR
100
AcDbLine
 10
71.2425
 20
35.225
 30
0.0
 11
67.2425
 21
35.225
 31
0.0
1001
ACAD
1000
ASC_BOUNDS
1002
{
1070
    19
1002
}
  0
ARC
  5
1149
100
AcDbEntity
  8
KEVLAR
100
AcDbCircle
 10
67.2425
 20
33.225
 30
0.0
 40
2.0
100
AcDbArc
 50
90.0
 51
180.0
1001
ACAD
1000
ASC_BOUNDS
1002
{
1070
    19
1002
}
  0
ARC
  5
114A
100
AcDbEntity
  8
KEVLAR
100
AcDbCircle
 10
71.2425
 20
33.225
 30
0.0
 40
2.0
100
AcDbArc
 50
0.0
 51
90.0
1001
ACAD
1000
ASC_BOUNDS
1002
{
1070
    19
1002
}
  0
ARC
  5
114B
100
AcDbEntity
  8
KEVLAR
100
AcDbCircle
 10
64.2425
 20
40.225
 30
0.0
 40
2.0
100
AcDbArc
 50
90.0
 51
180.0
1001
ACAD
1000
ASC_BOUNDS
1002
{
1070
    19
1002
}
  0
ARC
  5
114C
100
AcDbEntity
  8
KEVLAR
100
AcDbCircle
 10
68.2425
 20
40.225
 30
0.0
 40
2.0
100
AcDbArc
 50
0.0
 51
90.0
1001
ACAD
1000
ASC_BOUNDS
1002
{
1070
    19
1002
}
  0
LINE
  5
114D
100
AcDbEntity
  8
KEVLAR
100
AcDbLine
 10
64.2425
 20
42.225
 30
0.0
 11
68.2425
 21
42.225
 31
0.0
1001
ACAD
1000
ASC_BOUNDS
1002
{
1070
    19
1002
}
  0
LINE
  5
114E
100
AcDbEntity
  8
KEVLAR
100
AcDbLine
 10
65.2425
 20
33.225
 30
0.0
 11
-11.7075
 21
33.225
 31
0.0
1001
ACAD
1000
ASC_BOUNDS
1002
{
1070
    19
1002
}
  0
LINE
  5
114F
100
AcDbEntity
  8
KEVLAR
100
AcDbLine
 10
70.2425
 20
40.225
 30
0.0
 11
102.68
 21
40.225
 31
0.0
1001
ACAD
1000
ASC_BOUNDS
1002
{
1070
    19
1005
0
1005
0
1002
}
  0
CIRCLE
  5
1150
100
AcDbEntity
  8
KEVLAR
100
AcDbCircle
 10
116.0
 20
52.0
 30
0.0
 40
1.5875
  0
CIRCLE
  5
1151
100
AcDbEntity
  8
KEVLAR
100
AcDbCircle
 10
100.0
 20
44.0
 30
0.0
 40
1.5875
  0
CIRCLE
  5
1152
100
AcDbEntity
  8
KEVLAR
100
AcDbCircle
 10
-73.0
 20
52.0
 30
0.0
 40
1.5875
  0
CIRCLE
  5
1153
100
AcDbEntity
  8
KEVLAR
100
AcDbCircle
 10
-59.0
 20
44.0
 30
0.0
 40
1.5875
  0
CIRCLE
  5
1154
100
AcDbEntity
  8
KEVLAR
100
AcDbCircle
 10
-111.0
 20
74.0
 30
0.0
 40
1.5875
  0
CIRCLE
  5
1155
100
AcDbEntity
  8
KEVLAR
100
AcDbCircle
 10
-87.0
 20
64.0
 30
0.0
 40
1.5875
  0
CIRCLE
  5
1156
100
AcDbEntity
  8
KEVLAR
100
AcDbCircle
 10
185.0
 20
74.0
 30
0.0
 40
1.5875
  0
CIRCLE
  5
1157
100
AcDbEntity
  8
KEVLAR
100
AcDbCircle
 10
148.0
 20
63.0
 30
0.0
 40
1.5875
  0
ENDBLK
  5
3D7
100
AcDbEntity
  8
TEXT
100
AcDbBlockEnd
  0
BLOCK
  5
D38
100
AcDbEntity
  8
TEXT
100
AcDbBlockBegin
  2
FT-L2-B
 70
     0
 10
0.0
 20
0.0
 30
0.0
  3
FT-L2-B
  1

  0
LINE
  5
D2E
100
AcDbEntity
  8
FOOT
100
AcDbLine
 10
-70.067279
 20
16.341562
 30
0.0
 11
-25.943083
 21
16.341523
 31
0.0
  0
LINE
  5
D2F
100
AcDbEntity
  8
FOOT
100
AcDbLine
 10
-72.067279
 20
10.87599
 30
0.0
 11
-72.067279
 21
14.341562
 31
0.0
  0
ARC
  5
D30
100
AcDbEntity
  8
FOOT
100
AcDbCircle
 10
-70.067279
 20
14.341562
 30
0.0
 40
2.0
100
AcDbArc
 50
90.0
 51
180.0
  0
LINE
  5
D31
100
AcDbEntity
  8
FOOT
100
AcDbLine
 10
-34.674095
 20
10.875951
 30
0.0
 11
-72.067279
 21
10.87599
 31
0.0
  0
LINE
  5
D32
100
AcDbEntity
  8
FOOT
100
AcDbLine
 10
-14.999986
 20
0.0
 30
0.0
 11
0.0
 21
0.0
 31
0.0
  0
LINE
  5
D33
100
AcDbEntity
  8
FOOT
100
AcDbLine
 10
-34.674166
 20
10.87599
 30
0.0
 11
-14.999986
 21
0.0
 31
0.0
  0
LINE
  5
D34
100
AcDbEntity
  8
FOOT
100
AcDbLine
 10
-25.943083
 20
16.341523
 30
0.0
 11
0.0
 21
2.00005
 31
0.0
  0
LINE
  5
D35
100
AcDbEntity
  8
FOOT
100
AcDbLine
 10
0.0
 20
0.0
 30
0.0
 11
0.0
 21
2.00005
 31
0.0
  0
CIRCLE
  5
D36
100
AcDbEntity
  8
FOOT
100
AcDbCircle
 10
-30.326466
 20
13.614335
 30
0.0
 40
1.5875
  0
CIRCLE
  5
D37
100
AcDbEntity
  8
FOOT
100
AcDbCircle
 10
-17.198799
 20
6.357291
 30
0.0
 40
1.5875
  0
ENDBLK
  5
D39
100
AcDbEntity
  8
TEXT
100
AcDbBlockEnd
  0
BLOCK
  5
D46
100
AcDbEntity
  8
TEXT
100
AcDbBlockBegin
  2
FT-L2-F
 70
     0
 10
0.0
 20
0.0
 30
0.0
  3
FT-L2-F
  1

  0
LINE
  5
D3C
100
AcDbEntity
  8
FOOT
100
AcDbLine
 10
15.000027
 20
0.0
 30
0.0
 11
0.0
 21
0.0
 31
0.0
  0
LINE
  5
D3D
100
AcDbEntity
  8
FOOT
100
AcDbLine
 10
0.0
 20
0.0
 30
0.0
 11
0.0
 21
2.0
 31
0.0
  0
LINE
  5
D3E
100
AcDbEntity
  8
FOOT
100
AcDbLine
 10
35.784489
 20
10.875951
 30
0.0
 11
68.484489
 21
10.875951
 31
0.0
  0
LINE
  5
D3F
100
AcDbEntity
  8
FOOT
100
AcDbLine
 10
68.484489
 20
10.875951
 30
0.0
 11
68.484489
 21
14.341523
 31
0.0
  0
ARC
  5
D40
100
AcDbEntity
  8
FOOT
100
AcDbCircle
 10
66.484489
 20
14.341523
 30
0.0
 40
2.0
100
AcDbArc
 50
0.0
 51
90.0
  0
LINE
  5
D41
100
AcDbEntity
  8
FOOT
100
AcDbLine
 10
66.484489
 20
16.341523
 30
0.0
 11
27.539798
 21
16.341523
 31
0.0
  0
LINE
  5
D42
100
AcDbEntity
  8
FOOT
100
AcDbLine
 10
0.0
 20
2.0
 30
0.0
 11
27.539798
 21
16.341523
 31
0.0
  0
LINE
  5
D43
100
AcDbEntity
  8
FOOT
100
AcDbLine
 10
35.784489
 20
10.875951
 30
0.0
 11
15.000027
 21
0.0
 31
0.0
  0
CIRCLE
  5
D44
100
AcDbEntity
  8
FOOT
100
AcDbCircle
 10
30.729688
 20
13.095799
 30
0.0
 40
1.5875
  0
CIRCLE
  5
D45
100
AcDbEntity
  8
FOOT
100
AcDbCircle
 10
17.425578
 20
6.1676
 30
0.0
 40
1.5875
  0
ENDBLK
  5
D47
100
AcDbEntity
  8
TEXT
100
AcDbBlockEnd
  0
BLOCK
  5
104B
100
AcDbEntity
  8
0
100
AcDbBlockBegin
  2
*D4
 70
    65
 10
0.0
 20
0.0
 30
0.0
  3
*D4
  1

  0
LINE
  5
104C
100
AcDbEntity
  8
0
  6
BYBLOCK
 62
     0
100
AcDbLine
 10
357.063757
 20
249.588842
 30
0.0
 11
362.739998
 21
259.86867
 31
0.0
  0
LINE
  5
104D
100
AcDbEntity
  8
0
  6
BYBLOCK
 62
     0
100
AcDbLine
 10
362.739998
 20
259.86867
 30
0.0
 11
364.539998
 21
259.86867
 31
0.0
  0
SOLID
  5
104E
100
AcDbEntity
  8
0
  6
BYBLOCK
 62
     0
100
AcDbTrace
 10
356.801133
 20
249.733856
 30
0.0
 11
357.32638
 21
249.443829
 31
0.0
 12
356.193675
 22
248.013102
 32
0.0
 13
356.193675
 23
248.013102
 33
0.0
  0
MTEXT
  5
104F
100
AcDbEntity
  8
0
  6
BYBLOCK
 62
     0
100
AcDbMText
 10
384.439998
 20
259.86867
 30
0.0
 40
3.0
 41
0.0
 71
     5
 72
     1
  1
\A1;R2.00mm[R0.079"]
  0
LINE
  5
1050
100
AcDbEntity
  8
0
  6
BYBLOCK
 62
     0
100
AcDbLine
 10
354.326919
 20
246.262279
 30
0.0
 11
356.126919
 21
246.262279
 31
0.0
  0
LINE
  5
1051
100
AcDbEntity
  8
0
  6
BYBLOCK
 62
     0
100
AcDbLine
 10
355.226919
 20
245.362279
 30
0.0
 11
355.226919
 21
247.162279
 31
0.0
  0
POINT
  5
1052
100
AcDbEntity
  8
DEFPOINTS
  6
BYBLOCK
 62
     0
100
AcDbPoint
 10
356.193675
 20
248.013102
 30
0.0
  0
POINT
  5
1053
100
AcDbEntity
  8
DEFPOINTS
  6
BYBLOCK
 62
     0
100
AcDbPoint
 10
355.226919
 20
246.262279
 30
0.0
  0
ENDBLK
  5
1054
100
AcDbEntity
  8
0
100
AcDbBlockEnd
  0
BLOCK
  5
1507
100
AcDbEntity
  8
0
100
AcDbBlockBegin
  2
*D5
 70
    65
 10
0.0
 20
0.0
 30
0.0
  3
*D5
  1

  0
LINE
  5
1508
100
AcDbEntity
  8
0
  6
BYBLOCK
 62
     0
100
AcDbLine
 10
178.602162
 20
235.510251
 30
0.0
 11
186.998721
 21
259.675811
 31
0.0
  0
LINE
  5
1509
100
AcDbEntity
  8
0
  6
BYBLOCK
 62
     0
100
AcDbLine
 10
186.998721
 20
259.675811
 30
0.0
 11
188.798721
 21
259.675811
 31
0.0
  0
SOLID
  5
150A
100
AcDbEntity
  8
0
  6
BYBLOCK
 62
     0
100
AcDbTrace
 10
178.31878
 20
235.608715
 30
0.0
 11
178.885543
 21
235.411788
 31
0.0
 12
178.01138
 22
233.809964
 32
0.0
 13
178.01138
 23
233.809964
 33
0.0
  0
MTEXT
  5
150B
100
AcDbEntity
  8
0
  6
BYBLOCK
 62
     0
100
AcDbMText
 10
208.698721
 20
259.675811
 30
0.0
 40
3.0
 41
0.0
 71
     5
 72
     1
  1
\A1;R2.00mm[R0.079"]
  0
LINE
  5
150C
100
AcDbEntity
  8
0
  6
BYBLOCK
 62
     0
100
AcDbLine
 10
176.454956
 20
231.920756
 30
0.0
 11
178.254956
 21
231.920756
 31
0.0
  0
LINE
  5
150D
100
AcDbEntity
  8
0
  6
BYBLOCK
 62
     0
100
AcDbLine
 10
177.354956
 20
231.020756
 30
0.0
 11
177.354956
 21
232.820756
 31
0.0
  0
POINT
  5
150E
100
AcDbEntity
  8
DEFPOINTS
  6
BYBLOCK
 62
     0
100
AcDbPoint
 10
178.01138
 20
233.809964
 30
0.0
  0
POINT
  5
150F
100
AcDbEntity
  8
DEFPOINTS
  6
BYBLOCK
 62
     0
100
AcDbPoint
 10
177.354956
 20
231.920756
 30
0.0
  0
ENDBLK
  5
1510
100
AcDbEntity
  8
0
100
AcDbBlockEnd
  0
BLOCK
  5
15B8
100
AcDbEntity
  8
KEVLAR
  6
HIDDEN
100
AcDbBlockBegin
  2
D-BORDER
 70
     0
 10
0.0
 20
0.0
 30
0.0
  3
D-BORDER
  1

  0
LINE
  5
16A2
100
AcDbEntity
  8
TEXT
100
AcDbLine
 10
1.0
 20
19.947595
 30
0.0
 11
3.5625
 21
19.947595
 31
0.0
  0
LINE
  5
16A3
100
AcDbEntity
  8
TEXT
100
AcDbLine
 10
3.5625
 20
19.947595
 30
0.0
 11
3.5625
 21
20.447595
 31
0.0
  0
CIRCLE
  5
16A4
100
AcDbEntity
  8
TEXT
100
AcDbCircle
 10
1.677871
 20
20.184056
 30
0.0
 40
0.1875
  0
CIRCLE
  5
16A5
100
AcDbEntity
  8
TEXT
100
AcDbCircle
 10
1.677871
 20
20.184056
 30
0.0
 40
0.09375
  0
LINE
  5
16A6
100
AcDbEntity
  8
TEXT
  6
CENTER
100
AcDbLine
 10
1.443951
 20
20.184056
 30
0.0
 11
2.896621
 21
20.184056
 31
0.0
  0
LINE
  5
16A7
100
AcDbEntity
  8
TEXT
  6
CENTER
100
AcDbLine
 10
1.677871
 20
19.955375
 30
0.0
 11
1.677871
 21
20.423251
 31
0.0
  0
LINE
  5
16A8
100
AcDbEntity
  8
TEXT
100
AcDbLine
 10
2.146621
 20
20.277806
 30
0.0
 11
2.631263
 21
20.371556
 31
0.0
  0
LINE
  5
16A9
100
AcDbEntity
  8
TEXT
100
AcDbLine
 10
2.146621
 20
20.090306
 30
0.0
 11
2.631263
 21
19.996556
 31
0.0
  0
LINE
  5
16AA
100
AcDbEntity
  8
TEXT
100
AcDbLine
 10
2.146621
 20
20.090306
 30
0.0
 11
2.146621
 21
20.277806
 31
0.0
  0
LINE
  5
16AB
100
AcDbEntity
  8
TEXT
100
AcDbLine
 10
2.631263
 20
20.371556
 30
0.0
 11
2.631263
 21
19.996556
 31
0.0
  0
TEXT
  5
16AC
100
AcDbEntity
  8
TEXT
100
AcDbText
 10
1.1875
 20
19.762423
 30
0.0
 40
0.1
  1
THIRD ANGLE PROJECTION
100
AcDbText
  0
LINE
  5
16AD
100
AcDbEntity
  8
TEXT
100
AcDbLine
 10
3.5625
 20
19.947595
 30
0.0
 11
3.5625
 21
19.697595
 31
0.0
  0
LINE
  5
16AE
100
AcDbEntity
  8
TEXT
100
AcDbLine
 10
3.5625
 20
19.697595
 30
0.0
 11
1.0
 21
19.697595
 31
0.0
  0
TEXT
  5
16AF
100
AcDbEntity
  8
TEXT
100
AcDbText
 10
31.135292
 20
0.744377
 30
0.0
 40
0.065
  1
OF
  7
ADESK2
100
AcDbText
  0
TEXT
  5
16B0
100
AcDbEntity
  8
TEXT
100
AcDbText
 10
27.375724
 20
1.474951
 30
0.0
 40
0.065
  1
DATE
  7
ADESK2
100
AcDbText
  0
LINE
  5
16B1
100
AcDbEntity
  8
TEXT
100
AcDbLine
 10
27.252305
 20
1.591501
 30
0.0
 11
27.252305
 21
0.625
 31
0.0
  0
TEXT
  5
16B2
100
AcDbEntity
  8
TEXT
100
AcDbText
 10
25.832321
 20
0.856501
 30
0.0
 40
0.065
  1
DESIGN
  7
ADESK2
100
AcDbText
  0
TEXT
  5
16B3
100
AcDbEntity
  8
TEXT
100
AcDbText
 10
25.832321
 20
1.171501
 30
0.0
 40
0.065
  1
CHECKED
  7
ADESK2
100
AcDbText
  0
LINE
  5
16B4
100
AcDbEntity
  8
TEXT
100
AcDbLine
 10
25.752321
 20
1.591501
 30
0.0
 11
27.752321
 21
1.591501
 31
0.0
  0
TEXT
  5
16B5
100
AcDbEntity
  8
TEXT
100
AcDbText
 10
31.234702
 20
19.965196
 30
0.0
 40
0.065
  1
APPROVED
  7
ADESK2
100
AcDbText
  0
TEXT
  5
16B6
100
AcDbEntity
  8
TEXT
100
AcDbText
 10
30.441002
 20
19.965196
 30
0.0
 40
0.065
  1
DATE
  7
ADESK2
100
AcDbText
  0
TEXT
  5
16B7
100
AcDbEntity
  8
TEXT
100
AcDbText
 10
28.375302
 20
19.965196
 30
0.0
 40
0.065
  1
DESCRIPTION
  7
ADESK2
100
AcDbText
  0
TEXT
  5
16B8
100
AcDbEntity
  8
TEXT
100
AcDbText
 10
27.073402
 20
19.965196
 30
0.0
 40
0.065
  1
REV
  7
ADESK2
100
AcDbText
  0
TEXT
  5
16B9
100
AcDbEntity
  8
TEXT
100
AcDbText
 10
29.203502
 20
20.207396
 30
0.0
 40
0.065
  1
REVISIONS
  7
ADESK2
100
AcDbText
  0
LINE
  5
16BA
100
AcDbEntity
  8
TEXT
100
AcDbLine
 10
30.993302
 20
19.874896
 30
0.0
 11
30.993302
 21
20.124896
 31
0.0
  0
LINE
  5
16BB
100
AcDbEntity
  8
TEXT
100
AcDbLine
 10
30.113302
 20
19.874896
 30
0.0
 11
30.113302
 21
20.124896
 31
0.0
  0
LINE
  5
16BC
100
AcDbEntity
  8
TEXT
100
AcDbLine
 10
27.373302
 20
19.874896
 30
0.0
 11
27.373302
 21
20.124896
 31
0.0
  0
LINE
  5
16BD
100
AcDbEntity
  8
TEXT
100
AcDbLine
 10
26.983049
 20
20.434959
 30
0.0
 11
26.983049
 21
19.874896
 31
0.0
  0
LINE
  5
16BE
100
AcDbEntity
  8
TEXT
100
AcDbLine
 10
26.983049
 20
19.874896
 30
0.0
 11
32.037356
 21
19.874896
 31
0.0
  0
LINE
  5
16BF
100
AcDbEntity
  8
TEXT
100
AcDbLine
 10
26.983049
 20
20.124896
 30
0.0
 11
32.037356
 21
20.124896
 31
0.0
  0
TEXT
  5
16C0
100
AcDbEntity
  8
TEXT
100
AcDbText
 10
31.702821
 20
1.167401
 30
0.0
 40
0.065
  1
REV
  7
ADESK2
100
AcDbText
  0
TEXT
  5
16C1
100
AcDbEntity
  8
TEXT
100
AcDbText
 10
29.323321
 20
1.167401
 30
0.0
 40
0.065
  1
DWG NO.
  7
ADESK2
100
AcDbText
  0
TEXT
  5
16C2
100
AcDbEntity
  8
TEXT
100
AcDbText
 10
27.840221
 20
1.167401
 30
0.0
 40
0.065
  1
SIZE
  7
ADESK2
100
AcDbText
  0
TEXT
  5
16C3
100
AcDbEntity
  8
TEXT
100
AcDbText
 10
30.305121
 20
0.744001
 30
0.0
 40
0.065
  1
SHEET
  7
ADESK2
100
AcDbText
  0
TEXT
  5
16C4
100
AcDbEntity
  8
TEXT
100
AcDbText
 10
27.804621
 20
0.744001
 30
0.0
 40
0.065
  1
SCALE
  7
ADESK2
100
AcDbText
  0
LINE
  5
16C5
100
AcDbEntity
  8
TEXT
100
AcDbLine
 10
31.622321
 20
0.901501
 30
0.0
 11
31.622321
 21
1.281501
 31
0.0
  0
LINE
  5
16C6
100
AcDbEntity
  8
TEXT
100
AcDbLine
 10
29.252321
 20
0.901501
 30
0.0
 11
29.252321
 21
1.281501
 31
0.0
  0
LINE
  5
16C7
100
AcDbEntity
  8
TEXT
100
AcDbLine
 10
28.132321
 20
0.901501
 30
0.0
 11
28.132321
 21
1.281501
 31
0.0
  0
LINE
  5
16C8
100
AcDbEntity
  8
TEXT
100
AcDbLine
 10
30.252321
 20
0.625
 30
0.0
 11
30.252321
 21
0.901501
 31
0.0
  0
LINE
  5
16C9
100
AcDbEntity
  8
TEXT
100
AcDbLine
 10
28.752321
 20
0.625
 30
0.0
 11
28.752321
 21
0.901501
 31
0.0
  0
LINE
  5
16CA
100
AcDbEntity
  8
BORDER
100
AcDbLine
 10
27.752321
 20
0.625
 30
0.0
 11
27.752321
 21
2.401501
 31
0.0
  0
LINE
  5
16CB
100
AcDbEntity
  8
BORDER
100
AcDbLine
 10
27.752321
 20
1.901501
 30
0.0
 11
32.024118
 21
1.901501
 31
0.0
  0
LINE
  5
16CC
100
AcDbEntity
  8
TEXT
100
AcDbLine
 10
27.752321
 20
0.901501
 30
0.0
 11
32.024118
 21
0.901501
 31
0.0
  0
LINE
  5
16CD
100
AcDbEntity
  8
TEXT
100
AcDbLine
 10
25.752321
 20
1.281501
 30
0.0
 11
32.024118
 21
1.281501
 31
0.0
  0
LINE
  5
16CE
100
AcDbEntity
  8
TEXT
100
AcDbLine
 10
25.752321
 20
0.966501
 30
0.0
 11
27.752321
 21
0.966501
 31
0.0
  0
LINE
  5
16CF
100
AcDbEntity
  8
BORDER
100
AcDbLine
 10
25.752321
 20
2.401501
 30
0.0
 11
32.024118
 21
2.401501
 31
0.0
  0
LINE
  5
16D0
100
AcDbEntity
  8
BORDER
100
AcDbLine
 10
25.752321
 20
0.625
 30
0.0
 11
25.752321
 21
2.824147
 31
0.0
  0
TEXT
  5
16D1
100
AcDbEntity
  8
TEXT
100
AcDbText
 10
25.820631
 20
1.479964
 30
0.0
 40
0.065
  1
DRAWN
  7
ADESK2
100
AcDbText
  0
TEXT
  5
16D2
100
AcDbEntity
  8
BORDER
100
AcDbText
 10
25.930285
 20
2.549228
 30
0.0
 40
0.15
  1
UNIVERSITY OF CALIFORNIA @ SANTA BARBARA
100
AcDbText
  0
LINE
  5
16D3
100
AcDbEntity
  8
BORDER
100
AcDbLine
 10
25.75128
 20
2.824147
 30
0.0
 11
32.024118
 21
2.824147
 31
0.0
  0
LINE
  5
16D4
100
AcDbEntity
  8
BORDER
100
AcDbLine
 10
32.04642
 20
0.625
 30
0.0
 11
32.04642
 21
20.447595
 31
0.0
  0
LINE
  5
16D5
100
AcDbEntity
  8
BORDER
100
AcDbLine
 10
1.0
 20
20.447595
 30
0.0
 11
1.0
 21
0.625
 31
0.0
  0
LINE
  5
16D6
100
AcDbEntity
  8
BORDER
100
AcDbLine
 10
1.0
 20
0.625
 30
0.0
 11
32.04642
 21
0.625
 31
0.0
  0
TEXT
  5
16D7
100
AcDbEntity
  8
TEXT
100
AcDbText
 10
28.203393
 20
1.165354
 30
0.0
 40
0.075
  1
DIRECTORY
100
AcDbText
  0
LINE
  5
16D8
100
AcDbEntity
  8
BORDER
100
AcDbLine
 10
1.0
 20
20.447595
 30
0.0
 11
32.04642
 21
20.447595
 31
0.0
  0
TEXT
  5
16D9
100
AcDbEntity
  8
BORDER
100
AcDbText
 10
28.439864
 20
2.075566
 30
0.0
 40
0.15
  1
HIGH ENERGY PHYSICS
100
AcDbText
  0
TEXT
  5
16DA
100
AcDbEntity
  8
BORDER
100
AcDbText
 10
27.876167
 20
0.934778
 30
0.0
 40
0.2
  1
D
100
AcDbText
  0
TEXT
  5
16DB
100
AcDbEntity
  8
TEXT
100
AcDbText
 10
25.981606
 20
2.285089
 30
0.0
 40
0.065
  1
UNLESS OTHERWISE SPECIFIED:
  7
ADESK2
 72
     1
 11
26.752321
 21
2.285089
 31
0.0
100
AcDbText
  0
TEXT
  5
16DC
100
AcDbEntity
  8
TEXT
100
AcDbText
 10
26.055892
 20
2.179851
 30
0.0
 40
0.065
  1
DIMENSIONS ARE IN INCHES
  7
ADESK2
 72
     1
 11
26.752321
 21
2.179851
 31
0.0
100
AcDbText
  0
TEXT
  5
16DD
100
AcDbEntity
  8
TEXT
100
AcDbText
 10
26.45363
 20
2.074613
 30
0.0
 40
0.065
  1
TOLERANCES
  7
ADESK2
 72
     1
 11
26.752321
 21
2.074613
 31
0.0
100
AcDbText
  0
TEXT
  5
16DE
100
AcDbEntity
  8
TEXT
100
AcDbText
 10
26.067279
 20
1.966743
 30
0.0
 40
0.065
  1
DECIMALS
  7
ADESK2
100
AcDbText
  0
TEXT
  5
16DF
100
AcDbEntity
  8
TEXT
100
AcDbText
 10
26.067279
 20
1.861505
 30
0.0
 40
0.065
  1
.XX  %%P .05
  7
ADESK2
100
AcDbText
  0
TEXT
  5
16E0
100
AcDbEntity
  8
TEXT
100
AcDbText
 10
26.067279
 20
1.756267
 30
0.0
 40
0.065
  1
.XXX %%P .005
  7
ADESK2
100
AcDbText
  0
TEXT
  5
16E1
100
AcDbEntity
  8
TEXT
100
AcDbText
 10
26.137916
 20
1.653744
 30
0.0
 40
0.065
  1
DO NOT SCALE DRAWING
  7
ADESK2
 72
     1
 11
26.752321
 21
1.653744
 31
0.0
100
AcDbText
  0
TEXT
  5
16E2
100
AcDbEntity
  8
TEXT
100
AcDbText
 10
26.931176
 20
1.966743
 30
0.0
 40
0.065
  1
ANGULAR
  7
ADESK2
100
AcDbText
  0
TEXT
  5
16E3
100
AcDbEntity
  8
TEXT
100
AcDbText
 10
26.931176
 20
1.861505
 30
0.0
 40
0.065
  1
  %%P 0.5%%D
  7
ADESK2
100
AcDbText
  0
ENDBLK
  5
15B9
100
AcDbEntity
  8
KEVLAR
  6
HIDDEN
100
AcDbBlockEnd
  0
BLOCK
  5
1863
100
AcDbEntity
  8
KEVLAR
100
AcDbBlockBegin
  2
*U7
 70
     1
 10
0.0
 20
0.0
 30
0.0
  3
*U7
  1

  0
ENDBLK
  5
1864
100
AcDbEntity
  8
KEVLAR
100
AcDbBlockEnd
  0
BLOCK
  5
1966
100
AcDbEntity
  8
0
100
AcDbBlockBegin
  2
*D8
 70
    65
 10
0.0
 20
0.0
 30
0.0
  3
*D8
  1

  0
LINE
  5
1967
100
AcDbEntity
  8
0
  6
BYBLOCK
 62
     0
100
AcDbLine
 10
400.860416
 20
224.009114
 30
0.0
 11
295.9557
 21
224.009114
 31
0.0
  0
LINE
  5
1968
100
AcDbEntity
  8
0
  6
BYBLOCK
 62
     0
100
AcDbLine
 10
297.7557
 20
230.494465
 30
0.0
 11
297.7557
 21
232.294465
 31
0.0
  0
LINE
  5
1969
100
AcDbEntity
  8
0
  6
BYBLOCK
 62
     0
100
AcDbLine
 10
297.7557
 20
222.209114
 30
0.0
 11
297.7557
 21
220.409114
 31
0.0
  0
LINE
  5
196A
100
AcDbEntity
  8
0
  6
BYBLOCK
 62
     0
100
AcDbLine
 10
297.7557
 20
220.409114
 30
0.0
 11
295.9557
 21
220.409114
 31
0.0
  0
SOLID
  5
196B
100
AcDbEntity
  8
0
  6
BYBLOCK
 62
     0
100
AcDbTrace
 10
297.4557
 20
230.494465
 30
0.0
 11
298.0557
 21
230.494465
 31
0.0
 12
297.7557
 22
228.694465
 32
0.0
 13
297.7557
 23
228.694465
 33
0.0
  0
SOLID
  5
196C
100
AcDbEntity
  8
0
  6
BYBLOCK
 62
     0
100
AcDbTrace
 10
297.4557
 20
222.209114
 30
0.0
 11
298.0557
 21
222.209114
 31
0.0
 12
297.7557
 22
224.009114
 32
0.0
 13
297.7557
 23
224.009114
 33
0.0
  0
MTEXT
  5
196D
100
AcDbEntity
  8
0
  6
BYBLOCK
 62
     0
100
AcDbMText
 10
278.8057
 20
220.409114
 30
0.0
 40
3.0
 41
0.0
 71
     5
 72
     1
  1
\A1;4.69mm[0.184"]
  0
POINT
  5
196E
100
AcDbEntity
  8
DEFPOINTS
  6
BYBLOCK
 62
     0
100
AcDbPoint
 10
79.723129
 20
228.694465
 30
0.0
  0
POINT
  5
196F
100
AcDbEntity
  8
DEFPOINTS
  6
BYBLOCK
 62
     0
100
AcDbPoint
 10
401.485416
 20
224.009114
 30
0.0
  0
POINT
  5
1970
100
AcDbEntity
  8
DEFPOINTS
  6
BYBLOCK
 62
     0
100
AcDbPoint
 10
297.7557
 20
224.009114
 30
0.0
  0
ENDBLK
  5
1971
100
AcDbEntity
  8
0
100
AcDbBlockEnd
  0
BLOCK
  5
195A
100
AcDbEntity
  8
0
100
AcDbBlockBegin
  2
*D9
 70
    65
 10
0.0
 20
0.0
 30
0.0
  3
*D9
  1

  0
LINE
  5
195B
100
AcDbEntity
  8
0
  6
BYBLOCK
 62
     0
100
AcDbLine
 10
320.899803
 20
235.998805
 30
0.0
 11
167.049062
 21
235.998805
 31
0.0
  0
LINE
  5
195C
100
AcDbEntity
  8
0
  6
BYBLOCK
 62
     0
100
AcDbLine
 10
168.849062
 20
237.798805
 30
0.0
 11
168.849062
 21
239.598805
 31
0.0
  0
LINE
  5
195D
100
AcDbEntity
  8
0
  6
BYBLOCK
 62
     0
100
AcDbLine
 10
168.849062
 20
226.894465
 30
0.0
 11
168.849062
 21
225.094465
 31
0.0
  0
LINE
  5
195E
100
AcDbEntity
  8
0
  6
BYBLOCK
 62
     0
100
AcDbLine
 10
168.849062
 20
225.094465
 30
0.0
 11
167.049062
 21
225.094465
 31
0.0
  0
SOLID
  5
195F
100
AcDbEntity
  8
0
  6
BYBLOCK
 62
     0
100
AcDbTrace
 10
168.549062
 20
237.798805
 30
0.0
 11
169.149062
 21
237.798805
 31
0.0
 12
168.849062
 22
235.998805
 32
0.0
 13
168.849062
 23
235.998805
 33
0.0
  0
SOLID
  5
1960
100
AcDbEntity
  8
0
  6
BYBLOCK
 62
     0
100
AcDbTrace
 10
168.549062
 20
226.894465
 30
0.0
 11
169.149062
 21
226.894465
 31
0.0
 12
168.849062
 22
228.694465
 32
0.0
 13
168.849062
 23
228.694465
 33
0.0
  0
MTEXT
  5
1961
100
AcDbEntity
  8
0
  6
BYBLOCK
 62
     0
100
AcDbMText
 10
132.899062
 20
225.094465
 30
0.0
 40
3.0
 41
0.0
 71
     5
 72
     1
  1
\A1;7.30mm±0.03mm[0.288"±0.001"]
  0
POINT
  5
1962
100
AcDbEntity
  8
DEFPOINTS
  6
BYBLOCK
 62
     0
100
AcDbPoint
 10
321.524803
 20
235.998805
 30
0.0
  0
POINT
  5
1963
100
AcDbEntity
  8
DEFPOINTS
  6
BYBLOCK
 62
     0
100
AcDbPoint
 10
79.723129
 20
228.694465
 30
0.0
  0
POINT
  5
1964
100
AcDbEntity
  8
DEFPOINTS
  6
BYBLOCK
 62
     0
100
AcDbPoint
 10
168.849062
 20
228.694465
 30
0.0
  0
ENDBLK
  5
1965
100
AcDbEntity
  8
0
100
AcDbBlockEnd
  0
BLOCK
  5
1BF5
100
AcDbEntity
  8
0
100
AcDbBlockBegin
  2
*D10
 70
    65
 10
0.0
 20
0.0
 30
0.0
  3
*D10
  1

  0
LINE
  5
1BF6
100
AcDbEntity
  8
0
  6
BYBLOCK
 62
     0
100
AcDbLine
 10
281.29156
 20
232.885105
 30
0.0
 11
221.99202
 21
232.885105
 31
0.0
  0
LINE
  5
1BF7
100
AcDbEntity
  8
0
  6
BYBLOCK
 62
     0
100
AcDbLine
 10
223.79202
 20
234.685105
 30
0.0
 11
223.79202
 21
236.485105
 31
0.0
  0
LINE
  5
1BF8
100
AcDbEntity
  8
0
  6
BYBLOCK
 62
     0
100
AcDbLine
 10
223.79202
 20
226.894465
 30
0.0
 11
223.79202
 21
225.094465
 31
0.0
  0
LINE
  5
1BF9
100
AcDbEntity
  8
0
  6
BYBLOCK
 62
     0
100
AcDbLine
 10
223.79202
 20
225.094465
 30
0.0
 11
221.99202
 21
225.094465
 31
0.0
  0
SOLID
  5
1BFA
100
AcDbEntity
  8
0
  6
BYBLOCK
 62
     0
100
AcDbTrace
 10
223.49202
 20
234.685105
 30
0.0
 11
224.09202
 21
234.685105
 31
0.0
 12
223.79202
 22
232.885105
 32
0.0
 13
223.79202
 23
232.885105
 33
0.0
  0
SOLID
  5
1BFB
100
AcDbEntity
  8
0
  6
BYBLOCK
 62
     0
100
AcDbTrace
 10
223.49202
 20
226.894465
 30
0.0
 11
224.09202
 21
226.894465
 31
0.0
 12
223.79202
 22
228.694465
 32
0.0
 13
223.79202
 23
228.694465
 33
0.0
  0
MTEXT
  5
1BFC
100
AcDbEntity
  8
0
  6
BYBLOCK
 62
     0
100
AcDbMText
 10
184.49202
 20
225.094465
 30
0.0
 40
3.0
 41
0.0
 71
     5
 72
     1
  1
\A1;0.84mm\S+0.05mm^  0.00mm;{\o\l\H7.200000;[}0.033"\S+0.002"^  0.000";{\o\l\H7.200000;]}
  0
POINT
  5
1BFD
100
AcDbEntity
  8
DEFPOINTS
  6
BYBLOCK
 62
     0
100
AcDbPoint
 10
281.91656
 20
232.885105
 30
0.0
  0
POINT
  5
1BFE
100
AcDbEntity
  8
DEFPOINTS
  6
BYBLOCK
 62
     0
100
AcDbPoint
 10
52.784066
 20
228.694465
 30
0.0
  0
POINT
  5
1BFF
100
AcDbEntity
  8
DEFPOINTS
  6
BYBLOCK
 62
     0
100
AcDbPoint
 10
223.79202
 20
228.694465
 30
0.0
  0
ENDBLK
  5
1C00
100
AcDbEntity
  8
0
100
AcDbBlockEnd
  0
BLOCK
  5
1904
100
AcDbEntity
  8
0
100
AcDbBlockBegin
  2
*D11
 70
    65
 10
0.0
 20
0.0
 30
0.0
  3
*D11
  1

  0
LINE
  5
1905
100
AcDbEntity
  8
0
  6
BYBLOCK
 62
     0
100
AcDbLine
 10
531.497916
 20
222.009114
 30
0.0
 11
627.150818
 21
222.009114
 31
0.0
  0
LINE
  5
1906
100
AcDbEntity
  8
0
  6
BYBLOCK
 62
     0
100
AcDbLine
 10
625.350818
 20
230.494465
 30
0.0
 11
625.350818
 21
232.294465
 31
0.0
  0
LINE
  5
1907
100
AcDbEntity
  8
0
  6
BYBLOCK
 62
     0
100
AcDbLine
 10
625.350818
 20
220.209114
 30
0.0
 11
625.350818
 21
218.409114
 31
0.0
  0
LINE
  5
1908
100
AcDbEntity
  8
0
  6
BYBLOCK
 62
     0
100
AcDbLine
 10
625.350818
 20
218.409114
 30
0.0
 11
623.550818
 21
218.409114
 31
0.0
  0
SOLID
  5
1909
100
AcDbEntity
  8
0
  6
BYBLOCK
 62
     0
100
AcDbTrace
 10
625.050818
 20
230.494465
 30
0.0
 11
625.650818
 21
230.494465
 31
0.0
 12
625.350818
 22
228.694465
 32
0.0
 13
625.350818
 23
228.694465
 33
0.0
  0
SOLID
  5
190A
100
AcDbEntity
  8
0
  6
BYBLOCK
 62
     0
100
AcDbTrace
 10
625.050818
 20
220.209114
 30
0.0
 11
625.650818
 21
220.209114
 31
0.0
 12
625.350818
 22
222.009114
 32
0.0
 13
625.350818
 23
222.009114
 33
0.0
  0
MTEXT
  5
190B
100
AcDbEntity
  8
0
  6
BYBLOCK
 62
     0
100
AcDbMText
 10
585.550818
 20
218.409114
 30
0.0
 40
3.0
 41
0.0
 71
     5
 72
     1
  1
\A1;6.69mm\S 0.00mm^ -0.05mm;{\o\l\H7.200000;[}0.263"\S 0.000"^ -0.002";{\o\l\H7.200000;]}
  0
POINT
  5
190C
100
AcDbEntity
  8
DEFPOINTS
  6
BYBLOCK
 62
     0
100
AcDbPoint
 10
808.604255
 20
228.694465
 30
0.0
  0
POINT
  5
190D
100
AcDbEntity
  8
DEFPOINTS
  6
BYBLOCK
 62
     0
100
AcDbPoint
 10
530.872916
 20
222.009114
 30
0.0
  0
POINT
  5
190E
100
AcDbEntity
  8
DEFPOINTS
  6
BYBLOCK
 62
     0
100
AcDbPoint
 10
625.350818
 20
222.009114
 30
0.0
  0
ENDBLK
  5
190F
100
AcDbEntity
  8
0
100
AcDbBlockEnd
  0
BLOCK
  5
1C01
100
AcDbEntity
  8
0
100
AcDbBlockBegin
  2
*D12
 70
    65
 10
0.0
 20
0.0
 30
0.0
  3
*D12
  1

  0
LINE
  5
1C02
100
AcDbEntity
  8
0
  6
BYBLOCK
 62
     0
100
AcDbLine
 10
559.043315
 20
232.885065
 30
0.0
 11
682.422621
 21
232.885065
 31
0.0
  0
LINE
  5
1C03
100
AcDbEntity
  8
0
  6
BYBLOCK
 62
     0
100
AcDbLine
 10
680.622621
 20
234.685065
 30
0.0
 11
680.622621
 21
236.485065
 31
0.0
  0
LINE
  5
1C04
100
AcDbEntity
  8
0
  6
BYBLOCK
 62
     0
100
AcDbLine
 10
680.622621
 20
226.894465
 30
0.0
 11
680.622621
 21
225.094465
 31
0.0
  0
LINE
  5
1C05
100
AcDbEntity
  8
0
  6
BYBLOCK
 62
     0
100
AcDbLine
 10
680.622621
 20
225.094465
 30
0.0
 11
678.822621
 21
225.094465
 31
0.0
  0
SOLID
  5
1C06
100
AcDbEntity
  8
0
  6
BYBLOCK
 62
     0
100
AcDbTrace
 10
680.322621
 20
234.685065
 30
0.0
 11
680.922621
 21
234.685065
 31
0.0
 12
680.622621
 22
232.885065
 32
0.0
 13
680.622621
 23
232.885065
 33
0.0
  0
SOLID
  5
1C07
100
AcDbEntity
  8
0
  6
BYBLOCK
 62
     0
100
AcDbTrace
 10
680.322621
 20
226.894465
 30
0.0
 11
680.922621
 21
226.894465
 31
0.0
 12
680.622621
 22
228.694465
 32
0.0
 13
680.622621
 23
228.694465
 33
0.0
  0
MTEXT
  5
1C08
100
AcDbEntity
  8
0
  6
BYBLOCK
 62
     0
100
AcDbMText
 10
641.322621
 20
225.094465
 30
0.0
 40
3.0
 41
0.0
 71
     5
 72
     1
  1
\A1;0.84mm\S+0.05mm^  0.00mm;{\o\l\H7.200000;[}0.033"\S+0.002"^  0.000";{\o\l\H7.200000;]}
  0
POINT
  5
1C09
100
AcDbEntity
  8
DEFPOINTS
  6
BYBLOCK
 62
     0
100
AcDbPoint
 10
558.418315
 20
232.885065
 30
0.0
  0
POINT
  5
1C0A
100
AcDbEntity
  8
DEFPOINTS
  6
BYBLOCK
 62
     0
100
AcDbPoint
 10
781.665192
 20
228.694465
 30
0.0
  0
POINT
  5
1C0B
100
AcDbEntity
  8
DEFPOINTS
  6
BYBLOCK
 62
     0
100
AcDbPoint
 10
680.622621
 20
228.694465
 30
0.0
  0
ENDBLK
  5
1C0C
100
AcDbEntity
  8
0
100
AcDbBlockEnd
  0
BLOCK
  5
18EC
100
AcDbEntity
  8
0
100
AcDbBlockBegin
  2
*D13
 70
    65
 10
0.0
 20
0.0
 30
0.0
  3
*D13
  1

  0
LINE
  5
18ED
100
AcDbEntity
  8
0
  6
BYBLOCK
 62
     0
100
AcDbLine
 10
573.056578
 20
235.998865
 30
0.0
 11
785.653367
 21
235.998865
 31
0.0
  0
LINE
  5
18EE
100
AcDbEntity
  8
0
  6
BYBLOCK
 62
     0
100
AcDbLine
 10
783.853367
 20
237.798865
 30
0.0
 11
783.853367
 21
239.598865
 31
0.0
  0
LINE
  5
18EF
100
AcDbEntity
  8
0
  6
BYBLOCK
 62
     0
100
AcDbLine
 10
783.853367
 20
226.894465
 30
0.0
 11
783.853367
 21
225.094465
 31
0.0
  0
LINE
  5
18F0
100
AcDbEntity
  8
0
  6
BYBLOCK
 62
     0
100
AcDbLine
 10
783.853367
 20
225.094465
 30
0.0
 11
782.053367
 21
225.094465
 31
0.0
  0
SOLID
  5
18F1
100
AcDbEntity
  8
0
  6
BYBLOCK
 62
     0
100
AcDbTrace
 10
783.553367
 20
237.798865
 30
0.0
 11
784.153367
 21
237.798865
 31
0.0
 12
783.853367
 22
235.998865
 32
0.0
 13
783.853367
 23
235.998865
 33
0.0
  0
SOLID
  5
18F2
100
AcDbEntity
  8
0
  6
BYBLOCK
 62
     0
100
AcDbTrace
 10
783.553367
 20
226.894465
 30
0.0
 11
784.153367
 21
226.894465
 31
0.0
 12
783.853367
 22
228.694465
 32
0.0
 13
783.853367
 23
228.694465
 33
0.0
  0
MTEXT
  5
18F3
100
AcDbEntity
  8
0
  6
BYBLOCK
 62
     0
100
AcDbMText
 10
747.903367
 20
225.094465
 30
0.0
 40
3.0
 41
0.0
 71
     5
 72
     1
  1
\A1;7.30mm±0.03mm[0.288"±0.001"]
  0
POINT
  5
18F4
100
AcDbEntity
  8
DEFPOINTS
  6
BYBLOCK
 62
     0
100
AcDbPoint
 10
572.431578
 20
235.998865
 30
0.0
  0
POINT
  5
18F5
100
AcDbEntity
  8
DEFPOINTS
  6
BYBLOCK
 62
     0
100
AcDbPoint
 10
808.604255
 20
228.694465
 30
0.0
  0
POINT
  5
18F6
100
AcDbEntity
  8
DEFPOINTS
  6
BYBLOCK
 62
     0
100
AcDbPoint
 10
783.853367
 20
228.694465
 30
0.0
  0
ENDBLK
  5
18F7
100
AcDbEntity
  8
0
100
AcDbBlockEnd
  0
BLOCK
  5
1942
100
AcDbEntity
  8
0
100
AcDbBlockBegin
  2
*D14
 70
    65
 10
0.0
 20
0.0
 30
0.0
  3
*D14
  1

  0
LINE
  5
1943
100
AcDbEntity
  8
0
  6
BYBLOCK
 62
     0
100
AcDbLine
 10
310.230623
 20
238.350637
 30
0.0
 11
94.044135
 21
238.350637
 31
0.0
  0
LINE
  5
1944
100
AcDbEntity
  8
0
  6
BYBLOCK
 62
     0
100
AcDbLine
 10
95.844135
 20
240.150637
 30
0.0
 11
95.844135
 21
241.950637
 31
0.0
  0
LINE
  5
1945
100
AcDbEntity
  8
0
  6
BYBLOCK
 62
     0
100
AcDbLine
 10
95.844135
 20
226.894465
 30
0.0
 11
95.844135
 21
225.094465
 31
0.0
  0
LINE
  5
1946
100
AcDbEntity
  8
0
  6
BYBLOCK
 62
     0
100
AcDbLine
 10
95.844135
 20
225.094465
 30
0.0
 11
94.044135
 21
225.094465
 31
0.0
  0
SOLID
  5
1947
100
AcDbEntity
  8
0
  6
BYBLOCK
 62
     0
100
AcDbTrace
 10
95.544135
 20
240.150637
 30
0.0
 11
96.144135
 21
240.150637
 31
0.0
 12
95.844135
 22
238.350637
 32
0.0
 13
95.844135
 23
238.350637
 33
0.0
  0
SOLID
  5
1948
100
AcDbEntity
  8
0
  6
BYBLOCK
 62
     0
100
AcDbTrace
 10
95.544135
 20
226.894465
 30
0.0
 11
96.144135
 21
226.894465
 31
0.0
 12
95.844135
 22
228.694465
 32
0.0
 13
95.844135
 23
228.694465
 33
0.0
  0
MTEXT
  5
1949
100
AcDbEntity
  8
0
  6
BYBLOCK
 62
     0
100
AcDbMText
 10
76.644135
 20
225.094465
 30
0.0
 40
3.0
 41
0.0
 71
     5
 72
     1
  1
\A1;9.66mm[0.380"]
  0
POINT
  5
194A
100
AcDbEntity
  8
DEFPOINTS
  6
BYBLOCK
 62
     0
100
AcDbPoint
 10
310.855623
 20
238.350637
 30
0.0
  0
POINT
  5
194B
100
AcDbEntity
  8
DEFPOINTS
  6
BYBLOCK
 62
     0
100
AcDbPoint
 10
79.723129
 20
228.694465
 30
0.0
  0
POINT
  5
194C
100
AcDbEntity
  8
DEFPOINTS
  6
BYBLOCK
 62
     0
100
AcDbPoint
 10
95.844135
 20
228.694465
 30
0.0
  0
ENDBLK
  5
194D
100
AcDbEntity
  8
0
100
AcDbBlockEnd
  0
BLOCK
  5
1973
100
AcDbEntity
  8
0
100
AcDbBlockBegin
  2
*D15
 70
    65
 10
0.0
 20
0.0
 30
0.0
  3
*D15
  1

  0
LINE
  5
1974
100
AcDbEntity
  8
0
  6
BYBLOCK
 62
     0
100
AcDbLine
 10
558.418315
 20
236.975637
 30
0.0
 11
558.418315
 21
283.171931
 31
0.0
  0
LINE
  5
1975
100
AcDbEntity
  8
0
  6
BYBLOCK
 62
     0
100
AcDbLine
 10
556.618315
 20
281.371931
 30
0.0
 11
551.131215
 21
281.371931
 31
0.0
  0
LINE
  5
1976
100
AcDbEntity
  8
0
  6
BYBLOCK
 62
     0
100
AcDbLine
 10
508.344115
 20
281.371931
 30
0.0
 11
513.831215
 21
281.371931
 31
0.0
  0
SOLID
  5
1977
100
AcDbEntity
  8
0
  6
BYBLOCK
 62
     0
100
AcDbTrace
 10
556.618315
 20
281.671931
 30
0.0
 11
556.618315
 21
281.071931
 31
0.0
 12
558.418315
 22
281.371931
 32
0.0
 13
558.418315
 23
281.371931
 33
0.0
  0
SOLID
  5
1978
100
AcDbEntity
  8
0
  6
BYBLOCK
 62
     0
100
AcDbTrace
 10
508.344115
 20
281.671931
 30
0.0
 11
508.344115
 21
281.071931
 31
0.0
 12
506.544115
 22
281.371931
 32
0.0
 13
506.544115
 23
281.371931
 33
0.0
  0
MTEXT
  5
1979
100
AcDbEntity
  8
0
  6
BYBLOCK
 62
     0
100
AcDbMText
 10
532.481215
 20
281.371931
 30
0.0
 40
3.0
 41
0.0
 71
     5
 72
     1
  1
\A1;51.87mm[2.042"]
  0
POINT
  5
197A
100
AcDbEntity
  8
DEFPOINTS
  6
BYBLOCK
 62
     0
100
AcDbPoint
 10
558.418315
 20
236.350637
 30
0.0
  0
POINT
  5
197B
100
AcDbEntity
  8
DEFPOINTS
  6
BYBLOCK
 62
     0
100
AcDbPoint
 10
506.544115
 20
355.119621
 30
0.0
  0
POINT
  5
197C
100
AcDbEntity
  8
DEFPOINTS
  6
BYBLOCK
 62
     0
100
AcDbPoint
 10
506.544115
 20
281.371931
 30
0.0
  0
ENDBLK
  5
197D
100
AcDbEntity
  8
0
100
AcDbBlockEnd
  0
BLOCK
  5
1980
100
AcDbEntity
  8
0
100
AcDbBlockBegin
  2
*D16
 70
    65
 10
0.0
 20
0.0
 30
0.0
  3
*D16
  1

  0
LINE
  5
1981
100
AcDbEntity
  8
0
  6
BYBLOCK
 62
     0
100
AcDbLine
 10
542.542915
 20
239.478288
 30
0.0
 11
542.542915
 21
274.526359
 31
0.0
  0
LINE
  5
1982
100
AcDbEntity
  8
0
  6
BYBLOCK
 62
     0
100
AcDbLine
 10
544.342915
 20
272.726359
 30
0.0
 11
546.142915
 21
272.726359
 31
0.0
  0
LINE
  5
1983
100
AcDbEntity
  8
0
  6
BYBLOCK
 62
     0
100
AcDbLine
 10
504.744115
 20
272.726359
 30
0.0
 11
502.944115
 21
272.726359
 31
0.0
  0
SOLID
  5
1984
100
AcDbEntity
  8
0
  6
BYBLOCK
 62
     0
100
AcDbTrace
 10
544.342915
 20
273.026359
 30
0.0
 11
544.342915
 21
272.426359
 31
0.0
 12
542.542915
 22
272.726359
 32
0.0
 13
542.542915
 23
272.726359
 33
0.0
  0
SOLID
  5
1985
100
AcDbEntity
  8
0
  6
BYBLOCK
 62
     0
100
AcDbTrace
 10
504.744115
 20
273.026359
 30
0.0
 11
504.744115
 21
272.426359
 31
0.0
 12
506.544115
 22
272.726359
 32
0.0
 13
506.544115
 23
272.726359
 33
0.0
  0
MTEXT
  5
1986
100
AcDbEntity
  8
0
  6
BYBLOCK
 62
     0
100
AcDbMText
 10
468.294115
 20
272.726359
 30
0.0
 40
3.0
 41
0.0
 71
     5
 72
     1
  1
\A1;36.00mm±0.03mm[1.417"±0.001"]
  0
POINT
  5
1987
100
AcDbEntity
  8
DEFPOINTS
  6
BYBLOCK
 62
     0
100
AcDbPoint
 10
542.542915
 20
238.853288
 30
0.0
  0
POINT
  5
1988
100
AcDbEntity
  8
DEFPOINTS
  6
BYBLOCK
 62
     0
100
AcDbPoint
 10
506.544115
 20
355.119621
 30
0.0
  0
POINT
  5
1989
100
AcDbEntity
  8
DEFPOINTS
  6
BYBLOCK
 62
     0
100
AcDbPoint
 10
506.544115
 20
272.726359
 30
0.0
  0
ENDBLK
  5
198A
100
AcDbEntity
  8
0
100
AcDbBlockEnd
  0
BLOCK
  5
19EE
100
AcDbEntity
  8
0
100
AcDbBlockBegin
  2
*D17
 70
    65
 10
0.0
 20
0.0
 30
0.0
  3
*D17
  1

  0
LINE
  5
19EF
100
AcDbEntity
  8
0
  6
BYBLOCK
 62
     0
100
AcDbLine
 10
469.496353
 20
220.579114
 30
0.0
 11
469.496353
 21
197.118647
 31
0.0
  0
LINE
  5
19F0
100
AcDbEntity
  8
0
  6
BYBLOCK
 62
     0
100
AcDbLine
 10
467.696353
 20
198.918647
 30
0.0
 11
465.896353
 21
198.918647
 31
0.0
  0
LINE
  5
19F1
100
AcDbEntity
  8
0
  6
BYBLOCK
 62
     0
100
AcDbLine
 10
508.344115
 20
198.918647
 30
0.0
 11
510.144115
 21
198.918647
 31
0.0
  0
SOLID
  5
19F2
100
AcDbEntity
  8
0
  6
BYBLOCK
 62
     0
100
AcDbTrace
 10
467.696353
 20
199.218647
 30
0.0
 11
467.696353
 21
198.618647
 31
0.0
 12
469.496353
 22
198.918647
 32
0.0
 13
469.496353
 23
198.918647
 33
0.0
  0
SOLID
  5
19F3
100
AcDbEntity
  8
0
  6
BYBLOCK
 62
     0
100
AcDbTrace
 10
508.344115
 20
199.218647
 30
0.0
 11
508.344115
 21
198.618647
 31
0.0
 12
506.544115
 22
198.918647
 32
0.0
 13
506.544115
 23
198.918647
 33
0.0
  0
MTEXT
  5
19F4
100
AcDbEntity
  8
0
  6
BYBLOCK
 62
     0
100
AcDbMText
 10
528.794115
 20
198.918647
 30
0.0
 40
3.0
 41
0.0
 71
     5
 72
     1
  1
\A1;37.05mm[1.459"]
  0
POINT
  5
19F5
100
AcDbEntity
  8
DEFPOINTS
  6
BYBLOCK
 62
     0
100
AcDbPoint
 10
469.496353
 20
221.204114
 30
0.0
  0
POINT
  5
19F6
100
AcDbEntity
  8
DEFPOINTS
  6
BYBLOCK
 62
     0
100
AcDbPoint
 10
506.544115
 20
84.306231
 30
0.0
  0
POINT
  5
19F7
100
AcDbEntity
  8
DEFPOINTS
  6
BYBLOCK
 62
     0
100
AcDbPoint
 10
506.544115
 20
198.918647
 30
0.0
  0
ENDBLK
  5
19F8
100
AcDbEntity
  8
0
100
AcDbBlockEnd
  0
BLOCK
  5
19E3
100
AcDbEntity
  8
0
100
AcDbBlockBegin
  2
*D18
 70
    65
 10
0.0
 20
0.0
 30
0.0
  3
*D18
  1

  0
LINE
  5
19E4
100
AcDbEntity
  8
0
  6
BYBLOCK
 62
     0
100
AcDbLine
 10
465.496353
 20
220.579114
 30
0.0
 11
465.496353
 21
188.991809
 31
0.0
  0
LINE
  5
19E5
100
AcDbEntity
  8
0
  6
BYBLOCK
 62
     0
100
AcDbLine
 10
467.296353
 20
190.791809
 30
0.0
 11
468.370234
 21
190.791809
 31
0.0
  0
LINE
  5
19E6
100
AcDbEntity
  8
0
  6
BYBLOCK
 62
     0
100
AcDbLine
 10
504.744115
 20
190.791809
 30
0.0
 11
503.670234
 21
190.791809
 31
0.0
  0
SOLID
  5
19E7
100
AcDbEntity
  8
0
  6
BYBLOCK
 62
     0
100
AcDbTrace
 10
467.296353
 20
191.091809
 30
0.0
 11
467.296353
 21
190.491809
 31
0.0
 12
465.496353
 22
190.791809
 32
0.0
 13
465.496353
 23
190.791809
 33
0.0
  0
SOLID
  5
19E8
100
AcDbEntity
  8
0
  6
BYBLOCK
 62
     0
100
AcDbTrace
 10
504.744115
 20
191.091809
 30
0.0
 11
504.744115
 21
190.491809
 31
0.0
 12
506.544115
 22
190.791809
 32
0.0
 13
506.544115
 23
190.791809
 33
0.0
  0
MTEXT
  5
19E9
100
AcDbEntity
  8
0
  6
BYBLOCK
 62
     0
100
AcDbMText
 10
486.020234
 20
190.791809
 30
0.0
 40
3.0
 41
0.0
 71
     5
 72
     1
  1
\A1;41.05mm[1.616"]
  0
POINT
  5
19EA
100
AcDbEntity
  8
DEFPOINTS
  6
BYBLOCK
 62
     0
100
AcDbPoint
 10
465.496353
 20
221.204114
 30
0.0
  0
POINT
  5
19EB
100
AcDbEntity
  8
DEFPOINTS
  6
BYBLOCK
 62
     0
100
AcDbPoint
 10
506.544115
 20
84.306231
 30
0.0
  0
POINT
  5
19EC
100
AcDbEntity
  8
DEFPOINTS
  6
BYBLOCK
 62
     0
100
AcDbPoint
 10
506.544115
 20
190.791809
 30
0.0
  0
ENDBLK
  5
19ED
100
AcDbEntity
  8
0
100
AcDbBlockEnd
  0
BLOCK
  5
19D8
100
AcDbEntity
  8
0
100
AcDbBlockBegin
  2
*D19
 70
    65
 10
0.0
 20
0.0
 30
0.0
  3
*D19
  1

  0
LINE
  5
19D9
100
AcDbEntity
  8
0
  6
BYBLOCK
 62
     0
100
AcDbLine
 10
378.546353
 20
220.484114
 30
0.0
 11
378.546353
 21
180.799464
 31
0.0
  0
LINE
  5
19DA
100
AcDbEntity
  8
0
  6
BYBLOCK
 62
     0
100
AcDbLine
 10
380.346353
 20
182.599464
 30
0.0
 11
422.895234
 21
182.599464
 31
0.0
  0
LINE
  5
19DB
100
AcDbEntity
  8
0
  6
BYBLOCK
 62
     0
100
AcDbLine
 10
504.744115
 20
182.599464
 30
0.0
 11
462.195234
 21
182.599464
 31
0.0
  0
SOLID
  5
19DC
100
AcDbEntity
  8
0
  6
BYBLOCK
 62
     0
100
AcDbTrace
 10
380.346353
 20
182.899464
 30
0.0
 11
380.346353
 21
182.299464
 31
0.0
 12
378.546353
 22
182.599464
 32
0.0
 13
378.546353
 23
182.599464
 33
0.0
  0
SOLID
  5
19DD
100
AcDbEntity
  8
0
  6
BYBLOCK
 62
     0
100
AcDbTrace
 10
504.744115
 20
182.899464
 30
0.0
 11
504.744115
 21
182.299464
 31
0.0
 12
506.544115
 22
182.599464
 32
0.0
 13
506.544115
 23
182.599464
 33
0.0
  0
MTEXT
  5
19DE
100
AcDbEntity
  8
0
  6
BYBLOCK
 62
     0
100
AcDbMText
 10
442.545234
 20
182.599464
 30
0.0
 40
3.0
 41
0.0
 71
     5
 72
     1
  1
\A1;128.00mm[5.039"]
  0
POINT
  5
19DF
100
AcDbEntity
  8
DEFPOINTS
  6
BYBLOCK
 62
     0
100
AcDbPoint
 10
378.546353
 20
221.109114
 30
0.0
  0
POINT
  5
19E0
100
AcDbEntity
  8
DEFPOINTS
  6
BYBLOCK
 62
     0
100
AcDbPoint
 10
506.544115
 20
84.306231
 30
0.0
  0
POINT
  5
19E1
100
AcDbEntity
  8
DEFPOINTS
  6
BYBLOCK
 62
     0
100
AcDbPoint
 10
506.544115
 20
182.599464
 30
0.0
  0
ENDBLK
  5
19E2
100
AcDbEntity
  8
0
100
AcDbBlockEnd
  0
BLOCK
  5
19CD
100
AcDbEntity
  8
0
100
AcDbBlockBegin
  2
*D20
 70
    65
 10
0.0
 20
0.0
 30
0.0
  3
*D20
  1

  0
LINE
  5
19CE
100
AcDbEntity
  8
0
  6
BYBLOCK
 62
     0
100
AcDbLine
 10
374.546353
 20
220.579114
 30
0.0
 11
374.546353
 21
172.326804
 31
0.0
  0
LINE
  5
19CF
100
AcDbEntity
  8
0
  6
BYBLOCK
 62
     0
100
AcDbLine
 10
376.346353
 20
174.126804
 30
0.0
 11
421.145234
 21
174.126804
 31
0.0
  0
LINE
  5
19D0
100
AcDbEntity
  8
0
  6
BYBLOCK
 62
     0
100
AcDbLine
 10
504.744115
 20
174.126804
 30
0.0
 11
459.945234
 21
174.126804
 31
0.0
  0
SOLID
  5
19D1
100
AcDbEntity
  8
0
  6
BYBLOCK
 62
     0
100
AcDbTrace
 10
376.346353
 20
174.426804
 30
0.0
 11
376.346353
 21
173.826804
 31
0.0
 12
374.546353
 22
174.126804
 32
0.0
 13
374.546353
 23
174.126804
 33
0.0
  0
SOLID
  5
19D2
100
AcDbEntity
  8
0
  6
BYBLOCK
 62
     0
100
AcDbTrace
 10
504.744115
 20
174.426804
 30
0.0
 11
504.744115
 21
173.826804
 31
0.0
 12
506.544115
 22
174.126804
 32
0.0
 13
506.544115
 23
174.126804
 33
0.0
  0
MTEXT
  5
19D3
100
AcDbEntity
  8
0
  6
BYBLOCK
 62
     0
100
AcDbMText
 10
440.545234
 20
174.126804
 30
0.0
 40
3.0
 41
0.0
 71
     5
 72
     1
  1
\A1;132.00mm[5.197"]
  0
POINT
  5
19D4
100
AcDbEntity
  8
DEFPOINTS
  6
BYBLOCK
 62
     0
100
AcDbPoint
 10
374.546353
 20
221.204114
 30
0.0
  0
POINT
  5
19D5
100
AcDbEntity
  8
DEFPOINTS
  6
BYBLOCK
 62
     0
100
AcDbPoint
 10
506.544115
 20
84.306231
 30
0.0
  0
POINT
  5
19D6
100
AcDbEntity
  8
DEFPOINTS
  6
BYBLOCK
 62
     0
100
AcDbPoint
 10
506.544115
 20
174.126804
 30
0.0
  0
ENDBLK
  5
19D7
100
AcDbEntity
  8
0
100
AcDbBlockEnd
  0
BLOCK
  5
19F9
100
AcDbEntity
  8
0
100
AcDbBlockBegin
  2
*D21
 70
    65
 10
0.0
 20
0.0
 30
0.0
  3
*D21
  1

  0
LINE
  5
19FA
100
AcDbEntity
  8
0
  6
BYBLOCK
 62
     0
100
AcDbLine
 10
503.933853
 20
221.384114
 30
0.0
 11
503.933853
 21
204.210944
 31
0.0
  0
LINE
  5
19FB
100
AcDbEntity
  8
0
  6
BYBLOCK
 62
     0
100
AcDbLine
 10
502.133853
 20
206.010944
 30
0.0
 11
500.333853
 21
206.010944
 31
0.0
  0
LINE
  5
19FC
100
AcDbEntity
  8
0
  6
BYBLOCK
 62
     0
100
AcDbLine
 10
508.344115
 20
206.010944
 30
0.0
 11
510.144115
 21
206.010944
 31
0.0
  0
SOLID
  5
19FD
100
AcDbEntity
  8
0
  6
BYBLOCK
 62
     0
100
AcDbTrace
 10
502.133853
 20
206.310944
 30
0.0
 11
502.133853
 21
205.710944
 31
0.0
 12
503.933853
 22
206.010944
 32
0.0
 13
503.933853
 23
206.010944
 33
0.0
  0
SOLID
  5
19FE
100
AcDbEntity
  8
0
  6
BYBLOCK
 62
     0
100
AcDbTrace
 10
508.344115
 20
206.310944
 30
0.0
 11
508.344115
 21
205.710944
 31
0.0
 12
506.544115
 22
206.010944
 32
0.0
 13
506.544115
 23
206.010944
 33
0.0
  0
MTEXT
  5
19FF
100
AcDbEntity
  8
0
  6
BYBLOCK
 62
     0
100
AcDbMText
 10
526.544115
 20
206.010944
 30
0.0
 40
3.0
 41
0.0
 71
     5
 72
     1
  1
\A1;2.61mm[0.103"]
  0
POINT
  5
1A00
100
AcDbEntity
  8
DEFPOINTS
  6
BYBLOCK
 62
     0
100
AcDbPoint
 10
503.933853
 20
222.009114
 30
0.0
  0
POINT
  5
1A01
100
AcDbEntity
  8
DEFPOINTS
  6
BYBLOCK
 62
     0
100
AcDbPoint
 10
506.544115
 20
84.306231
 30
0.0
  0
POINT
  5
1A02
100
AcDbEntity
  8
DEFPOINTS
  6
BYBLOCK
 62
     0
100
AcDbPoint
 10
506.544115
 20
206.010944
 30
0.0
  0
ENDBLK
  5
1A03
100
AcDbEntity
  8
0
100
AcDbBlockEnd
  0
BLOCK
  5
1A05
100
AcDbEntity
  8
0
100
AcDbBlockBegin
  2
*D22
 70
    65
 10
0.0
 20
0.0
 30
0.0
  3
*D22
  1

  0
LINE
  5
1A06
100
AcDbEntity
  8
0
  6
BYBLOCK
 62
     0
100
AcDbLine
 10
340.108853
 20
221.384114
 30
0.0
 11
340.108853
 21
163.543572
 31
0.0
  0
LINE
  5
1A07
100
AcDbEntity
  8
0
  6
BYBLOCK
 62
     0
100
AcDbLine
 10
341.908853
 20
165.343572
 30
0.0
 11
402.926484
 21
165.343572
 31
0.0
  0
LINE
  5
1A08
100
AcDbEntity
  8
0
  6
BYBLOCK
 62
     0
100
AcDbLine
 10
504.744115
 20
165.343572
 30
0.0
 11
443.726484
 21
165.343572
 31
0.0
  0
SOLID
  5
1A09
100
AcDbEntity
  8
0
  6
BYBLOCK
 62
     0
100
AcDbTrace
 10
341.908853
 20
165.643572
 30
0.0
 11
341.908853
 21
165.043572
 31
0.0
 12
340.108853
 22
165.343572
 32
0.0
 13
340.108853
 23
165.343572
 33
0.0
  0
SOLID
  5
1A0A
100
AcDbEntity
  8
0
  6
BYBLOCK
 62
     0
100
AcDbTrace
 10
504.744115
 20
165.643572
 30
0.0
 11
504.744115
 21
165.043572
 31
0.0
 12
506.544115
 22
165.343572
 32
0.0
 13
506.544115
 23
165.343572
 33
0.0
  0
MTEXT
  5
1A0B
100
AcDbEntity
  8
0
  6
BYBLOCK
 62
     0
100
AcDbMText
 10
423.326484
 20
165.343572
 30
0.0
 40
3.0
 41
0.0
 71
     5
 72
     1
  1
\A1;166.44mm[6.553"]
  0
POINT
  5
1A0C
100
AcDbEntity
  8
DEFPOINTS
  6
BYBLOCK
 62
     0
100
AcDbPoint
 10
340.108853
 20
222.009114
 30
0.0
  0
POINT
  5
1A0D
100
AcDbEntity
  8
DEFPOINTS
  6
BYBLOCK
 62
     0
100
AcDbPoint
 10
506.544115
 20
84.306231
 30
0.0
  0
POINT
  5
1A0E
100
AcDbEntity
  8
DEFPOINTS
  6
BYBLOCK
 62
     0
100
AcDbPoint
 10
506.544115
 20
165.343572
 30
0.0
  0
ENDBLK
  5
1A0F
100
AcDbEntity
  8
0
100
AcDbBlockEnd
  0
BLOCK
  5
1A50
100
AcDbEntity
  8
0
100
AcDbBlockBegin
  2
*D23
 70
    65
 10
0.0
 20
0.0
 30
0.0
  3
*D23
  1

  0
LINE
  5
1A51
100
AcDbEntity
  8
0
  6
BYBLOCK
 62
     0
100
AcDbLine
 10
321.271194
 20
232.260063
 30
0.0
 11
321.271194
 21
152.999543
 31
0.0
  0
LINE
  5
1A52
100
AcDbEntity
  8
0
  6
BYBLOCK
 62
     0
100
AcDbLine
 10
323.071194
 20
154.799543
 30
0.0
 11
393.507654
 21
154.799543
 31
0.0
  0
LINE
  5
1A53
100
AcDbEntity
  8
0
  6
BYBLOCK
 62
     0
100
AcDbLine
 10
504.744115
 20
154.799543
 30
0.0
 11
434.307654
 21
154.799543
 31
0.0
  0
SOLID
  5
1A54
100
AcDbEntity
  8
0
  6
BYBLOCK
 62
     0
100
AcDbTrace
 10
323.071194
 20
155.099543
 30
0.0
 11
323.071194
 21
154.499543
 31
0.0
 12
321.271194
 22
154.799543
 32
0.0
 13
321.271194
 23
154.799543
 33
0.0
  0
SOLID
  5
1A55
100
AcDbEntity
  8
0
  6
BYBLOCK
 62
     0
100
AcDbTrace
 10
504.744115
 20
155.099543
 30
0.0
 11
504.744115
 21
154.499543
 31
0.0
 12
506.544115
 22
154.799543
 32
0.0
 13
506.544115
 23
154.799543
 33
0.0
  0
MTEXT
  5
1A56
100
AcDbEntity
  8
0
  6
BYBLOCK
 62
     0
100
AcDbMText
 10
413.907654
 20
154.799543
 30
0.0
 40
3.0
 41
0.0
 71
     5
 72
     1
  1
\A1;185.27mm[7.294"]
  0
POINT
  5
1A57
100
AcDbEntity
  8
DEFPOINTS
  6
BYBLOCK
 62
     0
100
AcDbPoint
 10
321.271194
 20
232.885063
 30
0.0
  0
POINT
  5
1A58
100
AcDbEntity
  8
DEFPOINTS
  6
BYBLOCK
 62
     0
100
AcDbPoint
 10
506.544115
 20
84.306231
 30
0.0
  0
POINT
  5
1A59
100
AcDbEntity
  8
DEFPOINTS
  6
BYBLOCK
 62
     0
100
AcDbPoint
 10
506.544115
 20
154.799543
 30
0.0
  0
ENDBLK
  5
1A5A
100
AcDbEntity
  8
0
100
AcDbBlockEnd
  0
BLOCK
  5
1A45
100
AcDbEntity
  8
0
100
AcDbBlockBegin
  2
*D24
 70
    65
 10
0.0
 20
0.0
 30
0.0
  3
*D24
  1

  0
LINE
  5
1A46
100
AcDbEntity
  8
0
  6
BYBLOCK
 62
     0
100
AcDbLine
 10
281.91656
 20
232.260105
 30
0.0
 11
281.91656
 21
144.108685
 31
0.0
  0
LINE
  5
1A47
100
AcDbEntity
  8
0
  6
BYBLOCK
 62
     0
100
AcDbLine
 10
283.71656
 20
145.908685
 30
0.0
 11
373.330338
 21
145.908685
 31
0.0
  0
LINE
  5
1A48
100
AcDbEntity
  8
0
  6
BYBLOCK
 62
     0
100
AcDbLine
 10
504.744115
 20
145.908685
 30
0.0
 11
415.130338
 21
145.908685
 31
0.0
  0
SOLID
  5
1A49
100
AcDbEntity
  8
0
  6
BYBLOCK
 62
     0
100
AcDbTrace
 10
283.71656
 20
146.208685
 30
0.0
 11
283.71656
 21
145.608685
 31
0.0
 12
281.91656
 22
145.908685
 32
0.0
 13
281.91656
 23
145.908685
 33
0.0
  0
SOLID
  5
1A4A
100
AcDbEntity
  8
0
  6
BYBLOCK
 62
     0
100
AcDbTrace
 10
504.744115
 20
146.208685
 30
0.0
 11
504.744115
 21
145.608685
 31
0.0
 12
506.544115
 22
145.908685
 32
0.0
 13
506.544115
 23
145.908685
 33
0.0
  0
MTEXT
  5
1A4B
100
AcDbEntity
  8
0
  6
BYBLOCK
 62
     0
100
AcDbMText
 10
394.230338
 20
145.908685
 30
0.0
 40
3.0
 41
0.0
 71
     5
 72
     1
  1
\A1;224.63mm[8.844"]
  0
POINT
  5
1A4C
100
AcDbEntity
  8
DEFPOINTS
  6
BYBLOCK
 62
     0
100
AcDbPoint
 10
281.91656
 20
232.885105
 30
0.0
  0
POINT
  5
1A4D
100
AcDbEntity
  8
DEFPOINTS
  6
BYBLOCK
 62
     0
100
AcDbPoint
 10
506.544115
 20
84.306231
 30
0.0
  0
POINT
  5
1A4E
100
AcDbEntity
  8
DEFPOINTS
  6
BYBLOCK
 62
     0
100
AcDbPoint
 10
506.544115
 20
145.908685
 30
0.0
  0
ENDBLK
  5
1A4F
100
AcDbEntity
  8
0
100
AcDbBlockEnd
  0
BLOCK
  5
1A8E
100
AcDbEntity
  8
0
100
AcDbBlockBegin
  2
*D25
 70
    65
 10
0.0
 20
0.0
 30
0.0
  3
*D25
  1

  0
LINE
  5
1A8F
100
AcDbEntity
  8
0
  6
BYBLOCK
 62
     0
100
AcDbLine
 10
276.986401
 20
390.785851
 30
0.0
 11
276.986401
 21
435.557879
 31
0.0
  0
LINE
  5
1A90
100
AcDbEntity
  8
0
  6
BYBLOCK
 62
     0
100
AcDbLine
 10
275.186401
 20
433.757879
 30
0.0
 11
273.386401
 21
433.757879
 31
0.0
  0
LINE
  5
1A91
100
AcDbEntity
  8
0
  6
BYBLOCK
 62
     0
100
AcDbLine
 10
339.988035
 20
433.757879
 30
0.0
 11
341.788035
 21
433.757879
 31
0.0
  0
SOLID
  5
1A92
100
AcDbEntity
  8
0
  6
BYBLOCK
 62
     0
100
AcDbTrace
 10
275.186401
 20
434.057879
 30
0.0
 11
275.186401
 21
433.457879
 31
0.0
 12
276.986401
 22
433.757879
 32
0.0
 13
276.986401
 23
433.757879
 33
0.0
  0
SOLID
  5
1A93
100
AcDbEntity
  8
0
  6
BYBLOCK
 62
     0
100
AcDbTrace
 10
339.988035
 20
434.057879
 30
0.0
 11
339.988035
 21
433.457879
 31
0.0
 12
338.188035
 22
433.757879
 32
0.0
 13
338.188035
 23
433.757879
 33
0.0
  0
MTEXT
  5
1A94
100
AcDbEntity
  8
0
  6
BYBLOCK
 62
     0
100
AcDbMText
 10
379.938035
 20
433.757879
 30
0.0
 40
3.0
 41
0.0
 71
     5
 72
     1
  1
\A1;{167.95mm±0.03mm [6.612"±0.001"]}
  0
POINT
  5
1A95
100
AcDbEntity
  8
DEFPOINTS
  6
BYBLOCK
 62
     0
100
AcDbPoint
 10
276.986401
 20
390.160851
 30
0.0
  0
POINT
  5
1A96
100
AcDbEntity
  8
DEFPOINTS
  6
BYBLOCK
 62
     0
100
AcDbPoint
 10
338.188035
 20
488.853318
 30
0.0
  0
POINT
  5
1A97
100
AcDbEntity
  8
DEFPOINTS
  6
BYBLOCK
 62
     0
100
AcDbPoint
 10
338.188035
 20
433.757879
 30
0.0
  0
ENDBLK
  5
1A98
100
AcDbEntity
  8
0
100
AcDbBlockEnd
  0
BLOCK
  5
1A9B
100
AcDbEntity
  8
0
100
AcDbBlockBegin
  2
*D26
 70
    65
 10
0.0
 20
0.0
 30
0.0
  3
*D26
  1

  0
LINE
  5
1A9C
100
AcDbEntity
  8
0
  6
BYBLOCK
 62
     0
100
AcDbLine
 10
276.224401
 20
390.785851
 30
0.0
 11
276.224401
 21
443.960112
 31
0.0
  0
LINE
  5
1A9D
100
AcDbEntity
  8
0
  6
BYBLOCK
 62
     0
100
AcDbLine
 10
274.424401
 20
442.160112
 30
0.0
 11
272.624401
 21
442.160112
 31
0.0
  0
LINE
  5
1A9E
100
AcDbEntity
  8
0
  6
BYBLOCK
 62
     0
100
AcDbLine
 10
339.988035
 20
442.160112
 30
0.0
 11
341.788035
 21
442.160112
 31
0.0
  0
SOLID
  5
1A9F
100
AcDbEntity
  8
0
  6
BYBLOCK
 62
     0
100
AcDbTrace
 10
274.424401
 20
442.460112
 30
0.0
 11
274.424401
 21
441.860112
 31
0.0
 12
276.224401
 22
442.160112
 32
0.0
 13
276.224401
 23
442.160112
 33
0.0
  0
SOLID
  5
1AA0
100
AcDbEntity
  8
0
  6
BYBLOCK
 62
     0
100
AcDbTrace
 10
339.988035
 20
442.460112
 30
0.0
 11
339.988035
 21
441.860112
 31
0.0
 12
338.188035
 22
442.160112
 32
0.0
 13
338.188035
 23
442.160112
 33
0.0
  0
MTEXT
  5
1AA1
100
AcDbEntity
  8
0
  6
BYBLOCK
 62
     0
100
AcDbMText
 10
379.188035
 20
442.160112
 30
0.0
 40
3.0
 41
0.0
 71
     5
 72
     1
  1
\A1;{168.10mm±0.03mm [6.618"±0.001"]}
  0
POINT
  5
1AA2
100
AcDbEntity
  8
DEFPOINTS
  6
BYBLOCK
 62
     0
100
AcDbPoint
 10
276.224401
 20
390.160851
 30
0.0
  0
POINT
  5
1AA3
100
AcDbEntity
  8
DEFPOINTS
  6
BYBLOCK
 62
     0
100
AcDbPoint
 10
338.188035
 20
488.853318
 30
0.0
  0
POINT
  5
1AA4
100
AcDbEntity
  8
DEFPOINTS
  6
BYBLOCK
 62
     0
100
AcDbPoint
 10
338.188035
 20
442.160112
 30
0.0
  0
ENDBLK
  5
1AA5
100
AcDbEntity
  8
0
100
AcDbBlockEnd
  0
BLOCK
  5
1ABF
100
AcDbEntity
  8
0
100
AcDbBlockBegin
  2
*D27
 70
    65
 10
0.0
 20
0.0
 30
0.0
  3
*D27
  1

  0
LINE
  5
1AC0
100
AcDbEntity
  8
0
  6
BYBLOCK
 62
     0
100
AcDbLine
 10
73.344901
 20
427.307851
 30
0.0
 11
73.344901
 21
457.867256
 31
0.0
  0
LINE
  5
1AC1
100
AcDbEntity
  8
0
  6
BYBLOCK
 62
     0
100
AcDbLine
 10
75.144901
 20
456.067256
 30
0.0
 11
167.366468
 21
456.067256
 31
0.0
  0
LINE
  5
1AC2
100
AcDbEntity
  8
0
  6
BYBLOCK
 62
     0
100
AcDbLine
 10
336.388035
 20
456.067256
 30
0.0
 11
244.166468
 21
456.067256
 31
0.0
  0
SOLID
  5
1AC3
100
AcDbEntity
  8
0
  6
BYBLOCK
 62
     0
100
AcDbTrace
 10
75.144901
 20
456.367256
 30
0.0
 11
75.144901
 21
455.767256
 31
0.0
 12
73.344901
 22
456.067256
 32
0.0
 13
73.344901
 23
456.067256
 33
0.0
  0
SOLID
  5
1AC4
100
AcDbEntity
  8
0
  6
BYBLOCK
 62
     0
100
AcDbTrace
 10
336.388035
 20
456.367256
 30
0.0
 11
336.388035
 21
455.767256
 31
0.0
 12
338.188035
 22
456.067256
 32
0.0
 13
338.188035
 23
456.067256
 33
0.0
  0
MTEXT
  5
1AC5
100
AcDbEntity
  8
0
  6
BYBLOCK
 62
     0
100
AcDbMText
 10
205.766468
 20
456.067256
 30
0.0
 40
3.0
 41
0.0
 71
     5
 72
     1
  1
\A1;{208.68mm±0.03mm [8.216"±0.001"]}
  0
POINT
  5
1AC6
100
AcDbEntity
  8
DEFPOINTS
  6
BYBLOCK
 62
     0
100
AcDbPoint
 10
73.344901
 20
426.682851
 30
0.0
  0
POINT
  5
1AC7
100
AcDbEntity
  8
DEFPOINTS
  6
BYBLOCK
 62
     0
100
AcDbPoint
 10
338.188035
 20
488.853318
 30
0.0
  0
POINT
  5
1AC8
100
AcDbEntity
  8
DEFPOINTS
  6
BYBLOCK
 62
     0
100
AcDbPoint
 10
338.188035
 20
456.067256
 30
0.0
  0
ENDBLK
  5
1AC9
100
AcDbEntity
  8
0
100
AcDbBlockEnd
  0
BLOCK
  5
1ACB
100
AcDbEntity
  8
0
100
AcDbBlockBegin
  2
*D28
 70
    65
 10
0.0
 20
0.0
 30
0.0
  3
*D28
  1

  0
LINE
  5
1ACC
100
AcDbEntity
  8
0
  6
BYBLOCK
 62
     0
100
AcDbLine
 10
72.582901
 20
427.307851
 30
0.0
 11
72.582901
 21
468.877078
 31
0.0
  0
LINE
  5
1ACD
100
AcDbEntity
  8
0
  6
BYBLOCK
 62
     0
100
AcDbLine
 10
74.382901
 20
467.077078
 30
0.0
 11
166.485468
 21
467.077078
 31
0.0
  0
LINE
  5
1ACE
100
AcDbEntity
  8
0
  6
BYBLOCK
 62
     0
100
AcDbLine
 10
336.388035
 20
467.077078
 30
0.0
 11
244.285468
 21
467.077078
 31
0.0
  0
SOLID
  5
1ACF
100
AcDbEntity
  8
0
  6
BYBLOCK
 62
     0
100
AcDbTrace
 10
74.382901
 20
467.377078
 30
0.0
 11
74.382901
 21
466.777078
 31
0.0
 12
72.582901
 22
467.077078
 32
0.0
 13
72.582901
 23
467.077078
 33
0.0
  0
SOLID
  5
1AD0
100
AcDbEntity
  8
0
  6
BYBLOCK
 62
     0
100
AcDbTrace
 10
336.388035
 20
467.377078
 30
0.0
 11
336.388035
 21
466.777078
 31
0.0
 12
338.188035
 22
467.077078
 32
0.0
 13
338.188035
 23
467.077078
 33
0.0
  0
MTEXT
  5
1AD1
100
AcDbEntity
  8
0
  6
BYBLOCK
 62
     0
100
AcDbMText
 10
205.385468
 20
467.077078
 30
0.0
 40
3.0
 41
0.0
 71
     5
 72
     1
  1
\A1;{208.83mm±0.03mm [8.222"±0.001"]}
  0
POINT
  5
1AD2
100
AcDbEntity
  8
DEFPOINTS
  6
BYBLOCK
 62
     0
100
AcDbPoint
 10
72.582901
 20
426.682851
 30
0.0
  0
POINT
  5
1AD3
100
AcDbEntity
  8
DEFPOINTS
  6
BYBLOCK
 62
     0
100
AcDbPoint
 10
338.188035
 20
488.853318
 30
0.0
  0
POINT
  5
1AD4
100
AcDbEntity
  8
DEFPOINTS
  6
BYBLOCK
 62
     0
100
AcDbPoint
 10
338.188035
 20
467.077078
 30
0.0
  0
ENDBLK
  5
1AD5
100
AcDbEntity
  8
0
100
AcDbBlockEnd
  0
BLOCK
  5
1BE9
100
AcDbEntity
  8
0
100
AcDbBlockBegin
  2
*D29
 70
    65
 10
0.0
 20
0.0
 30
0.0
  3
*D29
  1

  0
LINE
  5
1BEA
100
AcDbEntity
  8
0
  6
BYBLOCK
 62
     0
100
AcDbLine
 10
677.398889
 20
396.753048
 30
0.0
 11
677.398889
 21
421.829082
 31
0.0
  0
LINE
  5
1BEB
100
AcDbEntity
  8
0
  6
BYBLOCK
 62
     0
100
AcDbLine
 10
679.938889
 20
396.753048
 30
0.0
 11
679.938889
 21
421.829082
 31
0.0
  0
LINE
  5
1BEC
100
AcDbEntity
  8
0
  6
BYBLOCK
 62
     0
100
AcDbLine
 10
675.598889
 20
420.029082
 30
0.0
 11
673.798889
 21
420.029082
 31
0.0
  0
LINE
  5
1BED
100
AcDbEntity
  8
0
  6
BYBLOCK
 62
     0
100
AcDbLine
 10
681.738889
 20
420.029082
 30
0.0
 11
683.538889
 21
420.029082
 31
0.0
  0
SOLID
  5
1BEE
100
AcDbEntity
  8
0
  6
BYBLOCK
 62
     0
100
AcDbTrace
 10
675.598889
 20
420.329082
 30
0.0
 11
675.598889
 21
419.729082
 31
0.0
 12
677.398889
 22
420.029082
 32
0.0
 13
677.398889
 23
420.029082
 33
0.0
  0
SOLID
  5
1BEF
100
AcDbEntity
  8
0
  6
BYBLOCK
 62
     0
100
AcDbTrace
 10
681.738889
 20
420.329082
 30
0.0
 11
681.738889
 21
419.729082
 31
0.0
 12
679.938889
 22
420.029082
 32
0.0
 13
679.938889
 23
420.029082
 33
0.0
  0
MTEXT
  5
1BF0
100
AcDbEntity
  8
0
  6
BYBLOCK
 62
     0
100
AcDbMText
 10
716.688889
 20
420.029082
 30
0.0
 40
3.0
 41
0.0
 71
     5
 72
     1
  1
\A1;0.51mm±0.03mm[0.020"±0.001"]
  0
POINT
  5
1BF1
100
AcDbEntity
  8
DEFPOINTS
  6
BYBLOCK
 62
     0
100
AcDbPoint
 10
677.398889
 20
396.128048
 30
0.0
  0
POINT
  5
1BF2
100
AcDbEntity
  8
DEFPOINTS
  6
BYBLOCK
 62
     0
100
AcDbPoint
 10
679.938889
 20
396.128048
 30
0.0
  0
POINT
  5
1BF3
100
AcDbEntity
  8
DEFPOINTS
  6
BYBLOCK
 62
     0
100
AcDbPoint
 10
679.938889
 20
420.029082
 30
0.0
  0
ENDBLK
  5
1BF4
100
AcDbEntity
  8
0
100
AcDbBlockEnd
  0
BLOCK
  5
1BAD
100
AcDbEntity
  8
0
100
AcDbBlockBegin
  2
*D30
 70
    65
 10
0.0
 20
0.0
 30
0.0
  3
*D30
  1

  0
LINE
  5
1BAE
100
AcDbEntity
  8
0
  6
BYBLOCK
 62
     0
100
AcDbLine
 10
680.563889
 20
329.420548
 30
0.0
 11
708.576373
 21
329.420548
 31
0.0
  0
LINE
  5
1BAF
100
AcDbEntity
  8
0
  6
BYBLOCK
 62
     0
100
AcDbLine
 10
679.801889
 20
314.420548
 30
0.0
 11
708.576373
 21
314.420548
 31
0.0
  0
LINE
  5
1BB0
100
AcDbEntity
  8
0
  6
BYBLOCK
 62
     0
100
AcDbLine
 10
706.776373
 20
327.620548
 30
0.0
 11
706.776373
 21
324.320548
 31
0.0
  0
LINE
  5
1BB1
100
AcDbEntity
  8
0
  6
BYBLOCK
 62
     0
100
AcDbLine
 10
706.776373
 20
316.220548
 30
0.0
 11
706.776373
 21
319.520548
 31
0.0
  0
SOLID
  5
1BB2
100
AcDbEntity
  8
0
  6
BYBLOCK
 62
     0
100
AcDbTrace
 10
706.476373
 20
327.620548
 30
0.0
 11
707.076373
 21
327.620548
 31
0.0
 12
706.776373
 22
329.420548
 32
0.0
 13
706.776373
 23
329.420548
 33
0.0
  0
SOLID
  5
1BB3
100
AcDbEntity
  8
0
  6
BYBLOCK
 62
     0
100
AcDbTrace
 10
706.476373
 20
316.220548
 30
0.0
 11
707.076373
 21
316.220548
 31
0.0
 12
706.776373
 22
314.420548
 32
0.0
 13
706.776373
 23
314.420548
 33
0.0
  0
MTEXT
  5
1BB4
100
AcDbEntity
  8
0
  6
BYBLOCK
 62
     0
100
AcDbMText
 10
706.776373
 20
321.920548
 30
0.0
 40
3.0
 41
0.0
 71
     5
 72
     1
  1
\A1;3.00mm[0.118"]
  0
POINT
  5
1BB5
100
AcDbEntity
  8
DEFPOINTS
  6
BYBLOCK
 62
     0
100
AcDbPoint
 10
679.938889
 20
329.420548
 30
0.0
  0
POINT
  5
1BB6
100
AcDbEntity
  8
DEFPOINTS
  6
BYBLOCK
 62
     0
100
AcDbPoint
 10
679.176889
 20
314.420548
 30
0.0
  0
POINT
  5
1BB7
100
AcDbEntity
  8
DEFPOINTS
  6
BYBLOCK
 62
     0
100
AcDbPoint
 10
706.776373
 20
314.420548
 30
0.0
  0
ENDBLK
  5
1BB8
100
AcDbEntity
  8
0
100
AcDbBlockEnd
  0
BLOCK
  5
1BDD
100
AcDbEntity
  8
0
100
AcDbBlockBegin
  2
*D31
 70
    65
 10
0.0
 20
0.0
 30
0.0
  3
*D31
  1

  0
LINE
  5
1BDE
100
AcDbEntity
  8
0
  6
BYBLOCK
 62
     0
100
AcDbLine
 10
679.176889
 20
396.753048
 30
0.0
 11
679.176889
 21
405.649936
 31
0.0
  0
LINE
  5
1BDF
100
AcDbEntity
  8
0
  6
BYBLOCK
 62
     0
100
AcDbLine
 10
679.938889
 20
396.753048
 30
0.0
 11
679.938889
 21
405.649936
 31
0.0
  0
LINE
  5
1BE0
100
AcDbEntity
  8
0
  6
BYBLOCK
 62
     0
100
AcDbLine
 10
677.376889
 20
403.849936
 30
0.0
 11
675.576889
 21
403.849936
 31
0.0
  0
LINE
  5
1BE1
100
AcDbEntity
  8
0
  6
BYBLOCK
 62
     0
100
AcDbLine
 10
681.738889
 20
403.849936
 30
0.0
 11
683.538889
 21
403.849936
 31
0.0
  0
SOLID
  5
1BE2
100
AcDbEntity
  8
0
  6
BYBLOCK
 62
     0
100
AcDbTrace
 10
677.376889
 20
404.149936
 30
0.0
 11
677.376889
 21
403.549936
 31
0.0
 12
679.176889
 22
403.849936
 32
0.0
 13
679.176889
 23
403.849936
 33
0.0
  0
SOLID
  5
1BE3
100
AcDbEntity
  8
0
  6
BYBLOCK
 62
     0
100
AcDbTrace
 10
681.738889
 20
404.149936
 30
0.0
 11
681.738889
 21
403.549936
 31
0.0
 12
679.938889
 22
403.849936
 32
0.0
 13
679.938889
 23
403.849936
 33
0.0
  0
MTEXT
  5
1BE4
100
AcDbEntity
  8
0
  6
BYBLOCK
 62
     0
100
AcDbMText
 10
716.688889
 20
403.849936
 30
0.0
 40
3.0
 41
0.0
 71
     5
 72
     1
  1
\A1;0.15mm±0.03mm[0.006"±0.001"]
  0
POINT
  5
1BE5
100
AcDbEntity
  8
DEFPOINTS
  6
BYBLOCK
 62
     0
100
AcDbPoint
 10
679.176889
 20
396.128048
 30
0.0
  0
POINT
  5
1BE6
100
AcDbEntity
  8
DEFPOINTS
  6
BYBLOCK
 62
     0
100
AcDbPoint
 10
679.938889
 20
396.128048
 30
0.0
  0
POINT
  5
1BE7
100
AcDbEntity
  8
DEFPOINTS
  6
BYBLOCK
 62
     0
100
AcDbPoint
 10
679.938889
 20
403.849936
 30
0.0
  0
ENDBLK
  5
1BE8
100
AcDbEntity
  8
0
100
AcDbBlockEnd
  0
BLOCK
  5
1BD1
100
AcDbEntity
  8
0
100
AcDbBlockBegin
  2
*D32
 70
    65
 10
0.0
 20
0.0
 30
0.0
  3
*D32
  1

  0
LINE
  5
1BD2
100
AcDbEntity
  8
0
  6
BYBLOCK
 62
     0
100
AcDbLine
 10
678.160889
 20
396.753048
 30
0.0
 11
678.160889
 21
412.902829
 31
0.0
  0
LINE
  5
1BD3
100
AcDbEntity
  8
0
  6
BYBLOCK
 62
     0
100
AcDbLine
 10
677.398889
 20
396.753048
 30
0.0
 11
677.398889
 21
412.902829
 31
0.0
  0
LINE
  5
1BD4
100
AcDbEntity
  8
0
  6
BYBLOCK
 62
     0
100
AcDbLine
 10
679.960889
 20
411.102829
 30
0.0
 11
681.760889
 21
411.102829
 31
0.0
  0
LINE
  5
1BD5
100
AcDbEntity
  8
0
  6
BYBLOCK
 62
     0
100
AcDbLine
 10
675.598889
 20
411.102829
 30
0.0
 11
673.798889
 21
411.102829
 31
0.0
  0
SOLID
  5
1BD6
100
AcDbEntity
  8
0
  6
BYBLOCK
 62
     0
100
AcDbTrace
 10
679.960889
 20
411.402829
 30
0.0
 11
679.960889
 21
410.802829
 31
0.0
 12
678.160889
 22
411.102829
 32
0.0
 13
678.160889
 23
411.102829
 33
0.0
  0
SOLID
  5
1BD7
100
AcDbEntity
  8
0
  6
BYBLOCK
 62
     0
100
AcDbTrace
 10
675.598889
 20
411.402829
 30
0.0
 11
675.598889
 21
410.802829
 31
0.0
 12
677.398889
 22
411.102829
 32
0.0
 13
677.398889
 23
411.102829
 33
0.0
  0
MTEXT
  5
1BD8
100
AcDbEntity
  8
0
  6
BYBLOCK
 62
     0
100
AcDbMText
 10
640.648889
 20
411.102829
 30
0.0
 40
3.0
 41
0.0
 71
     5
 72
     1
  1
\A1;0.15mm±0.03mm[0.006"±0.001"]
  0
POINT
  5
1BD9
100
AcDbEntity
  8
DEFPOINTS
  6
BYBLOCK
 62
     0
100
AcDbPoint
 10
678.160889
 20
396.128048
 30
0.0
  0
POINT
  5
1BDA
100
AcDbEntity
  8
DEFPOINTS
  6
BYBLOCK
 62
     0
100
AcDbPoint
 10
677.398889
 20
396.128048
 30
0.0
  0
POINT
  5
1BDB
100
AcDbEntity
  8
DEFPOINTS
  6
BYBLOCK
 62
     0
100
AcDbPoint
 10
677.398889
 20
411.102829
 30
0.0
  0
ENDBLK
  5
1BDC
100
AcDbEntity
  8
0
100
AcDbBlockEnd
  0
BLOCK
  5
1C15
100
AcDbEntity
  8
ASHADE
100
AcDbBlockBegin
  2
AVE_RENDER
 70
    64
 10
0.0
 20
0.0
 30
0.0
  3
AVE_RENDER
  1
AVE_RENDER
  0
ENDBLK
  5
1C16
100
AcDbEntity
  8
0
100
AcDbBlockEnd
  0
BLOCK
  5
1C23
100
AcDbEntity
  8
ASHADE
100
AcDbBlockBegin
  2
AVE_GLOBAL
 70
    64
 10
0.0
 20
0.0
 30
0.0
  3
AVE_GLOBAL
  1
AVE_GLOBAL
  0
ENDBLK
  5
1C24
100
AcDbEntity
  8
0
100
AcDbBlockEnd
  0
ENDSEC
  0
SECTION
  2
ENTITIES
  0
LINE
  5
1E
100
AcDbEntity
  8
KEVLAR
100
AcDbLine
 10
281.91656
 20
232.885105
 30
0.0
 11
281.91656
 21
236.350637
 31
0.0
1001
ACAD
1000
ASC_BOUNDS
1002
{
1070
    19
1002
}
  0
LINE
  5
1F
100
AcDbEntity
  8
KEVLAR
100
AcDbLine
 10
283.91656
 20
238.350637
 30
0.0
 11
556.418315
 21
238.350637
 31
0.0
1001
ACAD
1000
ASC_BOUNDS
1002
{
1070
    19
1002
}
  0
LINE
  5
20
100
AcDbEntity
  8
KEVLAR
100
AcDbLine
 10
281.91656
 20
232.885105
 30
0.0
 11
321.271194
 21
232.885063
 31
0.0
1001
ACAD
1000
ASC_BOUNDS
1002
{
1070
    19
1002
}
  0
LINE
  5
21
100
AcDbEntity
  8
KEVLAR
100
AcDbLine
 10
558.418315
 20
232.885065
 30
0.0
 11
558.418315
 21
236.350637
 31
0.0
1001
ACAD
1000
ASC_BOUNDS
1002
{
1070
    19
1002
}
  0
LINE
  5
22
100
AcDbEntity
  8
KEVLAR
100
AcDbLine
 10
340.108853
 20
222.009114
 30
0.0
 11
372.546353
 21
222.009114
 31
0.0
1001
ACAD
1000
ASC_BOUNDS
1002
{
1070
    19
1002
}
  0
LINE
  5
23
100
AcDbEntity
  8
KEVLAR
100
AcDbLine
 10
558.418315
 20
232.885065
 30
0.0
 11
524.718315
 21
232.885065
 31
0.0
1001
ACAD
1000
ASC_BOUNDS
1002
{
1070
    19
1002
}
  0
LINE
  5
2B
100
AcDbEntity
  8
KEVLAR
100
AcDbLine
 10
374.546353
 20
224.009114
 30
0.0
 11
378.546353
 21
224.009114
 31
0.0
1001
ACAD
1000
ASC_BOUNDS
1002
{
1070
    19
1002
}
  0
LINE
  5
2E
100
AcDbEntity
  8
KEVLAR
100
AcDbLine
 10
380.546353
 20
222.009114
 30
0.0
 11
463.496353
 21
222.009114
 31
0.0
1001
ACAD
1000
ASC_BOUNDS
1002
{
1070
    19
1005
0
1005
0
1002
}
  0
ARC
  5
2F
100
AcDbEntity
  8
KEVLAR
100
AcDbCircle
 10
374.546353
 20
222.009114
 30
0.0
 40
2.0
100
AcDbArc
 50
90.0
 51
180.0
1001
ACAD
1000
ASC_BOUNDS
1002
{
1070
    19
1002
}
  0
ARC
  5
30
100
AcDbEntity
  8
KEVLAR
100
AcDbCircle
 10
378.546353
 20
222.009114
 30
0.0
 40
2.0
100
AcDbArc
 50
0.0
 51
90.0
1001
ACAD
1000
ASC_BOUNDS
1002
{
1070
    19
1002
}
  0
LINE
  5
31
100
AcDbEntity
  8
KEVLAR
100
AcDbLine
 10
321.271194
 20
232.885063
 30
0.0
 11
340.108853
 21
222.009114
 31
0.0
1001
ACAD
1000
ASC_BOUNDS
1002
{
1070
    19
1002
}
  0
ARC
  5
32
100
AcDbEntity
  8
KEVLAR
100
AcDbCircle
 10
283.91656
 20
236.350637
 30
0.0
 40
2.0
100
AcDbArc
 50
90.0
 51
180.0
1001
ACAD
1000
ASC_BOUNDS
1002
{
1070
    19
1002
}
  0
ARC
  5
33
100
AcDbEntity
  8
KEVLAR
100
AcDbCircle
 10
556.418315
 20
236.350637
 30
0.0
 40
2.0
100
AcDbArc
 50
0.0
 51
90.0
1001
ACAD
1000
ASC_BOUNDS
1002
{
1070
    19
1002
}
  0
LINE
  5
148
100
AcDbEntity
  8
CENTER
  6
CONTINUOUS
100
AcDbLine
 10
377.646353
 20
222.009114
 30
0.0
 11
379.446353
 21
222.009114
 31
0.0
  0
LINE
  5
149
100
AcDbEntity
  8
CENTER
  6
CONTINUOUS
100
AcDbLine
 10
378.546353
 20
221.204114
 30
0.0
 11
378.546353
 21
223.004114
 31
0.0
  0
LINE
  5
14A
100
AcDbEntity
  8
CENTER
  6
CONTINUOUS
100
AcDbLine
 10
373.646353
 20
222.009114
 30
0.0
 11
375.446353
 21
222.009114
 31
0.0
  0
LINE
  5
14B
100
AcDbEntity
  8
CENTER
  6
CONTINUOUS
100
AcDbLine
 10
374.546353
 20
221.204114
 30
0.0
 11
374.546353
 21
223.004114
 31
0.0
  0
TEXT
  5
7FC
100
AcDbEntity
  8
DIM
100
AcDbText
 10
390.479266
 20
243.317836
 30
0.0
 40
3.0
  1
4X
100
AcDbText
  0
TEXT
  5
824
100
AcDbEntity
  8
DIM
100
AcDbText
 10
567.09413
 20
243.886259
 30
0.0
 40
3.0
  1
2X
100
AcDbText
  0
TEXT
  5
860
100
AcDbEntity
  8
TEXT
100
AcDbText
 10
726.189274
 20
38.309838
 30
0.0
 40
3.0
  1
LAYER 2 SUPPORT RIB
100
AcDbText
  0
TEXT
  5
861
100
AcDbEntity
  8
TEXT
100
AcDbText
 10
718.158435
 20
24.930175
 30
0.0
 40
3.0
  1
C:\B-FAC
100
AcDbText
  0
TEXT
  5
862
100
AcDbEntity
  8
TEXT
100
AcDbText
 10
768.255576
 20
25.503589
 30
0.0
 40
3.0
  1
L2-RIB01
100
AcDbText
  0
TEXT
  5
863
100
AcDbEntity
  8
TEXT
100
AcDbText
 10
718.349645
 20
17.858068
 30
0.0
 40
3.0
  1
1=1
100
AcDbText
  0
TEXT
  5
864
100
AcDbEntity
  8
TEXT
100
AcDbText
 10
670.738239
 20
34.869353
 30
0.0
 40
3.0
  1
S. KYRE
100
AcDbText
  0
TEXT
  5
865
100
AcDbEntity
  8
TEXT
100
AcDbText
 10
693.109863
 20
34.104801
 30
0.0
 40
1.5
  1
01-26-96
100
AcDbText
  0
LINE
  5
C0F
100
AcDbEntity
  8
KEVLAR
100
AcDbLine
 10
503.933853
 20
222.009114
 30
0.0
 11
524.718315
 21
232.885065
 31
0.0
  0
LINE
  5
CC4
100
AcDbEntity
  8
KEVLAR
100
AcDbLine
 10
465.496353
 20
224.009114
 30
0.0
 11
469.496353
 21
224.009114
 31
0.0
1001
ACAD
1000
ASC_BOUNDS
1002
{
1070
    19
1002
}
  0
ARC
  5
CC5
100
AcDbEntity
  8
KEVLAR
100
AcDbCircle
 10
465.496353
 20
222.009114
 30
0.0
 40
2.0
100
AcDbArc
 50
90.0
 51
180.0
1001
ACAD
1000
ASC_BOUNDS
1002
{
1070
    19
1002
}
  0
LINE
  5
CC6
100
AcDbEntity
  8
CENTER
  6
CONTINUOUS
100
AcDbLine
 10
464.596353
 20
222.009114
 30
0.0
 11
466.396353
 21
222.009114
 31
0.0
  0
ARC
  5
CC7
100
AcDbEntity
  8
KEVLAR
100
AcDbCircle
 10
469.496353
 20
222.009114
 30
0.0
 40
2.0
100
AcDbArc
 50
0.0
 51
90.0
1001
ACAD
1000
ASC_BOUNDS
1002
{
1070
    19
1002
}
  0
LINE
  5
CC8
100
AcDbEntity
  8
CENTER
  6
CONTINUOUS
100
AcDbLine
 10
468.596353
 20
222.009114
 30
0.0
 11
470.396353
 21
222.009114
 31
0.0
  0
LINE
  5
CC9
100
AcDbEntity
  8
CENTER
  6
CONTINUOUS
100
AcDbLine
 10
469.496353
 20
221.204114
 30
0.0
 11
469.496353
 21
223.004114
 31
0.0
  0
LINE
  5
CCA
100
AcDbEntity
  8
CENTER
  6
CONTINUOUS
100
AcDbLine
 10
465.496353
 20
221.204114
 30
0.0
 11
465.496353
 21
223.004114
 31
0.0
  0
LINE
  5
CCB
100
AcDbEntity
  8
KEVLAR
100
AcDbLine
 10
471.496353
 20
222.009114
 30
0.0
 11
503.933853
 21
222.009114
 31
0.0
1001
ACAD
1000
ASC_BOUNDS
1002
{
1070
    19
1005
0
1005
0
1002
}
  0
LINE
  5
D5A
100
AcDbEntity
  8
CENTER
100
AcDbLine
 10
545.492515
 20
235.998865
 30
0.0
 11
539.413395
 21
235.998865
 31
0.0
  0
LINE
  5
D5B
100
AcDbEntity
  8
CENTER
100
AcDbLine
 10
542.542915
 20
238.853288
 30
0.0
 11
542.542915
 21
233.055385
 31
0.0
  0
DIMENSION
  5
D69
100
AcDbEntity
  8
DIM
100
AcDbDimension
  2
*D4
 10
556.418315
 20
236.350637
 30
0.0
 11
585.631394
 21
249.957029
 31
0.0
 12
201.191397
 22
-9.911642
 32
0.0
 70
   164
  3
STANDARD
100
AcDbRadialDimension
 15
557.385072
 25
238.10146
 35
0.0
 40
0.0
1001
ACAD
1000
DSTYLE
1002
{
1070
   288
1070
     1
1070
   140
1040
0.3
1070
   272
1070
     2
1070
    40
1040
10.0
1070
     3
1000
mm
1070
   287
1070
     0
1070
   271
1070
     2
1070
     4
1000
"
1070
   143
1040
0.03937
1070
   171
1070
     3
1070
   170
1070
     1
1002
}
  0
INSERT
  5
F42
100
AcDbEntity
  8
0
100
AcDbBlockReference
  2
BEAMS-1
 10
428.192916
 20
181.784114
 30
0.0
  0
LINE
  5
10FD
100
AcDbEntity
  8
TEXT
100
AcDbLine
 10
685.369457
 20
504.822347
 30
0.0
 11
685.369457
 21
478.694942
 31
0.0
  0
LINE
  5
10FE
100
AcDbEntity
  8
TEXT
100
AcDbLine
 10
695.281868
 20
504.822347
 30
0.0
 11
695.281868
 21
478.694942
 31
0.0
  0
LINE
  5
10FF
100
AcDbEntity
  8
TEXT
100
AcDbLine
 10
764.877868
 20
504.822347
 30
0.0
 11
764.877868
 21
478.694942
 31
0.0
  0
LINE
  5
1100
100
AcDbEntity
  8
TEXT
100
AcDbLine
 10
787.229868
 20
504.822347
 30
0.0
 11
787.229868
 21
478.694942
 31
0.0
  0
TEXT
  5
1101
100
AcDbEntity
  8
TEXT
100
AcDbText
 10
689.048837
 20
499.694942
 30
0.0
 40
2.0
  1
01
100
AcDbText
  0
TEXT
  5
1102
100
AcDbEntity
  8
TEXT
100
AcDbText
 10
689.048837
 20
496.361609
 30
0.0
 40
2.0
  1
02
100
AcDbText
  0
TEXT
  5
1103
100
AcDbEntity
  8
TEXT
100
AcDbText
 10
689.048837
 20
489.683553
 30
0.0
 40
2.0
  1
03
100
AcDbText
  0
TEXT
  5
1104
100
AcDbEntity
  8
TEXT
100
AcDbText
 10
697.048837
 20
499.694942
 30
0.0
 40
2.0
  1
NEW DETECTOR LENGHT
100
AcDbText
  0
TEXT
  5
1105
100
AcDbEntity
  8
TEXT
100
AcDbText
 10
697.048837
 20
496.361609
 30
0.0
 40
2.0
  1
8.5mm CLEARANCE FROM END OF DET. TO
100
AcDbText
  0
TEXT
  5
1106
100
AcDbEntity
  8
TEXT
100
AcDbText
 10
697.048837
 20
493.028275
 30
0.0
 40
2.0
  1
END OF RIB
100
AcDbText
  0
TEXT
  5
1107
100
AcDbEntity
  8
TEXT
100
AcDbText
 10
697.048837
 20
489.694942
 30
0.0
 40
2.0
  1
9.0mm CLEARANCE, AND LOCATING HOLES
100
AcDbText
  0
TEXT
  5
1108
100
AcDbEntity
  8
TEXT
100
AcDbText
 10
768.048837
 20
499.694942
 30
0.0
 40
2.0
  1
11-13-95
100
AcDbText
  0
TEXT
  5
1109
100
AcDbEntity
  8
TEXT
100
AcDbText
 10
768.048837
 20
496.361609
 30
0.0
 40
2.0
  1
11-13-95
100
AcDbText
  0
TEXT
  5
110A
100
AcDbEntity
  8
TEXT
100
AcDbText
 10
768.048837
 20
489.694942
 30
0.0
 40
2.0
  1
01-26-96
100
AcDbText
  0
LINE
  5
117E
100
AcDbEntity
  8
CENTER
100
AcDbLine
 10
506.544115
 20
84.306231
 30
0.0
 11
506.544115
 21
355.119621
 31
0.0
  0
LINE
  5
117F
100
AcDbEntity
  8
CENTER
100
AcDbLine
 10
781.665192
 20
228.694465
 30
0.0
 11
52.784066
 21
228.694465
 31
0.0
  0
DIMENSION
  5
1511
100
AcDbEntity
  8
DIM
100
AcDbDimension
  2
*D5
 10
378.546353
 20
222.009114
 30
0.0
 11
409.890118
 21
249.764169
 31
0.0
 12
201.191397
 22
-9.911642
 32
0.0
 70
   164
  3
STANDARD
100
AcDbRadialDimension
 15
379.202777
 25
223.898322
 35
0.0
 40
0.0
1001
ACAD
1000
DSTYLE
1002
{
1070
   288
1070
     1
1070
   140
1040
0.3
1070
    48
1040
0.05
1070
   272
1070
     2
1070
    75
1070
     1
1070
    40
1040
10.0
1070
     3
1000
mm
1070
   287
1070
     0
1070
   271
1070
     2
1070
     4
1000
"
1070
   274
1070
     3
1070
   143
1040
0.03937
1070
   171
1070
     3
1070
   170
1070
     1
1002
}
  0
LINE
  5
1537
100
AcDbEntity
  8
CENTER
100
AcDbLine
 10
428.905171
 20
375.888736
 30
0.0
 11
70.466077
 21
375.888736
 31
0.0
  0
INSERT
  5
16E4
100
AcDbEntity
  8
KEVLAR
100
AcDbBlockReference
  2
D-BORDER
 10
0.0
 20
0.0
 30
0.0
 41
25.4
 42
25.4
 43
25.4
  0
LEADER
  5
16E5
100
AcDbEntity
  8
DIM
100
AcDbLeader
  3
STANDARD
 73
     0
 75
     1
 40
8.0
 41
85.0
 76
     3
 10
234.339846
 20
368.915764
 30
0.0
 10
208.775157
 20
333.691473
 30
0.0
 10
206.975157
 20
333.691473
 30
0.0
 77
   256
1001
ACAD
1000
DSTYLE
1002
{
1070
   288
1070
     1
1070
   140
1040
0.3
1070
    48
1040
0.05
1070
   272
1070
     2
1070
    75
1070
     1
1070
    40
1040
10.0
1070
     3
1000
mm
1070
   287
1070
     0
1070
   271
1070
     2
1070
     4
1000
"
1070
   274
1070
     3
1070
   143
1040
0.03937
1070
   171
1070
     3
1070
   170
1070
     1
1002
}
  0
MTEXT
  5
16E6
100
AcDbEntity
  8
DIM
100
AcDbMText
 10
206.075157
 20
333.691473
 30
0.0
 40
3.0
 41
0.0
 71
     6
 72
     1
  1
{SLOT, %%c2.38mm [0.094"]}\P{0.15mm [0.006"] CENTER TO CENTER}\P{2X}
  0
LINE
  5
16FB
100
AcDbEntity
  8
CENTER
100
AcDbLine
 10
338.188035
 20
316.986501
 30
0.0
 11
338.188035
 21
488.853318
 31
0.0
  0
LEADER
  5
175E
100
AcDbEntity
  8
TEXT
100
AcDbLeader
  3
STANDARD
 73
     0
 74
     0
 75
     1
 40
3.0
 41
24.0
 76
     3
 10
338.169335
 20
249.095917
 30
0.0
 10
354.171914
 20
282.582755
 30
0.0
 10
355.971914
 20
282.582755
 30
0.0
 77
   256
1001
ACAD
1000
DSTYLE
1002
{
1070
   140
1040
0.3
1070
    47
1040
0.03
1070
    71
1070
     1
1070
    48
1040
0.03
1070
   272
1070
     2
1070
    76
1070
     1
1070
    40
1040
10.0
1070
     3
1000
mm
1070
   287
1070
     0
1070
   271
1070
     2
1070
     4
1000
"
1070
   274
1070
     3
1070
   143
1040
0.03937
1070
   171
1070
     3
1070
   170
1070
     1
1002
}
  0
MTEXT
  5
175F
100
AcDbEntity
  8
TEXT
100
AcDbMText
 10
356.871914
 20
282.582755
 30
0.0
 40
3.0
 41
0.0
 71
     4
 72
     1
  1
{SEE VIEW}
  0
TEXT
  5
1760
100
AcDbEntity
  8
TEXT
100
AcDbText
 10
384.638496
 20
281.054423
 30
0.0
 40
4.0
  1
A
100
AcDbText
  0
TEXT
  5
1761
100
AcDbEntity
  8
TEXT
100
AcDbText
 10
296.042433
 20
319.448311
 30
0.0
 40
8.0
  1
A
100
AcDbText
  0
TEXT
  5
1763
100
AcDbEntity
  8
TEXT
100
AcDbText
 10
264.374391
 20
318.954609
 30
0.0
 40
6.0
  1
VIEW
100
AcDbText
  0
TEXT
  5
1764
100
AcDbEntity
  8
TEXT
100
AcDbText
 10
264.374391
 20
308.954609
 30
0.0
 40
6.0
  1
SCALE 5:1
100
AcDbText
  0
POLYLINE
  5
1766
100
AcDbEntity
  8
REDTEXT
100
AcDb2dPolyline
 66
     1
 10
0.0
 20
0.0
 30
0.0
 70
     1
  0
VERTEX
  5
1767
100
AcDbEntity
  8
REDTEXT
100
AcDbVertex
100
AcDb2dVertex
 10
499.023918
 20
359.0
 30
0.0
  0
VERTEX
  5
1768
100
AcDbEntity
  8
REDTEXT
100
AcDbVertex
100
AcDb2dVertex
 10
499.023918
 20
375.0
 30
0.0
  0
VERTEX
  5
1769
100
AcDbEntity
  8
REDTEXT
100
AcDbVertex
100
AcDb2dVertex
 10
514.023918
 20
375.0
 30
0.0
  0
VERTEX
  5
176A
100
AcDbEntity
  8
REDTEXT
100
AcDbVertex
100
AcDb2dVertex
 10
514.023918
 20
359.0
 30
0.0
  0
SEQEND
  5
176B
100
AcDbEntity
  8
REDTEXT
  0
TEXT
  5
176C
100
AcDbEntity
  8
REDTEXT
100
AcDbText
 10
504.023918
 20
362.0
 30
0.0
 40
9.0
  1
0
100
AcDbText
  0
POLYLINE
  5
176D
100
AcDbEntity
  8
REDTEXT
100
AcDb2dPolyline
 66
     1
 10
0.0
 20
0.0
 30
0.0
 70
     1
  0
VERTEX
  5
176E
100
AcDbEntity
  8
REDTEXT
100
AcDbVertex
100
AcDb2dVertex
 10
784.010023
 20
220.286394
 30
0.0
  0
VERTEX
  5
176F
100
AcDbEntity
  8
REDTEXT
100
AcDbVertex
100
AcDb2dVertex
 10
784.010023
 20
236.286394
 30
0.0
  0
VERTEX
  5
1770
100
AcDbEntity
  8
REDTEXT
100
AcDbVertex
100
AcDb2dVertex
 10
799.010023
 20
236.286394
 30
0.0
  0
VERTEX
  5
1771
100
AcDbEntity
  8
REDTEXT
100
AcDbVertex
100
AcDb2dVertex
 10
799.010023
 20
220.286394
 30
0.0
  0
SEQEND
  5
1772
100
AcDbEntity
  8
REDTEXT
  0
TEXT
  5
1773
100
AcDbEntity
  8
REDTEXT
100
AcDbText
 10
789.010023
 20
223.286394
 30
0.0
 40
9.0
  1
0
100
AcDbText
  0
POLYLINE
  5
17A3
100
AcDbEntity
  8
REDTEXT
100
AcDb2dPolyline
 66
     1
 10
0.0
 20
0.0
 30
0.0
 70
     1
  0
VERTEX
  5
17A4
100
AcDbEntity
  8
REDTEXT
100
AcDbVertex
100
AcDb2dVertex
 10
330.688035
 20
493.526784
 30
0.0
  0
VERTEX
  5
17A5
100
AcDbEntity
  8
REDTEXT
100
AcDbVertex
100
AcDb2dVertex
 10
330.688035
 20
509.526784
 30
0.0
  0
VERTEX
  5
17A6
100
AcDbEntity
  8
REDTEXT
100
AcDbVertex
100
AcDb2dVertex
 10
345.688035
 20
509.526784
 30
0.0
  0
VERTEX
  5
17A7
100
AcDbEntity
  8
REDTEXT
100
AcDbVertex
100
AcDb2dVertex
 10
345.688035
 20
493.526784
 30
0.0
  0
SEQEND
  5
17A8
100
AcDbEntity
  8
REDTEXT
  0
TEXT
  5
17A9
100
AcDbEntity
  8
REDTEXT
100
AcDbText
 10
335.688035
 20
496.526784
 30
0.0
 40
9.0
  1
0
100
AcDbText
  0
POLYLINE
  5
17AA
100
AcDbEntity
  8
REDTEXT
100
AcDb2dPolyline
 66
     1
 10
0.0
 20
0.0
 30
0.0
 70
     1
  0
VERTEX
  5
17AB
100
AcDbEntity
  8
REDTEXT
100
AcDbVertex
100
AcDb2dVertex
 10
435.438594
 20
367.166482
 30
0.0
  0
VERTEX
  5
17AC
100
AcDbEntity
  8
REDTEXT
100
AcDbVertex
100
AcDb2dVertex
 10
435.438594
 20
383.166482
 30
0.0
  0
VERTEX
  5
17AD
100
AcDbEntity
  8
REDTEXT
100
AcDbVertex
100
AcDb2dVertex
 10
450.438594
 20
383.166482
 30
0.0
  0
VERTEX
  5
17AE
100
AcDbEntity
  8
REDTEXT
100
AcDbVertex
100
AcDb2dVertex
 10
450.438594
 20
367.166482
 30
0.0
  0
SEQEND
  5
17AF
100
AcDbEntity
  8
REDTEXT
  0
TEXT
  5
17B0
100
AcDbEntity
  8
REDTEXT
100
AcDbText
 10
440.438594
 20
370.166482
 30
0.0
 40
9.0
  1
0
100
AcDbText
  0
ACAD_ZOMBIE_ENTITY
  5
1836
100
AcDbEntity
  8
KEVLAR
100
AcDbZombieEntity
 90
      498
 91
      516
 92
        8
310
0800000000000000
 93
       97
310
D2800000002029040000780280
330
1837
330
1838
330
1839
330
183A
330
1837
 94
        0
  0
CIRCLE
  5
1881
100
AcDbEntity
  8
KEVLAR
100
AcDbCircle
 10
542.542915
 20
235.998865
 30
0.0
 40
1.19125
  0
LINE
  5
1884
100
AcDbEntity
  8
CENTER
100
AcDbLine
 10
509.493715
 20
228.694465
 30
0.0
 11
503.414595
 21
228.694465
 31
0.0
  0
CIRCLE
  5
1885
100
AcDbEntity
  8
KEVLAR
100
AcDbCircle
 10
506.544115
 20
228.694465
 30
0.0
 40
1.19125
  0
LINE
  5
1886
100
AcDbEntity
  8
CENTER
100
AcDbLine
 10
506.544115
 20
231.548888
 30
0.0
 11
506.544115
 21
225.750985
 31
0.0
  0
ARC
  5
1889
100
AcDbEntity
  8
KEVLAR
100
AcDbCircle
 10
338.44356
 20
228.694405
 30
0.0
 40
1.19125
100
AcDbArc
 50
90.0
 51
270.0
  0
LINE
  5
188A
100
AcDbEntity
  8
CENTER
100
AcDbLine
 10
338.44356
 20
231.548828
 30
0.0
 11
338.44356
 21
225.750924
 31
0.0
  0
LINE
  5
188B
100
AcDbEntity
  8
CENTER
100
AcDbLine
 10
341.39316
 20
228.694405
 30
0.0
 11
335.31404
 21
228.694405
 31
0.0
  0
LINE
  5
188C
100
AcDbEntity
  8
CENTER
100
AcDbLine
 10
338.59596
 20
231.548828
 30
0.0
 11
338.59596
 21
225.750924
 31
0.0
  0
ARC
  5
188E
100
AcDbEntity
  8
KEVLAR
100
AcDbCircle
 10
338.59596
 20
228.694405
 30
0.0
 40
1.19125
100
AcDbArc
 50
270.0
 51
90.0
  0
LINE
  5
188F
100
AcDbEntity
  8
KEVLAR
100
AcDbLine
 10
338.59596
 20
229.885655
 30
0.0
 11
338.44356
 21
229.885655
 31
0.0
  0
LINE
  5
1890
100
AcDbEntity
  8
KEVLAR
100
AcDbLine
 10
338.59596
 20
227.503155
 30
0.0
 11
338.44356
 21
227.503155
 31
0.0
  0
LINE
  5
1891
100
AcDbEntity
  8
KEVLAR
100
AcDbLine
 10
297.86766
 20
234.807555
 30
0.0
 11
297.71526
 21
234.807555
 31
0.0
  0
LINE
  5
1892
100
AcDbEntity
  8
KEVLAR
100
AcDbLine
 10
297.86766
 20
237.190055
 30
0.0
 11
297.71526
 21
237.190055
 31
0.0
  0
ARC
  5
1893
100
AcDbEntity
  8
KEVLAR
100
AcDbCircle
 10
297.86766
 20
235.998805
 30
0.0
 40
1.19125
100
AcDbArc
 50
270.0
 51
90.0
  0
LINE
  5
1894
100
AcDbEntity
  8
CENTER
100
AcDbLine
 10
297.86766
 20
238.853228
 30
0.0
 11
297.86766
 21
233.055324
 31
0.0
  0
LINE
  5
1895
100
AcDbEntity
  8
CENTER
100
AcDbLine
 10
300.66486
 20
235.998805
 30
0.0
 11
294.58574
 21
235.998805
 31
0.0
  0
LINE
  5
1896
100
AcDbEntity
  8
CENTER
100
AcDbLine
 10
297.71526
 20
238.853228
 30
0.0
 11
297.71526
 21
233.055324
 31
0.0
  0
ARC
  5
1897
100
AcDbEntity
  8
KEVLAR
100
AcDbCircle
 10
297.71526
 20
235.998805
 30
0.0
 40
1.19125
100
AcDbArc
 50
90.0
 51
270.0
  0
DIMENSION
  5
18A5
100
AcDbEntity
  8
DIM
100
AcDbDimension
  2
*D8
 10
270.816637
 20
224.009114
 30
0.0
 11
251.866637
 21
220.409114
 31
0.0
 12
-26.939063
 22
0.0
 32
0.0
 70
    32
  3
STANDARD
100
AcDbAlignedDimension
 13
52.784066
 23
228.694465
 33
0.0
 14
374.546353
 24
224.009114
 34
0.0
 50
90.0
100
AcDbRotatedDimension
1001
ACAD
1000
DSTYLE
1002
{
1070
   140
1040
0.3
1070
    47
1040
0.03
1070
    48
1040
0.03
1070
   272
1070
     2
1070
    75
1070
     1
1070
    40
1040
10.0
1070
     3
1000
mm
1070
   287
1070
     0
1070
   271
1070
     2
1070
     4
1000
"
1070
   274
1070
     3
1070
   143
1040
0.03937
1070
   171
1070
     3
1070
   170
1070
     1
1002
}
  0
DIMENSION
  5
18B3
100
AcDbEntity
  8
DIM
100
AcDbDimension
  2
*D9
 10
141.909999
 20
228.694465
 30
0.0
 11
105.959999
 21
225.094465
 31
0.0
 12
-26.939063
 22
0.0
 32
0.0
 70
    32
  3
STANDARD
100
AcDbAlignedDimension
 13
294.58574
 23
235.998805
 33
0.0
 14
52.784066
 24
228.694465
 34
0.0
 50
90.0
100
AcDbRotatedDimension
1001
ACAD
1000
DSTYLE
1002
{
1070
   140
1040
0.3
1070
    47
1040
0.03
1070
    71
1070
     1
1070
    48
1040
0.03
1070
   272
1070
     2
1070
    76
1070
     1
1070
    40
1040
10.0
1070
     3
1000
mm
1070
   287
1070
     0
1070
   271
1070
     2
1070
     4
1000
"
1070
   274
1070
     3
1070
   143
1040
0.03937
1070
   171
1070
     3
1070
   170
1070
     1
1002
}
  0
DIMENSION
  5
18C1
100
AcDbEntity
  8
DIM
100
AcDbDimension
  2
*D10
 10
223.79202
 20
228.694465
 30
0.0
 11
184.49202
 21
225.094465
 31
0.0
 70
    32
  3
STANDARD
100
AcDbAlignedDimension
 13
281.91656
 23
232.885105
 33
0.0
 14
52.784066
 24
228.694465
 34
0.0
 50
90.0
100
AcDbRotatedDimension
1001
ACAD
1000
DSTYLE
1002
{
1070
   140
1040
0.3
1070
    47
1040
0.05
1070
    71
1070
     1
1070
   272
1070
     2
1070
    76
1070
     1
1070
    40
1040
10.0
1070
     3
1000
mm
1070
   144
1040
0.2
1070
   287
1070
     0
1070
   271
1070
     2
1070
     4
1000
"
1070
   274
1070
     3
1070
   143
1040
0.03937
1070
   171
1070
     3
1070
   170
1070
     1
1002
}
  0
DIMENSION
  5
18CF
100
AcDbEntity
  8
DIM
100
AcDbDimension
  2
*D11
 10
598.411755
 20
222.009114
 30
0.0
 11
558.611755
 21
218.409114
 31
0.0
 12
-26.939063
 22
0.0
 32
0.0
 70
    32
  3
STANDARD
100
AcDbAlignedDimension
 13
781.665192
 23
228.694465
 33
0.0
 14
503.933853
 24
222.009114
 34
0.0
 50
90.0
100
AcDbRotatedDimension
1001
ACAD
1000
DSTYLE
1002
{
1070
   140
1040
0.3
1070
    71
1070
     1
1070
    48
1040
0.05
1070
   272
1070
     2
1070
    75
1070
     1
1070
    40
1040
10.0
1070
     3
1000
mm
1070
   287
1070
     0
1070
   271
1070
     2
1070
     4
1000
"
1070
   274
1070
     3
1070
   143
1040
0.03937
1070
   171
1070
     3
1070
   170
1070
     1
1002
}
  0
DIMENSION
  5
18DD
100
AcDbEntity
  8
DIM
100
AcDbDimension
  2
*D12
 10
680.622621
 20
228.694465
 30
0.0
 11
641.322621
 21
225.094465
 31
0.0
 70
    32
  3
STANDARD
100
AcDbAlignedDimension
 13
558.418315
 23
232.885065
 33
0.0
 14
781.665192
 24
228.694465
 34
0.0
 50
90.0
100
AcDbRotatedDimension
1001
ACAD
1000
DSTYLE
1002
{
1070
   140
1040
0.3
1070
    47
1040
0.05
1070
    71
1070
     1
1070
   272
1070
     2
1070
    76
1070
     1
1070
    40
1040
10.0
1070
     3
1000
mm
1070
   144
1040
0.2
1070
   287
1070
     0
1070
   271
1070
     2
1070
     4
1000
"
1070
   274
1070
     3
1070
   143
1040
0.03937
1070
   171
1070
     3
1070
   170
1070
     1
1002
}
  0
DIMENSION
  5
18EB
100
AcDbEntity
  8
DIM
100
AcDbDimension
  2
*D13
 10
756.914304
 20
228.694465
 30
0.0
 11
720.964304
 21
225.094465
 31
0.0
 12
-26.939063
 22
0.0
 32
0.0
 70
    32
  3
STANDARD
100
AcDbAlignedDimension
 13
545.492515
 23
235.998865
 33
0.0
 14
781.665192
 24
228.694465
 34
0.0
 50
90.0
100
AcDbRotatedDimension
1001
ACAD
1000
DSTYLE
1002
{
1070
   140
1040
0.3
1070
    47
1040
0.03
1070
    71
1070
     1
1070
    48
1040
0.03
1070
   272
1070
     2
1070
    76
1070
     1
1070
    40
1040
10.0
1070
     3
1000
mm
1070
   287
1070
     0
1070
   271
1070
     2
1070
     4
1000
"
1070
   274
1070
     3
1070
   143
1040
0.03937
1070
   171
1070
     3
1070
   170
1070
     1
1002
}
  0
DIMENSION
  5
1941
100
AcDbEntity
  8
DIM
100
AcDbDimension
  2
*D14
 10
68.905072
 20
228.694465
 30
0.0
 11
49.705072
 21
225.094465
 31
0.0
 12
-26.939063
 22
0.0
 32
0.0
 70
    32
  3
STANDARD
100
AcDbAlignedDimension
 13
283.91656
 23
238.350637
 33
0.0
 14
52.784066
 24
228.694465
 34
0.0
 50
90.0
100
AcDbRotatedDimension
1001
ACAD
1000
DSTYLE
1002
{
1070
   140
1040
0.3
1070
    47
1040
0.03
1070
    48
1040
0.03
1070
   272
1070
     2
1070
    76
1070
     1
1070
    40
1040
10.0
1070
     3
1000
mm
1070
   287
1070
     0
1070
   271
1070
     2
1070
     4
1000
"
1070
   274
1070
     3
1070
   143
1040
0.03937
1070
   171
1070
     3
1070
   170
1070
     1
1002
}
  0
DIMENSION
  5
197E
100
AcDbEntity
  8
DIM
100
AcDbDimension
  2
*D15
 10
506.544115
 20
281.371931
 30
0.0
 11
532.481215
 21
281.371931
 31
0.0
 70
    32
  3
STANDARD
100
AcDbAlignedDimension
 13
558.418315
 23
236.350637
 33
0.0
 14
506.544115
 24
355.119621
 34
0.0
100
AcDbRotatedDimension
1001
ACAD
1000
DSTYLE
1002
{
1070
   140
1040
0.3
1070
    47
1040
0.03
1070
    48
1040
0.03
1070
   272
1070
     2
1070
    76
1070
     1
1070
    40
1040
10.0
1070
     3
1000
mm
1070
   287
1070
     0
1070
   271
1070
     2
1070
     4
1000
"
1070
   274
1070
     3
1070
   143
1040
0.03937
1070
   171
1070
     3
1070
   170
1070
     1
1002
}
  0
DIMENSION
  5
198B
100
AcDbEntity
  8
DIM
100
AcDbDimension
  2
*D16
 10
506.544115
 20
272.726359
 30
0.0
 11
468.294115
 21
272.726359
 31
0.0
 70
    32
  3
STANDARD
100
AcDbAlignedDimension
 13
542.542915
 23
238.853288
 33
0.0
 14
506.544115
 24
355.119621
 34
0.0
100
AcDbRotatedDimension
1001
ACAD
1000
DSTYLE
1002
{
1070
   140
1040
0.3
1070
    47
1040
0.03
1070
    71
1070
     1
1070
    48
1040
0.03
1070
   272
1070
     2
1070
    76
1070
     1
1070
    40
1040
10.0
1070
     3
1000
mm
1070
   287
1070
     0
1070
   271
1070
     2
1070
     4
1000
"
1070
   274
1070
     3
1070
   143
1040
0.03937
1070
   171
1070
     3
1070
   170
1070
     1
1002
}
  0
DIMENSION
  5
1998
100
AcDbEntity
  8
DIM
100
AcDbDimension
  2
*D17
 10
506.544115
 20
198.918647
 30
0.0
 11
528.794115
 21
198.918647
 31
0.0
 70
    32
  3
STANDARD
100
AcDbAlignedDimension
 13
469.496353
 23
221.204114
 33
0.0
 14
506.544115
 24
84.306231
 34
0.0
100
AcDbRotatedDimension
1001
ACAD
1000
DSTYLE
1002
{
1070
   140
1040
0.3
1070
    47
1040
0.03
1070
    48
1040
0.03
1070
   272
1070
     2
1070
    76
1070
     1
1070
    40
1040
10.0
1070
     3
1000
mm
1070
   287
1070
     0
1070
   271
1070
     2
1070
     4
1000
"
1070
   274
1070
     3
1070
   143
1040
0.03937
1070
   171
1070
     3
1070
   170
1070
     1
1002
}
  0
DIMENSION
  5
19A5
100
AcDbEntity
  8
DIM
100
AcDbDimension
  2
*D18
 10
506.544115
 20
190.791809
 30
0.0
 11
486.020234
 21
190.791809
 31
0.0
 70
    32
  3
STANDARD
100
AcDbAlignedDimension
 13
465.496353
 23
221.204114
 33
0.0
 14
506.544115
 24
84.306231
 34
0.0
100
AcDbRotatedDimension
1001
ACAD
1000
DSTYLE
1002
{
1070
   140
1040
0.3
1070
    47
1040
0.03
1070
    48
1040
0.03
1070
   272
1070
     2
1070
    76
1070
     1
1070
    40
1040
10.0
1070
     3
1000
mm
1070
   287
1070
     0
1070
   271
1070
     2
1070
     4
1000
"
1070
   274
1070
     3
1070
   143
1040
0.03937
1070
   171
1070
     3
1070
   170
1070
     1
1002
}
  0
DIMENSION
  5
19B2
100
AcDbEntity
  8
DIM
100
AcDbDimension
  2
*D19
 10
506.544115
 20
182.599464
 30
0.0
 11
442.545234
 21
182.599464
 31
0.0
 70
    32
  3
STANDARD
100
AcDbAlignedDimension
 13
378.546353
 23
221.109114
 33
0.0
 14
506.544115
 24
84.306231
 34
0.0
100
AcDbRotatedDimension
1001
ACAD
1000
DSTYLE
1002
{
1070
   140
1040
0.3
1070
    47
1040
0.03
1070
    48
1040
0.03
1070
   272
1070
     2
1070
    76
1070
     1
1070
    40
1040
10.0
1070
     3
1000
mm
1070
   287
1070
     0
1070
   271
1070
     2
1070
     4
1000
"
1070
   274
1070
     3
1070
   143
1040
0.03937
1070
   171
1070
     3
1070
   170
1070
     1
1002
}
  0
DIMENSION
  5
19BF
100
AcDbEntity
  8
DIM
100
AcDbDimension
  2
*D20
 10
506.544115
 20
174.126804
 30
0.0
 11
440.545234
 21
174.126804
 31
0.0
 70
    32
  3
STANDARD
100
AcDbAlignedDimension
 13
374.546353
 23
221.204114
 33
0.0
 14
506.544115
 24
84.306231
 34
0.0
100
AcDbRotatedDimension
1001
ACAD
1000
DSTYLE
1002
{
1070
   140
1040
0.3
1070
    47
1040
0.03
1070
    48
1040
0.03
1070
   272
1070
     2
1070
    76
1070
     1
1070
    40
1040
10.0
1070
     3
1000
mm
1070
   287
1070
     0
1070
   271
1070
     2
1070
     4
1000
"
1070
   274
1070
     3
1070
   143
1040
0.03937
1070
   171
1070
     3
1070
   170
1070
     1
1002
}
  0
DIMENSION
  5
19CC
100
AcDbEntity
  8
DIM
100
AcDbDimension
  2
*D21
 10
506.544115
 20
206.010944
 30
0.0
 11
526.544115
 21
206.010944
 31
0.0
 70
    32
  3
STANDARD
100
AcDbAlignedDimension
 13
503.933853
 23
222.009114
 33
0.0
 14
506.544115
 24
84.306231
 34
0.0
100
AcDbRotatedDimension
1001
ACAD
1000
DSTYLE
1002
{
1070
   140
1040
0.3
1070
    47
1040
0.03
1070
    48
1040
0.03
1070
   272
1070
     2
1070
    76
1070
     1
1070
    40
1040
10.0
1070
     3
1000
mm
1070
   287
1070
     0
1070
   271
1070
     2
1070
     4
1000
"
1070
   274
1070
     3
1070
   143
1040
0.03937
1070
   171
1070
     3
1070
   170
1070
     1
1002
}
  0
DIMENSION
  5
1A10
100
AcDbEntity
  8
DIM
100
AcDbDimension
  2
*D22
 10
506.544115
 20
165.343572
 30
0.0
 11
423.326484
 21
165.343572
 31
0.0
 70
    32
  3
STANDARD
100
AcDbAlignedDimension
 13
340.108853
 23
222.009114
 33
0.0
 14
506.544115
 24
84.306231
 34
0.0
100
AcDbRotatedDimension
1001
ACAD
1000
DSTYLE
1002
{
1070
   140
1040
0.3
1070
    47
1040
0.03
1070
    48
1040
0.03
1070
   272
1070
     2
1070
    76
1070
     1
1070
    40
1040
10.0
1070
     3
1000
mm
1070
   287
1070
     0
1070
   271
1070
     2
1070
     4
1000
"
1070
   274
1070
     3
1070
   143
1040
0.03937
1070
   171
1070
     3
1070
   170
1070
     1
1002
}
  0
DIMENSION
  5
1A2A
100
AcDbEntity
  8
DIM
100
AcDbDimension
  2
*D23
 10
506.544115
 20
154.799543
 30
0.0
 11
413.907654
 21
154.799543
 31
0.0
 70
    32
  3
STANDARD
100
AcDbAlignedDimension
 13
321.271194
 23
232.885063
 33
0.0
 14
506.544115
 24
84.306231
 34
0.0
100
AcDbRotatedDimension
1001
ACAD
1000
DSTYLE
1002
{
1070
   140
1040
0.3
1070
    47
1040
0.03
1070
    48
1040
0.03
1070
   272
1070
     2
1070
    76
1070
     1
1070
    40
1040
10.0
1070
     3
1000
mm
1070
   287
1070
     0
1070
   271
1070
     2
1070
     4
1000
"
1070
   274
1070
     3
1070
   143
1040
0.03937
1070
   171
1070
     3
1070
   170
1070
     1
1002
}
  0
DIMENSION
  5
1A44
100
AcDbEntity
  8
DIM
100
AcDbDimension
  2
*D24
 10
506.544115
 20
145.908685
 30
0.0
 11
394.230338
 21
145.908685
 31
0.0
 70
    32
  3
STANDARD
100
AcDbAlignedDimension
 13
281.91656
 23
232.885105
 33
0.0
 14
506.544115
 24
84.306231
 34
0.0
100
AcDbRotatedDimension
1001
ACAD
1000
DSTYLE
1002
{
1070
   140
1040
0.3
1070
    47
1040
0.03
1070
    48
1040
0.03
1070
   272
1070
     2
1070
    76
1070
     1
1070
    40
1040
10.0
1070
     3
1000
mm
1070
   287
1070
     0
1070
   271
1070
     2
1070
     4
1000
"
1070
   274
1070
     3
1070
   143
1040
0.03937
1070
   171
1070
     3
1070
   170
1070
     1
1002
}
  0
CIRCLE
  5
1A5C
100
AcDbEntity
  8
TEXT
  6
HIDDEN
100
AcDbCircle
 10
319.086988
 20
234.001731
 30
0.0
 40
23.588581
  0
LINE
  5
1A5D
100
AcDbEntity
  8
KEVLAR
100
AcDbLine
 10
54.653094
 20
424.169899
 30
0.0
 11
285.143391
 21
424.169899
 31
0.0
1001
ACAD
1000
ASC_BOUNDS
1002
{
1070
    19
1002
}
  0
LINE
  5
1A5E
100
AcDbEntity
  8
CENTER
100
AcDbLine
 10
87.330901
 20
412.410736
 30
0.0
 11
56.935299
 21
412.410736
 31
0.0
  0
ARC
  5
1A5F
100
AcDbEntity
  8
KEVLAR
100
AcDbCircle
 10
72.582901
 20
412.410736
 30
0.0
 40
5.95625
100
AcDbArc
 50
90.0
 51
270.0
  0
LINE
  5
1A60
100
AcDbEntity
  8
CENTER
100
AcDbLine
 10
72.582901
 20
426.682851
 30
0.0
 11
72.582901
 21
397.693334
 31
0.0
  0
LINE
  5
1A61
100
AcDbEntity
  8
CENTER
100
AcDbLine
 10
73.344901
 20
426.682851
 30
0.0
 11
73.344901
 21
397.693334
 31
0.0
  0
ARC
  5
1A62
100
AcDbEntity
  8
KEVLAR
100
AcDbCircle
 10
73.344901
 20
412.410736
 30
0.0
 40
5.95625
100
AcDbArc
 50
270.0
 51
90.0
  0
LINE
  5
1A63
100
AcDbEntity
  8
KEVLAR
100
AcDbLine
 10
73.344901
 20
418.366986
 30
0.0
 11
72.582901
 21
418.366986
 31
0.0
  0
LINE
  5
1A64
100
AcDbEntity
  8
KEVLAR
100
AcDbLine
 10
55.671236
 20
396.842171
 30
0.0
 11
190.362569
 21
396.842031
 31
0.0
1001
ACAD
1000
ASC_BOUNDS
1002
{
1070
    19
1002
}
  0
LINE
  5
1A65
100
AcDbEntity
  8
KEVLAR
100
AcDbLine
 10
190.362569
 20
396.842031
 30
0.0
 11
284.550867
 21
342.462284
 31
0.0
1001
ACAD
1000
ASC_BOUNDS
1002
{
1070
    19
1002
}
  0
LINE
  5
1A66
100
AcDbEntity
  8
KEVLAR
100
AcDbLine
 10
276.986401
 20
369.932486
 30
0.0
 11
276.224401
 21
369.932486
 31
0.0
  0
LINE
  5
1A67
100
AcDbEntity
  8
KEVLAR
100
AcDbLine
 10
276.986401
 20
381.844986
 30
0.0
 11
276.224401
 21
381.844986
 31
0.0
  0
ARC
  5
1A68
100
AcDbEntity
  8
KEVLAR
100
AcDbCircle
 10
276.986401
 20
375.888736
 30
0.0
 40
5.95625
100
AcDbArc
 50
270.0
 51
90.0
  0
LINE
  5
1A69
100
AcDbEntity
  8
CENTER
100
AcDbLine
 10
276.986401
 20
390.160851
 30
0.0
 11
276.986401
 21
361.171334
 31
0.0
  0
LINE
  5
1A6A
100
AcDbEntity
  8
CENTER
100
AcDbLine
 10
290.972401
 20
375.888736
 30
0.0
 11
260.576799
 21
375.888736
 31
0.0
  0
LINE
  5
1A6B
100
AcDbEntity
  8
CENTER
100
AcDbLine
 10
276.224401
 20
390.160851
 30
0.0
 11
276.224401
 21
361.171334
 31
0.0
  0
ARC
  5
1A6C
100
AcDbEntity
  8
KEVLAR
100
AcDbCircle
 10
276.224401
 20
375.888736
 30
0.0
 40
5.95625
100
AcDbArc
 50
90.0
 51
270.0
  0
LINE
  5
1A6E
100
AcDbEntity
  8
KEVLAR
100
AcDbLine
 10
284.550867
 20
342.462284
 30
0.0
 11
294.765104
 21
342.462284
 31
0.0
1001
ACAD
1000
ASC_BOUNDS
1002
{
1070
    19
1002
}
  0
LINE
  5
1A6F
100
AcDbEntity
  8
KEVLAR
100
AcDbLine
 10
54.653094
 20
424.169899
 30
0.0
 11
51.441968
 21
419.623034
 31
0.0
  0
LINE
  5
1A70
100
AcDbEntity
  8
KEVLAR
100
AcDbLine
 10
51.441968
 20
419.623034
 30
0.0
 11
53.515047
 21
411.852803
 31
0.0
  0
LINE
  5
1A71
100
AcDbEntity
  8
KEVLAR
100
AcDbLine
 10
53.515047
 20
411.852803
 30
0.0
 11
50.923694
 21
403.56455
 31
0.0
  0
LINE
  5
1A72
100
AcDbEntity
  8
KEVLAR
100
AcDbLine
 10
50.923694
 20
403.56455
 30
0.0
 11
55.671236
 21
396.842171
 31
0.0
  0
LINE
  5
1A73
100
AcDbEntity
  8
KEVLAR
100
AcDbLine
 10
294.765104
 20
342.462284
 30
0.0
 11
288.809725
 21
351.762991
 31
0.0
  0
LINE
  5
1A74
100
AcDbEntity
  8
KEVLAR
100
AcDbLine
 10
288.809725
 20
351.762991
 30
0.0
 11
293.474158
 21
368.339491
 31
0.0
  0
LINE
  5
1A75
100
AcDbEntity
  8
KEVLAR
100
AcDbLine
 10
293.474158
 20
368.339491
 30
0.0
 11
287.773186
 21
383.879954
 31
0.0
  0
LINE
  5
1A76
100
AcDbEntity
  8
KEVLAR
100
AcDbLine
 10
287.773186
 20
383.879954
 30
0.0
 11
291.919344
 21
399.938438
 31
0.0
  0
LINE
  5
1A77
100
AcDbEntity
  8
KEVLAR
100
AcDbLine
 10
291.919344
 20
399.938438
 30
0.0
 11
281.035674
 21
411.852803
 31
0.0
  0
LINE
  5
1A78
100
AcDbEntity
  8
KEVLAR
100
AcDbLine
 10
281.035674
 20
411.852803
 30
0.0
 11
285.143391
 21
424.169899
 31
0.0
  0
CIRCLE
  5
1A79
100
AcDbEntity
  8
KEVLAR
100
AcDbCircle
 10
338.188035
 20
375.888736
 30
0.0
 40
5.95625
  0
LINE
  5
1A7B
100
AcDbEntity
  8
KEVLAR
100
AcDbLine
 10
325.136724
 20
342.46198
 30
0.0
 11
429.059035
 21
396.841736
 31
0.0
  0
LINE
  5
1A7C
100
AcDbEntity
  8
KEVLAR
100
AcDbLine
 10
535.237969
 20
396.841736
 30
0.0
 11
429.059035
 21
396.841736
 31
0.0
1001
ACAD
1000
ASC_BOUNDS
1002
{
1070
    19
1002
}
  0
LINE
  5
1A7D
100
AcDbEntity
  8
KEVLAR
100
AcDbLine
 10
327.633607
 20
424.169595
 30
0.0
 11
532.606256
 21
424.169595
 31
0.0
1001
ACAD
1000
ASC_BOUNDS
1002
{
1070
    19
1002
}
  0
CIRCLE
  5
1A7E
100
AcDbEntity
  8
KEVLAR
100
AcDbCircle
 10
518.182035
 20
412.410736
 30
0.0
 40
5.95625
  0
LINE
  5
1A7F
100
AcDbEntity
  8
CENTER
100
AcDbLine
 10
518.182035
 20
426.682851
 30
0.0
 11
518.182035
 21
397.693334
 31
0.0
  0
LINE
  5
1A80
100
AcDbEntity
  8
CENTER
100
AcDbLine
 10
532.930034
 20
412.410736
 30
0.0
 11
502.534433
 21
412.410736
 31
0.0
  0
LINE
  5
1A81
100
AcDbEntity
  8
KEVLAR
100
AcDbLine
 10
320.526029
 20
342.46198
 30
0.0
 11
325.136724
 21
342.46198
 31
0.0
1001
ACAD
1000
ASC_BOUNDS
1002
{
1070
    19
1005
0
1005
0
1002
}
  0
LINE
  5
1A82
100
AcDbEntity
  8
KEVLAR
100
AcDbLine
 10
320.526029
 20
342.46198
 30
0.0
 11
325.454269
 21
355.392249
 31
0.0
  0
LINE
  5
1A83
100
AcDbEntity
  8
KEVLAR
100
AcDbLine
 10
325.454269
 20
355.392249
 30
0.0
 11
320.188997
 21
366.874461
 31
0.0
  0
LINE
  5
1A84
100
AcDbEntity
  8
KEVLAR
100
AcDbLine
 10
320.188997
 20
366.874461
 30
0.0
 11
324.975604
 21
385.533048
 31
0.0
  0
LINE
  5
1A85
100
AcDbEntity
  8
KEVLAR
100
AcDbLine
 10
324.975604
 20
385.533048
 30
0.0
 11
321.146318
 21
401.321087
 31
0.0
  0
LINE
  5
1A86
100
AcDbEntity
  8
KEVLAR
100
AcDbLine
 10
321.146318
 20
401.321087
 30
0.0
 11
329.283555
 21
416.630698
 31
0.0
  0
LINE
  5
1A87
100
AcDbEntity
  8
KEVLAR
100
AcDbLine
 10
329.283555
 20
416.630698
 30
0.0
 11
327.633607
 21
424.169595
 31
0.0
  0
LINE
  5
1A88
100
AcDbEntity
  8
KEVLAR
100
AcDbLine
 10
532.606256
 20
424.169595
 30
0.0
 11
535.107573
 21
418.544397
 31
0.0
  0
LINE
  5
1A89
100
AcDbEntity
  8
KEVLAR
100
AcDbLine
 10
535.107573
 20
418.544397
 30
0.0
 11
533.19293
 21
411.368016
 31
0.0
  0
LINE
  5
1A8A
100
AcDbEntity
  8
KEVLAR
100
AcDbLine
 10
533.19293
 20
411.368016
 30
0.0
 11
536.064894
 21
405.626913
 31
0.0
  0
LINE
  5
1A8B
100
AcDbEntity
  8
KEVLAR
100
AcDbLine
 10
536.064894
 20
405.626913
 30
0.0
 11
533.671586
 21
401.799509
 31
0.0
  0
LINE
  5
1A8C
100
AcDbEntity
  8
KEVLAR
100
AcDbLine
 10
533.671586
 20
401.799509
 30
0.0
 11
535.237969
 21
396.841736
 31
0.0
  0
DIMENSION
  5
1A99
100
AcDbEntity
  8
DIM
100
AcDbDimension
  2
*D25
 10
338.188035
 20
433.757879
 30
0.0
 11
379.938035
 21
433.757879
 31
0.0
 70
    32
  1
{167.95mm±0.03mm [6.612"±0.001"]}
  3
STANDARD
100
AcDbAlignedDimension
 13
276.986401
 23
390.160851
 33
0.0
 14
338.188035
 24
488.853318
 34
0.0
100
AcDbRotatedDimension
1001
ACAD
1000
DSTYLE
1002
{
1070
   140
1040
0.3
1070
    47
1040
0.03
1070
    71
1070
     1
1070
    48
1040
0.03
1070
   272
1070
     2
1070
    76
1070
     1
1070
    40
1040
10.0
1070
     3
1000
mm
1070
   287
1070
     0
1070
   271
1070
     2
1070
     4
1000
"
1070
   274
1070
     3
1070
   143
1040
0.03937
1070
   171
1070
     3
1070
   170
1070
     1
1002
}
  0
DIMENSION
  5
1AA6
100
AcDbEntity
  8
DIM
100
AcDbDimension
  2
*D26
 10
338.188035
 20
442.160112
 30
0.0
 11
379.188035
 21
442.160112
 31
0.0
 70
    32
  1
{168.10mm±0.03mm [6.618"±0.001"]}
  3
STANDARD
100
AcDbAlignedDimension
 13
276.224401
 23
390.160851
 33
0.0
 14
338.188035
 24
488.853318
 34
0.0
100
AcDbRotatedDimension
1001
ACAD
1000
DSTYLE
1002
{
1070
   140
1040
0.3
1070
    47
1040
0.03
1070
    71
1070
     1
1070
    48
1040
0.03
1070
   272
1070
     2
1070
    76
1070
     1
1070
    40
1040
10.0
1070
     3
1000
mm
1070
   287
1070
     0
1070
   271
1070
     2
1070
     4
1000
"
1070
   274
1070
     3
1070
   143
1040
0.03937
1070
   171
1070
     3
1070
   170
1070
     1
1002
}
  0
DIMENSION
  5
1AB3
100
AcDbEntity
  8
DIM
100
AcDbDimension
  2
*D27
 10
338.188035
 20
456.067256
 30
0.0
 11
205.766468
 21
456.067256
 31
0.0
 70
    32
  1
{208.68mm±0.03mm [8.216"±0.001"]}
  3
STANDARD
100
AcDbAlignedDimension
 13
73.344901
 23
426.682851
 33
0.0
 14
338.188035
 24
488.853318
 34
0.0
100
AcDbRotatedDimension
1001
ACAD
1000
DSTYLE
1002
{
1070
   140
1040
0.3
1070
    47
1040
0.03
1070
    71
1070
     1
1070
    48
1040
0.03
1070
   272
1070
     2
1070
    76
1070
     1
1070
    40
1040
10.0
1070
     3
1000
mm
1070
   287
1070
     0
1070
   271
1070
     2
1070
     4
1000
"
1070
   274
1070
     3
1070
   143
1040
0.03937
1070
   171
1070
     3
1070
   170
1070
     1
1002
}
  0
DIMENSION
  5
1AD6
100
AcDbEntity
  8
DIM
100
AcDbDimension
  2
*D28
 10
338.188035
 20
467.077078
 30
0.0
 11
205.385468
 21
467.077078
 31
0.0
 70
    32
  1
{208.83mm±0.03mm [8.222"±0.001"]}
  3
STANDARD
100
AcDbAlignedDimension
 13
72.582901
 23
426.682851
 33
0.0
 14
338.188035
 24
488.853318
 34
0.0
100
AcDbRotatedDimension
1001
ACAD
1000
DSTYLE
1002
{
1070
   140
1040
0.3
1070
    47
1040
0.03
1070
    71
1070
     1
1070
    48
1040
0.03
1070
   272
1070
     2
1070
    76
1070
     1
1070
    40
1040
10.0
1070
     3
1000
mm
1070
   287
1070
     0
1070
   271
1070
     2
1070
     4
1000
"
1070
   274
1070
     3
1070
   143
1040
0.03937
1070
   171
1070
     3
1070
   170
1070
     1
1002
}
  0
TEXT
  5
1AD9
100
AcDbEntity
  8
TEXT
100
AcDbText
 10
689.048837
 20
485.153249
 30
0.0
 40
2.0
  1
04
100
AcDbText
  0
TEXT
  5
1ADA
100
AcDbEntity
  8
TEXT
100
AcDbText
 10
697.048837
 20
485.164638
 30
0.0
 40
2.0
  1
CHANGE LOCATION OF LOCATING HOLES
100
AcDbText
  0
TEXT
  5
1ADB
100
AcDbEntity
  8
TEXT
100
AcDbText
 10
768.048837
 20
485.164638
 30
0.0
 40
2.0
  1
12-18-96
100
AcDbText
  0
TEXT
  5
1ADC
100
AcDbEntity
  8
TEXT
100
AcDbText
 10
697.048837
 20
481.833532
 30
0.0
 40
2.0
  1
CHANGE MATERIAL TO CARBON-FIBER -
100
AcDbText
  0
TEXT
  5
1ADD
100
AcDbEntity
  8
TEXT
100
AcDbText
 10
697.048837
 20
478.635671
 30
0.0
 40
2.0
  1
KEVLAR COMPOSITE
100
AcDbText
  0
LINE
  5
1AE5
100
AcDbEntity
  8
KEVLAR
100
AcDbLine
 10
334.912711
 20
225.009114
 30
0.0
 11
509.666996
 21
225.009114
 31
0.0
  0
POLYLINE
  5
1AE6
100
AcDbEntity
  8
KEVLAR
100
AcDb2dPolyline
 66
     1
 10
0.0
 20
0.0
 30
0.0
 70
     1
  0
VERTEX
  5
1AE7
100
AcDbEntity
  8
KEVLAR
100
AcDbVertex
100
AcDb2dVertex
 10
678.160889
 20
314.420548
 30
0.0
  0
VERTEX
  5
1AE8
100
AcDbEntity
  8
KEVLAR
100
AcDbVertex
100
AcDb2dVertex
 10
678.160889
 20
396.128048
 30
0.0
  0
VERTEX
  5
1AE9
100
AcDbEntity
  8
KEVLAR
100
AcDbVertex
100
AcDb2dVertex
 10
679.176889
 20
396.128048
 30
0.0
  0
VERTEX
  5
1AEA
100
AcDbEntity
  8
KEVLAR
100
AcDbVertex
100
AcDb2dVertex
 10
679.176889
 20
314.420548
 30
0.0
  0
SEQEND
  5
1AEB
100
AcDbEntity
  8
KEVLAR
  0
POLYLINE
  5
1AEC
100
AcDbEntity
  8
C-FIBER
100
AcDb2dPolyline
 66
     1
 10
0.0
 20
0.0
 30
0.0
 70
     1
  0
VERTEX
  5
1AED
100
AcDbEntity
  8
C-FIBER
100
AcDbVertex
100
AcDb2dVertex
 10
679.176889
 20
396.128048
 30
0.0
  0
VERTEX
  5
1AEE
100
AcDbEntity
  8
C-FIBER
100
AcDbVertex
100
AcDb2dVertex
 10
679.176889
 20
329.420548
 30
0.0
  0
VERTEX
  5
1AEF
100
AcDbEntity
  8
C-FIBER
100
AcDbVertex
100
AcDb2dVertex
 10
679.938889
 20
329.420548
 30
0.0
  0
VERTEX
  5
1AF0
100
AcDbEntity
  8
C-FIBER
100
AcDbVertex
100
AcDb2dVertex
 10
679.938889
 20
396.128048
 30
0.0
  0
SEQEND
  5
1AF1
100
AcDbEntity
  8
C-FIBER
  0
POLYLINE
  5
1AF2
100
AcDbEntity
  8
C-FIBER
100
AcDb2dPolyline
 66
     1
 10
0.0
 20
0.0
 30
0.0
 70
     1
  0
VERTEX
  5
1AF3
100
AcDbEntity
  8
C-FIBER
100
AcDbVertex
100
AcDb2dVertex
 10
678.160889
 20
396.128048
 30
0.0
  0
VERTEX
  5
1AF4
100
AcDbEntity
  8
C-FIBER
100
AcDbVertex
100
AcDb2dVertex
 10
678.160889
 20
329.420548
 30
0.0
  0
VERTEX
  5
1AF5
100
AcDbEntity
  8
C-FIBER
100
AcDbVertex
100
AcDb2dVertex
 10
677.398889
 20
329.420548
 30
0.0
  0
VERTEX
  5
1AF6
100
AcDbEntity
  8
C-FIBER
100
AcDbVertex
100
AcDb2dVertex
 10
677.398889
 20
396.128048
 30
0.0
  0
SEQEND
  5
1AF7
100
AcDbEntity
  8
C-FIBER
  0
TEXT
  5
1AF9
100
AcDbEntity
  8
TEXT
100
AcDbText
 10
656.957259
 20
287.684948
 30
0.0
 40
6.0
  1
SCALE 5:1
100
AcDbText
  0
TEXT
  5
1AFA
100
AcDbEntity
  8
TEXT
100
AcDbText
 10
659.668921
 20
297.446834
 30
0.0
 40
6.0
  1
ENDVIEW
100
AcDbText
  0
DIMENSION
  5
1B08
100
AcDbEntity
  8
DIM
100
AcDbDimension
  2
*D29
 10
679.938889
 20
420.029082
 30
0.0
 11
716.688889
 21
420.029082
 31
0.0
 70
    32
  3
STANDARD
100
AcDbAlignedDimension
 13
677.398889
 23
396.128048
 33
0.0
 14
679.938889
 24
396.128048
 34
0.0
100
AcDbRotatedDimension
1001
ACAD
1000
DSTYLE
1002
{
1070
   140
1040
0.3
1070
    47
1040
0.03
1070
    71
1070
     1
1070
    48
1040
0.03
1070
   272
1070
     2
1070
    40
1040
10.0
1070
     3
1000
mm
1070
   144
1040
0.2
1070
   287
1070
     0
1070
   271
1070
     2
1070
     4
1000
"
1070
   274
1070
     3
1070
   143
1040
0.03937
1070
   171
1070
     3
1070
   170
1070
     1
1002
}
  0
DIMENSION
  5
1B16
100
AcDbEntity
  8
DIM
100
AcDbDimension
  2
*D30
 10
706.776373
 20
314.420548
 30
0.0
 11
706.776373
 21
321.920548
 31
0.0
 70
    32
  3
STANDARD
100
AcDbAlignedDimension
 13
679.938889
 23
329.420548
 33
0.0
 14
679.176889
 24
314.420548
 34
0.0
 50
90.0
100
AcDbRotatedDimension
1001
ACAD
1000
DSTYLE
1002
{
1070
   140
1040
0.3
1070
    47
1040
0.03
1070
    48
1040
0.03
1070
   272
1070
     2
1070
    40
1040
10.0
1070
     3
1000
mm
1070
   144
1040
0.2
1070
   287
1070
     0
1070
   271
1070
     2
1070
     4
1000
"
1070
   274
1070
     3
1070
   143
1040
0.03937
1070
   171
1070
     3
1070
   170
1070
     1
1002
}
  0
DIMENSION
  5
1B3C
100
AcDbEntity
  8
DIM
100
AcDbDimension
  2
*D31
 10
679.938889
 20
403.849936
 30
0.0
 11
716.688889
 21
403.849936
 31
0.0
 70
    32
  3
STANDARD
100
AcDbAlignedDimension
 13
679.176889
 23
396.128048
 33
0.0
 14
679.938889
 24
396.128048
 34
0.0
100
AcDbRotatedDimension
1001
ACAD
1000
DSTYLE
1002
{
1070
   140
1040
0.3
1070
    47
1040
0.03
1070
    71
1070
     1
1070
    48
1040
0.03
1070
   272
1070
     2
1070
    40
1040
10.0
1070
     3
1000
mm
1070
   144
1040
0.2
1070
   287
1070
     0
1070
   271
1070
     2
1070
     4
1000
"
1070
   274
1070
     3
1070
   143
1040
0.03937
1070
   171
1070
     3
1070
   170
1070
     1
1002
}
  0
DIMENSION
  5
1B4A
100
AcDbEntity
  8
DIM
100
AcDbDimension
  2
*D32
 10
677.398889
 20
411.102829
 30
0.0
 11
640.648889
 21
411.102829
 31
0.0
 70
    32
  3
STANDARD
100
AcDbAlignedDimension
 13
678.160889
 23
396.128048
 33
0.0
 14
677.398889
 24
396.128048
 34
0.0
100
AcDbRotatedDimension
1001
ACAD
1000
DSTYLE
1002
{
1070
   140
1040
0.3
1070
    47
1040
0.03
1070
    71
1070
     1
1070
    48
1040
0.03
1070
   272
1070
     2
1070
    40
1040
10.0
1070
     3
1000
mm
1070
   144
1040
0.2
1070
   287
1070
     0
1070
   271
1070
     2
1070
     4
1000
"
1070
   274
1070
     3
1070
   143
1040
0.03937
1070
   171
1070
     3
1070
   170
1070
     1
1002
}
  0
LEADER
  5
1B4B
100
AcDbEntity
  8
TEXT
100
AcDbLeader
  3
STANDARD
 73
     0
 74
     0
 75
     1
 40
3.0
 41
34.0
 76
     3
 10
679.918227
 20
356.191516
 30
0.0
 10
698.256307
 20
377.640333
 30
0.0
 10
700.056307
 20
377.640333
 30
0.0
 77
   256
1001
ACAD
1000
DSTYLE
1002
{
1070
   140
1040
0.3
1070
    47
1040
0.03
1070
    71
1070
     1
1070
    48
1040
0.03
1070
   272
1070
     2
1070
    40
1040
10.0
1070
     3
1000
mm
1070
   144
1040
0.2
1070
   287
1070
     0
1070
   271
1070
     2
1070
     4
1000
"
1070
   274
1070
     3
1070
   143
1040
0.03937
1070
   171
1070
     3
1070
   170
1070
     1
1002
}
  0
MTEXT
  5
1B4C
100
AcDbEntity
  8
TEXT
100
AcDbMText
 10
700.956307
 20
377.640333
 30
0.0
 40
3.0
 41
0.0
 71
     4
 72
     1
  1
{CARBON FIBER}
  0
LEADER
  5
1B4D
100
AcDbEntity
  8
TEXT
100
AcDbLeader
  3
STANDARD
 76
     2
 10
677.567307
 20
360.067807
 30
0.0
 10
698.256307
 20
377.640333
 30
0.0
 77
   256
1001
ACAD
1000
DSTYLE
1002
{
1070
   140
1040
0.3
1070
    47
1040
0.03
1070
    71
1070
     1
1070
    48
1040
0.03
1070
   272
1070
     2
1070
    40
1040
10.0
1070
     3
1000
mm
1070
   144
1040
0.2
1070
   287
1070
     0
1070
   271
1070
     2
1070
     4
1000
"
1070
   274
1070
     3
1070
   143
1040
0.03937
1070
   171
1070
     3
1070
   170
1070
     1
1002
}
  0
LEADER
  5
1B4E
100
AcDbEntity
  8
TEXT
100
AcDbLeader
  3
STANDARD
 73
     0
 74
     0
 75
     1
 40
3.0
 41
18.0
 76
     3
 10
678.630041
 20
322.080143
 30
0.0
 10
696.187935
 20
346.629995
 30
0.0
 10
697.987935
 20
346.629995
 30
0.0
 77
   256
1001
ACAD
1000
DSTYLE
1002
{
1070
   140
1040
0.3
1070
    47
1040
0.03
1070
    71
1070
     1
1070
    48
1040
0.03
1070
   272
1070
     2
1070
    40
1040
10.0
1070
     3
1000
mm
1070
   144
1040
0.2
1070
   287
1070
     0
1070
   271
1070
     2
1070
     4
1000
"
1070
   274
1070
     3
1070
   143
1040
0.03937
1070
   171
1070
     3
1070
   170
1070
     1
1002
}
  0
MTEXT
  5
1B4F
100
AcDbEntity
  8
TEXT
100
AcDbMText
 10
698.887935
 20
346.629995
 30
0.0
 40
3.0
 41
0.0
 71
     4
 72
     1
  1
{KEVLAR}
  0
MTEXT
  5
1B50
100
AcDbEntity
  8
TEXT
100
AcDbMText
 10
104.395088
 20
134.798669
 30
0.0
 40
6.0
 41
202.017351
 71
     1
 72
     1
  1

  0
MTEXT
  5
1B51
100
AcDbEntity
  8
TEXT
100
AcDbMText
 10
46.580233
 20
192.595346
 30
0.0
 40
6.0
 41
223.980536
 71
     1
 72
     1
  1

  0
MTEXT
  5
1B52
100
AcDbEntity
  8
TEXT
100
AcDbMText
 10
34.752877
 20
187.792844
 30
0.0
 40
6.0
 41
233.5903
 71
     1
 72
     1
  1

  0
MTEXT
  5
1B53
100
AcDbEntity
  8
TEXT
100
AcDbMText
 10
35.122481
 20
192.225923
 30
0.0
 40
6.0
 41
236.916707
 71
     1
 72
     1
  1

  0
MTEXT
  5
1B55
100
AcDbEntity
  8
TEXT
100
AcDbMText
 10
35.423011
 20
181.308209
 30
0.0
 40
4.0
 41
235.4982
 71
     1
 72
     1
  3
{MATERIAL: }\P{0.51mm [0.020"] thick Kevlar-Carbon-fiber-Epoxy-composite}\P\P{LAMINATE SCHEDULE:}\P\P{Core:}\P{cloth:  2 layers Kevlar 29 (0.004" thick ea.)}\P{ 1.7 oz/sq. yd. plain weave}\P{epoxy: heat resistant laminating epoxy}\P{ Ciba-Geigy RP400
  3
5R/RP1500H}\P{cure: 24 hrs at room temp. @ 20psi}\P{ 2 hrs postcure at 66°C}\P\P{Skins:}\P{cloth: 1 layer Carbon fiber (0.006" thick)}\P{ xx oz/sq. yd. plain weave}\P{epoxy: heat resistant laminating epoxy}\P{ Ciba-Geigy RP4005R/RP1500H}\P{cure: 24 h
  1
rs at room temp. @ 20psi}\P{ 2 hrs postcure at 66°C}\P\P{LASER CUTTING:}\P{use fixture L2-RIB11}\P
  0
TEXT
  5
1B56
100
AcDbEntity
  8
TEXT
100
AcDbText
 10
805.274268
 20
24.247258
 30
0.0
 40
3.0
  1
04
100
AcDbText
  0
INSERT
  5
1C17
100
AcDbEntity
  8
ASHADE
 62
     1
100
AcDbBlockReference
  2
AVE_RENDER
 10
0.0
 20
0.0
 30
0.0
1001
AVE_RENDER
1002
{
1070
     6
1000
Pref
1070
    30
1070
    20
1070
     1
1070
     0
1000

1070
    10
1070
     1
1070
    30
1040
1.0
1070
     1
1040
0.3
1040
0.7
1040
0.0
1040
10.0
1010
-1.0
1020
-1.0
1030
-1.0
1040
0.3
1070
    49
1070
     0
1070
     0
1010
1.0
1020
1.0
1030
1.0
1040
45.0
1070
     1
1070
     0
1000
WCS
1040
0.0
1002
}
  0
INSERT
  5
1C18
100
AcDbEntity
  8
ASHADE
 62
     3
100
AcDbBlockReference
  2
AVE_RENDER
 10
0.0
 20
0.0
 30
0.0
1001
AVE_RENDER
1002
{
1070
     0
1000
Full Opt
1070
     0
1070
     1
1070
     1
1070
     1
1070
     0
1070
     0
1070
     0
1070
     1
1070
     1
1040
0.0001
1040
0.0001
1002
}
  0
INSERT
  5
1C19
100
AcDbEntity
  8
ASHADE
 62
     4
100
AcDbBlockReference
  2
AVE_RENDER
 10
0.0
 20
0.0
 30
0.0
1001
AVE_RENDER
1002
{
1070
     0
1000
Quick Opt
1070
     0
1070
     1
1070
     1
1070
     1
1070
     0
1070
     0
1070
     1
1002
}
  0
INSERT
  5
1C1A
100
AcDbEntity
  8
ASHADE
 62
     5
100
AcDbBlockReference
  2
AVE_RENDER
 10
0.0
 20
0.0
 30
0.0
1001
AVE_RENDER
1002
{
1070
     1
1000
Scanl Opt
1070
     2
1070
     0
1070
     2
1040
2.0
1040
4.0
1070
     0
1070
     1
1070
     0
1040
0.03
1002
}
  0
INSERT
  5
1C1B
100
AcDbEntity
  8
ASHADE
 62
     6
100
AcDbBlockReference
  2
AVE_RENDER
 10
0.0
 20
0.0
 30
0.0
1001
AVE_RENDER
1002
{
1070
     2
1000
Raytr Opt
1070
     2
1070
     0
1070
     2
1040
2.0
1040
4.0
1070
     0
1070
     1
1070
     1
1040
0.03
1070
     3
1040
0.03
1002
}
  0
INSERT
  5
1C1C
100
AcDbEntity
  8
ASHADE
 62
     7
100
AcDbBlockReference
  2
AVE_RENDER
 10
0.0
 20
0.0
 30
0.0
1001
AVE_RENDER
1002
{
1070
     0
1000
RFile Opt
1070
     5
1070
   640
1070
   480
1070
 10000
1070
     3
1070
    32
1070
    24
1070
     0
1070
     0
1070
     0
1070
     1
1070
     0
1070
     0
1070
     0
1002
}
  0
INSERT
  5
1C1D
100
AcDbEntity
  8
ASHADE
 62
     8
100
AcDbBlockReference
  2
AVE_RENDER
 10
0.0
 20
0.0
 30
0.0
1001
AVE_RENDER
1002
{
1070
     0
1000
Fog Opt
1070
     0
1070
     0
1040
0.0
1040
1.0
1040
0.0
1040
1.0
1010
0.5
1020
0.5
1030
0.5
1002
}
  0
INSERT
  5
1C1E
100
AcDbEntity
  8
ASHADE
 62
     9
100
AcDbBlockReference
  2
AVE_RENDER
 10
0.0
 20
0.0
 30
0.0
1001
AVE_RENDER
1002
{
1070
     0
1000
BG Opt
1070
     0
1070
     1
1010
0.0
1020
0.0
1030
0.0
1010
1.0
1020
0.0
1030
0.0
1010
0.0
1020
1.0
1030
0.0
1010
0.0
1020
0.0
1030
1.0
1040
0.5
1040
0.33
1040
0.0
1000

1070
     1
1000

1070
     1
1070
     1
1040
1.0
1040
1.0
1040
0.0
1040
0.0
1070
     0
1002
}
  0
INSERT
  5
1C25
100
AcDbEntity
  8
ASHADE
 62
     1
100
AcDbBlockReference
  2
AVE_GLOBAL
 10
0.0
 20
0.0
 30
0.0
1001
AVE_MATERIAL
1002
{
1000
*GLOBAL*
1000
1
1000
Global finish.
1002
{
1002
}
1002
{
1070
    63
1002
{
1002
{
1010
-1.0
1020
-1.0
1030
-1.0
1002
}
1040
0.1
1000

1040
0.0
1002
{
1002
}
1040
0.0
1002
{
1002
}
1040
0.0
1002
}
1002
{
1002
{
1010
-1.0
1020
-1.0
1030
-1.0
1002
}
1040
0.7
1000

1040
0.0
1002
{
1002
}
1040
0.0
1002
{
1002
}
1040
0.0
1002
}
1002
{
1002
{
1010
-1.0
1020
-1.0
1030
-1.0
1002
}
1040
0.2
1000

1040
0.0
1002
{
1002
}
1040
0.0
1002
{
1002
}
1040
0.0
1002
}
1002
{
1070
     0
1002
{
1070
     1
1002
{
1040
1.0
1040
1.0
1000

1040
0.0
1002
{
1002
}
1040
0.0
1002
{
1002
}
1040
0.0
1002
}
1002
}
1040
1.0
1040
0.0
1040
0.0
1002
}
1002
{
1040
1.0
1040
1.0
1000

1040
0.0
1002
{
1002
}
1040
0.0
1002
{
1002
}
1040
0.0
1002
}
1002
{
1040
0.5
1040
1.0
1000

1040
0.0
1002
{
1002
}
1040
0.0
1002
{
1002
}
1040
0.0
1002
}
1002
{
1070
     0
1040
0.0
1002
{
1002
}
1040
1.0
1002
{
1002
}
1040
0.0
1002
}
1002
{
1040
0.0
1002
{
1002
{
1010
0.0
1020
0.0
1030
0.0
1002
}
1040
1.0
1000

1040
0.0
1002
{
1002
}
1040
0.0
1002
{
1002
}
1040
0.0
1002
}
1002
}
1002
{
1002
{
1070
     1
1002
{
1040
0.0
1040
1.0
1000

1040
0.0
1002
{
1002
}
1040
0.0
1002
{
1002
}
1040
0.0
1002
}
1002
}
1040
0.0
1002
{
1002
}
1010
1.0
1020
0.0
1030
0.0
1010
0.0
1020
1.0
1030
0.0
1010
0.0
1020
0.0
1030
1.0
1070
     0
1002
}
1002
{
1002
{
1040
1.0
1040
1.0
1002
{
1070
     1
1002
{
1040
1.0
1040
1.0
1000

1040
0.0
1002
{
1002
}
1040
0.0
1002
{
1002
}
1040
0.0
1002
}
1002
}
1002
}
1070
     0
1040
0.0
1002
{
1002
}
1002
}
1002
{
1002
}
1002
}
1002
{
1071
        3
1070
     3
1070
     0
1002
{
1070
     2
1070
     0
1070
     0
1040
0.0
1002
}
1070
     0
1070
     2
1002
{
1002
}
1002
}
1002
{
1040
8030.0
1040
190.300003
1040
0.305
1040
228.0
1040
545.0
1040
14.0
1040
17.4
1040
0.456
1002
}
1002
}
  0
ENDSEC
  0
SECTION
  2
OBJECTS
  0
DICTIONARY
  5
1A
100
AcDbDictionary
  3
ACAD_GROUP
350
18
  3
ACAD_MLINESTYLE
350
19
  3
ACASAPPOBJECT
350
1872
  3
ACASGREF_MASTER
350
1826
  3
ACCELVIEW
350
1AD7
  3
ACDMSYSVARMGR
350
1842
  3
ACGREF_MASTER
350
1824
  3
ACME_COMMAND_HISTORY
350
1822
  3
ACME_SCOPE_NAME
350
1821
  3
AD_APPL
350
1835
  3
AD_DRAWMGR_NAME
350
1855
  3
AD_GREF_MODULE
350
183D
  3
AD_HOLENOTE_REPOSITORY
350
183C
  3
ADSYSVARMGR
350
182B
  3
AMI_MASTER
350
1825
  3
AUTOCAD_ASSEMBLIES_PROJECT
350
1861
  3
DESIGNER_ASSEMBLIES_SYSVARS
350
185C
  0
DICTIONARY
  5
18
102
{ACAD_REACTORS
330
1A
102
}
100
AcDbDictionary
  0
DICTIONARY
  5
19
102
{ACAD_REACTORS
330
1A
102
}
100
AcDbDictionary
  3
STANDARD
350
1D
  0
ACAD_ZOMBIE_OBJECT
  5
1872
102
{ACAD_REACTORS
330
1A
102
}
100
AcDbZombieObject
 90
      499
 91
      537
 93
        2
310
80
360
1870
 94
        0
  0
ACAD_ZOMBIE_OBJECT
  5
1826
102
{ACAD_REACTORS
330
1A
102
}
100
AcDbZombieObject
 90
      499
 91
      506
 93
       34
310
0100004040
 94
        0
  0
ACAD_ZOMBIE_OBJECT
  5
1AD7
102
{ACAD_REACTORS
330
1A
102
}
100
AcDbZombieObject
 90
      499
 91
      538
 93
       12
310
97A0
330
1836
330
1881
330
1884
330
1886
330
1885
330
188B
330
188A
330
1889
330
188C
330
188E
330
188F
330
1890
330
1897
330
1896
330
1895
330
1894
330
1893
330
1892
330
1891
330
18A5
330
18B3
330
18C1
330
18CF
330
18DD
330
18EB
330
1941
330
197E
330
198B
330
1998
330
19A5
330
19B2
330
19BF
330
19CC
330
1A10
330
1A2A
330
1A44
330
1A5C
330
1A5D
330
1A64
330
1A6E
330
1A65
330
1A6C
330
1A6B
330
1A6A
330
1A69
330
1A68
330
1A67
330
1A66
330
1A63
330
1A62
330
1A61
330
1A5E
330
1A60
330
1A5F
330
1A6F
330
1A70
330
1A71
330
1A72
330
1A73
330
1A74
330
1A75
330
1A76
330
1A77
330
1A78
330
1A7D
330
1A7C
330
1A7B
330
1A81
330
1A80
330
1A7F
330
1A7E
330
1A79
330
1A82
330
1A83
330
1A84
330
1A85
330
1A86
330
1A87
330
1A88
330
1A89
330
1A8A
330
1A8B
330
1A8C
330
1A99
330
1AA6
330
1AB3
330
1AD6
330
1AD9
330
1ADA
330
1ADB
330
1ADC
330
1ADD
330
1AE5
330
1AE6
330
1AEC
330
1AF2
330
1AF9
330
1AFA
330
1B08
330
1B16
330
1B3C
330
1B4A
330
1B4B
330
1B4C
330
1B4D
330
1B4E
330
1B4F
330
1B50
330
1B51
330
1B52
330
1B53
330
1B55
330
1B56
330
1C17
330
1C18
330
1C19
330
1C1A
330
1C1B
330
1C1C
330
1C1D
330
1C1E
330
1C25
 94
        0
  0
ACAD_ZOMBIE_OBJECT
  5
1842
102
{ACAD_REACTORS
330
1A
102
}
100
AcDbZombieObject
 90
      499
 91
      511
 93
      176
310
4C5114810100000000000000000000000000000000004F
330
1843
330
1844
330
1845
330
1846
330
1847
330
1848
330
184A
330
184B
330
184C
330
184D
330
184E
330
184F
330
1850
330
1851
330
1852
330
1853
330
1854
 94
        0
  0
ACAD_ZOMBIE_OBJECT
  5
1824
102
{ACAD_REACTORS
330
1A
102
}
100
AcDbZombieObject
 90
      499
 91
      504
 93
      114
310
01000040C000000000000000000000
 94
        0
  0
ACAD_ZOMBIE_OBJECT
  5
1822
102
{ACAD_REACTORS
330
1A
102
}
100
AcDbZombieObject
 90
      499
 91
      502
 93
     2702
310
4780504504C4F5480506444445444954805055153415645805064558504F5254805064558504F52548050953415645415352313280504554E444F805055354594C4580504554E444F8050653454C45435480504554E444F80504554E444F805044F50454E80508554E444546494E4580508554E444546494E458050A4D454E
310
55554E4C4F4144805084D454E554C4F41448050C41445F434F4E56455254523140805084E202D20554E444F014213880B4815539113C050C414D4C54595045434845434B40C05084E202D20554E444F014253880B481310565154805084E202D20554E444F01411353D5916014113D4115390101461354D1C80B4810DBDB5B
310
585B990810D05390D1531311510B80509534156454153523132805064558504F5254805064558504F525480504554E444F80504554E444F8050653454C45435480504554E444F80504554E444F805044F50454E8
 94
        0
  0
ACAD_ZOMBIE_OBJECT
  5
1821
102
{ACAD_REACTORS
330
1A
102
}
100
AcDbZombieObject
 90
      499
 91
      501
 93
      456
310
0101004093100000000000000000000000000000000000000000000000000000000000000000000000000000000000000000000000000901002F
360
1827
360
1828
360
1829
360
182A
360
182C
360
182D
360
182E
360
182F
360
1830
360
1831
360
1832
360
1833
360
1834
360
1837
360
1838
360
1839
360
183A
360
183B
360
183E
360
183F
360
1840
360
1841
360
1843
360
1844
360
1845
360
1846
360
1847
360
1848
360
184A
360
184B
360
184C
360
184D
360
184E
360
184F
360
1850
360
1851
360
1852
360
1853
360
1854
360
185D
360
185E
360
185F
360
1860
360
1865
360
1866
360
1867
360
1868
360
1869
360
186D
330
1836
 94
        0
  0
ACAD_ZOMBIE_OBJECT
  5
1835
102
{ACAD_REACTORS
330
1A
102
}
100
AcDbZombieObject
 90
      499
 91
      515
 93
       42
310
000100004340
330
1827
 94
        0
  0
ACAD_ZOMBIE_OBJECT
  5
1855
102
{ACAD_REACTORS
330
1A
102
}
100
AcDbZombieObject
 90
      499
 91
      527
 93
       42
310
000100004400
330
183E
 94
        0
  0
ACAD_ZOMBIE_OBJECT
  5
183D
102
{ACAD_REACTORS
330
1A
102
}
100
AcDbZombieObject
 90
      499
 91
      522
 93
      114
310
000000428000000000000000000030
 94
        0
  0
ACAD_ZOMBIE_OBJECT
  5
183C
102
{ACAD_REACTORS
330
1A
102
}
100
AcDbZombieObject
 90
      499
 91
      521
 93
        8
310
0029
330
183B
 94
        0
  0
ACAD_ZOMBIE_OBJECT
  5
182B
102
{ACAD_REACTORS
330
1A
102
}
100
AcDbZombieObject
 90
      499
 91
      511
 93
      104
310
9094410100000000000000000000
330
182C
330
182D
330
182E
330
182F
330
1830
330
1831
330
1832
330
1833
330
1834
 94
        0
  0
ACAD_ZOMBIE_OBJECT
  5
1825
102
{ACAD_REACTORS
330
1A
102
}
100
AcDbZombieObject
 90
      499
 91
      505
 93
       34
310
0100004040
 94
        0
  0
ACAD_ZOMBIE_OBJECT
  5
1861
102
{ACAD_REACTORS
330
1A
102
}
100
AcDbZombieObject
 90
      499
 91
      528
 93
       58
310
0100004180000000
330
1867
330
186D
330
1868
 94
        0
  0
ACAD_ZOMBIE_OBJECT
  5
185C
102
{ACAD_REACTORS
330
1A
102
}
100
AcDbZombieObject
 90
      499
 91
      511
 93
       64
310
904441010000000061
330
185D
330
185E
330
185F
330
1860
 94
        0
  0
MLINESTYLE
  5
1D
102
{ACAD_REACTORS
330
19
102
}
100
AcDbMlineStyle
  2
STANDARD
 70
     0
  3

 62
     0
 51
90.0
 52
90.0
 71
     2
 49
0.5
 62
   256
  6
BYLAYER
 49
-0.5
 62
   256
  6
BYLAYER
  0
ACAD_ZOMBIE_OBJECT
  5
1870
100
AcDbZombieObject
 90
      499
 91
      535
 93
      720
310
9064D2E312E313607014B7269BC41100000000000000E03F1EC52B91F85EA10FE1EC52B91F85EA10FD034153471EC52B91F85EA10FC000000FC83D797414650540C000000000000E03F3F2A7C749358940FC000000FC83D797414F
 94
        0
  0
ACAD_ZOMBIE_OBJECT
  5
1827
100
AcDbZombieObject
 90
      499
 91
      507
 93
      280
310
000000000000014119185D1940506462E312E3136014119185D1940506462E312E313600
330
1821
330
1828
330
1829
330
182B
330
1836
 94
        0
  0
ACAD_ZOMBIE_OBJECT
  5
1828
100
AcDbZombieObject
 90
      499
 91
      508
 93
      120
310
00009024410100000092080002A6A600
330
1821
330
1838
330
1837
330
0
 94
        0
  0
ACAD_ZOMBIE_OBJECT
  5
1829
100
AcDbZombieObject
 90
      499
 91
      509
 93
       46
310
000000009208
330
1821
330
0
330
182A
 94
        0
  0
ACAD_ZOMBIE_OBJECT
  5
182A
100
AcDbZombieObject
 90
      499
 91
      510
 93
       22
310
0000A8
330
1821
 94
        0
  0
ACAD_ZOMBIE_OBJECT
  5
182C
100
AcDbZombieObject
 90
      499
 91
      512
 93
      124
310
00000142905350D3D39114D414D69050
330
1821
 94
        0
  0
ACAD_ZOMBIE_OBJECT
  5
182D
100
AcDbZombieObject
 90
      499
 91
      512
 93
      124
310
000001429053549553115353D1115010
330
1821
 94
        0
  0
ACAD_ZOMBIE_OBJECT
  5
182E
100
AcDbZombieObject
 90
      499
 91
      512
 93
      108
310
00000142105354D2D353D1115010
330
1821
 94
        0
  0
ACAD_ZOMBIE_OBJECT
  5
182F
100
AcDbZombieObject
 90
      499
 91
      512
 93
      140
310
000001435053511253511254D41353D11160
330
1821
 94
        0
  0
ACAD_ZOMBIE_OBJECT
  5
1830
100
AcDbZombieObject
 90
      499
 91
      513
 93
      180
310
00000142905354D2D05391D513D3000000000000010400
330
1821
 94
        0
  0
ACAD_ZOMBIE_OBJECT
  5
1831
100
AcDbZombieObject
 90
      499
 91
      514
 93
      164
310
00000142505354D2D4D516531140505434F4E542A0
330
1821
 94
        0
  0
ACAD_ZOMBIE_OBJECT
  5
1832
100
AcDbZombieObject
 90
      499
 91
      512
 93
      108
310
00000142105350D3511112535010
330
1821
 94
        0
  0
ACAD_ZOMBIE_OBJECT
  5
1833
100
AcDbZombieObject
 90
      499
 91
      514
 93
      116
310
000001425053541054919253114060
330
1821
 94
        0
  0
ACAD_ZOMBIE_OBJECT
  5
1834
100
AcDbZombieObject
 90
      499
 91
      512
 93
      100
310
00000142105350D3D35414D5A0
330
1821
 94
        0
  0
ACAD_ZOMBIE_OBJECT
  5
1837
100
AcDbZombieObject
 90
      499
 91
      517
 93
      164
310
000092090148200A00000440000FFFFFFFF0000000
330
1821
330
1838
330
1828
330
1836
 94
        0
  0
ACAD_ZOMBIE_OBJECT
  5
1838
100
AcDbZombieObject
 90
      499
 91
      518
 93
       82
310
000040520802482A800000
330
1821
330
1837
330
1828
330
1836
 94
        0
  0
ACAD_ZOMBIE_OBJECT
  5
1839
100
AcDbZombieObject
 90
      499
 91
      510
 93
       22
310
0000A8
330
1821
 94
        0
  0
ACAD_ZOMBIE_OBJECT
  5
183A
100
AcDbZombieObject
 90
      499
 91
      519
 93
       38
310
000000920A
330
1821
330
0
 94
        0
  0
ACAD_ZOMBIE_OBJECT
  5
183B
100
AcDbZombieObject
 90
      499
 91
      520
 93
     3196
310
0000419208050A544852555F4452494C4C0142D09312539117D1149253130050A544852555F43424F52450142D09312539117D0D093D4914050A544852555F4353494E4B0142D09312539117D0D4D25392D0648201459EC94958C8094950535112504815121493D551D20B9F4051C7B252563202525414D444941205820252
310
5414D44455020444545507D014F5EC94958C8094950535112504815121493D551D20B9F57141ED0D093D49148094958C80949505350D112504816080949505350D091115408111151541F405437B252563202525414D4449412058202525414D44455020444545507D5C507B43424F524520252563202525414D4344494120
310
58202525414D434244455020444545507D014EDEC94958C8094950535112504815121493D551D20B9F57141ED0D4D25392C8094958C80949505350D112504816080949505350D4D05391C949591F405417B252563202525414D4449412058202525414D44455020444545507D5C507B4353494E4B20252563202525414D434
310
449412058202525414D4353414E472525647D0
330
1821
 94
        0
  0
ACAD_ZOMBIE_OBJECT
  5
183E
100
AcDbZombieObject
 90
      499
 91
      523
 93
      308
310
0000014119185D1940507442E312E313663014119185D1940507442E312E313663405010000000
330
1821
330
183F
330
1841
330
1842
 94
        0
  0
ACAD_ZOMBIE_OBJECT
  5
183F
100
AcDbZombieObject
 90
      499
 91
      524
 93
       56
310
0000901441010052
330
1821
330
1840
 94
        0
  0
ACAD_ZOMBIE_OBJECT
  5
1840
100
AcDbZombieObject
 90
      499
 91
      525
 93
       40
310
0000A4410152
330
1821
 94
        0
  0
ACAD_ZOMBIE_OBJECT
  5
1841
100
AcDbZombieObject
 90
      499
 91
      526
 93
       68
310
0000A44101920A4820
330
1821
 94
        0
  0
ACAD_ZOMBIE_OBJECT
  5
1843
100
AcDbZombieObject
 90
      499
 91
      512
 93
      108
310
000001421053521310D05310D010
330
1821
 94
        0
  0
ACAD_ZOMBIE_OBJECT
  5
1844
100
AcDbZombieObject
 90
      499
 91
      512
 93
      124
310
000001429053541493D2951654115010
330
1821
 94
        0
  0
ACAD_ZOMBIE_OBJECT
  5
1845
100
AcDbZombieObject
 90
      499
 91
      512
 93
      124
310
00000142905354915554D15112535010
330
1821
 94
        0
  0
ACAD_ZOMBIE_OBJECT
  5
1846
100
AcDbZombieObject
 90
      499
 91
      512
 93
      132
310
00000143105354D150D51253D391125360
330
1821
 94
        0
  0
ACAD_ZOMBIE_OBJECT
  5
1847
100
AcDbZombieObject
 90
      499
 91
      512
 93
      124
310
00000142905355941093D49111549010
330
1821
 94
        0
  0
ACAD_ZOMBIE_OBJECT
  5
1848
100
AcDbZombieObject
 90
      499
 91
      514
 93
      180
310
00000142905352125113151654114050648494444454E0
330
1821
 94
        0
  0
ACAD_ZOMBIE_OBJECT
  5
184A
100
AcDbZombieObject
 90
      499
 91
      514
 93
      196
310
00000142905354D150D315165411405085048414E544F4D320
330
1821
 94
        0
  0
ACAD_ZOMBIE_OBJECT
  5
184B
100
AcDbZombieObject
 90
      499
 91
      512
 93
      108
310
00000142105354D51114D0D51020
330
1821
 94
        0
  0
ACAD_ZOMBIE_OBJECT
  5
184C
100
AcDbZombieObject
 90
      499
 91
      512
 93
      108
310
00000142105354D5111510541021
330
1821
 94
        0
  0
ACAD_ZOMBIE_OBJECT
  5
184D
100
AcDbZombieObject
 90
      499
 91
      512
 93
      108
310
00000142105354D5111115131020
330
1821
 94
        0
  0
ACAD_ZOMBIE_OBJECT
  5
184E
100
AcDbZombieObject
 90
      499
 91
      513
 93
      148
310
00000141905350D310D34295C8FC2F528BC3F4
330
1821
 94
        0
  0
ACAD_ZOMBIE_OBJECT
  5
184F
100
AcDbZombieObject
 90
      499
 91
      513
 93
      156
310
00000141D05350D311D05402B8716D9CEF7C33F0
330
1821
 94
        0
  0
ACAD_ZOMBIE_OBJECT
  5
1850
100
AcDbZombieObject
 90
      499
 91
      513
 93
      164
310
00000142105350D313D4D2150295C8FC2F528BC3F0
330
1821
 94
        0
  0
ACAD_ZOMBIE_OBJECT
  5
1851
100
AcDbZombieObject
 90
      499
 91
      512
 93
      100
310
00000141D05350D31410549010
330
1821
 94
        0
  0
ACAD_ZOMBIE_OBJECT
  5
1852
100
AcDbZombieObject
 90
      499
 91
      512
 93
      100
310
0000014210535590539254D222
330
1821
 94
        0
  0
ACAD_ZOMBIE_OBJECT
  5
1853
100
AcDbZombieObject
 90
      499
 91
      513
 93
      188
310
00000142D0535312539155121250D2C295C8FC2F5289C3F0
330
1821
 94
        0
  0
ACAD_ZOMBIE_OBJECT
  5
1854
100
AcDbZombieObject
 90
      499
 91
      514
 93
      164
310
00000142105350D3151654114050643454E5445520
330
1821
 94
        0
  0
ACAD_ZOMBIE_OBJECT
  5
185D
100
AcDbZombieObject
 90
      499
 91
      512
 93
      132
310
00000142D05050555513D4D3D315915010
330
1821
 94
        0
  0
ACAD_ZOMBIE_OBJECT
  5
185E
100
AcDbZombieObject
 90
      499
 91
      512
 93
      156
310
00000143905050555513D054D4D1535093115010
330
1821
 94
        0
  0
ACAD_ZOMBIE_OBJECT
  5
185F
100
AcDbZombieObject
 90
      499
 91
      512
 93
      148
310
00000143505055925155D49154D513D4915010
330
1821
 94
        0
  0
ACAD_ZOMBIE_OBJECT
  5
1860
100
AcDbZombieObject
 90
      499
 91
      512
 93
      124
310
00000142D050525394D15495105094E0
330
1821
 94
        0
  0
ACAD_ZOMBIE_OBJECT
  5
1865
100
AcDbZombieObject
 90
      499
 91
      529
 93
       32
310
0000000045
330
1821
340
1862
330
1866
330
1862
 94
        0
  0
ACAD_ZOMBIE_OBJECT
  5
1866
100
AcDbZombieObject
 90
      499
 91
      530
 93
      143
310
00000142130C8B5492508C0C50400522080C
330
1821
330
1865
 94
        0
  0
ACAD_ZOMBIE_OBJECT
  5
1867
100
AcDbZombieObject
 90
      499
 91
      531
 93
       72
310
000000A44101A4410100
330
1821
330
1866
 94
        0
  0
ACAD_ZOMBIE_OBJECT
  5
1868
100
AcDbZombieObject
 90
      499
 91
      532
 93
       80
310
0000901441010000000000
330
1821
330
1869
330
1869
330
1869
330
1869
 94
        0
  0
ACAD_ZOMBIE_OBJECT
  5
1869
100
AcDbZombieObject
 90
      499
 91
      533
 93
      173
310
00000000406AAAAAAAAAAAAAAAAA806A44101A441010
330
1821
330
1868
330
1866
 94
        0
  0
ACAD_ZOMBIE_OBJECT
  5
186D
100
AcDbZombieObject
 90
      499
 91
      534
 93
       26
310
00008000
330
1821
330
0
 94
        0
  0
ENDSEC
  0
EOF
