  0
SECTION
  2
HEADER
  9
$ACADVER
  1
AC1012
  9
$DWGCODEPAGE
  3
ansi_1252
  9
$INSBASE
 10
0.0
 20
0.0
 30
0.0
  9
$EXTMIN
 10
1.0
 20
0.625
 30
0.0
  9
$EXTMAX
 10
32.04642
 20
20.447595
 30
0.0
  9
$LIMMIN
 10
0.0
 20
0.0
  9
$LIMMAX
 10
32.0
 20
21.0
  9
$ORTHOMODE
 70
     0
  9
$REGENMODE
 70
     1
  9
$FILLMODE
 70
     1
  9
$QTEXTMODE
 70
     0
  9
$MIRRTEXT
 70
     1
  9
$DRAGMODE
 70
     2
  9
$LTSCALE
 40
0.25
  9
$OSMODE
 70
     0
  9
$ATTMODE
 70
     1
  9
$TEXTSIZE
 40
0.12
  9
$TRACEWID
 40
0.05
  9
$TEXTSTYLE
  7
STANDARD
  9
$CLAYER
  8
DIM
  9
$CELTYPE
  6
BYLAYER
  9
$CECOLOR
 62
   256
  9
$CELTSCALE
 40
1.0
  9
$DELOBJ
 70
     1
  9
$DISPSILH
 70
     0
  9
$DIMSCALE
 40
0.75
  9
$DIMASZ
 40
0.18
  9
$DIMEXO
 40
0.0625
  9
$DIMDLI
 40
0.38
  9
$DIMRND
 40
0.0
  9
$DIMDLE
 40
0.0
  9
$DIMEXE
 40
0.18
  9
$DIMTP
 40
0.001
  9
$DIMTM
 40
0.001
  9
$DIMTXT
 40
0.18
  9
$DIMCEN
 40
0.09
  9
$DIMTSZ
 40
0.0
  9
$DIMTOL
 70
     0
  9
$DIMLIM
 70
     0
  9
$DIMTIH
 70
     1
  9
$DIMTOH
 70
     1
  9
$DIMSE1
 70
     0
  9
$DIMSE2
 70
     0
  9
$DIMTAD
 70
     0
  9
$DIMZIN
 70
     0
  9
$DIMBLK
  1

  9
$DIMASO
 70
     1
  9
$DIMSHO
 70
     1
  9
$DIMPOST
  1
"
  9
$DIMAPOST
  1
mm
  9
$DIMALT
 70
     1
  9
$DIMALTD
 70
     2
  9
$DIMALTF
 40
25.4
  9
$DIMLFAC
 40
1.0
  9
$DIMTOFL
 70
     0
  9
$DIMTVP
 40
0.0
  9
$DIMTIX
 70
     0
  9
$DIMSOXD
 70
     0
  9
$DIMSAH
 70
     0
  9
$DIMBLK1
  1

  9
$DIMBLK2
  1

  9
$DIMSTYLE
  2
STANDARD
  9
$DIMCLRD
 70
     0
  9
$DIMCLRE
 70
     0
  9
$DIMCLRT
 70
     0
  9
$DIMTFAC
 40
1.0
  9
$DIMGAP
 40
0.09
  9
$DIMJUST
 70
     0
  9
$DIMSD1
 70
     0
  9
$DIMSD2
 70
     0
  9
$DIMTOLJ
 70
     1
  9
$DIMTZIN
 70
     0
  9
$DIMALTZ
 70
     0
  9
$DIMALTTZ
 70
     0
  9
$DIMFIT
 70
     0
  9
$DIMUPT
 70
     1
  9
$DIMUNIT
 70
     2
  9
$DIMDEC
 70
     3
  9
$DIMTDEC
 70
     3
  9
$DIMALTU
 70
     2
  9
$DIMALTTD
 70
     2
  9
$DIMTXSTY
  7
STANDARD
  9
$DIMAUNIT
 70
     0
  9
$LUNITS
 70
     2
  9
$LUPREC
 70
     4
  9
$SKETCHINC
 40
0.1
  9
$FILLETRAD
 40
0.0625
  9
$AUNITS
 70
     0
  9
$AUPREC
 70
     0
  9
$MENU
  1
C:\CIM\ACAD
  9
$ELEVATION
 40
0.0
  9
$PELEVATION
 40
0.0
  9
$THICKNESS
 40
0.0
  9
$LIMCHECK
 70
     0
  9
$BLIPMODE
 70
     1
  9
$CHAMFERA
 40
0.0
  9
$CHAMFERB
 40
0.0
  9
$CHAMFERC
 40
0.0
  9
$CHAMFERD
 40
0.0
  9
$SKPOLY
 70
     0
  9
$TDCREATE
 40
2449973.594111921
  9
$TDUPDATE
 40
2450458.455963599
  9
$TDINDWG
 40
0.2416176852
  9
$TDUSRTIMER
 40
0.2416176852
  9
$USRTIMER
 70
     1
  9
$ANGBASE
 50
0.0
  9
$ANGDIR
 70
     0
  9
$PDMODE
 70
     0
  9
$PDSIZE
 40
0.0
  9
$PLINEWID
 40
0.0
  9
$COORDS
 70
     1
  9
$SPLFRAME
 70
     0
  9
$SPLINETYPE
 70
     6
  9
$SPLINESEGS
 70
     8
  9
$ATTDIA
 70
     0
  9
$ATTREQ
 70
     1
  9
$HANDLING
 70
     1
  9
$HANDSEED
  5
1496
  9
$SURFTAB1
 70
     6
  9
$SURFTAB2
 70
     6
  9
$SURFTYPE
 70
     6
  9
$SURFU
 70
     6
  9
$SURFV
 70
     6
  9
$UCSNAME
  2

  9
$UCSORG
 10
0.0
 20
0.0
 30
0.0
  9
$UCSXDIR
 10
1.0
 20
0.0
 30
0.0
  9
$UCSYDIR
 10
0.0
 20
1.0
 30
0.0
  9
$PUCSNAME
  2

  9
$PUCSORG
 10
0.0
 20
0.0
 30
0.0
  9
$PUCSXDIR
 10
1.0
 20
0.0
 30
0.0
  9
$PUCSYDIR
 10
0.0
 20
1.0
 30
0.0
  9
$USERI1
 70
     0
  9
$USERI2
 70
     0
  9
$USERI3
 70
     0
  9
$USERI4
 70
     0
  9
$USERI5
 70
     0
  9
$USERR1
 40
0.0
  9
$USERR2
 40
0.0
  9
$USERR3
 40
0.0
  9
$USERR4
 40
0.0
  9
$USERR5
 40
0.0
  9
$WORLDVIEW
 70
     1
  9
$SHADEDGE
 70
     3
  9
$SHADEDIF
 70
    70
  9
$TILEMODE
 70
     1
  9
$MAXACTVP
 70
    16
  9
$PINSBASE
 10
0.0
 20
0.0
 30
0.0
  9
$PLIMCHECK
 70
     0
  9
$PEXTMIN
 10
1.000000E+20
 20
1.000000E+20
 30
1.000000E+20
  9
$PEXTMAX
 10
-1.000000E+20
 20
-1.000000E+20
 30
-1.000000E+20
  9
$PLIMMIN
 10
0.0
 20
0.0
  9
$PLIMMAX
 10
12.0
 20
9.0
  9
$UNITMODE
 70
     0
  9
$VISRETAIN
 70
     0
  9
$PLINEGEN
 70
     0
  9
$PSLTSCALE
 70
     1
  9
$TREEDEPTH
 70
  3020
  9
$PICKSTYLE
 70
     1
  9
$CMLSTYLE
  2
STANDARD
  9
$CMLJUST
 70
     0
  9
$CMLSCALE
 40
1.0
  9
$SAVEIMAGES
 70
     0
  0
ENDSEC
  0
SECTION
  2
CLASSES
  0
CLASS
  1
ACMESCOPE
  2
AcMeScope
  3
ACME_MODULE_NAME
 90
        0
280
     0
281
     0
  0
CLASS
  1
ACMECOMMANDHISTORY
  2
AcMeCommandHistory
  3
ACME_MODULE_NAME
 90
        0
280
     0
281
     0
  0
CLASS
  1
AcRfInsAdjusterMgr
  2
AcRfInsAdjusterMgr
  3
ACME_MODULE_NAME
 90
        0
280
     0
281
     0
  0
CLASS
  1
ACGREFMASTER
  2
AcGrefMaster
  3
"AcadRfServer"
 90
        0
280
     0
281
     0
  0
CLASS
  1
AmiMaster
  2
AmiMaster
  3
"AmiServices"
 90
        0
280
     0
281
     0
  0
CLASS
  1
ACASGREFMASTER
  2
AcAsGrefMaster
  3
"AutoSurfResolver"
 90
        0
280
     0
281
     0
  0
CLASS
  1
ADAPPL
  2
AcAdAppl
  3
"DesignerServices"
 90
        0
280
     0
281
     0
  0
CLASS
  1
DEPMGR
  2
AcAdDepMgr
  3
"DesignerServices"
 90
        0
280
     0
281
     0
  0
CLASS
  1
PARAMMGR
  2
AcAdParamMgr
  3
"DesignerServices"
 90
        0
280
     0
281
     0
  0
CLASS
  1
PARAMSCOPE
  2
AcAdParamScope
  3
"DesignerServices"
 90
        0
280
     0
281
     0
  0
CLASS
  1
"IM_SYSVAR_MAN"
  2
AcImSysVarManager
  3
"ADAM"
 90
        0
280
     0
281
     0
  0
CLASS
  1
SYSTEM_VAR_INT
  2
AcImIntSysVar
  3
"ADAM"
 90
        0
280
     0
281
     0
  0
CLASS
  1
SYSTEM_VAR_REAL
  2
AcImRealSysVar
  3
"ADAM"
 90
        0
280
     0
281
     0
  0
CLASS
  1
SYSTEM_VAR_STR
  2
AcImStrSysVar
  3
"ADAM"
 90
        0
280
     0
281
     0
  0
CLASS
  1
NAMEDAPPL
  2
AcAdNamedAppl
  3
"DesignerServices"
 90
        0
280
     0
281
     0
  0
CLASS
  1
ADPART
  2
AcAdPart
  3
"DesignerServices"
 90
        0
280
     0
281
     1
  0
CLASS
  1
ADBASE
  2
AcAdBase
  3
"DesignerServices"
 90
        0
280
     0
281
     0
  0
CLASS
  1
BODYID
  2
AcAdBodyId
  3
"DesignerServices"
 90
        0
280
     0
281
     0
  0
CLASS
  1
WORKPLANEDISPLAYMGR
  2
AcAdDisplayMgr
  3
"DesignerServices"
 90
        0
280
     0
281
     0
  0
CLASS
  1
ADHNTMPLT
  2
AdHoleNoteTemplateMgr
  3
"DesignerServices"
 90
        0
280
     0
281
     0
  0
CLASS
  1
AM_HNTEMPLATE_MGR_NAME
  2
AdHoleNoteTemplateMgrName
  3
"DesignerServices"
 90
        0
280
     0
281
     0
  0
CLASS
  1
AcAdGrefModule
  2
AcAdGrefModule
  3
AD_GREF_SERVICES_NSTR
 90
        0
280
     0
281
     0
  0
CLASS
  1
AM_DRAWING_MGR
  2
AcDmDwgMgr
  3
"Designer_Drawing_Mgmt"
 90
        0
280
     0
281
     0
  0
CLASS
  1
AM_DWG_DOCUMENT
  2
AcDmDwgDocument
  3
"Designer_Drawing_Mgmt"
 90
        0
280
     0
281
     0
  0
CLASS
  1
AM_DWG_SHEET
  2
AcDmSheet
  3
"Designer_Drawing_Mgmt"
 90
        0
280
     0
281
     0
  0
CLASS
  1
AM_VIEWDIMPARMAP
  2
AcDmViewDimParMap
  3
"Designer_Drawing_Mgmt"
 90
        0
280
     0
281
     0
  0
CLASS
  1
AM_DWGMGR_NAME
  2
AcDmDwgMgrName
  3
"Designer_Drawing_Mgmt"
 90
        0
280
     0
281
     0
  0
CLASS
  1
ACAMPROJECT
  2
AcAmProject
  3
"DesignerAssemblies"
 90
        0
280
     0
281
     0
  0
CLASS
  1
ACAMGRCOMPDEF
  2
AcAmGrCompDef
  3
"DesignerAssemblies"
 90
        0
280
     0
281
     0
  0
CLASS
  1
ACAMCOMPDEF
  2
AcAmCompDef
  3
"DesignerAssemblies"
 90
        0
280
     0
281
     0
  0
CLASS
  1
ACAMCOMPDEFMGR
  2
AcAmCompDefMgr
  3
"DesignerAssemblies"
 90
        0
280
     0
281
     0
  0
CLASS
  1
AMCONTEXTMGR
  2
AcAmContextMgr
  3
"DesignerAssemblies"
 90
        0
280
     0
281
     0
  0
CLASS
  1
AcAmContextModeler
  2
AcAmContextModeler
  3
"DesignerAssemblies"
 90
        0
280
     0
281
     0
  0
CLASS
  1
ACAMDRAWINGMAN
  2
AcAmDrawingMan
  3
"DesignerAssemblies"
 90
        0
280
     0
281
     0
  0
CLASS
  1
ASSYSVARS
  2
AcAsSysVars
  3
"AutoSurf"
 90
        0
280
     0
281
     0
  0
CLASS
  1
ASSTATICVARS
  2
AcAsStaticVars
  3
"AutoSurf"
 90
        0
280
     0
281
     0
  0
CLASS
  1
ASAPP
  2
AcAsAppObject
  3
"AutoSurf"
 90
        0
280
     0
281
     0
  0
CLASS
  1
ACRFATTGENMGR
  2
AcRfAttGeneralMgr
  3
"AcadRfServer"
 90
        0
280
     0
281
     0
  0
CLASS
  1
ACRFMCADAPIATTHOLDER
  2
AcRfMCADAPIAttHolder
  3
"AcadRfServer"
 90
        0
280
     0
281
     0
  0
CLASS
  1
AGDICTIONARY
  2
AgDictionary
  3
"AccelView"
 90
        1
280
     0
281
     0
  0
ENDSEC
  0
SECTION
  2
TABLES
  0
TABLE
  2
VPORT
  5
8
100
AcDbSymbolTable
 70
     2
  0
VPORT
  5
1495
100
AcDbSymbolTableRecord
100
AcDbViewportTableRecord
  2
*ACTIVE
 70
     0
 10
0.0
 20
0.0
 11
1.0
 21
1.0
 12
17.697005
 22
10.536298
 13
0.0
 23
0.0
 14
0.0625
 24
0.0625
 15
1.0
 25
1.0
 16
0.0
 26
0.0
 36
1.0
 17
0.0
 27
0.0
 37
0.0
 40
19.839005
 41
1.684575
 42
50.0
 43
0.0
 44
0.0
 50
0.0
 51
0.0
 71
     0
 72
   100
 73
     1
 74
     0
 75
     0
 76
     1
 77
     0
 78
     0
  0
ENDTAB
  0
TABLE
  2
LTYPE
  5
5
100
AcDbSymbolTable
 70
     6
  0
LTYPE
  5
14
100
AcDbSymbolTableRecord
100
AcDbLinetypeTableRecord
  2
BYBLOCK
 70
     0
  3

 72
    65
 73
     0
 40
0.0
  0
LTYPE
  5
15
100
AcDbSymbolTableRecord
100
AcDbLinetypeTableRecord
  2
BYLAYER
 70
     0
  3

 72
    65
 73
     0
 40
0.0
  0
LTYPE
  5
16
100
AcDbSymbolTableRecord
100
AcDbLinetypeTableRecord
  2
CONTINUOUS
 70
    64
  3
Solid line
 72
    65
 73
     0
 40
0.0
  0
LTYPE
  5
24
100
AcDbSymbolTableRecord
100
AcDbLinetypeTableRecord
  2
CENTER
 70
    64
  3
____ _ ____ _ ____ _ ____ _ ____ _ ____ _ ____ 
 72
    65
 73
     4
 40
2.0
 49
1.25
 74
     0
 49
-0.25
 74
     0
 49
0.25
 74
     0
 49
-0.25
 74
     0
  0
LTYPE
  5
26
100
AcDbSymbolTableRecord
100
AcDbLinetypeTableRecord
  2
HIDDEN
 70
    64
  3
__ __ __ __ __ __ __ __ __ __ __ __ __ __ __ __
 72
    65
 73
     2
 40
0.375
 49
0.25
 74
     0
 49
-0.125
 74
     0
  0
LTYPE
  5
118C
100
AcDbSymbolTableRecord
100
AcDbLinetypeTableRecord
  2
PHANTOM2
 70
     0
  3
___ _ _ ___ _ _ ___ _ _ ___ _ _ ___ _ _ ___ _ _
 72
    65
 73
     6
 40
1.25
 49
0.625
 74
     0
 49
-0.125
 74
     0
 49
0.125
 74
     0
 49
-0.125
 74
     0
 49
0.125
 74
     0
 49
-0.125
 74
     0
  0
LTYPE
  5
11B6
100
AcDbSymbolTableRecord
100
AcDbLinetypeTableRecord
  2
ASULTYPE
 70
     0
  3
Solid line
 72
    65
 73
     2
 40
3.0
 49
2.5
 74
     0
 49
0.5
 74
     0
  0
LTYPE
  5
11B7
100
AcDbSymbolTableRecord
100
AcDbLinetypeTableRecord
  2
ASVLTYPE
 70
     0
  3
__ __ __ __ __ __ __ __ __ __ __ __ __ __ __ __ __ __ __ __ __
 72
    65
 73
     2
 40
0.75
 49
0.5
 74
     0
 49
-0.25
 74
     0
  0
ENDTAB
  0
TABLE
  2
LAYER
  5
2
100
AcDbSymbolTable
 70
    21
  0
LAYER
  5
F
100
AcDbSymbolTableRecord
100
AcDbLayerTableRecord
  2
0
 70
    64
 62
     7
  6
CONTINUOUS
  0
LAYER
  5
23
100
AcDbSymbolTableRecord
100
AcDbLayerTableRecord
  2
CENTER
 70
    64
 62
     1
  6
CENTER
  0
LAYER
  5
25
100
AcDbSymbolTableRecord
100
AcDbLayerTableRecord
  2
HIDDEN
 70
    64
 62
     7
  6
HIDDEN
  0
LAYER
  5
29
100
AcDbSymbolTableRecord
100
AcDbLayerTableRecord
  2
DIM
 70
    64
 62
     3
  6
CONTINUOUS
  0
LAYER
  5
2A
100
AcDbSymbolTableRecord
100
AcDbLayerTableRecord
  2
TEXT
 70
    64
 62
     7
  6
CONTINUOUS
  0
LAYER
  5
2F
100
AcDbSymbolTableRecord
100
AcDbLayerTableRecord
  2
HCHARTS
 70
    64
 62
     3
  6
CONTINUOUS
  0
LAYER
  5
48
100
AcDbSymbolTableRecord
100
AcDbLayerTableRecord
  2
BORDER
 70
    64
 62
     6
  6
CONTINUOUS
  0
LAYER
  5
83
100
AcDbSymbolTableRecord
100
AcDbLayerTableRecord
  2
FOOT
 70
    64
 62
     7
  6
CONTINUOUS
  0
LAYER
  5
FA
100
AcDbSymbolTableRecord
100
AcDbLayerTableRecord
  2
DEFPOINTS
 70
    64
 62
     7
  6
CONTINUOUS
  0
LAYER
  5
4FE
100
AcDbSymbolTableRecord
100
AcDbLayerTableRecord
  2
HATCH
 70
    64
 62
     7
  6
CONTINUOUS
  0
LAYER
  5
856
100
AcDbSymbolTableRecord
100
AcDbLayerTableRecord
  2
REDTEXT
 70
    64
 62
     1
  6
CONTINUOUS
  0
LAYER
  5
D10
100
AcDbSymbolTableRecord
100
AcDbLayerTableRecord
  2
KEVLAR
 70
    64
 62
     7
  6
CONTINUOUS
  0
LAYER
  5
119A
100
AcDbSymbolTableRecord
100
AcDbLayerTableRecord
  2
AM_VIEWS
 70
     0
 62
    -7
  6
CONTINUOUS
  0
LAYER
  5
119B
100
AcDbSymbolTableRecord
100
AcDbLayerTableRecord
  2
AM_PARDIM
 70
     0
 62
     3
  6
CONTINUOUS
  0
LAYER
  5
119C
100
AcDbSymbolTableRecord
100
AcDbLayerTableRecord
  2
AM_REFDIM
 70
     0
 62
     4
  6
CONTINUOUS
  0
LAYER
  5
119D
100
AcDbSymbolTableRecord
100
AcDbLayerTableRecord
  2
AM_VIS
 70
     0
 62
     7
  6
CONTINUOUS
  0
LAYER
  5
119E
100
AcDbSymbolTableRecord
100
AcDbLayerTableRecord
  2
AM_HID
 70
    64
 62
     7
  6
HIDDEN
  0
LAYER
  5
11AD
100
AcDbSymbolTableRecord
100
AcDbLayerTableRecord
  2
AM_TR
 70
     0
 62
     7
  6
CONTINUOUS
  0
LAYER
  5
11AE
100
AcDbSymbolTableRecord
100
AcDbLayerTableRecord
  2
AM_BM
 70
     0
 62
     7
  6
CONTINUOUS
  0
LAYER
  5
11AF
100
AcDbSymbolTableRecord
100
AcDbLayerTableRecord
  2
AM_BL
 70
     0
 62
     7
  6
CONTINUOUS
  0
LAYER
  5
1474
100
AcDbSymbolTableRecord
100
AcDbLayerTableRecord
  2
ASHADE
 70
    68
 62
     7
  6
CONTINUOUS
  0
ENDTAB
  0
TABLE
  2
STYLE
  5
3
100
AcDbSymbolTable
 70
     4
  0
STYLE
  5
10
100
AcDbSymbolTableRecord
100
AcDbTextStyleTableRecord
  2
STANDARD
 70
    64
 40
0.0
 41
1.0
 50
0.0
 71
     0
 42
0.12
  3
txt
  4

  0
STYLE
  5
28
100
AcDbSymbolTableRecord
100
AcDbTextStyleTableRecord
  2
CIM_TB
 70
    64
 40
0.0
 41
1.0
 50
0.0
 71
     0
 42
0.2
  3
romans
  4

  0
STYLE
  5
49
100
AcDbSymbolTableRecord
100
AcDbTextStyleTableRecord
  2
ADESK2
 70
    64
 40
0.0
 41
1.0
 50
0.0
 71
     0
 42
0.065
  3
romans
  4

  0
STYLE
  5
1471
100
AcDbSymbolTableRecord
100
AcDbTextStyleTableRecord
  2
ASHADE
 70
    64
 40
0.2
 41
1.0
 50
0.0
 71
     0
 42
0.12
  3
simplex
  4

  0
ENDTAB
  0
TABLE
  2
VIEW
  5
6
100
AcDbSymbolTable
 70
     0
  0
ENDTAB
  0
TABLE
  2
UCS
  5
7
100
AcDbSymbolTable
 70
     1
  0
UCS
  5
2D
100
AcDbSymbolTableRecord
100
AcDbUCSTableRecord
  2
CIM_TB_HOLD
 70
     0
 10
0.0
 20
0.0
 30
0.0
 11
1.0
 21
0.0
 31
0.0
 12
0.0
 22
1.0
 32
0.0
  0
ENDTAB
  0
TABLE
  2
APPID
  5
9
100
AcDbSymbolTable
 70
    11
  0
APPID
  5
11
100
AcDbSymbolTableRecord
100
AcDbRegAppTableRecord
  2
ACAD
 70
     0
  0
APPID
  5
22
100
AcDbSymbolTableRecord
100
AcDbRegAppTableRecord
  2
TB_S_MPD
 70
     0
  0
APPID
  5
1199
100
AcDbSymbolTableRecord
100
AcDbRegAppTableRecord
  2
AD_DRAW
 70
     0
  0
APPID
  5
11B1
100
AcDbSymbolTableRecord
100
AcDbRegAppTableRecord
  2
DESIGNERASSEMBLIES
 70
     0
  0
APPID
  5
11B2
100
AcDbSymbolTableRecord
100
AcDbRegAppTableRecord
  2
MCAD_NO_VIS
 70
     0
  0
APPID
  5
11B8
100
AcDbSymbolTableRecord
100
AcDbRegAppTableRecord
  2
ASURF_PCURVE_APPNAME
 70
     0
  0
APPID
  5
1472
100
AcDbSymbolTableRecord
100
AcDbRegAppTableRecord
  2
AVE_RENDER
 70
     0
  0
APPID
  5
1473
100
AcDbSymbolTableRecord
100
AcDbRegAppTableRecord
  2
AVE_ENTITY_MATERIAL
 70
     0
  0
APPID
  5
1480
100
AcDbSymbolTableRecord
100
AcDbRegAppTableRecord
  2
AVE_FINISH
 70
     0
  0
APPID
  5
1481
100
AcDbSymbolTableRecord
100
AcDbRegAppTableRecord
  2
AVE_MATERIAL
 70
     0
  0
APPID
  5
1482
100
AcDbSymbolTableRecord
100
AcDbRegAppTableRecord
  2
AVE_GLOBAL
 70
     0
  0
ENDTAB
  0
TABLE
  2
DIMSTYLE
  5
A
100
AcDbSymbolTable
 70
     3
  0
DIMSTYLE
105
1D
100
AcDbSymbolTableRecord
100
AcDbDimStyleTableRecord
  2
STANDARD
 70
     0
  3

  4

  5

  6

  7

 40
1.0
 41
0.18
 42
0.0625
 43
0.38
 44
0.18
 45
0.0
 46
0.0
 47
0.0
 48
0.0
140
0.18
141
0.09
142
0.0
143
25.4
144
1.0
145
0.0
146
1.0
147
0.09
 71
     0
 72
     0
 73
     1
 74
     1
 75
     0
 76
     0
 77
     0
 78
     0
170
     0
171
     2
172
     0
173
     0
174
     0
175
     0
176
     0
177
     0
178
     0
270
     2
271
     3
272
     4
273
     2
274
     2
340
10
275
     0
280
     0
281
     0
282
     0
283
     1
284
     0
285
     0
286
     0
287
     0
288
     0
  0
DIMSTYLE
105
2B
100
AcDbSymbolTableRecord
100
AcDbDimStyleTableRecord
  2
STANDARD$4
 70
     0
  3

  4

  5

  6

  7

 40
1.0
 41
0.18
 42
0.0625
 43
0.38
 44
0.18
 45
0.0
 46
0.0
 47
0.0
 48
0.0
140
0.18
141
0.09
142
0.0
143
25.4
144
1.0
145
0.0
146
1.0
147
0.09
 71
     0
 72
     0
 73
     1
 74
     1
 75
     0
 76
     0
 77
     0
 78
     0
170
     0
171
     2
172
     0
173
     0
174
     0
175
     0
176
     0
177
     0
178
     0
270
     2
271
     4
272
     4
273
     2
274
     2
340
10
275
     0
280
     0
281
     0
282
     0
283
     1
284
     0
285
     0
286
     0
287
     3
288
     0
  0
DIMSTYLE
105
2C
100
AcDbSymbolTableRecord
100
AcDbDimStyleTableRecord
  2
STANDARD$3
 70
     0
  3

  4

  5

  6

  7

 40
1.0
 41
0.18
 42
0.0625
 43
0.38
 44
0.18
 45
0.0
 46
0.0
 47
0.0
 48
0.0
140
0.18
141
0.09
142
0.0
143
25.4
144
1.0
145
0.0
146
1.0
147
0.09
 71
     0
 72
     0
 73
     1
 74
     1
 75
     0
 76
     0
 77
     0
 78
     0
170
     0
171
     2
172
     0
173
     0
174
     0
175
     0
176
     0
177
     0
178
     0
270
     2
271
     4
272
     4
273
     2
274
     2
340
10
275
     0
280
     0
281
     0
282
     0
283
     1
284
     0
285
     0
286
     0
287
     0
288
     1
  0
ENDTAB
  0
TABLE
  2
BLOCK_RECORD
  5
1
100
AcDbSymbolTable
 70
    42
  0
BLOCK_RECORD
  5
1A
100
AcDbSymbolTableRecord
100
AcDbBlockTableRecord
  2
*MODEL_SPACE
  0
BLOCK_RECORD
  5
17
100
AcDbSymbolTableRecord
100
AcDbBlockTableRecord
  2
*PAPER_SPACE
  0
BLOCK_RECORD
  5
4A
100
AcDbSymbolTableRecord
100
AcDbBlockTableRecord
  2
C-BORDER
  0
BLOCK_RECORD
  5
84
100
AcDbSymbolTableRecord
100
AcDbBlockTableRecord
  2
FT-L2-F
  0
BLOCK_RECORD
  5
90
100
AcDbSymbolTableRecord
100
AcDbBlockTableRecord
  2
FT-F-L2S
  0
BLOCK_RECORD
  5
3D5
100
AcDbSymbolTableRecord
100
AcDbBlockTableRecord
  2
*D3
  0
BLOCK_RECORD
  5
402
100
AcDbSymbolTableRecord
100
AcDbBlockTableRecord
  2
*D4
  0
BLOCK_RECORD
  5
974
100
AcDbSymbolTableRecord
100
AcDbBlockTableRecord
  2
*U5
  0
BLOCK_RECORD
  5
9DC
100
AcDbSymbolTableRecord
100
AcDbBlockTableRecord
  2
*D6
  0
BLOCK_RECORD
  5
AAA
100
AcDbSymbolTableRecord
100
AcDbBlockTableRecord
  2
*D7
  0
BLOCK_RECORD
  5
AB9
100
AcDbSymbolTableRecord
100
AcDbBlockTableRecord
  2
*D8
  0
BLOCK_RECORD
  5
AC7
100
AcDbSymbolTableRecord
100
AcDbBlockTableRecord
  2
*D9
  0
BLOCK_RECORD
  5
B4D
100
AcDbSymbolTableRecord
100
AcDbBlockTableRecord
  2
*U10
  0
BLOCK_RECORD
  5
B59
100
AcDbSymbolTableRecord
100
AcDbBlockTableRecord
  2
*U11
  0
BLOCK_RECORD
  5
B64
100
AcDbSymbolTableRecord
100
AcDbBlockTableRecord
  2
CUTOUT
  0
BLOCK_RECORD
  5
C38
100
AcDbSymbolTableRecord
100
AcDbBlockTableRecord
  2
*D13
  0
BLOCK_RECORD
  5
CAF
100
AcDbSymbolTableRecord
100
AcDbBlockTableRecord
  2
*U14
  0
BLOCK_RECORD
  5
CD8
100
AcDbSymbolTableRecord
100
AcDbBlockTableRecord
  2
*D15
  0
BLOCK_RECORD
  5
CE6
100
AcDbSymbolTableRecord
100
AcDbBlockTableRecord
  2
*D16
  0
BLOCK_RECORD
  5
D11
100
AcDbSymbolTableRecord
100
AcDbBlockTableRecord
  2
D-BORDER
  0
BLOCK_RECORD
  5
EF7
100
AcDbSymbolTableRecord
100
AcDbBlockTableRecord
  2
*D18
  0
BLOCK_RECORD
  5
F06
100
AcDbSymbolTableRecord
100
AcDbBlockTableRecord
  2
*D19
  0
BLOCK_RECORD
  5
F2D
100
AcDbSymbolTableRecord
100
AcDbBlockTableRecord
  2
*D20
  0
BLOCK_RECORD
  5
11A5
100
AcDbSymbolTableRecord
100
AcDbBlockTableRecord
  2
*U21
  0
BLOCK_RECORD
  5
11BE
100
AcDbSymbolTableRecord
100
AcDbBlockTableRecord
  2
*U22
  0
BLOCK_RECORD
  5
1235
100
AcDbSymbolTableRecord
100
AcDbBlockTableRecord
  2
*X23
  0
BLOCK_RECORD
  5
12DC
100
AcDbSymbolTableRecord
100
AcDbBlockTableRecord
  2
*D24
  0
BLOCK_RECORD
  5
12E9
100
AcDbSymbolTableRecord
100
AcDbBlockTableRecord
  2
*D25
  0
BLOCK_RECORD
  5
12F6
100
AcDbSymbolTableRecord
100
AcDbBlockTableRecord
  2
*D26
  0
BLOCK_RECORD
  5
130E
100
AcDbSymbolTableRecord
100
AcDbBlockTableRecord
  2
*D27
  0
BLOCK_RECORD
  5
135D
100
AcDbSymbolTableRecord
100
AcDbBlockTableRecord
  2
*D28
  0
BLOCK_RECORD
  5
136B
100
AcDbSymbolTableRecord
100
AcDbBlockTableRecord
  2
*D29
  0
BLOCK_RECORD
  5
1379
100
AcDbSymbolTableRecord
100
AcDbBlockTableRecord
  2
*D30
  0
BLOCK_RECORD
  5
138C
100
AcDbSymbolTableRecord
100
AcDbBlockTableRecord
  2
*D31
  0
BLOCK_RECORD
  5
13A4
100
AcDbSymbolTableRecord
100
AcDbBlockTableRecord
  2
*D32
  0
BLOCK_RECORD
  5
13B1
100
AcDbSymbolTableRecord
100
AcDbBlockTableRecord
  2
*D33
  0
BLOCK_RECORD
  5
13BE
100
AcDbSymbolTableRecord
100
AcDbBlockTableRecord
  2
*D34
  0
BLOCK_RECORD
  5
13CB
100
AcDbSymbolTableRecord
100
AcDbBlockTableRecord
  2
*D35
  0
BLOCK_RECORD
  5
13F0
100
AcDbSymbolTableRecord
100
AcDbBlockTableRecord
  2
*D36
  0
BLOCK_RECORD
  5
140B
100
AcDbSymbolTableRecord
100
AcDbBlockTableRecord
  2
*D37
  0
BLOCK_RECORD
  5
141F
100
AcDbSymbolTableRecord
100
AcDbBlockTableRecord
  2
*D38
  0
BLOCK_RECORD
  5
142D
100
AcDbSymbolTableRecord
100
AcDbBlockTableRecord
  2
*D39
  0
BLOCK_RECORD
  5
1475
100
AcDbSymbolTableRecord
100
AcDbBlockTableRecord
  2
AVE_RENDER
  0
BLOCK_RECORD
  5
1483
100
AcDbSymbolTableRecord
100
AcDbBlockTableRecord
  2
AVE_GLOBAL
  0
ENDTAB
  0
ENDSEC
  0
SECTION
  2
BLOCKS
  0
BLOCK
  5
1B
100
AcDbEntity
  8
0
100
AcDbBlockBegin
  2
*MODEL_SPACE
 70
     0
 10
0.0
 20
0.0
 30
0.0
  3
*MODEL_SPACE
  1

  0
ENDBLK
  5
1C
100
AcDbEntity
  8
0
100
AcDbBlockEnd
  0
BLOCK
  5
18
100
AcDbEntity
 67
     1
  8
0
100
AcDbBlockBegin
  2
*PAPER_SPACE
 70
     0
 10
0.0
 20
0.0
 30
0.0
  3
*PAPER_SPACE
  1

  0
ENDBLK
  5
19
100
AcDbEntity
 67
     1
  8
0
100
AcDbBlockEnd
  0
BLOCK
  5
80
100
AcDbEntity
  8
0
100
AcDbBlockBegin
  2
C-BORDER
 70
     0
 10
0.0
 20
0.0
 30
0.0
  3
C-BORDER
  1

  0
TEXT
  5
4B
100
AcDbEntity
  8
TEXT
100
AcDbText
 10
15.40792
 20
1.861505
 30
0.0
 40
0.065
  1
  %%P 0.5%%D
  7
ADESK2
100
AcDbText
  0
TEXT
  5
4C
100
AcDbEntity
  8
TEXT
100
AcDbText
 10
15.40792
 20
1.966743
 30
0.0
 40
0.065
  1
ANGULAR
  7
ADESK2
100
AcDbText
  0
TEXT
  5
4D
100
AcDbEntity
  8
TEXT
100
AcDbText
 10
14.61466
 20
1.653744
 30
0.0
 40
0.065
  1
DO NOT SCALE DRAWING
  7
ADESK2
 72
     1
 11
15.229065
 21
1.653744
 31
0.0
100
AcDbText
  0
TEXT
  5
4E
100
AcDbEntity
  8
TEXT
100
AcDbText
 10
14.544023
 20
1.756267
 30
0.0
 40
0.065
  1
.XXX %%P .005
  7
ADESK2
100
AcDbText
  0
TEXT
  5
4F
100
AcDbEntity
  8
TEXT
100
AcDbText
 10
14.544023
 20
1.861505
 30
0.0
 40
0.065
  1
.XX  %%P .05
  7
ADESK2
100
AcDbText
  0
TEXT
  5
50
100
AcDbEntity
  8
TEXT
100
AcDbText
 10
14.544023
 20
1.966743
 30
0.0
 40
0.065
  1
DECIMALS
  7
ADESK2
100
AcDbText
  0
TEXT
  5
51
100
AcDbEntity
  8
TEXT
100
AcDbText
 10
14.930374
 20
2.074613
 30
0.0
 40
0.065
  1
TOLERANCES
  7
ADESK2
 72
     1
 11
15.229065
 21
2.074613
 31
0.0
100
AcDbText
  0
TEXT
  5
52
100
AcDbEntity
  8
TEXT
100
AcDbText
 10
14.532636
 20
2.179851
 30
0.0
 40
0.065
  1
DIMENSIONS ARE IN INCHES
  7
ADESK2
 72
     1
 11
15.229065
 21
2.179851
 31
0.0
100
AcDbText
  0
TEXT
  5
53
100
AcDbEntity
  8
TEXT
100
AcDbText
 10
14.458351
 20
2.285089
 30
0.0
 40
0.065
  1
UNLESS OTHERWISE SPECIFIED:
  7
ADESK2
 72
     1
 11
15.229065
 21
2.285089
 31
0.0
100
AcDbText
  0
TEXT
  5
54
100
AcDbEntity
  8
BORDER
100
AcDbText
 10
16.916608
 20
2.075566
 30
0.0
 40
0.15
  1
HIGH ENERGY PHYSICS
100
AcDbText
  0
LINE
  5
55
100
AcDbEntity
  8
BORDER
100
AcDbLine
 10
0.5
 20
15.375
 30
0.0
 11
20.5
 21
15.375
 31
0.0
  0
TEXT
  5
56
100
AcDbEntity
  8
TEXT
100
AcDbText
 10
16.680137
 20
1.165354
 30
0.0
 40
0.075
  1
FILE #
100
AcDbText
  0
TEXT
  5
57
100
AcDbEntity
  8
BORDER
100
AcDbText
 10
16.367704
 20
0.951962
 30
0.0
 40
0.15
  1
C
100
AcDbText
  0
LINE
  5
58
100
AcDbEntity
  8
BORDER
100
AcDbLine
 10
0.5
 20
0.625
 30
0.0
 11
20.5
 21
0.625
 31
0.0
  0
LINE
  5
59
100
AcDbEntity
  8
BORDER
100
AcDbLine
 10
0.5
 20
15.375
 30
0.0
 11
0.5
 21
0.625
 31
0.0
  0
LINE
  5
5A
100
AcDbEntity
  8
BORDER
100
AcDbLine
 10
20.5
 20
0.625
 30
0.0
 11
20.5
 21
15.375
 31
0.0
  0
LINE
  5
5B
100
AcDbEntity
  8
BORDER
100
AcDbLine
 10
14.228025
 20
2.824147
 30
0.0
 11
20.500862
 21
2.824147
 31
0.0
  0
TEXT
  5
5C
100
AcDbEntity
  8
BORDER
100
AcDbText
 10
14.407029
 20
2.549228
 30
0.0
 40
0.15
  1
UNIVERSITY OF CALIFORNIA @ SANTA BARBARA
100
AcDbText
  0
TEXT
  5
5D
100
AcDbEntity
  8
TEXT
100
AcDbText
 10
14.297375
 20
1.479964
 30
0.0
 40
0.065
  1
DRAWN
  7
ADESK2
100
AcDbText
  0
LINE
  5
5E
100
AcDbEntity
  8
BORDER
100
AcDbLine
 10
14.229065
 20
0.625
 30
0.0
 11
14.229065
 21
2.824147
 31
0.0
  0
LINE
  5
5F
100
AcDbEntity
  8
BORDER
100
AcDbLine
 10
14.229065
 20
2.401501
 30
0.0
 11
20.500862
 21
2.401501
 31
0.0
  0
LINE
  5
60
100
AcDbEntity
  8
TEXT
100
AcDbLine
 10
14.229065
 20
0.966501
 30
0.0
 11
16.229065
 21
0.966501
 31
0.0
  0
LINE
  5
61
100
AcDbEntity
  8
TEXT
100
AcDbLine
 10
14.229065
 20
1.281501
 30
0.0
 11
20.500862
 21
1.281501
 31
0.0
  0
LINE
  5
62
100
AcDbEntity
  8
TEXT
100
AcDbLine
 10
16.229065
 20
0.901501
 30
0.0
 11
20.500862
 21
0.901501
 31
0.0
  0
LINE
  5
63
100
AcDbEntity
  8
BORDER
100
AcDbLine
 10
16.229065
 20
1.901501
 30
0.0
 11
20.500862
 21
1.901501
 31
0.0
  0
LINE
  5
64
100
AcDbEntity
  8
BORDER
100
AcDbLine
 10
16.229065
 20
0.625
 30
0.0
 11
16.229065
 21
2.401501
 31
0.0
  0
LINE
  5
65
100
AcDbEntity
  8
TEXT
100
AcDbLine
 10
17.229065
 20
0.625
 30
0.0
 11
17.229065
 21
0.901501
 31
0.0
  0
LINE
  5
66
100
AcDbEntity
  8
TEXT
100
AcDbLine
 10
18.729065
 20
0.625
 30
0.0
 11
18.729065
 21
0.901501
 31
0.0
  0
LINE
  5
67
100
AcDbEntity
  8
TEXT
100
AcDbLine
 10
16.609065
 20
0.901501
 30
0.0
 11
16.609065
 21
1.281501
 31
0.0
  0
LINE
  5
68
100
AcDbEntity
  8
TEXT
100
AcDbLine
 10
17.729065
 20
0.901501
 30
0.0
 11
17.729065
 21
1.281501
 31
0.0
  0
LINE
  5
69
100
AcDbEntity
  8
TEXT
100
AcDbLine
 10
20.099065
 20
0.901501
 30
0.0
 11
20.099065
 21
1.281501
 31
0.0
  0
TEXT
  5
6A
100
AcDbEntity
  8
TEXT
100
AcDbText
 10
16.281365
 20
0.744001
 30
0.0
 40
0.065
  1
SCALE
  7
ADESK2
100
AcDbText
  0
TEXT
  5
6B
100
AcDbEntity
  8
TEXT
100
AcDbText
 10
18.781865
 20
0.744001
 30
0.0
 40
0.065
  1
SHEET
  7
ADESK2
100
AcDbText
  0
TEXT
  5
6C
100
AcDbEntity
  8
TEXT
100
AcDbText
 10
16.316965
 20
1.167401
 30
0.0
 40
0.065
  1
SIZE
  7
ADESK2
100
AcDbText
  0
TEXT
  5
6D
100
AcDbEntity
  8
TEXT
100
AcDbText
 10
17.800065
 20
1.167401
 30
0.0
 40
0.065
  1
DWG NO.
  7
ADESK2
100
AcDbText
  0
TEXT
  5
6E
100
AcDbEntity
  8
TEXT
100
AcDbText
 10
20.179565
 20
1.167401
 30
0.0
 40
0.065
  1
REV
  7
ADESK2
100
AcDbText
  0
LINE
  5
6F
100
AcDbEntity
  8
TEXT
100
AcDbLine
 10
15.445694
 20
15.018795
 30
0.0
 11
20.5
 21
15.018795
 31
0.0
  0
LINE
  5
70
100
AcDbEntity
  8
TEXT
100
AcDbLine
 10
15.445694
 20
14.768795
 30
0.0
 11
20.5
 21
14.768795
 31
0.0
  0
LINE
  5
71
100
AcDbEntity
  8
TEXT
100
AcDbLine
 10
15.445694
 20
15.328859
 30
0.0
 11
15.445694
 21
14.768795
 31
0.0
  0
LINE
  5
72
100
AcDbEntity
  8
TEXT
100
AcDbLine
 10
15.835946
 20
14.768795
 30
0.0
 11
15.835946
 21
15.018795
 31
0.0
  0
LINE
  5
73
100
AcDbEntity
  8
TEXT
100
AcDbLine
 10
18.575946
 20
14.768795
 30
0.0
 11
18.575946
 21
15.018795
 31
0.0
  0
LINE
  5
74
100
AcDbEntity
  8
TEXT
100
AcDbLine
 10
19.455946
 20
14.768795
 30
0.0
 11
19.455946
 21
15.018795
 31
0.0
  0
TEXT
  5
75
100
AcDbEntity
  8
TEXT
100
AcDbText
 10
17.666146
 20
15.101295
 30
0.0
 40
0.065
  1
REVISIONS
  7
ADESK2
100
AcDbText
  0
TEXT
  5
76
100
AcDbEntity
  8
TEXT
100
AcDbText
 10
15.536046
 20
14.859095
 30
0.0
 40
0.065
  1
REV
  7
ADESK2
100
AcDbText
  0
TEXT
  5
77
100
AcDbEntity
  8
TEXT
100
AcDbText
 10
16.837946
 20
14.859095
 30
0.0
 40
0.065
  1
DESCRIPTION
  7
ADESK2
100
AcDbText
  0
TEXT
  5
78
100
AcDbEntity
  8
TEXT
100
AcDbText
 10
18.903646
 20
14.859095
 30
0.0
 40
0.065
  1
DATE
  7
ADESK2
100
AcDbText
  0
TEXT
  5
79
100
AcDbEntity
  8
TEXT
100
AcDbText
 10
19.697346
 20
14.859095
 30
0.0
 40
0.065
  1
APPROVED
  7
ADESK2
100
AcDbText
  0
LINE
  5
7A
100
AcDbEntity
  8
TEXT
100
AcDbLine
 10
14.229065
 20
1.591501
 30
0.0
 11
16.229065
 21
1.591501
 31
0.0
  0
TEXT
  5
7B
100
AcDbEntity
  8
TEXT
100
AcDbText
 10
14.309065
 20
1.171501
 30
0.0
 40
0.065
  1
CHECKED
  7
ADESK2
100
AcDbText
  0
TEXT
  5
7C
100
AcDbEntity
  8
TEXT
100
AcDbText
 10
14.309065
 20
0.856501
 30
0.0
 40
0.065
  1
DESIGN
  7
ADESK2
100
AcDbText
  0
LINE
  5
7D
100
AcDbEntity
  8
TEXT
100
AcDbLine
 10
15.729049
 20
1.591501
 30
0.0
 11
15.729049
 21
0.625
 31
0.0
  0
TEXT
  5
7E
100
AcDbEntity
  8
TEXT
100
AcDbText
 10
15.852468
 20
1.474951
 30
0.0
 40
0.065
  1
DATE
  7
ADESK2
100
AcDbText
  0
TEXT
  5
7F
100
AcDbEntity
  8
TEXT
100
AcDbText
 10
19.612036
 20
0.744377
 30
0.0
 40
0.065
  1
OF
  7
ADESK2
100
AcDbText
  0
ENDBLK
  5
81
100
AcDbEntity
  8
0
100
AcDbBlockEnd
  0
BLOCK
  5
8D
100
AcDbEntity
  8
0
100
AcDbBlockBegin
  2
FT-L2-F
 70
     0
 10
0.0
 20
0.0
 30
0.0
  3
FT-L2-F
  1

  0
LINE
  5
795
100
AcDbEntity
  8
FOOT
100
AcDbLine
 10
15.000027
 20
0.0
 30
0.0
 11
0.0
 21
0.0
 31
0.0
  0
LINE
  5
796
100
AcDbEntity
  8
FOOT
100
AcDbLine
 10
0.0
 20
0.0
 30
0.0
 11
0.0
 21
2.0
 31
0.0
  0
LINE
  5
797
100
AcDbEntity
  8
FOOT
100
AcDbLine
 10
35.892664
 20
10.875951
 30
0.0
 11
69.484489
 21
10.875951
 31
0.0
  0
LINE
  5
798
100
AcDbEntity
  8
FOOT
100
AcDbLine
 10
69.484489
 20
10.875951
 30
0.0
 11
69.484489
 21
14.341523
 31
0.0
  0
ARC
  5
799
100
AcDbEntity
  8
FOOT
100
AcDbCircle
 10
67.484489
 20
14.341523
 30
0.0
 40
2.0
100
AcDbArc
 50
0.0
 51
90.0
  0
LINE
  5
79A
100
AcDbEntity
  8
FOOT
100
AcDbLine
 10
67.484489
 20
16.341523
 30
0.0
 11
27.550361
 21
16.341523
 31
0.0
  0
LINE
  5
79B
100
AcDbEntity
  8
FOOT
100
AcDbLine
 10
0.0
 20
2.0
 30
0.0
 11
27.550361
 21
16.341523
 31
0.0
  0
LINE
  5
79C
100
AcDbEntity
  8
FOOT
100
AcDbLine
 10
35.892664
 20
10.875951
 30
0.0
 11
15.000027
 21
0.0
 31
0.0
  0
CIRCLE
  5
79D
100
AcDbEntity
  8
FOOT
100
AcDbCircle
 10
28.320027
 20
11.775
 30
0.0
 40
1.5875
  0
CIRCLE
  5
79E
100
AcDbEntity
  8
FOOT
100
AcDbCircle
 10
12.320027
 20
3.775
 30
0.0
 40
1.5875
  0
ENDBLK
  5
8E
100
AcDbEntity
  8
0
100
AcDbBlockEnd
  0
BLOCK
  5
9D
100
AcDbEntity
  8
0
100
AcDbBlockBegin
  2
FT-F-L2S
 70
     0
 10
0.0
 20
0.0
 30
0.0
  3
FT-F-L2S
  1

  0
LINE
  5
91
100
AcDbEntity
  8
FOOT
100
AcDbLine
 10
0.0
 20
0.0
 30
0.0
 11
0.0
 21
16.3415
 31
0.0
  0
LINE
  5
92
100
AcDbEntity
  8
FOOT
100
AcDbLine
 10
38.648
 20
0.0
 30
0.0
 11
38.648
 21
16.3415
 31
0.0
  0
LINE
  5
93
100
AcDbEntity
  8
FOOT
100
AcDbLine
 10
37.648
 20
1.0
 30
0.0
 11
37.648
 21
16.3415
 31
0.0
  0
LINE
  5
94
100
AcDbEntity
  8
FOOT
100
AcDbLine
 10
1.0
 20
1.0
 30
0.0
 11
1.0
 21
16.3415
 31
0.0
  0
LINE
  5
95
100
AcDbEntity
  8
FOOT
100
AcDbLine
 10
1.0
 20
1.0
 30
0.0
 11
37.648
 21
1.0
 31
0.0
  0
LINE
  5
96
100
AcDbEntity
  8
FOOT
100
AcDbLine
 10
0.0
 20
0.0
 30
0.0
 11
38.648
 21
0.0
 31
0.0
  0
LINE
  5
97
100
AcDbEntity
  8
FOOT
100
AcDbLine
 10
38.648
 20
16.3415
 30
0.0
 11
37.648
 21
16.3415
 31
0.0
  0
LINE
  5
98
100
AcDbEntity
  8
FOOT
100
AcDbLine
 10
0.0
 20
16.3415
 30
0.0
 11
1.0
 21
16.3415
 31
0.0
  0
LINE
  5
99
100
AcDbEntity
  8
FOOT
100
AcDbLine
 10
1.0
 20
2.654698
 30
0.0
 11
0.0
 21
2.654698
 31
0.0
  0
LINE
  5
9A
100
AcDbEntity
  8
FOOT
100
AcDbLine
 10
37.648
 20
2.654698
 30
0.0
 11
38.648
 21
2.654698
 31
0.0
  0
LINE
  5
9B
100
AcDbEntity
  8
FOOT
100
AcDbLine
 10
1.0
 20
11.530649
 30
0.0
 11
37.648
 21
11.530649
 31
0.0
  0
LINE
  5
9C
100
AcDbEntity
  8
FOOT
100
AcDbLine
 10
1.0
 20
12.530649
 30
0.0
 11
37.648
 21
12.530649
 31
0.0
  0
ENDBLK
  5
9E
100
AcDbEntity
  8
0
100
AcDbBlockEnd
  0
BLOCK
  5
A46
100
AcDbEntity
  8
0
100
AcDbBlockBegin
  2
*D3
 70
    65
 10
0.0
 20
0.0
 30
0.0
  3
*D3
  1
*TB
  0
LINE
  5
A47
100
AcDbEntity
  8
0
  6
BYBLOCK
 62
     0
100
AcDbLine
 10
9.831564
 20
10.746325
 30
0.0
 11
13.13403
 21
10.746325
 31
0.0
  0
LINE
  5
A48
100
AcDbEntity
  8
0
  6
BYBLOCK
 62
     0
100
AcDbLine
 10
9.833294
 20
11.044199
 30
0.0
 11
13.13403
 21
11.044199
 31
0.0
  0
LINE
  5
A49
100
AcDbEntity
  8
0
  6
BYBLOCK
 62
     0
100
AcDbLine
 10
12.99903
 20
10.611325
 30
0.0
 11
12.99903
 21
10.476325
 31
0.0
  0
LINE
  5
A4A
100
AcDbEntity
  8
0
  6
BYBLOCK
 62
     0
100
AcDbLine
 10
12.99903
 20
11.179199
 30
0.0
 11
12.99903
 21
11.314199
 31
0.0
  0
LINE
  5
A4B
100
AcDbEntity
  8
0
  6
BYBLOCK
 62
     0
100
AcDbLine
 10
12.99903
 20
11.314199
 30
0.0
 11
13.13403
 21
11.314199
 31
0.0
  0
SOLID
  5
A4C
100
AcDbEntity
  8
0
  6
BYBLOCK
 62
     0
100
AcDbTrace
 10
12.97653
 20
10.611325
 30
0.0
 11
13.02153
 21
10.611325
 31
0.0
 12
12.99903
 22
10.746325
 32
0.0
 13
12.99903
 23
10.746325
 33
0.0
  0
SOLID
  5
A4D
100
AcDbEntity
  8
0
  6
BYBLOCK
 62
     0
100
AcDbTrace
 10
12.97653
 20
11.179199
 30
0.0
 11
13.02153
 21
11.179199
 31
0.0
 12
12.99903
 22
11.044199
 32
0.0
 13
12.99903
 23
11.044199
 33
0.0
  0
MTEXT
  5
A4E
100
AcDbEntity
  8
0
  6
BYBLOCK
 62
     0
100
AcDbMText
 10
13.95528
 20
11.314199
 30
0.0
 40
0.135
 41
0.0
 71
     5
 72
     1
  1
\A1;0.298"[7.57mm]
  0
POINT
  5
A4F
100
AcDbEntity
  8
DEFPOINTS
  6
BYBLOCK
 62
     0
100
AcDbPoint
 10
9.784689
 20
10.746325
 30
0.0
  0
POINT
  5
A50
100
AcDbEntity
  8
DEFPOINTS
  6
BYBLOCK
 62
     0
100
AcDbPoint
 10
9.786419
 20
11.044199
 30
0.0
  0
POINT
  5
A51
100
AcDbEntity
  8
DEFPOINTS
  6
BYBLOCK
 62
     0
100
AcDbPoint
 10
12.99903
 20
11.044199
 30
0.0
  0
ENDBLK
  5
A52
100
AcDbEntity
  8
0
100
AcDbBlockEnd
  0
BLOCK
  5
A2D
100
AcDbEntity
  8
0
100
AcDbBlockBegin
  2
*D4
 70
    65
 10
0.0
 20
0.0
 30
0.0
  3
*D4
  1
*TB
  0
LINE
  5
A2E
100
AcDbEntity
  8
0
  6
BYBLOCK
 62
     0
100
AcDbLine
 10
9.831564
 20
10.01007
 30
0.0
 11
14.940414
 21
10.01007
 31
0.0
  0
LINE
  5
A2F
100
AcDbEntity
  8
0
  6
BYBLOCK
 62
     0
100
AcDbLine
 10
9.833294
 20
11.044199
 30
0.0
 11
14.940414
 21
11.044199
 31
0.0
  0
LINE
  5
A30
100
AcDbEntity
  8
0
  6
BYBLOCK
 62
     0
100
AcDbLine
 10
14.805414
 20
10.14507
 30
0.0
 11
14.805414
 21
10.335976
 31
0.0
  0
LINE
  5
A31
100
AcDbEntity
  8
0
  6
BYBLOCK
 62
     0
100
AcDbLine
 10
14.805414
 20
10.909199
 30
0.0
 11
14.805414
 21
10.605976
 31
0.0
  0
SOLID
  5
A32
100
AcDbEntity
  8
0
  6
BYBLOCK
 62
     0
100
AcDbTrace
 10
14.782914
 20
10.14507
 30
0.0
 11
14.827914
 21
10.14507
 31
0.0
 12
14.805414
 22
10.01007
 32
0.0
 13
14.805414
 23
10.01007
 33
0.0
  0
SOLID
  5
A33
100
AcDbEntity
  8
0
  6
BYBLOCK
 62
     0
100
AcDbTrace
 10
14.782914
 20
10.909199
 30
0.0
 11
14.827914
 21
10.909199
 31
0.0
 12
14.805414
 22
11.044199
 32
0.0
 13
14.805414
 23
11.044199
 33
0.0
  0
MTEXT
  5
A34
100
AcDbEntity
  8
0
  6
BYBLOCK
 62
     0
100
AcDbMText
 10
14.805414
 20
10.470976
 30
0.0
 40
0.135
 41
0.0
 71
     5
 72
     1
  1
\A1;1.034"[26.27mm]
  0
POINT
  5
A35
100
AcDbEntity
  8
DEFPOINTS
  6
BYBLOCK
 62
     0
100
AcDbPoint
 10
9.784689
 20
10.01007
 30
0.0
  0
POINT
  5
A36
100
AcDbEntity
  8
DEFPOINTS
  6
BYBLOCK
 62
     0
100
AcDbPoint
 10
9.786419
 20
11.044199
 30
0.0
  0
POINT
  5
A37
100
AcDbEntity
  8
DEFPOINTS
  6
BYBLOCK
 62
     0
100
AcDbPoint
 10
14.805414
 20
11.044199
 30
0.0
  0
ENDBLK
  5
A38
100
AcDbEntity
  8
0
100
AcDbBlockEnd
  0
BLOCK
  5
975
100
AcDbEntity
  8
0
100
AcDbBlockBegin
  2
*U5
 70
    65
 10
0.0
 20
0.0
 30
0.0
  3
*U5
  1
*TB
  0
POLYLINE
  5
976
100
AcDbEntity
  8
FOOT
100
AcDb2dPolyline
 66
     1
 10
0.0
 20
0.0
 30
0.0
 70
     1
  0
VERTEX
  5
977
100
AcDbEntity
  8
FOOT
100
AcDbVertex
100
AcDb2dVertex
 10
0.0
 20
0.063
 30
0.0
 42
1.0
  0
VERTEX
  5
978
100
AcDbEntity
  8
FOOT
100
AcDbVertex
100
AcDb2dVertex
 10
0.0
 20
-0.063
 30
0.0
  0
VERTEX
  5
979
100
AcDbEntity
  8
FOOT
100
AcDbVertex
100
AcDb2dVertex
 10
0.185
 20
-0.063
 30
0.0
 42
1.0
  0
VERTEX
  5
97A
100
AcDbEntity
  8
FOOT
100
AcDbVertex
100
AcDb2dVertex
 10
0.185
 20
0.063
 30
0.0
  0
SEQEND
  5
97B
100
AcDbEntity
  8
FOOT
  0
LINE
  5
97C
100
AcDbEntity
  8
CENTER
100
AcDbLine
 10
-0.021
 20
0.0
 30
0.0
 11
0.021
 21
0.0
 31
0.0
  0
LINE
  5
97D
100
AcDbEntity
  8
CENTER
100
AcDbLine
 10
0.0
 20
-0.021
 30
0.0
 11
0.0
 21
0.021
 31
0.0
  0
LINE
  5
97E
100
AcDbEntity
  8
CENTER
100
AcDbLine
 10
0.042
 20
0.0
 30
0.0
 11
0.188
 21
0.0
 31
0.0
  0
LINE
  5
97F
100
AcDbEntity
  8
CENTER
100
AcDbLine
 10
0.0
 20
0.042
 30
0.0
 11
0.0
 21
0.188
 31
0.0
  0
LINE
  5
980
100
AcDbEntity
  8
CENTER
100
AcDbLine
 10
-0.042
 20
0.0
 30
0.0
 11
-0.188
 21
0.0
 31
0.0
  0
LINE
  5
981
100
AcDbEntity
  8
CENTER
100
AcDbLine
 10
0.0
 20
-0.042
 30
0.0
 11
0.0
 21
-0.188
 31
0.0
  0
LINE
  5
982
100
AcDbEntity
  8
CENTER
100
AcDbLine
 10
0.164
 20
0.0
 30
0.0
 11
0.206
 21
0.0
 31
0.0
  0
LINE
  5
983
100
AcDbEntity
  8
CENTER
100
AcDbLine
 10
0.185
 20
-0.021
 30
0.0
 11
0.185
 21
0.021
 31
0.0
  0
LINE
  5
984
100
AcDbEntity
  8
CENTER
100
AcDbLine
 10
0.227
 20
0.0
 30
0.0
 11
0.373
 21
0.0
 31
0.0
  0
LINE
  5
985
100
AcDbEntity
  8
CENTER
100
AcDbLine
 10
0.185
 20
0.042
 30
0.0
 11
0.185
 21
0.188
 31
0.0
  0
LINE
  5
986
100
AcDbEntity
  8
CENTER
100
AcDbLine
 10
0.143
 20
0.0
 30
0.0
 11
-0.003
 21
0.0
 31
0.0
  0
LINE
  5
987
100
AcDbEntity
  8
CENTER
100
AcDbLine
 10
0.185
 20
-0.042
 30
0.0
 11
0.185
 21
-0.188
 31
0.0
  0
ENDBLK
  5
988
100
AcDbEntity
  8
0
100
AcDbBlockEnd
  0
BLOCK
  5
AD5
100
AcDbEntity
  8
0
100
AcDbBlockBegin
  2
*D6
 70
    65
 10
0.0
 20
0.0
 30
0.0
  3
*D6
  1
*TB
  0
LINE
  5
AD6
100
AcDbEntity
  8
0
  6
BYBLOCK
 62
     0
100
AcDbLine
 10
9.855868
 20
10.746257
 30
0.0
 11
12.070191
 21
10.746257
 31
0.0
  0
LINE
  5
AD7
100
AcDbEntity
  8
0
  6
BYBLOCK
 62
     0
100
AcDbLine
 10
9.855868
 20
10.561257
 30
0.0
 11
12.070191
 21
10.561257
 31
0.0
  0
LINE
  5
AD8
100
AcDbEntity
  8
0
  6
BYBLOCK
 62
     0
100
AcDbLine
 10
11.935191
 20
10.881257
 30
0.0
 11
11.935191
 21
11.016257
 31
0.0
  0
LINE
  5
AD9
100
AcDbEntity
  8
0
  6
BYBLOCK
 62
     0
100
AcDbLine
 10
11.935191
 20
10.426257
 30
0.0
 11
11.935191
 21
10.291257
 31
0.0
  0
LINE
  5
ADA
100
AcDbEntity
  8
0
  6
BYBLOCK
 62
     0
100
AcDbLine
 10
11.935191
 20
10.291257
 30
0.0
 11
11.800191
 21
10.291257
 31
0.0
  0
SOLID
  5
ADB
100
AcDbEntity
  8
0
  6
BYBLOCK
 62
     0
100
AcDbTrace
 10
11.912691
 20
10.881257
 30
0.0
 11
11.957691
 21
10.881257
 31
0.0
 12
11.935191
 22
10.746257
 32
0.0
 13
11.935191
 23
10.746257
 33
0.0
  0
SOLID
  5
ADC
100
AcDbEntity
  8
0
  6
BYBLOCK
 62
     0
100
AcDbTrace
 10
11.912691
 20
10.426257
 30
0.0
 11
11.957691
 21
10.426257
 31
0.0
 12
11.935191
 22
10.561257
 32
0.0
 13
11.935191
 23
10.561257
 33
0.0
  0
MTEXT
  5
ADD
100
AcDbEntity
  8
0
  6
BYBLOCK
 62
     0
100
AcDbMText
 10
11.012691
 20
10.291257
 30
0.0
 40
0.135
 41
0.0
 71
     5
 72
     1
  1
\A1;{0.185"[4.70mm]}\P{2X}
  0
POINT
  5
ADE
100
AcDbEntity
  8
DEFPOINTS
  6
BYBLOCK
 62
     0
100
AcDbPoint
 10
9.808993
 20
10.746257
 30
0.0
  0
POINT
  5
ADF
100
AcDbEntity
  8
DEFPOINTS
  6
BYBLOCK
 62
     0
100
AcDbPoint
 10
9.808993
 20
10.561257
 30
0.0
  0
POINT
  5
AE0
100
AcDbEntity
  8
DEFPOINTS
  6
BYBLOCK
 62
     0
100
AcDbPoint
 10
11.935191
 20
10.561257
 30
0.0
  0
ENDBLK
  5
AE1
100
AcDbEntity
  8
0
100
AcDbBlockEnd
  0
BLOCK
  5
AAB
100
AcDbEntity
  8
0
100
AcDbBlockBegin
  2
*D7
 70
    65
 10
0.0
 20
0.0
 30
0.0
  3
*D7
  1
*TB
  0
LINE
  5
AAC
100
AcDbEntity
  8
0
  6
BYBLOCK
 62
     0
100
AcDbLine
 10
9.833294
 20
11.014229
 30
0.0
 11
10.472639
 21
11.014229
 31
0.0
  0
LINE
  5
AAD
100
AcDbEntity
  8
0
  6
BYBLOCK
 62
     0
100
AcDbLine
 10
9.833294
 20
11.044199
 30
0.0
 11
10.472639
 21
11.044199
 31
0.0
  0
LINE
  5
AAE
100
AcDbEntity
  8
0
  6
BYBLOCK
 62
     0
100
AcDbLine
 10
10.337639
 20
10.879229
 30
0.0
 11
10.337639
 21
10.744229
 31
0.0
  0
LINE
  5
AAF
100
AcDbEntity
  8
0
  6
BYBLOCK
 62
     0
100
AcDbLine
 10
10.337639
 20
11.179199
 30
0.0
 11
10.337639
 21
11.314199
 31
0.0
  0
LINE
  5
AB0
100
AcDbEntity
  8
0
  6
BYBLOCK
 62
     0
100
AcDbLine
 10
10.337639
 20
11.314199
 30
0.0
 11
10.472639
 21
11.314199
 31
0.0
  0
SOLID
  5
AB1
100
AcDbEntity
  8
0
  6
BYBLOCK
 62
     0
100
AcDbTrace
 10
10.315139
 20
10.879229
 30
0.0
 11
10.360139
 21
10.879229
 31
0.0
 12
10.337639
 22
11.014229
 32
0.0
 13
10.337639
 23
11.014229
 33
0.0
  0
SOLID
  5
AB2
100
AcDbEntity
  8
0
  6
BYBLOCK
 62
     0
100
AcDbTrace
 10
10.315139
 20
11.179199
 30
0.0
 11
10.360139
 21
11.179199
 31
0.0
 12
10.337639
 22
11.044199
 32
0.0
 13
10.337639
 23
11.044199
 33
0.0
  0
MTEXT
  5
AB3
100
AcDbEntity
  8
0
  6
BYBLOCK
 62
     0
100
AcDbMText
 10
11.260139
 20
11.314199
 30
0.0
 40
0.135
 41
0.0
 71
     5
 72
     1
  1
\A1;0.030"[0.76mm]
  0
POINT
  5
AB4
100
AcDbEntity
  8
DEFPOINTS
  6
BYBLOCK
 62
     0
100
AcDbPoint
 10
9.786419
 20
11.014229
 30
0.0
  0
POINT
  5
AB5
100
AcDbEntity
  8
DEFPOINTS
  6
BYBLOCK
 62
     0
100
AcDbPoint
 10
9.786419
 20
11.044199
 30
0.0
  0
POINT
  5
AB6
100
AcDbEntity
  8
DEFPOINTS
  6
BYBLOCK
 62
     0
100
AcDbPoint
 10
10.337639
 20
11.044199
 30
0.0
  0
ENDBLK
  5
AB7
100
AcDbEntity
  8
0
100
AcDbBlockEnd
  0
BLOCK
  5
13E4
100
AcDbEntity
  8
0
100
AcDbBlockBegin
  2
*D8
 70
    65
 10
0.0
 20
0.0
 30
0.0
  3
*D8
  1
*TB
  0
LINE
  5
13E5
100
AcDbEntity
  8
0
  6
BYBLOCK
 62
     0
100
AcDbLine
 10
17.102574
 20
13.746535
 30
0.0
 11
25.86797
 21
13.746535
 31
0.0
  0
LINE
  5
13E6
100
AcDbEntity
  8
0
  6
BYBLOCK
 62
     0
100
AcDbLine
 10
17.102574
 20
15.238137
 30
0.0
 11
25.86797
 21
15.238137
 31
0.0
  0
LINE
  5
13E7
100
AcDbEntity
  8
0
  6
BYBLOCK
 62
     0
100
AcDbLine
 10
25.73297
 20
13.881535
 30
0.0
 11
25.73297
 21
14.357336
 31
0.0
  0
LINE
  5
13E8
100
AcDbEntity
  8
0
  6
BYBLOCK
 62
     0
100
AcDbLine
 10
25.73297
 20
15.103137
 30
0.0
 11
25.73297
 21
14.627336
 31
0.0
  0
SOLID
  5
13E9
100
AcDbEntity
  8
0
  6
BYBLOCK
 62
     0
100
AcDbTrace
 10
25.71047
 20
13.881535
 30
0.0
 11
25.75547
 21
13.881535
 31
0.0
 12
25.73297
 22
13.746535
 32
0.0
 13
25.73297
 23
13.746535
 33
0.0
  0
SOLID
  5
13EA
100
AcDbEntity
  8
0
  6
BYBLOCK
 62
     0
100
AcDbTrace
 10
25.71047
 20
15.103137
 30
0.0
 11
25.75547
 21
15.103137
 31
0.0
 12
25.73297
 22
15.238137
 32
0.0
 13
25.73297
 23
15.238137
 33
0.0
  0
MTEXT
  5
13EB
100
AcDbEntity
  8
0
  6
BYBLOCK
 62
     0
100
AcDbMText
 10
25.73297
 20
14.492336
 30
0.0
 40
0.135
 41
0.0
 71
     5
 72
     1
  1
\A1;1.492"[37.89mm]
  0
POINT
  5
13EC
100
AcDbEntity
  8
DEFPOINTS
  6
BYBLOCK
 62
     0
100
AcDbPoint
 10
17.055699
 20
13.746535
 30
0.0
  0
POINT
  5
13ED
100
AcDbEntity
  8
DEFPOINTS
  6
BYBLOCK
 62
     0
100
AcDbPoint
 10
17.055699
 20
15.238137
 30
0.0
  0
POINT
  5
13EE
100
AcDbEntity
  8
DEFPOINTS
  6
BYBLOCK
 62
     0
100
AcDbPoint
 10
25.73297
 20
15.238137
 30
0.0
  0
ENDBLK
  5
13EF
100
AcDbEntity
  8
0
100
AcDbBlockEnd
  0
BLOCK
  5
13D8
100
AcDbEntity
  8
0
100
AcDbBlockBegin
  2
*D9
 70
    65
 10
0.0
 20
0.0
 30
0.0
  3
*D9
  1
*TB
  0
LINE
  5
13D9
100
AcDbEntity
  8
0
  6
BYBLOCK
 62
     0
100
AcDbLine
 10
17.102574
 20
13.716565
 30
0.0
 11
27.809332
 21
13.716565
 31
0.0
  0
LINE
  5
13DA
100
AcDbEntity
  8
0
  6
BYBLOCK
 62
     0
100
AcDbLine
 10
17.102574
 20
15.238137
 30
0.0
 11
27.809332
 21
15.238137
 31
0.0
  0
LINE
  5
13DB
100
AcDbEntity
  8
0
  6
BYBLOCK
 62
     0
100
AcDbLine
 10
27.674332
 20
13.851565
 30
0.0
 11
27.674332
 21
14.342351
 31
0.0
  0
LINE
  5
13DC
100
AcDbEntity
  8
0
  6
BYBLOCK
 62
     0
100
AcDbLine
 10
27.674332
 20
15.103137
 30
0.0
 11
27.674332
 21
14.612351
 31
0.0
  0
SOLID
  5
13DD
100
AcDbEntity
  8
0
  6
BYBLOCK
 62
     0
100
AcDbTrace
 10
27.651832
 20
13.851565
 30
0.0
 11
27.696832
 21
13.851565
 31
0.0
 12
27.674332
 22
13.716565
 32
0.0
 13
27.674332
 23
13.716565
 33
0.0
  0
SOLID
  5
13DE
100
AcDbEntity
  8
0
  6
BYBLOCK
 62
     0
100
AcDbTrace
 10
27.651832
 20
15.103137
 30
0.0
 11
27.696832
 21
15.103137
 31
0.0
 12
27.674332
 22
15.238137
 32
0.0
 13
27.674332
 23
15.238137
 33
0.0
  0
MTEXT
  5
13DF
100
AcDbEntity
  8
0
  6
BYBLOCK
 62
     0
100
AcDbMText
 10
27.674332
 20
14.477351
 30
0.0
 40
0.135
 41
0.0
 71
     5
 72
     1
  1
\A1;1.522"[38.65mm]
  0
POINT
  5
13E0
100
AcDbEntity
  8
DEFPOINTS
  6
BYBLOCK
 62
     0
100
AcDbPoint
 10
17.055699
 20
13.716565
 30
0.0
  0
POINT
  5
13E1
100
AcDbEntity
  8
DEFPOINTS
  6
BYBLOCK
 62
     0
100
AcDbPoint
 10
17.055699
 20
15.238137
 30
0.0
  0
POINT
  5
13E2
100
AcDbEntity
  8
DEFPOINTS
  6
BYBLOCK
 62
     0
100
AcDbPoint
 10
27.674332
 20
15.238137
 30
0.0
  0
ENDBLK
  5
13E3
100
AcDbEntity
  8
0
100
AcDbBlockEnd
  0
BLOCK
  5
B4E
100
AcDbEntity
  8
0
100
AcDbBlockBegin
  2
*U10
 70
    65
 10
0.0
 20
0.0
 30
0.0
  3
*U10
  1
*TB
  0
CIRCLE
  5
B4F
100
AcDbEntity
  8
FOOT
100
AcDbCircle
 10
0.0
 20
0.0
 30
0.0
 40
0.046875
  0
LINE
  5
B50
100
AcDbEntity
  8
CENTER
100
AcDbLine
 10
-0.015625
 20
0.0
 30
0.0
 11
0.015625
 21
0.0
 31
0.0
  0
LINE
  5
B51
100
AcDbEntity
  8
CENTER
100
AcDbLine
 10
0.0
 20
-0.015625
 30
0.0
 11
0.0
 21
0.015625
 31
0.0
  0
LINE
  5
B52
100
AcDbEntity
  8
CENTER
100
AcDbLine
 10
0.03125
 20
0.0
 30
0.0
 11
0.171875
 21
0.0
 31
0.0
  0
LINE
  5
B53
100
AcDbEntity
  8
CENTER
100
AcDbLine
 10
0.0
 20
0.03125
 30
0.0
 11
0.0
 21
0.171875
 31
0.0
  0
LINE
  5
B54
100
AcDbEntity
  8
CENTER
100
AcDbLine
 10
-0.03125
 20
0.0
 30
0.0
 11
-0.171875
 21
0.0
 31
0.0
  0
LINE
  5
B55
100
AcDbEntity
  8
CENTER
100
AcDbLine
 10
0.0
 20
-0.03125
 30
0.0
 11
0.0
 21
-0.171875
 31
0.0
  0
ENDBLK
  5
B56
100
AcDbEntity
  8
0
100
AcDbBlockEnd
  0
BLOCK
  5
B5A
100
AcDbEntity
  8
0
100
AcDbBlockBegin
  2
*U11
 70
    65
 10
0.0
 20
0.0
 30
0.0
  3
*U11
  1
*TB
  0
CIRCLE
  5
B5B
100
AcDbEntity
  8
FOOT
100
AcDbCircle
 10
0.0
 20
0.0
 30
0.0
 40
0.058
  0
LINE
  5
B5C
100
AcDbEntity
  8
CENTER
100
AcDbLine
 10
-0.019333
 20
0.0
 30
0.0
 11
0.019333
 21
0.0
 31
0.0
  0
LINE
  5
B5D
100
AcDbEntity
  8
CENTER
100
AcDbLine
 10
0.0
 20
-0.019333
 30
0.0
 11
0.0
 21
0.019333
 31
0.0
  0
LINE
  5
B5E
100
AcDbEntity
  8
CENTER
100
AcDbLine
 10
0.038667
 20
0.0
 30
0.0
 11
0.183
 21
0.0
 31
0.0
  0
LINE
  5
B5F
100
AcDbEntity
  8
CENTER
100
AcDbLine
 10
0.0
 20
0.038667
 30
0.0
 11
0.0
 21
0.183
 31
0.0
  0
LINE
  5
B60
100
AcDbEntity
  8
CENTER
100
AcDbLine
 10
-0.038667
 20
0.0
 30
0.0
 11
-0.183
 21
0.0
 31
0.0
  0
LINE
  5
B61
100
AcDbEntity
  8
CENTER
100
AcDbLine
 10
0.0
 20
-0.038667
 30
0.0
 11
0.0
 21
-0.183
 31
0.0
  0
ENDBLK
  5
B62
100
AcDbEntity
  8
0
100
AcDbBlockEnd
  0
BLOCK
  5
B7D
100
AcDbEntity
  8
FOOT
100
AcDbBlockBegin
  2
CUTOUT
 70
     0
 10
0.0
 20
0.0
 30
0.0
  3
CUTOUT
  1

  0
LINE
  5
B65
100
AcDbEntity
  8
FOOT
100
AcDbLine
 10
-0.110277
 20
0.377515
 30
0.0
 11
-0.196874
 21
0.25628
 31
0.0
  0
LINE
  5
B66
100
AcDbEntity
  8
FOOT
100
AcDbLine
 10
-0.196874
 20
0.535078
 30
0.0
 11
-0.110277
 21
0.413843
 31
0.0
  0
LINE
  5
B67
100
AcDbEntity
  8
FOOT
100
AcDbLine
 10
-0.253553
 20
0.274443
 30
0.0
 11
-0.253553
 21
0.516914
 31
0.0
  0
ARC
  5
B68
100
AcDbEntity
  8
FOOT
100
AcDbCircle
 10
-0.222303
 20
0.516914
 30
0.0
 40
0.03125
100
AcDbArc
 50
35.537678
 51
180.0
  0
ARC
  5
B69
100
AcDbEntity
  8
FOOT
100
AcDbCircle
 10
-0.222303
 20
0.274443
 30
0.0
 40
0.03125
100
AcDbArc
 50
180.0
 51
324.462322
  0
LINE
  5
B6A
100
AcDbEntity
  8
FOOT
100
AcDbLine
 10
0.086151
 20
0.163843
 30
0.0
 11
-0.009374
 21
0.297578
 31
0.0
  0
LINE
  5
B6B
100
AcDbEntity
  8
FOOT
100
AcDbLine
 10
-0.060232
 20
0.297578
 30
0.0
 11
-0.155758
 21
0.163843
 31
0.0
  0
LINE
  5
B6C
100
AcDbEntity
  8
FOOT
100
AcDbLine
 10
0.183947
 20
0.274443
 30
0.0
 11
0.183947
 21
0.516914
 31
0.0
  0
LINE
  5
B6D
100
AcDbEntity
  8
FOOT
100
AcDbLine
 10
0.127268
 20
0.535078
 30
0.0
 11
0.040671
 21
0.413843
 31
0.0
  0
LINE
  5
B6E
100
AcDbEntity
  8
FOOT
100
AcDbLine
 10
0.086151
 20
0.627515
 30
0.0
 11
-0.009374
 21
0.49378
 31
0.0
  0
LINE
  5
B6F
100
AcDbEntity
  8
FOOT
100
AcDbLine
 10
-0.130329
 20
0.676929
 30
0.0
 11
0.060722
 21
0.676929
 31
0.0
  0
ARC
  5
B70
100
AcDbEntity
  8
FOOT
100
AcDbCircle
 10
-0.034803
 20
0.511943
 30
0.0
 40
0.03125
100
AcDbArc
 50
215.537678
 51
324.462322
  0
LINE
  5
B71
100
AcDbEntity
  8
FOOT
100
AcDbLine
 10
-0.060232
 20
0.49378
 30
0.0
 11
-0.155758
 21
0.627515
 31
0.0
  0
ARC
  5
B72
100
AcDbEntity
  8
FOOT
100
AcDbCircle
 10
-0.130329
 20
0.645679
 30
0.0
 40
0.03125
100
AcDbArc
 50
90.0
 51
215.537678
  0
ARC
  5
B73
100
AcDbEntity
  8
FOOT
100
AcDbCircle
 10
0.152697
 20
0.516914
 30
0.0
 40
0.03125
100
AcDbArc
 50
0.0
 51
144.462322
  0
ARC
  5
B74
100
AcDbEntity
  8
FOOT
100
AcDbCircle
 10
0.060722
 20
0.645679
 30
0.0
 40
0.03125
100
AcDbArc
 50
324.462322
 51
90.0
  0
ARC
  5
B75
100
AcDbEntity
  8
FOOT
100
AcDbCircle
 10
-0.135707
 20
0.395679
 30
0.0
 40
0.03125
100
AcDbArc
 50
324.462322
 51
35.537678
  0
ARC
  5
B76
100
AcDbEntity
  8
FOOT
100
AcDbCircle
 10
-0.034803
 20
0.279414
 30
0.0
 40
0.03125
100
AcDbArc
 50
35.537678
 51
144.462322
  0
ARC
  5
B77
100
AcDbEntity
  8
FOOT
100
AcDbCircle
 10
0.152697
 20
0.274443
 30
0.0
 40
0.03125
100
AcDbArc
 50
215.537678
 51
0.0
  0
ARC
  5
B78
100
AcDbEntity
  8
FOOT
100
AcDbCircle
 10
0.0661
 20
0.395679
 30
0.0
 40
0.03125
100
AcDbArc
 50
144.462322
 51
215.537678
  0
LINE
  5
B79
100
AcDbEntity
  8
FOOT
100
AcDbLine
 10
0.040671
 20
0.377515
 30
0.0
 11
0.127268
 21
0.25628
 31
0.0
  0
LINE
  5
B7A
100
AcDbEntity
  8
FOOT
100
AcDbLine
 10
-0.130329
 20
0.114429
 30
0.0
 11
0.060722
 21
0.114429
 31
0.0
  0
ARC
  5
B7B
100
AcDbEntity
  8
FOOT
100
AcDbCircle
 10
-0.130329
 20
0.145679
 30
0.0
 40
0.03125
100
AcDbArc
 50
144.462322
 51
270.0
  0
ARC
  5
B7C
100
AcDbEntity
  8
FOOT
100
AcDbCircle
 10
0.060722
 20
0.145679
 30
0.0
 40
0.03125
100
AcDbArc
 50
270.0
 51
35.537678
  0
ENDBLK
  5
B7E
100
AcDbEntity
  8
FOOT
100
AcDbBlockEnd
  0
BLOCK
  5
12CE
100
AcDbEntity
  8
0
100
AcDbBlockBegin
  2
*D13
 70
    65
 10
0.0
 20
0.0
 30
0.0
  3
*D13
  1
*TB
  0
LINE
  5
12CF
100
AcDbEntity
  8
0
  6
BYBLOCK
 62
     0
100
AcDbLine
 10
14.494244
 20
15.238137
 30
0.0
 11
4.882509
 21
15.238137
 31
0.0
  0
LINE
  5
12D0
100
AcDbEntity
  8
0
  6
BYBLOCK
 62
     0
100
AcDbLine
 10
14.736958
 20
14.081672
 30
0.0
 11
4.882509
 21
14.081672
 31
0.0
  0
LINE
  5
12D1
100
AcDbEntity
  8
0
  6
BYBLOCK
 62
     0
100
AcDbLine
 10
5.017509
 20
15.103137
 30
0.0
 11
5.017509
 21
14.794904
 31
0.0
  0
LINE
  5
12D2
100
AcDbEntity
  8
0
  6
BYBLOCK
 62
     0
100
AcDbLine
 10
5.017509
 20
14.216672
 30
0.0
 11
5.017509
 21
14.524904
 31
0.0
  0
SOLID
  5
12D3
100
AcDbEntity
  8
0
  6
BYBLOCK
 62
     0
100
AcDbTrace
 10
4.995009
 20
15.103137
 30
0.0
 11
5.040009
 21
15.103137
 31
0.0
 12
5.017509
 22
15.238137
 32
0.0
 13
5.017509
 23
15.238137
 33
0.0
  0
SOLID
  5
12D4
100
AcDbEntity
  8
0
  6
BYBLOCK
 62
     0
100
AcDbTrace
 10
4.995009
 20
14.216672
 30
0.0
 11
5.040009
 21
14.216672
 31
0.0
 12
5.017509
 22
14.081672
 32
0.0
 13
5.017509
 23
14.081672
 33
0.0
  0
MTEXT
  5
12D5
100
AcDbEntity
  8
0
  6
BYBLOCK
 62
     0
100
AcDbMText
 10
5.017509
 20
14.659904
 30
0.0
 40
0.135
 41
0.0
 71
     5
 72
     1
  1
\A1;1.156"[29.37mm]
  0
POINT
  5
12D6
100
AcDbEntity
  8
DEFPOINTS
  6
BYBLOCK
 62
     0
100
AcDbPoint
 10
14.541119
 20
15.238137
 30
0.0
  0
POINT
  5
12D7
100
AcDbEntity
  8
DEFPOINTS
  6
BYBLOCK
 62
     0
100
AcDbPoint
 10
14.783833
 20
14.081672
 30
0.0
  0
POINT
  5
12D8
100
AcDbEntity
  8
DEFPOINTS
  6
BYBLOCK
 62
     0
100
AcDbPoint
 10
5.017509
 20
14.081672
 30
0.0
  0
ENDBLK
  5
12D9
100
AcDbEntity
  8
0
100
AcDbBlockEnd
  0
BLOCK
  5
CB0
100
AcDbEntity
  8
0
100
AcDbBlockBegin
  2
*U14
 70
    65
 10
0.0
 20
0.0
 30
0.0
  3
*U14
  1
*TB
  0
POLYLINE
  5
CB1
100
AcDbEntity
  8
FOOT
100
AcDb2dPolyline
 66
     1
 10
0.0
 20
0.0
 30
0.0
 70
     1
  0
VERTEX
  5
CB2
100
AcDbEntity
  8
FOOT
100
AcDbVertex
100
AcDb2dVertex
 10
-0.1122
 20
0.03935
 30
0.0
 42
1.0
  0
VERTEX
  5
CB3
100
AcDbEntity
  8
FOOT
100
AcDbVertex
100
AcDb2dVertex
 10
-0.1122
 20
-0.03935
 30
0.0
  0
VERTEX
  5
CB4
100
AcDbEntity
  8
FOOT
100
AcDbVertex
100
AcDb2dVertex
 10
0.1122
 20
-0.03935
 30
0.0
 42
1.0
  0
VERTEX
  5
CB5
100
AcDbEntity
  8
FOOT
100
AcDbVertex
100
AcDb2dVertex
 10
0.1122
 20
0.03935
 30
0.0
  0
SEQEND
  5
CB6
100
AcDbEntity
  8
FOOT
  0
LINE
  5
CB7
100
AcDbEntity
  8
CENTER
100
AcDbLine
 10
-0.125317
 20
0.0
 30
0.0
 11
-0.099083
 21
0.0
 31
0.0
  0
LINE
  5
CB8
100
AcDbEntity
  8
CENTER
100
AcDbLine
 10
-0.1122
 20
-0.013117
 30
0.0
 11
-0.1122
 21
0.013117
 31
0.0
  0
LINE
  5
CB9
100
AcDbEntity
  8
CENTER
100
AcDbLine
 10
-0.085967
 20
0.0
 30
0.0
 11
0.05215
 21
0.0
 31
0.0
  0
LINE
  5
CBA
100
AcDbEntity
  8
CENTER
100
AcDbLine
 10
-0.1122
 20
0.026233
 30
0.0
 11
-0.1122
 21
0.16435
 31
0.0
  0
LINE
  5
CBB
100
AcDbEntity
  8
CENTER
100
AcDbLine
 10
-0.138433
 20
0.0
 30
0.0
 11
-0.27655
 21
0.0
 31
0.0
  0
LINE
  5
CBC
100
AcDbEntity
  8
CENTER
100
AcDbLine
 10
-0.1122
 20
-0.026233
 30
0.0
 11
-0.1122
 21
-0.16435
 31
0.0
  0
LINE
  5
CBD
100
AcDbEntity
  8
CENTER
100
AcDbLine
 10
0.099083
 20
0.0
 30
0.0
 11
0.125317
 21
0.0
 31
0.0
  0
LINE
  5
CBE
100
AcDbEntity
  8
CENTER
100
AcDbLine
 10
0.1122
 20
-0.013117
 30
0.0
 11
0.1122
 21
0.013117
 31
0.0
  0
LINE
  5
CBF
100
AcDbEntity
  8
CENTER
100
AcDbLine
 10
0.138433
 20
0.0
 30
0.0
 11
0.27655
 21
0.0
 31
0.0
  0
LINE
  5
CC0
100
AcDbEntity
  8
CENTER
100
AcDbLine
 10
0.1122
 20
0.026233
 30
0.0
 11
0.1122
 21
0.16435
 31
0.0
  0
LINE
  5
CC1
100
AcDbEntity
  8
CENTER
100
AcDbLine
 10
0.085967
 20
0.0
 30
0.0
 11
-0.05215
 21
0.0
 31
0.0
  0
LINE
  5
CC2
100
AcDbEntity
  8
CENTER
100
AcDbLine
 10
0.1122
 20
-0.026233
 30
0.0
 11
0.1122
 21
-0.16435
 31
0.0
  0
ENDBLK
  5
CC3
100
AcDbEntity
  8
0
100
AcDbBlockEnd
  0
BLOCK
  5
12C2
100
AcDbEntity
  8
0
100
AcDbBlockBegin
  2
*D15
 70
    65
 10
0.0
 20
0.0
 30
0.0
  3
*D15
  1
*TB
  0
LINE
  5
12C3
100
AcDbEntity
  8
0
  6
BYBLOCK
 62
     0
100
AcDbLine
 10
14.494244
 20
15.238137
 30
0.0
 11
6.753029
 21
15.238137
 31
0.0
  0
LINE
  5
12C4
100
AcDbEntity
  8
0
  6
BYBLOCK
 62
     0
100
AcDbLine
 10
16.513748
 20
14.223639
 30
0.0
 11
6.753029
 21
14.223639
 31
0.0
  0
LINE
  5
12C5
100
AcDbEntity
  8
0
  6
BYBLOCK
 62
     0
100
AcDbLine
 10
6.888029
 20
15.103137
 30
0.0
 11
6.888029
 21
14.865888
 31
0.0
  0
LINE
  5
12C6
100
AcDbEntity
  8
0
  6
BYBLOCK
 62
     0
100
AcDbLine
 10
6.888029
 20
14.358639
 30
0.0
 11
6.888029
 21
14.595888
 31
0.0
  0
SOLID
  5
12C7
100
AcDbEntity
  8
0
  6
BYBLOCK
 62
     0
100
AcDbTrace
 10
6.865529
 20
15.103137
 30
0.0
 11
6.910529
 21
15.103137
 31
0.0
 12
6.888029
 22
15.238137
 32
0.0
 13
6.888029
 23
15.238137
 33
0.0
  0
SOLID
  5
12C8
100
AcDbEntity
  8
0
  6
BYBLOCK
 62
     0
100
AcDbTrace
 10
6.865529
 20
14.358639
 30
0.0
 11
6.910529
 21
14.358639
 31
0.0
 12
6.888029
 22
14.223639
 32
0.0
 13
6.888029
 23
14.223639
 33
0.0
  0
MTEXT
  5
12C9
100
AcDbEntity
  8
0
  6
BYBLOCK
 62
     0
100
AcDbMText
 10
6.888029
 20
14.730888
 30
0.0
 40
0.135
 41
0.0
 71
     5
 72
     1
  1
\A1;1.014"[25.77mm]
  0
POINT
  5
12CA
100
AcDbEntity
  8
DEFPOINTS
  6
BYBLOCK
 62
     0
100
AcDbPoint
 10
14.541119
 20
15.238137
 30
0.0
  0
POINT
  5
12CB
100
AcDbEntity
  8
DEFPOINTS
  6
BYBLOCK
 62
     0
100
AcDbPoint
 10
16.560623
 20
14.223639
 30
0.0
  0
POINT
  5
12CC
100
AcDbEntity
  8
DEFPOINTS
  6
BYBLOCK
 62
     0
100
AcDbPoint
 10
6.888029
 20
14.223639
 30
0.0
  0
ENDBLK
  5
12CD
100
AcDbEntity
  8
0
100
AcDbBlockEnd
  0
BLOCK
  5
CF5
100
AcDbEntity
  8
0
100
AcDbBlockBegin
  2
*D16
 70
    65
 10
0.0
 20
0.0
 30
0.0
  3
*D16
  1
*TB
  0
LINE
  5
CF6
100
AcDbEntity
  8
0
  6
BYBLOCK
 62
     0
100
AcDbLine
 10
10.256505
 20
10.029701
 30
0.0
 11
5.662688
 21
10.029701
 31
0.0
  0
LINE
  5
CF7
100
AcDbEntity
  8
0
  6
BYBLOCK
 62
     0
100
AcDbLine
 10
10.256505
 20
9.805301
 30
0.0
 11
5.662688
 21
9.805301
 31
0.0
  0
LINE
  5
CF8
100
AcDbEntity
  8
0
  6
BYBLOCK
 62
     0
100
AcDbLine
 10
5.797688
 20
10.164701
 30
0.0
 11
5.797688
 21
10.299701
 31
0.0
  0
LINE
  5
CF9
100
AcDbEntity
  8
0
  6
BYBLOCK
 62
     0
100
AcDbLine
 10
5.797688
 20
9.670301
 30
0.0
 11
5.797688
 21
9.535301
 31
0.0
  0
LINE
  5
CFA
100
AcDbEntity
  8
0
  6
BYBLOCK
 62
     0
100
AcDbLine
 10
5.797688
 20
9.535301
 30
0.0
 11
5.662688
 21
9.535301
 31
0.0
  0
SOLID
  5
CFB
100
AcDbEntity
  8
0
  6
BYBLOCK
 62
     0
100
AcDbTrace
 10
5.775188
 20
10.164701
 30
0.0
 11
5.820188
 21
10.164701
 31
0.0
 12
5.797688
 22
10.029701
 32
0.0
 13
5.797688
 23
10.029701
 33
0.0
  0
SOLID
  5
CFC
100
AcDbEntity
  8
0
  6
BYBLOCK
 62
     0
100
AcDbTrace
 10
5.775188
 20
9.670301
 30
0.0
 11
5.820188
 21
9.670301
 31
0.0
 12
5.797688
 22
9.805301
 32
0.0
 13
5.797688
 23
9.805301
 33
0.0
  0
MTEXT
  5
CFD
100
AcDbEntity
  8
0
  6
BYBLOCK
 62
     0
100
AcDbMText
 10
4.852688
 20
9.535301
 30
0.0
 40
0.135
 41
0.0
 71
     5
 72
     1
  1
\A1;{0.224"[5.70mm]}\P{2X}
  0
POINT
  5
CFE
100
AcDbEntity
  8
DEFPOINTS
  6
BYBLOCK
 62
     0
100
AcDbPoint
 10
10.30338
 20
10.029701
 30
0.0
  0
POINT
  5
CFF
100
AcDbEntity
  8
DEFPOINTS
  6
BYBLOCK
 62
     0
100
AcDbPoint
 10
10.30338
 20
9.805301
 30
0.0
  0
POINT
  5
D00
100
AcDbEntity
  8
DEFPOINTS
  6
BYBLOCK
 62
     0
100
AcDbPoint
 10
5.797688
 20
9.805301
 30
0.0
  0
ENDBLK
  5
D01
100
AcDbEntity
  8
0
100
AcDbBlockEnd
  0
BLOCK
  5
D54
100
AcDbEntity
  8
DIM
100
AcDbBlockBegin
  2
D-BORDER
 70
     0
 10
0.0
 20
0.0
 30
0.0
  3
D-BORDER
  1

  0
LINE
  5
D12
100
AcDbEntity
  8
TEXT
100
AcDbLine
 10
1.0
 20
19.947595
 30
0.0
 11
3.5625
 21
19.947595
 31
0.0
  0
LINE
  5
D13
100
AcDbEntity
  8
TEXT
100
AcDbLine
 10
3.5625
 20
19.947595
 30
0.0
 11
3.5625
 21
20.447595
 31
0.0
  0
CIRCLE
  5
D14
100
AcDbEntity
  8
TEXT
100
AcDbCircle
 10
1.677871
 20
20.184056
 30
0.0
 40
0.1875
  0
CIRCLE
  5
D15
100
AcDbEntity
  8
TEXT
100
AcDbCircle
 10
1.677871
 20
20.184056
 30
0.0
 40
0.09375
  0
LINE
  5
D16
100
AcDbEntity
  8
TEXT
  6
CENTER
100
AcDbLine
 10
1.443951
 20
20.184056
 30
0.0
 11
2.896621
 21
20.184056
 31
0.0
  0
LINE
  5
D17
100
AcDbEntity
  8
TEXT
  6
CENTER
100
AcDbLine
 10
1.677871
 20
19.955375
 30
0.0
 11
1.677871
 21
20.423251
 31
0.0
  0
LINE
  5
D18
100
AcDbEntity
  8
TEXT
100
AcDbLine
 10
2.146621
 20
20.277806
 30
0.0
 11
2.631263
 21
20.371556
 31
0.0
  0
LINE
  5
D19
100
AcDbEntity
  8
TEXT
100
AcDbLine
 10
2.146621
 20
20.090306
 30
0.0
 11
2.631263
 21
19.996556
 31
0.0
  0
LINE
  5
D1A
100
AcDbEntity
  8
TEXT
100
AcDbLine
 10
2.146621
 20
20.090306
 30
0.0
 11
2.146621
 21
20.277806
 31
0.0
  0
LINE
  5
D1B
100
AcDbEntity
  8
TEXT
100
AcDbLine
 10
2.631263
 20
20.371556
 30
0.0
 11
2.631263
 21
19.996556
 31
0.0
  0
TEXT
  5
D1C
100
AcDbEntity
  8
TEXT
100
AcDbText
 10
1.1875
 20
19.762423
 30
0.0
 40
0.1
  1
THIRD ANGLE PROJECTION
100
AcDbText
  0
LINE
  5
D1D
100
AcDbEntity
  8
TEXT
100
AcDbLine
 10
3.5625
 20
19.947595
 30
0.0
 11
3.5625
 21
19.697595
 31
0.0
  0
LINE
  5
D1E
100
AcDbEntity
  8
TEXT
100
AcDbLine
 10
3.5625
 20
19.697595
 30
0.0
 11
1.0
 21
19.697595
 31
0.0
  0
TEXT
  5
D1F
100
AcDbEntity
  8
TEXT
100
AcDbText
 10
31.135292
 20
0.744377
 30
0.0
 40
0.065
  1
OF
  7
ADESK2
100
AcDbText
  0
TEXT
  5
D20
100
AcDbEntity
  8
TEXT
100
AcDbText
 10
27.375724
 20
1.474951
 30
0.0
 40
0.065
  1
DATE
  7
ADESK2
100
AcDbText
  0
LINE
  5
D21
100
AcDbEntity
  8
TEXT
100
AcDbLine
 10
27.252305
 20
1.591501
 30
0.0
 11
27.252305
 21
0.625
 31
0.0
  0
TEXT
  5
D22
100
AcDbEntity
  8
TEXT
100
AcDbText
 10
25.832321
 20
0.856501
 30
0.0
 40
0.065
  1
DESIGN
  7
ADESK2
100
AcDbText
  0
TEXT
  5
D23
100
AcDbEntity
  8
TEXT
100
AcDbText
 10
25.832321
 20
1.171501
 30
0.0
 40
0.065
  1
CHECKED
  7
ADESK2
100
AcDbText
  0
LINE
  5
D24
100
AcDbEntity
  8
TEXT
100
AcDbLine
 10
25.752321
 20
1.591501
 30
0.0
 11
27.752321
 21
1.591501
 31
0.0
  0
TEXT
  5
D25
100
AcDbEntity
  8
TEXT
100
AcDbText
 10
31.234702
 20
19.965196
 30
0.0
 40
0.065
  1
APPROVED
  7
ADESK2
100
AcDbText
  0
TEXT
  5
D26
100
AcDbEntity
  8
TEXT
100
AcDbText
 10
30.441002
 20
19.965196
 30
0.0
 40
0.065
  1
DATE
  7
ADESK2
100
AcDbText
  0
TEXT
  5
D27
100
AcDbEntity
  8
TEXT
100
AcDbText
 10
28.375302
 20
19.965196
 30
0.0
 40
0.065
  1
DESCRIPTION
  7
ADESK2
100
AcDbText
  0
TEXT
  5
D28
100
AcDbEntity
  8
TEXT
100
AcDbText
 10
27.073402
 20
19.965196
 30
0.0
 40
0.065
  1
REV
  7
ADESK2
100
AcDbText
  0
TEXT
  5
D29
100
AcDbEntity
  8
TEXT
100
AcDbText
 10
29.203502
 20
20.207396
 30
0.0
 40
0.065
  1
REVISIONS
  7
ADESK2
100
AcDbText
  0
LINE
  5
D2A
100
AcDbEntity
  8
TEXT
100
AcDbLine
 10
30.993302
 20
19.874896
 30
0.0
 11
30.993302
 21
20.124896
 31
0.0
  0
LINE
  5
D2B
100
AcDbEntity
  8
TEXT
100
AcDbLine
 10
30.113302
 20
19.874896
 30
0.0
 11
30.113302
 21
20.124896
 31
0.0
  0
LINE
  5
D2C
100
AcDbEntity
  8
TEXT
100
AcDbLine
 10
27.373302
 20
19.874896
 30
0.0
 11
27.373302
 21
20.124896
 31
0.0
  0
LINE
  5
D2D
100
AcDbEntity
  8
TEXT
100
AcDbLine
 10
26.983049
 20
20.434959
 30
0.0
 11
26.983049
 21
19.874896
 31
0.0
  0
LINE
  5
D2E
100
AcDbEntity
  8
TEXT
100
AcDbLine
 10
26.983049
 20
19.874896
 30
0.0
 11
32.037356
 21
19.874896
 31
0.0
  0
LINE
  5
D2F
100
AcDbEntity
  8
TEXT
100
AcDbLine
 10
26.983049
 20
20.124896
 30
0.0
 11
32.037356
 21
20.124896
 31
0.0
  0
TEXT
  5
D30
100
AcDbEntity
  8
TEXT
100
AcDbText
 10
31.702821
 20
1.167401
 30
0.0
 40
0.065
  1
REV
  7
ADESK2
100
AcDbText
  0
TEXT
  5
D31
100
AcDbEntity
  8
TEXT
100
AcDbText
 10
29.323321
 20
1.167401
 30
0.0
 40
0.065
  1
DWG NO.
  7
ADESK2
100
AcDbText
  0
TEXT
  5
D32
100
AcDbEntity
  8
TEXT
100
AcDbText
 10
27.840221
 20
1.167401
 30
0.0
 40
0.065
  1
SIZE
  7
ADESK2
100
AcDbText
  0
TEXT
  5
D33
100
AcDbEntity
  8
TEXT
100
AcDbText
 10
30.305121
 20
0.744001
 30
0.0
 40
0.065
  1
SHEET
  7
ADESK2
100
AcDbText
  0
TEXT
  5
D34
100
AcDbEntity
  8
TEXT
100
AcDbText
 10
27.804621
 20
0.744001
 30
0.0
 40
0.065
  1
SCALE
  7
ADESK2
100
AcDbText
  0
LINE
  5
D35
100
AcDbEntity
  8
TEXT
100
AcDbLine
 10
31.622321
 20
0.901501
 30
0.0
 11
31.622321
 21
1.281501
 31
0.0
  0
LINE
  5
D36
100
AcDbEntity
  8
TEXT
100
AcDbLine
 10
29.252321
 20
0.901501
 30
0.0
 11
29.252321
 21
1.281501
 31
0.0
  0
LINE
  5
D37
100
AcDbEntity
  8
TEXT
100
AcDbLine
 10
28.132321
 20
0.901501
 30
0.0
 11
28.132321
 21
1.281501
 31
0.0
  0
LINE
  5
D38
100
AcDbEntity
  8
TEXT
100
AcDbLine
 10
30.252321
 20
0.625
 30
0.0
 11
30.252321
 21
0.901501
 31
0.0
  0
LINE
  5
D39
100
AcDbEntity
  8
TEXT
100
AcDbLine
 10
28.752321
 20
0.625
 30
0.0
 11
28.752321
 21
0.901501
 31
0.0
  0
LINE
  5
D3A
100
AcDbEntity
  8
BORDER
100
AcDbLine
 10
27.752321
 20
0.625
 30
0.0
 11
27.752321
 21
2.401501
 31
0.0
  0
LINE
  5
D3B
100
AcDbEntity
  8
BORDER
100
AcDbLine
 10
27.752321
 20
1.901501
 30
0.0
 11
32.024118
 21
1.901501
 31
0.0
  0
LINE
  5
D3C
100
AcDbEntity
  8
TEXT
100
AcDbLine
 10
27.752321
 20
0.901501
 30
0.0
 11
32.024118
 21
0.901501
 31
0.0
  0
LINE
  5
D3D
100
AcDbEntity
  8
TEXT
100
AcDbLine
 10
25.752321
 20
1.281501
 30
0.0
 11
32.024118
 21
1.281501
 31
0.0
  0
LINE
  5
D3E
100
AcDbEntity
  8
TEXT
100
AcDbLine
 10
25.752321
 20
0.966501
 30
0.0
 11
27.752321
 21
0.966501
 31
0.0
  0
LINE
  5
D3F
100
AcDbEntity
  8
BORDER
100
AcDbLine
 10
25.752321
 20
2.401501
 30
0.0
 11
32.024118
 21
2.401501
 31
0.0
  0
LINE
  5
D40
100
AcDbEntity
  8
BORDER
100
AcDbLine
 10
25.752321
 20
0.625
 30
0.0
 11
25.752321
 21
2.824147
 31
0.0
  0
TEXT
  5
D41
100
AcDbEntity
  8
TEXT
100
AcDbText
 10
25.820631
 20
1.479964
 30
0.0
 40
0.065
  1
DRAWN
  7
ADESK2
100
AcDbText
  0
TEXT
  5
D42
100
AcDbEntity
  8
BORDER
100
AcDbText
 10
25.930285
 20
2.549228
 30
0.0
 40
0.15
  1
UNIVERSITY OF CALIFORNIA @ SANTA BARBARA
100
AcDbText
  0
LINE
  5
D43
100
AcDbEntity
  8
BORDER
100
AcDbLine
 10
25.75128
 20
2.824147
 30
0.0
 11
32.024118
 21
2.824147
 31
0.0
  0
LINE
  5
D44
100
AcDbEntity
  8
BORDER
100
AcDbLine
 10
32.04642
 20
0.625
 30
0.0
 11
32.04642
 21
20.447595
 31
0.0
  0
LINE
  5
D45
100
AcDbEntity
  8
BORDER
100
AcDbLine
 10
1.0
 20
20.447595
 30
0.0
 11
1.0
 21
0.625
 31
0.0
  0
LINE
  5
D46
100
AcDbEntity
  8
BORDER
100
AcDbLine
 10
1.0
 20
0.625
 30
0.0
 11
32.04642
 21
0.625
 31
0.0
  0
TEXT
  5
D47
100
AcDbEntity
  8
TEXT
100
AcDbText
 10
28.203393
 20
1.165354
 30
0.0
 40
0.075
  1
DIRECTORY
100
AcDbText
  0
LINE
  5
D48
100
AcDbEntity
  8
BORDER
100
AcDbLine
 10
1.0
 20
20.447595
 30
0.0
 11
32.04642
 21
20.447595
 31
0.0
  0
TEXT
  5
D49
100
AcDbEntity
  8
BORDER
100
AcDbText
 10
28.439864
 20
2.075566
 30
0.0
 40
0.15
  1
HIGH ENERGY PHYSICS
100
AcDbText
  0
TEXT
  5
D4A
100
AcDbEntity
  8
BORDER
100
AcDbText
 10
27.876167
 20
0.934778
 30
0.0
 40
0.2
  1
D
100
AcDbText
  0
TEXT
  5
D4B
100
AcDbEntity
  8
TEXT
100
AcDbText
 10
25.981606
 20
2.285089
 30
0.0
 40
0.065
  1
UNLESS OTHERWISE SPECIFIED:
  7
ADESK2
 72
     1
 11
26.752321
 21
2.285089
 31
0.0
100
AcDbText
  0
TEXT
  5
D4C
100
AcDbEntity
  8
TEXT
100
AcDbText
 10
26.055892
 20
2.179851
 30
0.0
 40
0.065
  1
DIMENSIONS ARE IN INCHES
  7
ADESK2
 72
     1
 11
26.752321
 21
2.179851
 31
0.0
100
AcDbText
  0
TEXT
  5
D4D
100
AcDbEntity
  8
TEXT
100
AcDbText
 10
26.45363
 20
2.074613
 30
0.0
 40
0.065
  1
TOLERANCES
  7
ADESK2
 72
     1
 11
26.752321
 21
2.074613
 31
0.0
100
AcDbText
  0
TEXT
  5
D4E
100
AcDbEntity
  8
TEXT
100
AcDbText
 10
26.067279
 20
1.966743
 30
0.0
 40
0.065
  1
DECIMALS
  7
ADESK2
100
AcDbText
  0
TEXT
  5
D4F
100
AcDbEntity
  8
TEXT
100
AcDbText
 10
26.067279
 20
1.861505
 30
0.0
 40
0.065
  1
.XX  %%P .05
  7
ADESK2
100
AcDbText
  0
TEXT
  5
D50
100
AcDbEntity
  8
TEXT
100
AcDbText
 10
26.067279
 20
1.756267
 30
0.0
 40
0.065
  1
.XXX %%P .005
  7
ADESK2
100
AcDbText
  0
TEXT
  5
D51
100
AcDbEntity
  8
TEXT
100
AcDbText
 10
26.137916
 20
1.653744
 30
0.0
 40
0.065
  1
DO NOT SCALE DRAWING
  7
ADESK2
 72
     1
 11
26.752321
 21
1.653744
 31
0.0
100
AcDbText
  0
TEXT
  5
D52
100
AcDbEntity
  8
TEXT
100
AcDbText
 10
26.931176
 20
1.966743
 30
0.0
 40
0.065
  1
ANGULAR
  7
ADESK2
100
AcDbText
  0
TEXT
  5
D53
100
AcDbEntity
  8
TEXT
100
AcDbText
 10
26.931176
 20
1.861505
 30
0.0
 40
0.065
  1
  %%P 0.5%%D
  7
ADESK2
100
AcDbText
  0
ENDBLK
  5
D55
100
AcDbEntity
  8
DIM
100
AcDbBlockEnd
  0
BLOCK
  5
12B5
100
AcDbEntity
  8
0
100
AcDbBlockBegin
  2
*D18
 70
    65
 10
0.0
 20
0.0
 30
0.0
  3
*D18
  1
*TB
  0
LINE
  5
12B6
100
AcDbEntity
  8
0
  6
BYBLOCK
 62
     0
100
AcDbLine
 10
16.513748
 20
14.959894
 30
0.0
 11
11.954167
 21
14.959894
 31
0.0
  0
LINE
  5
12B7
100
AcDbEntity
  8
0
  6
BYBLOCK
 62
     0
100
AcDbLine
 10
14.494244
 20
15.238137
 30
0.0
 11
11.954167
 21
15.238137
 31
0.0
  0
LINE
  5
12B8
100
AcDbEntity
  8
0
  6
BYBLOCK
 62
     0
100
AcDbLine
 10
12.089167
 20
14.824894
 30
0.0
 11
12.089167
 21
14.689894
 31
0.0
  0
LINE
  5
12B9
100
AcDbEntity
  8
0
  6
BYBLOCK
 62
     0
100
AcDbLine
 10
12.089167
 20
15.373137
 30
0.0
 11
12.089167
 21
15.508137
 31
0.0
  0
LINE
  5
12BA
100
AcDbEntity
  8
0
  6
BYBLOCK
 62
     0
100
AcDbLine
 10
12.089167
 20
15.508137
 30
0.0
 11
12.224167
 21
15.508137
 31
0.0
  0
SOLID
  5
12BB
100
AcDbEntity
  8
0
  6
BYBLOCK
 62
     0
100
AcDbTrace
 10
12.066667
 20
14.824894
 30
0.0
 11
12.111667
 21
14.824894
 31
0.0
 12
12.089167
 22
14.959894
 32
0.0
 13
12.089167
 23
14.959894
 33
0.0
  0
SOLID
  5
12BC
100
AcDbEntity
  8
0
  6
BYBLOCK
 62
     0
100
AcDbTrace
 10
12.066667
 20
15.373137
 30
0.0
 11
12.111667
 21
15.373137
 31
0.0
 12
12.089167
 22
15.238137
 32
0.0
 13
12.089167
 23
15.238137
 33
0.0
  0
MTEXT
  5
12BD
100
AcDbEntity
  8
0
  6
BYBLOCK
 62
     0
100
AcDbMText
 10
13.034167
 20
15.508137
 30
0.0
 40
0.135
 41
0.0
 71
     5
 72
     1
  1
\A1;0.278"[7.07mm]
  0
POINT
  5
12BE
100
AcDbEntity
  8
DEFPOINTS
  6
BYBLOCK
 62
     0
100
AcDbPoint
 10
16.560623
 20
14.959894
 30
0.0
  0
POINT
  5
12BF
100
AcDbEntity
  8
DEFPOINTS
  6
BYBLOCK
 62
     0
100
AcDbPoint
 10
14.541119
 20
15.238137
 30
0.0
  0
POINT
  5
12C0
100
AcDbEntity
  8
DEFPOINTS
  6
BYBLOCK
 62
     0
100
AcDbPoint
 10
12.089167
 20
15.238137
 30
0.0
  0
ENDBLK
  5
12C1
100
AcDbEntity
  8
0
100
AcDbBlockEnd
  0
BLOCK
  5
12A8
100
AcDbEntity
  8
0
100
AcDbBlockBegin
  2
*D19
 70
    65
 10
0.0
 20
0.0
 30
0.0
  3
*D19
  1
*TB
  0
LINE
  5
12A9
100
AcDbEntity
  8
0
  6
BYBLOCK
 62
     0
100
AcDbLine
 10
14.736958
 20
14.87303
 30
0.0
 11
10.001846
 21
14.87303
 31
0.0
  0
LINE
  5
12AA
100
AcDbEntity
  8
0
  6
BYBLOCK
 62
     0
100
AcDbLine
 10
14.494244
 20
15.238137
 30
0.0
 11
10.001846
 21
15.238137
 31
0.0
  0
LINE
  5
12AB
100
AcDbEntity
  8
0
  6
BYBLOCK
 62
     0
100
AcDbLine
 10
10.136846
 20
14.73803
 30
0.0
 11
10.136846
 21
14.60303
 31
0.0
  0
LINE
  5
12AC
100
AcDbEntity
  8
0
  6
BYBLOCK
 62
     0
100
AcDbLine
 10
10.136846
 20
15.373137
 30
0.0
 11
10.136846
 21
15.508137
 31
0.0
  0
LINE
  5
12AD
100
AcDbEntity
  8
0
  6
BYBLOCK
 62
     0
100
AcDbLine
 10
10.136846
 20
15.508137
 30
0.0
 11
10.271846
 21
15.508137
 31
0.0
  0
SOLID
  5
12AE
100
AcDbEntity
  8
0
  6
BYBLOCK
 62
     0
100
AcDbTrace
 10
10.114346
 20
14.73803
 30
0.0
 11
10.159346
 21
14.73803
 31
0.0
 12
10.136846
 22
14.87303
 32
0.0
 13
10.136846
 23
14.87303
 33
0.0
  0
SOLID
  5
12AF
100
AcDbEntity
  8
0
  6
BYBLOCK
 62
     0
100
AcDbTrace
 10
10.114346
 20
15.373137
 30
0.0
 11
10.159346
 21
15.373137
 31
0.0
 12
10.136846
 22
15.238137
 32
0.0
 13
10.136846
 23
15.238137
 33
0.0
  0
MTEXT
  5
12B0
100
AcDbEntity
  8
0
  6
BYBLOCK
 62
     0
100
AcDbMText
 10
11.093096
 20
15.508137
 30
0.0
 40
0.135
 41
0.0
 71
     5
 72
     1
  1
\A1;0.365"[9.27mm]
  0
POINT
  5
12B1
100
AcDbEntity
  8
DEFPOINTS
  6
BYBLOCK
 62
     0
100
AcDbPoint
 10
14.783833
 20
14.87303
 30
0.0
  0
POINT
  5
12B2
100
AcDbEntity
  8
DEFPOINTS
  6
BYBLOCK
 62
     0
100
AcDbPoint
 10
14.541119
 20
15.238137
 30
0.0
  0
POINT
  5
12B3
100
AcDbEntity
  8
DEFPOINTS
  6
BYBLOCK
 62
     0
100
AcDbPoint
 10
10.136846
 20
15.238137
 30
0.0
  0
ENDBLK
  5
12B4
100
AcDbEntity
  8
0
100
AcDbBlockEnd
  0
BLOCK
  5
129C
100
AcDbEntity
  8
0
100
AcDbBlockBegin
  2
*D20
 70
    65
 10
0.0
 20
0.0
 30
0.0
  3
*D20
  1
*TB
  0
LINE
  5
129D
100
AcDbEntity
  8
0
  6
BYBLOCK
 62
     0
100
AcDbLine
 10
14.557407
 20
14.477351
 30
0.0
 11
8.636192
 21
14.477351
 31
0.0
  0
LINE
  5
129E
100
AcDbEntity
  8
0
  6
BYBLOCK
 62
     0
100
AcDbLine
 10
14.494244
 20
15.238137
 30
0.0
 11
8.636192
 21
15.238137
 31
0.0
  0
LINE
  5
129F
100
AcDbEntity
  8
0
  6
BYBLOCK
 62
     0
100
AcDbLine
 10
8.771192
 20
14.612351
 30
0.0
 11
8.771192
 21
14.722744
 31
0.0
  0
LINE
  5
12A0
100
AcDbEntity
  8
0
  6
BYBLOCK
 62
     0
100
AcDbLine
 10
8.771192
 20
15.103137
 30
0.0
 11
8.771192
 21
14.992744
 31
0.0
  0
SOLID
  5
12A1
100
AcDbEntity
  8
0
  6
BYBLOCK
 62
     0
100
AcDbTrace
 10
8.748692
 20
14.612351
 30
0.0
 11
8.793692
 21
14.612351
 31
0.0
 12
8.771192
 22
14.477351
 32
0.0
 13
8.771192
 23
14.477351
 33
0.0
  0
SOLID
  5
12A2
100
AcDbEntity
  8
0
  6
BYBLOCK
 62
     0
100
AcDbTrace
 10
8.748692
 20
15.103137
 30
0.0
 11
8.793692
 21
15.103137
 31
0.0
 12
8.771192
 22
15.238137
 32
0.0
 13
8.771192
 23
15.238137
 33
0.0
  0
MTEXT
  5
12A3
100
AcDbEntity
  8
0
  6
BYBLOCK
 62
     0
100
AcDbMText
 10
8.771192
 20
14.857744
 30
0.0
 40
0.135
 41
0.0
 71
     5
 72
     1
  1
\A1;0.761"[19.32mm]
  0
POINT
  5
12A4
100
AcDbEntity
  8
DEFPOINTS
  6
BYBLOCK
 62
     0
100
AcDbPoint
 10
14.604282
 20
14.477351
 30
0.0
  0
POINT
  5
12A5
100
AcDbEntity
  8
DEFPOINTS
  6
BYBLOCK
 62
     0
100
AcDbPoint
 10
14.541119
 20
15.238137
 30
0.0
  0
POINT
  5
12A6
100
AcDbEntity
  8
DEFPOINTS
  6
BYBLOCK
 62
     0
100
AcDbPoint
 10
8.771192
 20
15.238137
 30
0.0
  0
ENDBLK
  5
12A7
100
AcDbEntity
  8
0
100
AcDbBlockEnd
  0
BLOCK
  5
11A6
100
AcDbEntity
  8
0
100
AcDbBlockBegin
  2
*U21
 70
     1
 10
0.0
 20
0.0
 30
0.0
  3
*U21
  1

  0
ENDBLK
  5
11A7
100
AcDbEntity
  8
0
100
AcDbBlockEnd
  0
BLOCK
  5
11BF
100
AcDbEntity
  8
0
100
AcDbBlockBegin
  2
*U22
 70
    65
 10
0.0
 20
0.0
 30
0.0
  3
*U22
  1
*TB
  0
CIRCLE
  5
11C0
100
AcDbEntity
  8
FOOT
100
AcDbCircle
 10
0.0
 20
0.0
 30
0.0
 40
0.046875
  0
LINE
  5
11C1
100
AcDbEntity
  8
CENTER
100
AcDbLine
 10
-0.015625
 20
0.0
 30
0.0
 11
0.015625
 21
0.0
 31
0.0
  0
LINE
  5
11C2
100
AcDbEntity
  8
CENTER
100
AcDbLine
 10
0.0
 20
-0.015625
 30
0.0
 11
0.0
 21
0.015625
 31
0.0
  0
LINE
  5
11C3
100
AcDbEntity
  8
CENTER
100
AcDbLine
 10
0.03125
 20
0.0
 30
0.0
 11
0.171875
 21
0.0
 31
0.0
  0
LINE
  5
11C4
100
AcDbEntity
  8
CENTER
100
AcDbLine
 10
0.0
 20
0.03125
 30
0.0
 11
0.0
 21
0.171875
 31
0.0
  0
LINE
  5
11C5
100
AcDbEntity
  8
CENTER
100
AcDbLine
 10
-0.03125
 20
0.0
 30
0.0
 11
-0.171875
 21
0.0
 31
0.0
  0
LINE
  5
11C6
100
AcDbEntity
  8
CENTER
100
AcDbLine
 10
0.0
 20
-0.03125
 30
0.0
 11
0.0
 21
-0.171875
 31
0.0
  0
ENDBLK
  5
11C7
100
AcDbEntity
  8
0
100
AcDbBlockEnd
  0
BLOCK
  5
1236
100
AcDbEntity
  8
0
100
AcDbBlockBegin
  2
*X23
 70
    65
 10
0.0
 20
0.0
 30
0.0
  3
*X23
  1
*TB
  0
LINE
  5
1238
100
AcDbEntity
  8
0
 62
     0
100
AcDbLine
 10
15.926243
 20
6.733855
 30
0.0
 11
15.956243
 21
6.763855
 31
0.0
  0
LINE
  5
1239
100
AcDbEntity
  8
0
 62
     0
100
AcDbLine
 10
15.837855
 20
6.733855
 30
0.0
 11
15.867855
 21
6.763855
 31
0.0
  0
LINE
  5
123A
100
AcDbEntity
  8
0
 62
     0
100
AcDbLine
 10
15.749467
 20
6.733855
 30
0.0
 11
15.779467
 21
6.763855
 31
0.0
  0
LINE
  5
123B
100
AcDbEntity
  8
0
 62
     0
100
AcDbLine
 10
15.586602
 20
6.659379
 30
0.0
 11
15.657555
 21
6.730332
 31
0.0
  0
LINE
  5
123C
100
AcDbEntity
  8
0
 62
     0
100
AcDbLine
 10
15.401196
 20
6.562361
 30
0.0
 11
15.472149
 21
6.633314
 31
0.0
  0
LINE
  5
123D
100
AcDbEntity
  8
0
 62
     0
100
AcDbLine
 10
15.215789
 20
6.465343
 30
0.0
 11
15.286742
 21
6.536296
 31
0.0
  0
LINE
  5
123E
100
AcDbEntity
  8
0
 62
     0
100
AcDbLine
 10
15.082827
 20
6.420769
 30
0.0
 11
15.112827
 21
6.450769
 31
0.0
  0
LINE
  5
123F
100
AcDbEntity
  8
0
 62
     0
100
AcDbLine
 10
14.994439
 20
6.420769
 30
0.0
 11
15.013406
 21
6.439736
 31
0.0
  0
LINE
  5
1240
100
AcDbEntity
  8
0
 62
     0
100
AcDbLine
 10
15.013406
 20
6.439736
 30
0.0
 11
15.024439
 21
6.450769
 31
0.0
  0
LINE
  5
1241
100
AcDbEntity
  8
0
 62
     0
100
AcDbLine
 10
14.90605
 20
6.420769
 30
0.0
 11
14.93605
 21
6.450769
 31
0.0
  0
LINE
  5
1242
100
AcDbEntity
  8
0
 62
     0
100
AcDbLine
 10
14.817662
 20
6.420769
 30
0.0
 11
14.847662
 21
6.450769
 31
0.0
  0
LINE
  5
1243
100
AcDbEntity
  8
0
 62
     0
100
AcDbLine
 10
14.729274
 20
6.420769
 30
0.0
 11
14.759274
 21
6.450769
 31
0.0
  0
LINE
  5
1244
100
AcDbEntity
  8
0
 62
     0
100
AcDbLine
 10
14.640885
 20
6.420769
 30
0.0
 11
14.670885
 21
6.450769
 31
0.0
  0
LINE
  5
1245
100
AcDbEntity
  8
0
 62
     0
100
AcDbLine
 10
14.552497
 20
6.420769
 30
0.0
 11
14.582497
 21
6.450769
 31
0.0
  0
LINE
  5
1246
100
AcDbEntity
  8
0
 62
     0
100
AcDbLine
 10
16.014632
 20
6.733855
 30
0.0
 11
16.044632
 21
6.763855
 31
0.0
  0
LINE
  5
1247
100
AcDbEntity
  8
0
 62
     0
100
AcDbLine
 10
16.10302
 20
6.733855
 30
0.0
 11
16.13302
 21
6.763855
 31
0.0
  0
LINE
  5
1248
100
AcDbEntity
  8
0
 62
     0
100
AcDbLine
 10
16.191408
 20
6.733855
 30
0.0
 11
16.221408
 21
6.763855
 31
0.0
  0
LINE
  5
1249
100
AcDbEntity
  8
0
 62
     0
100
AcDbLine
 10
16.279797
 20
6.733855
 30
0.0
 11
16.309797
 21
6.763855
 31
0.0
  0
LINE
  5
124A
100
AcDbEntity
  8
0
 62
     0
100
AcDbLine
 10
16.368185
 20
6.733855
 30
0.0
 11
16.398185
 21
6.763855
 31
0.0
  0
LINE
  5
124B
100
AcDbEntity
  8
0
 62
     0
100
AcDbLine
 10
16.456573
 20
6.733855
 30
0.0
 11
16.486573
 21
6.763855
 31
0.0
  0
LINE
  5
124C
100
AcDbEntity
  8
0
 62
     0
100
AcDbLine
 10
16.544962
 20
6.733855
 30
0.0
 11
16.555684
 21
6.744577
 31
0.0
  0
LINE
  5
124D
100
AcDbEntity
  8
0
 62
     0
100
AcDbLine
 10
16.555684
 20
6.744577
 30
0.0
 11
16.574962
 21
6.763855
 31
0.0
  0
LINE
  5
124E
100
AcDbEntity
  8
0
 62
     0
100
AcDbLine
 10
16.63335
 20
6.733855
 30
0.0
 11
16.66335
 21
6.763855
 31
0.0
  0
LINE
  5
124F
100
AcDbEntity
  8
0
 62
     0
100
AcDbLine
 10
16.721738
 20
6.733855
 30
0.0
 11
16.751738
 21
6.763855
 31
0.0
  0
LINE
  5
1250
100
AcDbEntity
  8
0
 62
     0
100
AcDbLine
 10
16.810127
 20
6.733855
 30
0.0
 11
16.840127
 21
6.763855
 31
0.0
  0
LINE
  5
1251
100
AcDbEntity
  8
0
 62
     0
100
AcDbLine
 10
16.898515
 20
6.733855
 30
0.0
 11
16.928515
 21
6.763855
 31
0.0
  0
LINE
  5
1252
100
AcDbEntity
  8
0
 62
     0
100
AcDbLine
 10
16.986904
 20
6.733855
 30
0.0
 11
17.016904
 21
6.763855
 31
0.0
  0
ENDBLK
  5
1253
100
AcDbEntity
  8
0
100
AcDbBlockEnd
  0
BLOCK
  5
1352
100
AcDbEntity
  8
0
100
AcDbBlockBegin
  2
*D24
 70
    65
 10
0.0
 20
0.0
 30
0.0
  3
*D24
  1
*TB
  0
LINE
  5
1353
100
AcDbEntity
  8
0
  6
BYBLOCK
 62
     0
100
AcDbLine
 10
14.541119
 20
6.373894
 30
0.0
 11
14.541119
 21
5.943461
 31
0.0
  0
LINE
  5
1354
100
AcDbEntity
  8
0
  6
BYBLOCK
 62
     0
100
AcDbLine
 10
15.148406
 20
6.078461
 30
0.0
 11
15.283406
 21
6.078461
 31
0.0
  0
LINE
  5
1355
100
AcDbEntity
  8
0
  6
BYBLOCK
 62
     0
100
AcDbLine
 10
14.406119
 20
6.078461
 30
0.0
 11
14.271119
 21
6.078461
 31
0.0
  0
SOLID
  5
1356
100
AcDbEntity
  8
0
  6
BYBLOCK
 62
     0
100
AcDbTrace
 10
15.148406
 20
6.100961
 30
0.0
 11
15.148406
 21
6.055961
 31
0.0
 12
15.013406
 22
6.078461
 32
0.0
 13
15.013406
 23
6.078461
 33
0.0
  0
SOLID
  5
1357
100
AcDbEntity
  8
0
  6
BYBLOCK
 62
     0
100
AcDbTrace
 10
14.406119
 20
6.100961
 30
0.0
 11
14.406119
 21
6.055961
 31
0.0
 12
14.541119
 22
6.078461
 32
0.0
 13
14.541119
 23
6.078461
 33
0.0
  0
MTEXT
  5
1358
100
AcDbEntity
  8
0
  6
BYBLOCK
 62
     0
100
AcDbMText
 10
13.427369
 20
6.078461
 30
0.0
 40
0.135
 41
0.0
 71
     5
 72
     1
  1
\A1;0.472"[12.00mm]
  0
POINT
  5
1359
100
AcDbEntity
  8
DEFPOINTS
  6
BYBLOCK
 62
     0
100
AcDbPoint
 10
15.013406
 20
3.9303
 30
0.0
  0
POINT
  5
135A
100
AcDbEntity
  8
DEFPOINTS
  6
BYBLOCK
 62
     0
100
AcDbPoint
 10
14.541119
 20
6.420769
 30
0.0
  0
POINT
  5
135B
100
AcDbEntity
  8
DEFPOINTS
  6
BYBLOCK
 62
     0
100
AcDbPoint
 10
14.541119
 20
6.078461
 30
0.0
  0
ENDBLK
  5
135C
100
AcDbEntity
  8
0
100
AcDbBlockEnd
  0
BLOCK
  5
1331
100
AcDbEntity
  8
0
100
AcDbBlockBegin
  2
*D25
 70
    65
 10
0.0
 20
0.0
 30
0.0
  3
*D25
  1
*TB
  0
LINE
  5
1332
100
AcDbEntity
  8
0
  6
BYBLOCK
 62
     0
100
AcDbLine
 10
15.72893
 20
6.68698
 30
0.0
 11
15.72893
 21
5.438673
 31
0.0
  0
LINE
  5
1333
100
AcDbEntity
  8
0
  6
BYBLOCK
 62
     0
100
AcDbLine
 10
15.86393
 20
5.573673
 30
0.0
 11
15.99893
 21
5.573673
 31
0.0
  0
LINE
  5
1334
100
AcDbEntity
  8
0
  6
BYBLOCK
 62
     0
100
AcDbLine
 10
14.878406
 20
5.573673
 30
0.0
 11
14.743406
 21
5.573673
 31
0.0
  0
SOLID
  5
1335
100
AcDbEntity
  8
0
  6
BYBLOCK
 62
     0
100
AcDbTrace
 10
15.86393
 20
5.596173
 30
0.0
 11
15.86393
 21
5.551173
 31
0.0
 12
15.72893
 22
5.573673
 32
0.0
 13
15.72893
 23
5.573673
 33
0.0
  0
SOLID
  5
1336
100
AcDbEntity
  8
0
  6
BYBLOCK
 62
     0
100
AcDbTrace
 10
14.878406
 20
5.596173
 30
0.0
 11
14.878406
 21
5.551173
 31
0.0
 12
15.013406
 22
5.573673
 32
0.0
 13
15.013406
 23
5.573673
 33
0.0
  0
MTEXT
  5
1337
100
AcDbEntity
  8
0
  6
BYBLOCK
 62
     0
100
AcDbMText
 10
13.922156
 20
5.573673
 30
0.0
 40
0.135
 41
0.0
 71
     5
 72
     1
  1
\A1;0.716"[18.17mm]
  0
POINT
  5
1338
100
AcDbEntity
  8
DEFPOINTS
  6
BYBLOCK
 62
     0
100
AcDbPoint
 10
15.72893
 20
6.733855
 30
0.0
  0
POINT
  5
1339
100
AcDbEntity
  8
DEFPOINTS
  6
BYBLOCK
 62
     0
100
AcDbPoint
 10
15.013406
 20
3.9303
 30
0.0
  0
POINT
  5
133A
100
AcDbEntity
  8
DEFPOINTS
  6
BYBLOCK
 62
     0
100
AcDbPoint
 10
15.013406
 20
5.573673
 30
0.0
  0
ENDBLK
  5
133B
100
AcDbEntity
  8
0
100
AcDbBlockEnd
  0
BLOCK
  5
1347
100
AcDbEntity
  8
0
100
AcDbBlockBegin
  2
*D26
 70
    65
 10
0.0
 20
0.0
 30
0.0
  3
*D26
  1
*TB
  0
LINE
  5
1348
100
AcDbEntity
  8
0
  6
BYBLOCK
 62
     0
100
AcDbLine
 10
16.430684
 20
6.637695
 30
0.0
 11
16.430684
 21
4.946504
 31
0.0
  0
LINE
  5
1349
100
AcDbEntity
  8
0
  6
BYBLOCK
 62
     0
100
AcDbLine
 10
16.565684
 20
5.081504
 30
0.0
 11
16.700684
 21
5.081504
 31
0.0
  0
LINE
  5
134A
100
AcDbEntity
  8
0
  6
BYBLOCK
 62
     0
100
AcDbLine
 10
14.878406
 20
5.081504
 30
0.0
 11
14.743406
 21
5.081504
 31
0.0
  0
SOLID
  5
134B
100
AcDbEntity
  8
0
  6
BYBLOCK
 62
     0
100
AcDbTrace
 10
16.565684
 20
5.104004
 30
0.0
 11
16.565684
 21
5.059004
 31
0.0
 12
16.430684
 22
5.081504
 32
0.0
 13
16.430684
 23
5.081504
 33
0.0
  0
SOLID
  5
134C
100
AcDbEntity
  8
0
  6
BYBLOCK
 62
     0
100
AcDbTrace
 10
14.878406
 20
5.104004
 30
0.0
 11
14.878406
 21
5.059004
 31
0.0
 12
15.013406
 22
5.081504
 32
0.0
 13
15.013406
 23
5.081504
 33
0.0
  0
MTEXT
  5
134D
100
AcDbEntity
  8
0
  6
BYBLOCK
 62
     0
100
AcDbMText
 10
13.157156
 20
5.081504
 30
0.0
 40
0.135
 41
0.0
 71
     5
 72
     1
  1
\A1;1.417"±0.001"[36.00mm±0.03mm]
  0
POINT
  5
134E
100
AcDbEntity
  8
DEFPOINTS
  6
BYBLOCK
 62
     0
100
AcDbPoint
 10
16.430684
 20
6.68457
 30
0.0
  0
POINT
  5
134F
100
AcDbEntity
  8
DEFPOINTS
  6
BYBLOCK
 62
     0
100
AcDbPoint
 10
15.013406
 20
3.9303
 30
0.0
  0
POINT
  5
1350
100
AcDbEntity
  8
DEFPOINTS
  6
BYBLOCK
 62
     0
100
AcDbPoint
 10
15.013406
 20
5.081504
 30
0.0
  0
ENDBLK
  5
1351
100
AcDbEntity
  8
0
100
AcDbBlockEnd
  0
BLOCK
  5
133C
100
AcDbEntity
  8
0
100
AcDbBlockBegin
  2
*D27
 70
    65
 10
0.0
 20
0.0
 30
0.0
  3
*D27
  1
*TB
  0
LINE
  5
133D
100
AcDbEntity
  8
0
  6
BYBLOCK
 62
     0
100
AcDbLine
 10
17.055699
 20
6.68698
 30
0.0
 11
17.055699
 21
4.504815
 31
0.0
  0
LINE
  5
133E
100
AcDbEntity
  8
0
  6
BYBLOCK
 62
     0
100
AcDbLine
 10
17.190699
 20
4.639815
 30
0.0
 11
17.325699
 21
4.639815
 31
0.0
  0
LINE
  5
133F
100
AcDbEntity
  8
0
  6
BYBLOCK
 62
     0
100
AcDbLine
 10
14.878406
 20
4.639815
 30
0.0
 11
14.743406
 21
4.639815
 31
0.0
  0
SOLID
  5
1340
100
AcDbEntity
  8
0
  6
BYBLOCK
 62
     0
100
AcDbTrace
 10
17.190699
 20
4.662315
 30
0.0
 11
17.190699
 21
4.617315
 31
0.0
 12
17.055699
 22
4.639815
 32
0.0
 13
17.055699
 23
4.639815
 33
0.0
  0
SOLID
  5
1341
100
AcDbEntity
  8
0
  6
BYBLOCK
 62
     0
100
AcDbTrace
 10
14.878406
 20
4.662315
 30
0.0
 11
14.878406
 21
4.617315
 31
0.0
 12
15.013406
 22
4.639815
 32
0.0
 13
15.013406
 23
4.639815
 33
0.0
  0
MTEXT
  5
1342
100
AcDbEntity
  8
0
  6
BYBLOCK
 62
     0
100
AcDbMText
 10
13.877156
 20
4.639815
 30
0.0
 40
0.135
 41
0.0
 71
     5
 72
     1
  1
\A1;2.042"[51.87mm]
  0
POINT
  5
1343
100
AcDbEntity
  8
DEFPOINTS
  6
BYBLOCK
 62
     0
100
AcDbPoint
 10
17.055699
 20
6.733855
 30
0.0
  0
POINT
  5
1344
100
AcDbEntity
  8
DEFPOINTS
  6
BYBLOCK
 62
     0
100
AcDbPoint
 10
15.013406
 20
3.9303
 30
0.0
  0
POINT
  5
1345
100
AcDbEntity
  8
DEFPOINTS
  6
BYBLOCK
 62
     0
100
AcDbPoint
 10
15.013406
 20
4.639815
 30
0.0
  0
ENDBLK
  5
1346
100
AcDbEntity
  8
0
100
AcDbBlockEnd
  0
BLOCK
  5
135E
100
AcDbEntity
  8
0
100
AcDbBlockBegin
  2
*D28
 70
    65
 10
0.0
 20
0.0
 30
0.0
  3
*D28
  1
*TB
  0
LINE
  5
135F
100
AcDbEntity
  8
0
  6
BYBLOCK
 62
     0
100
AcDbLine
 10
14.494244
 20
6.420769
 30
0.0
 11
11.810235
 21
6.420769
 31
0.0
  0
LINE
  5
1360
100
AcDbEntity
  8
0
  6
BYBLOCK
 62
     0
100
AcDbLine
 10
11.945235
 20
6.703869
 30
0.0
 11
11.945235
 21
6.838869
 31
0.0
  0
LINE
  5
1361
100
AcDbEntity
  8
0
  6
BYBLOCK
 62
     0
100
AcDbLine
 10
11.945235
 20
6.285769
 30
0.0
 11
11.945235
 21
6.150769
 31
0.0
  0
LINE
  5
1362
100
AcDbEntity
  8
0
  6
BYBLOCK
 62
     0
100
AcDbLine
 10
11.945235
 20
6.150769
 30
0.0
 11
11.810235
 21
6.150769
 31
0.0
  0
SOLID
  5
1363
100
AcDbEntity
  8
0
  6
BYBLOCK
 62
     0
100
AcDbTrace
 10
11.922735
 20
6.703869
 30
0.0
 11
11.967735
 21
6.703869
 31
0.0
 12
11.945235
 22
6.568869
 32
0.0
 13
11.945235
 23
6.568869
 33
0.0
  0
SOLID
  5
1364
100
AcDbEntity
  8
0
  6
BYBLOCK
 62
     0
100
AcDbTrace
 10
11.922735
 20
6.285769
 30
0.0
 11
11.967735
 21
6.285769
 31
0.0
 12
11.945235
 22
6.420769
 32
0.0
 13
11.945235
 23
6.420769
 33
0.0
  0
MTEXT
  5
1365
100
AcDbEntity
  8
0
  6
BYBLOCK
 62
     0
100
AcDbMText
 10
11.011485
 20
6.150769
 30
0.0
 40
0.135
 41
0.0
 71
     5
 72
     1
  1
\A1;0.148"[3.76mm]
  0
POINT
  5
1366
100
AcDbEntity
  8
DEFPOINTS
  6
BYBLOCK
 62
     0
100
AcDbPoint
 10
7.894275
 20
6.568869
 30
0.0
  0
POINT
  5
1367
100
AcDbEntity
  8
DEFPOINTS
  6
BYBLOCK
 62
     0
100
AcDbPoint
 10
14.541119
 20
6.420769
 30
0.0
  0
POINT
  5
1368
100
AcDbEntity
  8
DEFPOINTS
  6
BYBLOCK
 62
     0
100
AcDbPoint
 10
11.945235
 20
6.420769
 30
0.0
  0
ENDBLK
  5
1369
100
AcDbEntity
  8
0
100
AcDbBlockEnd
  0
BLOCK
  5
136C
100
AcDbEntity
  8
0
100
AcDbBlockBegin
  2
*D29
 70
    65
 10
0.0
 20
0.0
 30
0.0
  3
*D29
  1
*TB
  0
LINE
  5
136D
100
AcDbEntity
  8
0
  6
BYBLOCK
 62
     0
100
AcDbLine
 10
16.649434
 20
6.856445
 30
0.0
 11
24.756643
 21
6.856445
 31
0.0
  0
LINE
  5
136E
100
AcDbEntity
  8
0
  6
BYBLOCK
 62
     0
100
AcDbLine
 10
24.621643
 20
6.991445
 30
0.0
 11
24.621643
 21
7.126445
 31
0.0
  0
LINE
  5
136F
100
AcDbEntity
  8
0
  6
BYBLOCK
 62
     0
100
AcDbLine
 10
24.621643
 20
6.433869
 30
0.0
 11
24.621643
 21
6.298869
 31
0.0
  0
LINE
  5
1370
100
AcDbEntity
  8
0
  6
BYBLOCK
 62
     0
100
AcDbLine
 10
24.621643
 20
6.298869
 30
0.0
 11
24.486643
 21
6.298869
 31
0.0
  0
SOLID
  5
1371
100
AcDbEntity
  8
0
  6
BYBLOCK
 62
     0
100
AcDbTrace
 10
24.599143
 20
6.991445
 30
0.0
 11
24.644143
 21
6.991445
 31
0.0
 12
24.621643
 22
6.856445
 32
0.0
 13
24.621643
 23
6.856445
 33
0.0
  0
SOLID
  5
1372
100
AcDbEntity
  8
0
  6
BYBLOCK
 62
     0
100
AcDbTrace
 10
24.599143
 20
6.433869
 30
0.0
 11
24.644143
 21
6.433869
 31
0.0
 12
24.621643
 22
6.568869
 32
0.0
 13
24.621643
 23
6.568869
 33
0.0
  0
MTEXT
  5
1373
100
AcDbEntity
  8
0
  6
BYBLOCK
 62
     0
100
AcDbMText
 10
22.922893
 20
6.298869
 30
0.0
 40
0.135
 41
0.0
 71
     5
 72
     1
  1
\A1;0.288"±0.001"[7.30mm±0.03mm]
  0
POINT
  5
1374
100
AcDbEntity
  8
DEFPOINTS
  6
BYBLOCK
 62
     0
100
AcDbPoint
 10
16.602559
 20
6.856445
 30
0.0
  0
POINT
  5
1375
100
AcDbEntity
  8
DEFPOINTS
  6
BYBLOCK
 62
     0
100
AcDbPoint
 10
27.749992
 20
6.568869
 30
0.0
  0
POINT
  5
1376
100
AcDbEntity
  8
DEFPOINTS
  6
BYBLOCK
 62
     0
100
AcDbPoint
 10
24.621643
 20
6.568869
 30
0.0
  0
ENDBLK
  5
1377
100
AcDbEntity
  8
0
100
AcDbBlockEnd
  0
BLOCK
  5
137A
100
AcDbEntity
  8
0
100
AcDbBlockBegin
  2
*D30
 70
    65
 10
0.0
 20
0.0
 30
0.0
  3
*D30
  1
*TB
  0
LINE
  5
137B
100
AcDbEntity
  8
0
  6
BYBLOCK
 62
     0
100
AcDbLine
 10
15.404336
 20
6.99591
 30
0.0
 11
15.404336
 21
7.50067
 31
0.0
  0
LINE
  5
137C
100
AcDbEntity
  8
0
  6
BYBLOCK
 62
     0
100
AcDbLine
 10
15.539336
 20
7.36567
 30
0.0
 11
15.674336
 21
7.36567
 31
0.0
  0
LINE
  5
137D
100
AcDbEntity
  8
0
  6
BYBLOCK
 62
     0
100
AcDbLine
 10
14.878406
 20
7.36567
 30
0.0
 11
14.743406
 21
7.36567
 31
0.0
  0
SOLID
  5
137E
100
AcDbEntity
  8
0
  6
BYBLOCK
 62
     0
100
AcDbTrace
 10
15.539336
 20
7.38817
 30
0.0
 11
15.539336
 21
7.34317
 31
0.0
 12
15.404336
 22
7.36567
 32
0.0
 13
15.404336
 23
7.36567
 33
0.0
  0
SOLID
  5
137F
100
AcDbEntity
  8
0
  6
BYBLOCK
 62
     0
100
AcDbTrace
 10
14.878406
 20
7.38817
 30
0.0
 11
14.878406
 21
7.34317
 31
0.0
 12
15.013406
 22
7.36567
 32
0.0
 13
15.013406
 23
7.36567
 33
0.0
  0
MTEXT
  5
1380
100
AcDbEntity
  8
0
  6
BYBLOCK
 62
     0
100
AcDbMText
 10
13.944656
 20
7.36567
 30
0.0
 40
0.135
 41
0.0
 71
     5
 72
     1
  1
\A1;0.391"[9.93mm]
  0
POINT
  5
1381
100
AcDbEntity
  8
DEFPOINTS
  6
BYBLOCK
 62
     0
100
AcDbPoint
 10
15.404336
 20
6.949035
 30
0.0
  0
POINT
  5
1382
100
AcDbEntity
  8
DEFPOINTS
  6
BYBLOCK
 62
     0
100
AcDbPoint
 10
15.013406
 20
3.9303
 30
0.0
  0
POINT
  5
1383
100
AcDbEntity
  8
DEFPOINTS
  6
BYBLOCK
 62
     0
100
AcDbPoint
 10
15.013406
 20
7.36567
 30
0.0
  0
ENDBLK
  5
1384
100
AcDbEntity
  8
0
100
AcDbBlockEnd
  0
BLOCK
  5
1399
100
AcDbEntity
  8
0
100
AcDbBlockBegin
  2
*D31
 70
    65
 10
0.0
 20
0.0
 30
0.0
  3
*D31
  1
*TB
  0
LINE
  5
139A
100
AcDbEntity
  8
0
  6
BYBLOCK
 62
     0
100
AcDbLine
 10
14.776157
 20
14.258601
 30
0.0
 11
14.776157
 21
13.16926
 31
0.0
  0
LINE
  5
139B
100
AcDbEntity
  8
0
  6
BYBLOCK
 62
     0
100
AcDbLine
 10
15.148406
 20
13.30426
 30
0.0
 11
15.283406
 21
13.30426
 31
0.0
  0
LINE
  5
139C
100
AcDbEntity
  8
0
  6
BYBLOCK
 62
     0
100
AcDbLine
 10
14.641157
 20
13.30426
 30
0.0
 11
14.506157
 21
13.30426
 31
0.0
  0
SOLID
  5
139D
100
AcDbEntity
  8
0
  6
BYBLOCK
 62
     0
100
AcDbTrace
 10
15.148406
 20
13.32676
 30
0.0
 11
15.148406
 21
13.28176
 31
0.0
 12
15.013406
 22
13.30426
 32
0.0
 13
15.013406
 23
13.30426
 33
0.0
  0
SOLID
  5
139E
100
AcDbEntity
  8
0
  6
BYBLOCK
 62
     0
100
AcDbTrace
 10
14.641157
 20
13.32676
 30
0.0
 11
14.641157
 21
13.28176
 31
0.0
 12
14.776157
 22
13.30426
 32
0.0
 13
14.776157
 23
13.30426
 33
0.0
  0
MTEXT
  5
139F
100
AcDbEntity
  8
0
  6
BYBLOCK
 62
     0
100
AcDbMText
 10
12.942407
 20
13.30426
 30
0.0
 40
0.135
 41
0.0
 71
     5
 72
     1
  1
\A1;0.237"±0.001"[6.03mm±0.03mm]
  0
POINT
  5
13A0
100
AcDbEntity
  8
DEFPOINTS
  6
BYBLOCK
 62
     0
100
AcDbPoint
 10
15.013406
 20
18.415775
 30
0.0
  0
POINT
  5
13A1
100
AcDbEntity
  8
DEFPOINTS
  6
BYBLOCK
 62
     0
100
AcDbPoint
 10
14.776157
 20
14.305476
 30
0.0
  0
POINT
  5
13A2
100
AcDbEntity
  8
DEFPOINTS
  6
BYBLOCK
 62
     0
100
AcDbPoint
 10
14.776157
 20
13.30426
 30
0.0
  0
ENDBLK
  5
13A3
100
AcDbEntity
  8
0
100
AcDbBlockEnd
  0
BLOCK
  5
13A5
100
AcDbEntity
  8
0
100
AcDbBlockBegin
  2
*D32
 70
    65
 10
0.0
 20
0.0
 30
0.0
  3
*D32
  1
*TB
  0
LINE
  5
13A6
100
AcDbEntity
  8
0
  6
BYBLOCK
 62
     0
100
AcDbLine
 10
15.930176
 20
14.247476
 30
0.0
 11
15.930176
 21
12.726545
 31
0.0
  0
LINE
  5
13A7
100
AcDbEntity
  8
0
  6
BYBLOCK
 62
     0
100
AcDbLine
 10
16.065176
 20
12.861545
 30
0.0
 11
16.200176
 21
12.861545
 31
0.0
  0
LINE
  5
13A8
100
AcDbEntity
  8
0
  6
BYBLOCK
 62
     0
100
AcDbLine
 10
14.878406
 20
12.861545
 30
0.0
 11
14.743406
 21
12.861545
 31
0.0
  0
SOLID
  5
13A9
100
AcDbEntity
  8
0
  6
BYBLOCK
 62
     0
100
AcDbTrace
 10
16.065176
 20
12.884045
 30
0.0
 11
16.065176
 21
12.839045
 31
0.0
 12
15.930176
 22
12.861545
 32
0.0
 13
15.930176
 23
12.861545
 33
0.0
  0
SOLID
  5
13AA
100
AcDbEntity
  8
0
  6
BYBLOCK
 62
     0
100
AcDbTrace
 10
14.878406
 20
12.884045
 30
0.0
 11
14.878406
 21
12.839045
 31
0.0
 12
15.013406
 22
12.861545
 32
0.0
 13
15.013406
 23
12.861545
 33
0.0
  0
MTEXT
  5
13AB
100
AcDbEntity
  8
0
  6
BYBLOCK
 62
     0
100
AcDbMText
 10
13.877156
 20
12.861545
 30
0.0
 40
0.135
 41
0.0
 71
     5
 72
     1
  1
\A1;0.917"[23.29mm]
  0
POINT
  5
13AC
100
AcDbEntity
  8
DEFPOINTS
  6
BYBLOCK
 62
     0
100
AcDbPoint
 10
15.930176
 20
14.294351
 30
0.0
  0
POINT
  5
13AD
100
AcDbEntity
  8
DEFPOINTS
  6
BYBLOCK
 62
     0
100
AcDbPoint
 10
15.013406
 20
18.415775
 30
0.0
  0
POINT
  5
13AE
100
AcDbEntity
  8
DEFPOINTS
  6
BYBLOCK
 62
     0
100
AcDbPoint
 10
15.013406
 20
12.861545
 30
0.0
  0
ENDBLK
  5
13AF
100
AcDbEntity
  8
0
100
AcDbBlockEnd
  0
BLOCK
  5
13B2
100
AcDbEntity
  8
0
100
AcDbBlockBegin
  2
*D33
 70
    65
 10
0.0
 20
0.0
 30
0.0
  3
*D33
  1
*TB
  0
LINE
  5
13B3
100
AcDbEntity
  8
0
  6
BYBLOCK
 62
     0
100
AcDbLine
 10
16.555158
 20
14.258601
 30
0.0
 11
16.555158
 21
12.21753
 31
0.0
  0
LINE
  5
13B4
100
AcDbEntity
  8
0
  6
BYBLOCK
 62
     0
100
AcDbLine
 10
16.690158
 20
12.35253
 30
0.0
 11
16.825158
 21
12.35253
 31
0.0
  0
LINE
  5
13B5
100
AcDbEntity
  8
0
  6
BYBLOCK
 62
     0
100
AcDbLine
 10
14.878406
 20
12.35253
 30
0.0
 11
14.743406
 21
12.35253
 31
0.0
  0
SOLID
  5
13B6
100
AcDbEntity
  8
0
  6
BYBLOCK
 62
     0
100
AcDbTrace
 10
16.690158
 20
12.37503
 30
0.0
 11
16.690158
 21
12.33003
 31
0.0
 12
16.555158
 22
12.35253
 32
0.0
 13
16.555158
 23
12.35253
 33
0.0
  0
SOLID
  5
13B7
100
AcDbEntity
  8
0
  6
BYBLOCK
 62
     0
100
AcDbTrace
 10
14.878406
 20
12.37503
 30
0.0
 11
14.878406
 21
12.33003
 31
0.0
 12
15.013406
 22
12.35253
 32
0.0
 13
15.013406
 23
12.35253
 33
0.0
  0
MTEXT
  5
13B8
100
AcDbEntity
  8
0
  6
BYBLOCK
 62
     0
100
AcDbMText
 10
13.888406
 20
12.35253
 30
0.0
 40
0.135
 41
0.0
 71
     5
 72
     1
  1
\A1;1.542"[39.16mm]
  0
POINT
  5
13B9
100
AcDbEntity
  8
DEFPOINTS
  6
BYBLOCK
 62
     0
100
AcDbPoint
 10
16.555158
 20
14.305476
 30
0.0
  0
POINT
  5
13BA
100
AcDbEntity
  8
DEFPOINTS
  6
BYBLOCK
 62
     0
100
AcDbPoint
 10
15.013406
 20
18.415775
 30
0.0
  0
POINT
  5
13BB
100
AcDbEntity
  8
DEFPOINTS
  6
BYBLOCK
 62
     0
100
AcDbPoint
 10
15.013406
 20
12.35253
 30
0.0
  0
ENDBLK
  5
13BC
100
AcDbEntity
  8
0
100
AcDbBlockEnd
  0
BLOCK
  5
13BF
100
AcDbEntity
  8
0
100
AcDbBlockBegin
  2
*D34
 70
    65
 10
0.0
 20
0.0
 30
0.0
  3
*D34
  1
*TB
  0
LINE
  5
13C0
100
AcDbEntity
  8
0
  6
BYBLOCK
 62
     0
100
AcDbLine
 10
16.724973
 20
13.788014
 30
0.0
 11
16.724973
 21
11.759417
 31
0.0
  0
LINE
  5
13C1
100
AcDbEntity
  8
0
  6
BYBLOCK
 62
     0
100
AcDbLine
 10
16.859973
 20
11.894417
 30
0.0
 11
16.994973
 21
11.894417
 31
0.0
  0
LINE
  5
13C2
100
AcDbEntity
  8
0
  6
BYBLOCK
 62
     0
100
AcDbLine
 10
14.878406
 20
11.894417
 30
0.0
 11
14.743406
 21
11.894417
 31
0.0
  0
SOLID
  5
13C3
100
AcDbEntity
  8
0
  6
BYBLOCK
 62
     0
100
AcDbTrace
 10
16.859973
 20
11.916917
 30
0.0
 11
16.859973
 21
11.871917
 31
0.0
 12
16.724973
 22
11.894417
 32
0.0
 13
16.724973
 23
11.894417
 33
0.0
  0
SOLID
  5
13C4
100
AcDbEntity
  8
0
  6
BYBLOCK
 62
     0
100
AcDbTrace
 10
14.878406
 20
11.916917
 30
0.0
 11
14.878406
 21
11.871917
 31
0.0
 12
15.013406
 22
11.894417
 32
0.0
 13
15.013406
 23
11.894417
 33
0.0
  0
MTEXT
  5
13C5
100
AcDbEntity
  8
0
  6
BYBLOCK
 62
     0
100
AcDbMText
 10
13.888406
 20
11.894417
 30
0.0
 40
0.135
 41
0.0
 71
     5
 72
     1
  1
\A1;1.712"[43.47mm]
  0
POINT
  5
13C6
100
AcDbEntity
  8
DEFPOINTS
  6
BYBLOCK
 62
     0
100
AcDbPoint
 10
16.724973
 20
13.834889
 30
0.0
  0
POINT
  5
13C7
100
AcDbEntity
  8
DEFPOINTS
  6
BYBLOCK
 62
     0
100
AcDbPoint
 10
15.013406
 20
18.415775
 30
0.0
  0
POINT
  5
13C8
100
AcDbEntity
  8
DEFPOINTS
  6
BYBLOCK
 62
     0
100
AcDbPoint
 10
15.013406
 20
11.894417
 30
0.0
  0
ENDBLK
  5
13C9
100
AcDbEntity
  8
0
100
AcDbBlockEnd
  0
BLOCK
  5
13CC
100
AcDbEntity
  8
0
100
AcDbBlockBegin
  2
*D35
 70
    65
 10
0.0
 20
0.0
 30
0.0
  3
*D35
  1
*TB
  0
LINE
  5
13CD
100
AcDbEntity
  8
0
  6
BYBLOCK
 62
     0
100
AcDbLine
 10
16.890273
 20
13.784064
 30
0.0
 11
16.890273
 21
11.250402
 31
0.0
  0
LINE
  5
13CE
100
AcDbEntity
  8
0
  6
BYBLOCK
 62
     0
100
AcDbLine
 10
17.025273
 20
11.385402
 30
0.0
 11
17.160273
 21
11.385402
 31
0.0
  0
LINE
  5
13CF
100
AcDbEntity
  8
0
  6
BYBLOCK
 62
     0
100
AcDbLine
 10
14.878406
 20
11.385402
 30
0.0
 11
14.743406
 21
11.385402
 31
0.0
  0
SOLID
  5
13D0
100
AcDbEntity
  8
0
  6
BYBLOCK
 62
     0
100
AcDbTrace
 10
17.025273
 20
11.407902
 30
0.0
 11
17.025273
 21
11.362902
 31
0.0
 12
16.890273
 22
11.385402
 32
0.0
 13
16.890273
 23
11.385402
 33
0.0
  0
SOLID
  5
13D1
100
AcDbEntity
  8
0
  6
BYBLOCK
 62
     0
100
AcDbTrace
 10
14.878406
 20
11.407902
 30
0.0
 11
14.878406
 21
11.362902
 31
0.0
 12
15.013406
 22
11.385402
 32
0.0
 13
15.013406
 23
11.385402
 33
0.0
  0
MTEXT
  5
13D2
100
AcDbEntity
  8
0
  6
BYBLOCK
 62
     0
100
AcDbMText
 10
13.865906
 20
11.385402
 30
0.0
 40
0.135
 41
0.0
 71
     5
 72
     1
  1
\A1;1.877"[47.67mm]
  0
POINT
  5
13D3
100
AcDbEntity
  8
DEFPOINTS
  6
BYBLOCK
 62
     0
100
AcDbPoint
 10
16.890273
 20
13.830939
 30
0.0
  0
POINT
  5
13D4
100
AcDbEntity
  8
DEFPOINTS
  6
BYBLOCK
 62
     0
100
AcDbPoint
 10
15.013406
 20
3.9303
 30
0.0
  0
POINT
  5
13D5
100
AcDbEntity
  8
DEFPOINTS
  6
BYBLOCK
 62
     0
100
AcDbPoint
 10
15.013406
 20
11.385402
 30
0.0
  0
ENDBLK
  5
13D6
100
AcDbEntity
  8
0
100
AcDbBlockEnd
  0
BLOCK
  5
13F1
100
AcDbEntity
  8
0
100
AcDbBlockBegin
  2
*D36
 70
    65
 10
0.0
 20
0.0
 30
0.0
  3
*D36
  1
*TB
  0
LINE
  5
13F2
100
AcDbEntity
  8
0
  6
BYBLOCK
 62
     0
100
AcDbLine
 10
17.102574
 20
15.238137
 30
0.0
 11
24.075091
 21
15.238137
 31
0.0
  0
LINE
  5
13F3
100
AcDbEntity
  8
0
  6
BYBLOCK
 62
     0
100
AcDbLine
 10
17.125148
 20
14.018939
 30
0.0
 11
24.075091
 21
14.018939
 31
0.0
  0
LINE
  5
13F4
100
AcDbEntity
  8
0
  6
BYBLOCK
 62
     0
100
AcDbLine
 10
23.940091
 20
15.103137
 30
0.0
 11
23.940091
 21
14.763538
 31
0.0
  0
LINE
  5
13F5
100
AcDbEntity
  8
0
  6
BYBLOCK
 62
     0
100
AcDbLine
 10
23.940091
 20
14.153939
 30
0.0
 11
23.940091
 21
14.493538
 31
0.0
  0
SOLID
  5
13F6
100
AcDbEntity
  8
0
  6
BYBLOCK
 62
     0
100
AcDbTrace
 10
23.917591
 20
15.103137
 30
0.0
 11
23.962591
 21
15.103137
 31
0.0
 12
23.940091
 22
15.238137
 32
0.0
 13
23.940091
 23
15.238137
 33
0.0
  0
SOLID
  5
13F7
100
AcDbEntity
  8
0
  6
BYBLOCK
 62
     0
100
AcDbTrace
 10
23.917591
 20
14.153939
 30
0.0
 11
23.962591
 21
14.153939
 31
0.0
 12
23.940091
 22
14.018939
 32
0.0
 13
23.940091
 23
14.018939
 33
0.0
  0
MTEXT
  5
13F8
100
AcDbEntity
  8
0
  6
BYBLOCK
 62
     0
100
AcDbMText
 10
23.940091
 20
14.628538
 30
0.0
 40
0.135
 41
0.0
 71
     5
 72
     1
  1
\A1;1.219"[30.97mm]
  0
POINT
  5
13F9
100
AcDbEntity
  8
DEFPOINTS
  6
BYBLOCK
 62
     0
100
AcDbPoint
 10
17.055699
 20
15.238137
 30
0.0
  0
POINT
  5
13FA
100
AcDbEntity
  8
DEFPOINTS
  6
BYBLOCK
 62
     0
100
AcDbPoint
 10
17.078273
 20
14.018939
 30
0.0
  0
POINT
  5
13FB
100
AcDbEntity
  8
DEFPOINTS
  6
BYBLOCK
 62
     0
100
AcDbPoint
 10
23.940091
 20
14.018939
 30
0.0
  0
ENDBLK
  5
13FC
100
AcDbEntity
  8
0
100
AcDbBlockEnd
  0
BLOCK
  5
140C
100
AcDbEntity
  8
0
100
AcDbBlockBegin
  2
*D37
 70
    65
 10
0.0
 20
0.0
 30
0.0
  3
*D37
  1
*TB
  0
LINE
  5
140D
100
AcDbEntity
  8
0
  6
BYBLOCK
 62
     0
100
AcDbLine
 10
17.102574
 20
6.733855
 30
0.0
 11
21.080839
 21
6.733855
 31
0.0
  0
LINE
  5
140E
100
AcDbEntity
  8
0
  6
BYBLOCK
 62
     0
100
AcDbLine
 10
20.945839
 20
6.868855
 30
0.0
 11
20.945839
 21
7.003855
 31
0.0
  0
LINE
  5
140F
100
AcDbEntity
  8
0
  6
BYBLOCK
 62
     0
100
AcDbLine
 10
20.945839
 20
6.433869
 30
0.0
 11
20.945839
 21
6.298869
 31
0.0
  0
LINE
  5
1410
100
AcDbEntity
  8
0
  6
BYBLOCK
 62
     0
100
AcDbLine
 10
20.945839
 20
6.298869
 30
0.0
 11
20.810839
 21
6.298869
 31
0.0
  0
SOLID
  5
1411
100
AcDbEntity
  8
0
  6
BYBLOCK
 62
     0
100
AcDbTrace
 10
20.923339
 20
6.868855
 30
0.0
 11
20.968339
 21
6.868855
 31
0.0
 12
20.945839
 22
6.733855
 32
0.0
 13
20.945839
 23
6.733855
 33
0.0
  0
SOLID
  5
1412
100
AcDbEntity
  8
0
  6
BYBLOCK
 62
     0
100
AcDbTrace
 10
20.923339
 20
6.433869
 30
0.0
 11
20.968339
 21
6.433869
 31
0.0
 12
20.945839
 22
6.568869
 32
0.0
 13
20.945839
 23
6.568869
 33
0.0
  0
MTEXT
  5
1413
100
AcDbEntity
  8
0
  6
BYBLOCK
 62
     0
100
AcDbMText
 10
19.118839
 20
6.298869
 30
0.0
 40
0.135
 41
0.0
 71
     5
 72
     1
  1
\A1;0.165"\S+0.002"^  0.000";{\o\l\H0.324000;[}4.19mm\S+0.05mm^  0.00mm;{\o\l\H0.324000;]}
  0
POINT
  5
1414
100
AcDbEntity
  8
DEFPOINTS
  6
BYBLOCK
 62
     0
100
AcDbPoint
 10
17.055699
 20
6.733855
 30
0.0
  0
POINT
  5
1415
100
AcDbEntity
  8
DEFPOINTS
  6
BYBLOCK
 62
     0
100
AcDbPoint
 10
27.749992
 20
6.568869
 30
0.0
  0
POINT
  5
1416
100
AcDbEntity
  8
DEFPOINTS
  6
BYBLOCK
 62
     0
100
AcDbPoint
 10
20.945839
 20
6.568869
 30
0.0
  0
ENDBLK
  5
1417
100
AcDbEntity
  8
0
100
AcDbBlockEnd
  0
BLOCK
  5
1420
100
AcDbEntity
  8
0
100
AcDbBlockBegin
  2
*D38
 70
    65
 10
0.0
 20
0.0
 30
0.0
  3
*D38
  1

  0
LINE
  5
1421
100
AcDbEntity
  8
0
  6
BYBLOCK
 62
     0
100
AcDbLine
 10
17.023834
 20
6.949035
 30
0.0
 11
26.917615
 21
6.949035
 31
0.0
  0
LINE
  5
1422
100
AcDbEntity
  8
0
  6
BYBLOCK
 62
     0
100
AcDbLine
 10
26.782615
 20
7.084035
 30
0.0
 11
26.782615
 21
7.219035
 31
0.0
  0
LINE
  5
1423
100
AcDbEntity
  8
0
  6
BYBLOCK
 62
     0
100
AcDbLine
 10
26.782615
 20
6.433869
 30
0.0
 11
26.782615
 21
6.298869
 31
0.0
  0
LINE
  5
1424
100
AcDbEntity
  8
0
  6
BYBLOCK
 62
     0
100
AcDbLine
 10
26.782615
 20
6.298869
 30
0.0
 11
26.647615
 21
6.298869
 31
0.0
  0
SOLID
  5
1425
100
AcDbEntity
  8
0
  6
BYBLOCK
 62
     0
100
AcDbTrace
 10
26.760115
 20
7.084035
 30
0.0
 11
26.805115
 21
7.084035
 31
0.0
 12
26.782615
 22
6.949035
 32
0.0
 13
26.782615
 23
6.949035
 33
0.0
  0
SOLID
  5
1426
100
AcDbEntity
  8
0
  6
BYBLOCK
 62
     0
100
AcDbTrace
 10
26.760115
 20
6.433869
 30
0.0
 11
26.805115
 21
6.433869
 31
0.0
 12
26.782615
 22
6.568869
 32
0.0
 13
26.782615
 23
6.568869
 33
0.0
  0
MTEXT
  5
1427
100
AcDbEntity
  8
0
  6
BYBLOCK
 62
     0
100
AcDbMText
 10
25.837615
 20
6.298869
 30
0.0
 40
0.135
 41
0.0
 71
     5
 72
     1
  1
\A1;0.380"[9.66mm]
  0
POINT
  5
1428
100
AcDbEntity
  8
DEFPOINTS
  6
BYBLOCK
 62
     0
100
AcDbPoint
 10
16.976959
 20
6.949035
 30
0.0
  0
POINT
  5
1429
100
AcDbEntity
  8
DEFPOINTS
  6
BYBLOCK
 62
     0
100
AcDbPoint
 10
27.749992
 20
6.568869
 30
0.0
  0
POINT
  5
142A
100
AcDbEntity
  8
DEFPOINTS
  6
BYBLOCK
 62
     0
100
AcDbPoint
 10
26.782615
 20
6.568869
 30
0.0
  0
ENDBLK
  5
142B
100
AcDbEntity
  8
0
100
AcDbBlockEnd
  0
BLOCK
  5
143C
100
AcDbEntity
  8
0
100
AcDbBlockBegin
  2
*D39
 70
    65
 10
0.0
 20
0.0
 30
0.0
  3
*D39
  1
*TB
  0
LINE
  5
143D
100
AcDbEntity
  8
0
  6
BYBLOCK
 62
     0
100
AcDbLine
 10
14.494244
 20
6.450769
 30
0.0
 11
9.877502
 21
6.450769
 31
0.0
  0
LINE
  5
143E
100
AcDbEntity
  8
0
  6
BYBLOCK
 62
     0
100
AcDbLine
 10
14.494244
 20
6.420769
 30
0.0
 11
9.877502
 21
6.420769
 31
0.0
  0
LINE
  5
143F
100
AcDbEntity
  8
0
  6
BYBLOCK
 62
     0
100
AcDbLine
 10
10.012502
 20
6.585769
 30
0.0
 11
10.012502
 21
6.720769
 31
0.0
  0
LINE
  5
1440
100
AcDbEntity
  8
0
  6
BYBLOCK
 62
     0
100
AcDbLine
 10
10.012502
 20
6.285769
 30
0.0
 11
10.012502
 21
6.150769
 31
0.0
  0
LINE
  5
1441
100
AcDbEntity
  8
0
  6
BYBLOCK
 62
     0
100
AcDbLine
 10
10.012502
 20
6.150769
 30
0.0
 11
9.877502
 21
6.150769
 31
0.0
  0
SOLID
  5
1442
100
AcDbEntity
  8
0
  6
BYBLOCK
 62
     0
100
AcDbTrace
 10
9.990002
 20
6.585769
 30
0.0
 11
10.035002
 21
6.585769
 31
0.0
 12
10.012502
 22
6.450769
 32
0.0
 13
10.012502
 23
6.450769
 33
0.0
  0
SOLID
  5
1443
100
AcDbEntity
  8
0
  6
BYBLOCK
 62
     0
100
AcDbTrace
 10
9.990002
 20
6.285769
 30
0.0
 11
10.035002
 21
6.285769
 31
0.0
 12
10.012502
 22
6.420769
 32
0.0
 13
10.012502
 23
6.420769
 33
0.0
  0
MTEXT
  5
1444
100
AcDbEntity
  8
0
  6
BYBLOCK
 62
     0
100
AcDbMText
 10
8.336252
 20
6.150769
 30
0.0
 40
0.135
 41
0.0
 71
     5
 72
     1
  1
\A1;{0.030"±0.001"[0.76mm±0.03mm]}\P{WALL THICKNESS}
  0
POINT
  5
1445
100
AcDbEntity
  8
DEFPOINTS
  6
BYBLOCK
 62
     0
100
AcDbPoint
 10
14.541119
 20
6.450769
 30
0.0
  0
POINT
  5
1446
100
AcDbEntity
  8
DEFPOINTS
  6
BYBLOCK
 62
     0
100
AcDbPoint
 10
14.541119
 20
6.420769
 30
0.0
  0
POINT
  5
1447
100
AcDbEntity
  8
DEFPOINTS
  6
BYBLOCK
 62
     0
100
AcDbPoint
 10
10.012502
 20
6.420769
 30
0.0
  0
ENDBLK
  5
1448
100
AcDbEntity
  8
0
100
AcDbBlockEnd
  0
BLOCK
  5
1476
100
AcDbEntity
  8
ASHADE
100
AcDbBlockBegin
  2
AVE_RENDER
 70
    64
 10
0.0
 20
0.0
 30
0.0
  3
AVE_RENDER
  1
AVE_RENDER
  0
ENDBLK
  5
1477
100
AcDbEntity
  8
0
100
AcDbBlockEnd
  0
BLOCK
  5
1484
100
AcDbEntity
  8
ASHADE
100
AcDbBlockBegin
  2
AVE_GLOBAL
 70
    64
 10
0.0
 20
0.0
 30
0.0
  3
AVE_GLOBAL
  1
AVE_GLOBAL
  0
ENDBLK
  5
1485
100
AcDbEntity
  8
0
100
AcDbBlockEnd
  0
ENDSEC
  0
SECTION
  2
ENTITIES
  0
POLYLINE
  5
A0
100
AcDbEntity
  8
FOOT
100
AcDb2dPolyline
 66
     1
 10
0.0
 20
0.0
 30
0.0
 70
     1
  0
VERTEX
  5
A1
100
AcDbEntity
  8
FOOT
100
AcDbVertex
100
AcDb2dVertex
 10
17.94104
 20
13.716565
 30
0.0
  0
VERTEX
  5
A2
100
AcDbEntity
  8
FOOT
100
AcDbVertex
100
AcDb2dVertex
 10
17.94104
 20
15.238137
 30
0.0
  0
VERTEX
  5
A3
100
AcDbEntity
  8
FOOT
100
AcDbVertex
100
AcDb2dVertex
 10
20.455619
 20
15.238137
 30
0.0
  0
VERTEX
  5
A4
100
AcDbEntity
  8
FOOT
100
AcDbVertex
100
AcDb2dVertex
 10
20.455619
 20
13.716565
 30
0.0
  0
SEQEND
  5
A5
100
AcDbEntity
  8
FOOT
  0
LINE
  5
A8
100
AcDbEntity
  8
FOOT
100
AcDbLine
 10
17.94104
 20
13.746535
 30
0.0
 11
20.455619
 21
13.746535
 31
0.0
  0
LINE
  5
A9
100
AcDbEntity
  8
FOOT
100
AcDbLine
 10
17.94104
 20
15.208167
 30
0.0
 11
20.455619
 21
15.208167
 31
0.0
  0
LINE
  5
B6
100
AcDbEntity
  8
FOOT
100
AcDbLine
 10
18.804257
 20
13.716565
 30
0.0
 11
18.804257
 21
13.746535
 31
0.0
  0
LINE
  5
B7
100
AcDbEntity
  8
FOOT
100
AcDbLine
 10
18.804257
 20
15.208167
 30
0.0
 11
18.804257
 21
15.238137
 31
0.0
  0
LINE
  5
B8
100
AcDbEntity
  8
FOOT
100
AcDbLine
 10
18.52428
 20
13.746535
 30
0.0
 11
18.52428
 21
15.208167
 31
0.0
  0
LINE
  5
B9
100
AcDbEntity
  8
FOOT
100
AcDbLine
 10
19.12154
 20
13.746535
 30
0.0
 11
19.12154
 21
15.208167
 31
0.0
  0
LINE
  5
D4
100
AcDbEntity
  8
FOOT
100
AcDbLine
 10
18.53159
 20
6.420769
 30
0.0
 11
17.94104
 21
6.420769
 31
0.0
1001
ACAD
1000
ASC_BOUNDS
1002
{
1070
    19
1005
1237
1005
1237
1002
}
  0
LINE
  5
D5
100
AcDbEntity
  8
FOOT
100
AcDbLine
 10
17.94104
 20
6.420769
 30
0.0
 11
17.94104
 21
6.499509
 31
0.0
1001
ACAD
1000
ASC_BOUNDS
1002
{
1070
    19
1005
1237
1002
}
  0
LINE
  5
D6
100
AcDbEntity
  8
FOOT
100
AcDbLine
 10
18.530527
 20
6.420769
 30
0.0
 11
19.12885
 21
6.733855
 31
0.0
1001
ACAD
1000
ASC_BOUNDS
1002
{
1070
    19
1005
1237
1002
}
  0
LINE
  5
D7
100
AcDbEntity
  8
FOOT
100
AcDbLine
 10
19.12885
 20
6.733855
 30
0.0
 11
20.455619
 21
6.733855
 31
0.0
1001
ACAD
1000
ASC_BOUNDS
1002
{
1070
    19
1005
0
1005
0
1005
0
1005
1237
1005
1237
1005
1237
1002
}
  0
LINE
  5
D8
100
AcDbEntity
  8
FOOT
100
AcDbLine
 10
20.455619
 20
6.733855
 30
0.0
 11
20.455619
 21
6.886535
 31
0.0
1001
ACAD
1000
ASC_BOUNDS
1002
{
1070
    19
1005
1237
1002
}
  0
LINE
  5
DA
100
AcDbEntity
  8
FOOT
100
AcDbLine
 10
20.393119
 20
6.949035
 30
0.0
 11
18.804257
 21
6.949035
 31
0.0
  0
LINE
  5
DB
100
AcDbEntity
  8
FOOT
100
AcDbLine
 10
17.94104
 20
6.499509
 30
0.0
 11
18.804257
 21
6.949035
 31
0.0
  0
LINE
  5
1EB
100
AcDbEntity
  8
TEXT
  6
CONTINUOUS
100
AcDbLine
 10
20.728329
 20
15.327801
 30
0.0
 11
20.728329
 21
14.550067
 31
0.0
  0
LINE
  5
1EC
100
AcDbEntity
  8
TEXT
  6
CONTINUOUS
100
AcDbLine
 10
20.728329
 20
14.550067
 30
0.0
 11
20.530764
 21
14.550067
 31
0.0
  0
LINE
  5
1EE
100
AcDbEntity
  8
TEXT
  6
CONTINUOUS
100
AcDbLine
 10
17.686127
 20
15.342565
 30
0.0
 11
17.686127
 21
14.550067
 31
0.0
  0
LINE
  5
1EF
100
AcDbEntity
  8
TEXT
  6
CONTINUOUS
100
AcDbLine
 10
17.686127
 20
14.550067
 30
0.0
 11
17.833707
 21
14.550067
 31
0.0
  0
MTEXT
  5
1F1
100
AcDbEntity
  8
TEXT
100
AcDbMText
 10
10.132029
 20
10.813846
 30
0.0
 40
0.2
 41
0.192698
 71
     1
 72
     1
  1

  0
TEXT
  5
1F3
100
AcDbEntity
  8
TEXT
100
AcDbText
 10
20.620412
 20
15.52363
 30
0.0
 40
0.3
  1
A
100
AcDbText
  0
TEXT
  5
1F4
100
AcDbEntity
  8
TEXT
100
AcDbText
 10
17.593228
 20
15.55867
 30
0.0
 40
0.3
  1
A
100
AcDbText
  0
LINE
  5
1F6
100
AcDbEntity
  8
FOOT
100
AcDbLine
 10
19.12154
 20
6.763855
 30
0.0
 11
20.455619
 21
6.763855
 31
0.0
1001
ACAD
1000
ASC_BOUNDS
1002
{
1070
    19
1005
0
1005
0
1005
0
1005
1237
1005
1237
1005
1237
1002
}
  0
LINE
  5
1F7
100
AcDbEntity
  8
FOOT
100
AcDbLine
 10
18.52428
 20
6.450769
 30
0.0
 11
17.94104
 21
6.450769
 31
0.0
1001
ACAD
1000
ASC_BOUNDS
1002
{
1070
    19
1005
1237
1005
1237
1002
}
  0
LINE
  5
1F8
100
AcDbEntity
  8
CENTER
100
AcDbLine
 10
20.290193
 20
6.666583
 30
0.0
 11
20.290193
 21
6.826693
 31
0.0
1001
ACAD
1000
ASC_BOUNDS
1002
{
1070
    19
1005
0
1005
0
1005
0
1005
1237
1005
1237
1002
}
  0
SOLID
  5
373
100
AcDbEntity
  8
DIM
  6
CONTINUOUS
100
AcDbTrace
 10
20.358951
 20
13.826073
 30
0.0
 11
20.399978
 21
13.84456
 31
0.0
 12
20.324004
 22
13.958398
 32
0.0
 13
20.324004
 23
13.958398
 33
0.0
  0
LINE
  5
374
100
AcDbEntity
  8
DIM
  6
CONTINUOUS
100
AcDbLine
 10
20.379464
 20
13.835316
 30
0.0
 11
21.036486
 21
12.289816
 31
0.0
  0
LINE
  5
375
100
AcDbEntity
  8
DIM
  6
CONTINUOUS
100
AcDbLine
 10
21.036486
 20
12.289816
 30
0.0
 11
21.171486
 21
12.289816
 31
0.0
  0
LINE
  5
376
100
AcDbEntity
  8
DIM
  6
CONTINUOUS
100
AcDbLine
 10
21.171486
 20
12.289816
 30
0.0
 11
21.238986
 21
12.289816
 31
0.0
  0
TEXT
  5
377
100
AcDbEntity
  8
DIM
100
AcDbText
 10
21.340236
 20
12.222316
 30
0.0
 40
0.135
  1
SLOT, \U+22050.126"[3.20mm] 
100
AcDbText
  0
TEXT
  5
378
100
AcDbEntity
  8
DIM
100
AcDbText
 10
21.340236
 20
12.000241
 30
0.0
 40
0.135
  1
2X
100
AcDbText
  0
TEXT
  5
37B
100
AcDbEntity
  8
TEXT
100
AcDbText
 10
28.599491
 20
1.522303
 30
0.0
 40
0.12
  1
LAYER 2 FORWARD ENDPIECE
100
AcDbText
  0
TEXT
  5
37C
100
AcDbEntity
  8
TEXT
100
AcDbText
 10
28.298614
 20
0.942261
 30
0.0
 40
0.12
  1
C:\B-FAC
100
AcDbText
  0
TEXT
  5
37D
100
AcDbEntity
  8
TEXT
100
AcDbText
 10
30.032236
 20
0.992388
 30
0.0
 40
0.12
  1
L2-END02
100
AcDbText
  0
TEXT
  5
37E
100
AcDbEntity
  8
TEXT
100
AcDbText
 10
28.23414
 20
0.677304
 30
0.0
 40
0.12
  1
1=1
100
AcDbText
  0
TEXT
  5
37F
100
AcDbEntity
  8
TEXT
100
AcDbText
 10
26.393062
 20
1.3576
 30
0.0
 40
0.12
  1
S. KYRE
100
AcDbText
  0
TEXT
  5
380
100
AcDbEntity
  8
TEXT
100
AcDbText
 10
27.288528
 20
1.328956
 30
0.0
 40
0.06
  1
02-01-96
100
AcDbText
  0
DIMENSION
  5
3E3
100
AcDbEntity
  8
DIM
100
AcDbDimension
  2
*D3
 10
23.668231
 20
15.238137
 30
0.0
 11
24.624481
 21
15.508137
 31
0.0
 12
10.6692
 22
4.193938
 32
0.0
 70
   160
  3
STANDARD
100
AcDbAlignedDimension
 13
20.453889
 23
14.940263
 33
0.0
 14
20.455619
 24
15.238137
 34
0.0
 50
90.0
100
AcDbRotatedDimension
1001
ACAD
1000
DSTYLE
1002
{
1070
   288
1070
     1
1070
    40
1040
0.75
1070
     3
1000
"
1070
     4
1000
mm
1070
   170
1070
     1
1002
}
  0
DIMENSION
  5
40F
100
AcDbEntity
  8
DIM
100
AcDbDimension
  2
*D4
 10
25.474614
 20
15.238137
 30
0.0
 11
25.474614
 21
14.664914
 31
0.0
 12
10.6692
 22
4.193938
 32
0.0
 70
   160
  3
STANDARD
100
AcDbAlignedDimension
 13
20.453889
 23
14.204008
 33
0.0
 14
20.455619
 24
15.238137
 34
0.0
 50
90.0
100
AcDbRotatedDimension
1001
ACAD
1000
DSTYLE
1002
{
1070
   288
1070
     1
1070
    40
1040
0.75
1070
     3
1000
"
1070
     4
1000
mm
1070
   170
1070
     1
1002
}
  0
LINE
  5
4FD
100
AcDbEntity
  8
FOOT
100
AcDbLine
 10
18.523217
 20
6.450769
 30
0.0
 11
19.12154
 21
6.763855
 31
0.0
1001
ACAD
1000
ASC_BOUNDS
1002
{
1070
    19
1005
1237
1002
}
  0
POLYLINE
  5
857
100
AcDbEntity
  8
REDTEXT
100
AcDb2dPolyline
 66
     1
 10
0.0
 20
0.0
 30
0.0
 70
     1
  0
VERTEX
  5
858
100
AcDbEntity
  8
REDTEXT
100
AcDbVertex
100
AcDb2dVertex
 10
18.234155
 20
18.568938
 30
0.0
  0
VERTEX
  5
859
100
AcDbEntity
  8
REDTEXT
100
AcDbVertex
100
AcDb2dVertex
 10
18.234155
 20
18.943938
 30
0.0
  0
VERTEX
  5
85A
100
AcDbEntity
  8
REDTEXT
100
AcDbVertex
100
AcDb2dVertex
 10
18.609155
 20
18.943938
 30
0.0
  0
VERTEX
  5
85B
100
AcDbEntity
  8
REDTEXT
100
AcDbVertex
100
AcDb2dVertex
 10
18.609155
 20
18.568938
 30
0.0
  0
SEQEND
  5
85C
100
AcDbEntity
  8
REDTEXT
  0
TEXT
  5
85D
100
AcDbEntity
  8
REDTEXT
100
AcDbText
 10
18.365675
 20
18.645198
 30
0.0
 40
0.211084
  1
0
100
AcDbText
  0
POLYLINE
  5
85E
100
AcDbEntity
  8
REDTEXT
100
AcDb2dPolyline
 66
     1
 10
0.0
 20
0.0
 30
0.0
 70
     1
  0
VERTEX
  5
85F
100
AcDbEntity
  8
REDTEXT
100
AcDbVertex
100
AcDb2dVertex
 10
31.299806
 20
6.372735
 30
0.0
  0
VERTEX
  5
860
100
AcDbEntity
  8
REDTEXT
100
AcDbVertex
100
AcDb2dVertex
 10
31.299806
 20
6.747735
 30
0.0
  0
VERTEX
  5
861
100
AcDbEntity
  8
REDTEXT
100
AcDbVertex
100
AcDb2dVertex
 10
31.674806
 20
6.747735
 30
0.0
  0
VERTEX
  5
862
100
AcDbEntity
  8
REDTEXT
100
AcDbVertex
100
AcDb2dVertex
 10
31.674806
 20
6.372735
 30
0.0
  0
SEQEND
  5
863
100
AcDbEntity
  8
REDTEXT
  0
TEXT
  5
864
100
AcDbEntity
  8
REDTEXT
100
AcDbText
 10
31.431326
 20
6.448995
 30
0.0
 40
0.211084
  1
0
100
AcDbText
  0
INSERT
  5
989
100
AcDbEntity
  8
FOOT
100
AcDbBlockReference
  2
*U5
 10
20.290193
 20
14.018939
 30
0.0
 50
90.0
1001
TB_S_MPD
1070
   100
1000
SLOT
1070
   101
1000
TOOLBOX 13.0 SLOT 2.0
1070
   103
1000
STD
1070
   306
1040
0.126
1070
   307
1040
0.03
1070
   112
1000
SLOT
1070
   102
1000
Near side
1070
   116
1000
T
1070
   308
1040
0.03
1070
   309
1040
0.063
1070
   310
1040
0.185
1070
   311
1040
90.0
  0
INSERT
  5
98A
100
AcDbEntity
  8
FOOT
100
AcDbBlockReference
  2
*U5
 10
20.290193
 20
14.755194
 30
0.0
 50
90.0
1001
TB_S_MPD
1070
   100
1000
SLOT
1070
   101
1000
TOOLBOX 13.0 SLOT 2.0
1070
   103
1000
STD
1070
   306
1040
0.126
1070
   307
1040
0.03
1070
   112
1000
SLOT
1070
   102
1000
Near side
1070
   116
1000
T
1070
   308
1040
0.03
1070
   309
1040
0.063
1070
   310
1040
0.185
1070
   311
1040
90.0
  0
DIMENSION
  5
9EA
100
AcDbEntity
  8
DIM
100
AcDbDimension
  2
*D6
 10
22.604391
 20
14.755194
 30
0.0
 11
21.681891
 21
14.485194
 31
0.0
 12
10.6692
 22
4.193938
 32
0.0
 70
    32
  1
{<>}\P{2X}
  3
STANDARD
100
AcDbAlignedDimension
 13
20.478193
 23
14.940194
 33
0.0
 14
20.478193
 24
14.755194
 34
0.0
 50
90.0
100
AcDbRotatedDimension
1001
ACAD
1000
DSTYLE
1002
{
1070
    47
1040
0.002
1070
   272
1070
     3
1070
    40
1040
0.75
1070
     3
1000
"
1070
     4
1000
mm
1070
   170
1070
     1
1002
}
  0
DIMENSION
  5
AB8
100
AcDbEntity
  8
DIM
100
AcDbDimension
  2
*D7
 10
21.006839
 20
15.238137
 30
0.0
 11
21.929339
 21
15.508137
 31
0.0
 12
10.6692
 22
4.193938
 32
0.0
 70
    32
  3
STANDARD
100
AcDbAlignedDimension
 13
20.455619
 23
15.208167
 33
0.0
 14
20.455619
 24
15.238137
 34
0.0
 50
90.0
100
AcDbRotatedDimension
1001
ACAD
1000
DSTYLE
1002
{
1070
    47
1040
0.002
1070
   272
1070
     3
1070
    40
1040
0.75
1070
     3
1000
"
1070
     4
1000
mm
1070
   170
1070
     1
1002
}
  0
DIMENSION
  5
AC6
100
AcDbEntity
  8
DIM
100
AcDbDimension
  2
*D8
 10
29.13289
 20
15.238137
 30
0.0
 11
29.13289
 21
14.492336
 31
0.0
 12
3.399921
 22
0.0
 32
0.0
 70
    32
  3
STANDARD
100
AcDbAlignedDimension
 13
20.455619
 23
13.746535
 33
0.0
 14
20.455619
 24
15.238137
 34
0.0
 50
90.0
100
AcDbRotatedDimension
1001
ACAD
1000
DSTYLE
1002
{
1070
    47
1040
0.002
1070
   272
1070
     3
1070
    40
1040
0.75
1070
     3
1000
"
1070
     4
1000
mm
1070
   170
1070
     1
1002
}
  0
DIMENSION
  5
AD4
100
AcDbEntity
  8
DIM
100
AcDbDimension
  2
*D9
 10
31.074252
 20
15.238137
 30
0.0
 11
31.074252
 21
14.477351
 31
0.0
 12
3.399921
 22
0.0
 32
0.0
 70
    32
  3
STANDARD
100
AcDbAlignedDimension
 13
20.455619
 23
13.716565
 33
0.0
 14
20.455619
 24
15.238137
 34
0.0
 50
90.0
100
AcDbRotatedDimension
1001
ACAD
1000
DSTYLE
1002
{
1070
    47
1040
0.002
1070
   272
1070
     3
1070
    40
1040
0.75
1070
     3
1000
"
1070
     4
1000
mm
1070
   170
1070
     1
1002
}
  0
LEADER
  5
AEF
100
AcDbEntity
  8
DIM
100
AcDbLeader
  3
STANDARD
 73
     0
 74
     0
 75
     1
 40
0.36
 41
2.3175
 76
     3
 10
20.158805
 20
13.928198
 30
0.0
 10
20.891988
 20
11.639742
 30
0.0
 10
21.026988
 20
11.639742
 30
0.0
 77
   256
1001
ACAD
1000
DSTYLE
1002
{
1070
    47
1040
0.002
1070
   272
1070
     3
1070
    40
1040
0.75
1070
     3
1000
"
1070
     4
1000
mm
1070
   170
1070
     1
1002
}
  0
MTEXT
  5
AF0
100
AcDbEntity
  8
DIM
100
AcDbMText
 10
21.094488
 20
11.639742
 30
0.0
 40
0.135
 41
0.0
 71
     4
 72
     1
  1
{SLOT, \U+22050.079"[2.00mm]}\P{2X}
  0
LINE
  5
AF1
100
AcDbEntity
  8
TEXT
100
AcDbLine
 10
26.983049
 20
19.874896
 30
0.0
 11
26.983049
 21
18.60613
 31
0.0
  0
LINE
  5
AF2
100
AcDbEntity
  8
TEXT
100
AcDbLine
 10
27.373301
 20
19.874896
 30
0.0
 11
27.373301
 21
18.60613
 31
0.0
  0
LINE
  5
AF3
100
AcDbEntity
  8
TEXT
100
AcDbLine
 10
30.113296
 20
19.874896
 30
0.0
 11
30.113296
 21
18.60613
 31
0.0
  0
LINE
  5
AF4
100
AcDbEntity
  8
TEXT
100
AcDbLine
 10
30.993294
 20
19.874896
 30
0.0
 11
30.993294
 21
18.60613
 31
0.0
  0
TEXT
  5
AF7
100
AcDbEntity
  8
TEXT
100
AcDbText
 10
27.099887
 20
19.66863
 30
0.0
 40
0.08
  1
01
100
AcDbText
  0
TEXT
  5
AF8
100
AcDbEntity
  8
TEXT
100
AcDbText
 10
27.099887
 20
19.535296
 30
0.0
 40
0.08
  1
02
100
AcDbText
  0
TEXT
  5
AF9
100
AcDbEntity
  8
TEXT
100
AcDbText
 10
27.474887
 20
19.66863
 30
0.0
 40
0.08
  1
CHANGE WALLTHICKNESS TO .03"
100
AcDbText
  0
TEXT
  5
AFA
100
AcDbEntity
  8
TEXT
100
AcDbText
 10
27.474887
 20
19.535296
 30
0.0
 40
0.08
  1
ADD LOCATING HOLES AND 
100
AcDbText
  0
TEXT
  5
AFB
100
AcDbEntity
  8
TEXT
100
AcDbText
 10
27.474887
 20
19.401963
 30
0.0
 40
0.08
  1
LIGHTNING HOLES
100
AcDbText
  0
TEXT
  5
AFC
100
AcDbEntity
  8
TEXT
100
AcDbText
 10
30.224887
 20
19.66863
 30
0.0
 40
0.08
  1
11-21-95
100
AcDbText
  0
TEXT
  5
AFD
100
AcDbEntity
  8
TEXT
100
AcDbText
 10
30.224887
 20
19.535296
 30
0.0
 40
0.08
  1
02-01-96
100
AcDbText
  0
INSERT
  5
B57
100
AcDbEntity
  8
FOOT
100
AcDbBlockReference
  2
*U10
 10
18.176078
 20
14.477351
 30
0.0
1001
TB_S_MPD
1070
   100
1000
HOLE
1070
   101
1000
TOOLBOX 13.0 HOLE 2.0
1070
   112
1000
3/32 (.0938) DIAMETER HOLE
1070
   102
1000
Near side
1070
   103
1000
ANSI-Fraction
1070
   104
1000
hole
1070
   105
1000
_usf
1070
   304
1040
0.0
1070
   305
1040
0.0
1070
   306
1040
0.09375
1070
   302
1040
0.0
1070
   303
1040
0.0
1070
   307
1040
0.03
1070
   300
1040
0.125
1070
   110
1000
1
1070
   111
1000
3/32
1070
   116
1000
T
1070
   308
1040
0.03
  0
INSERT
  5
B58
100
AcDbEntity
  8
FOOT
100
AcDbBlockReference
  2
*U10
 10
19.955078
 20
14.477351
 30
0.0
1001
TB_S_MPD
1070
   100
1000
HOLE
1070
   101
1000
TOOLBOX 13.0 HOLE 2.0
1070
   112
1000
3/32 (.0938) DIAMETER HOLE
1070
   102
1000
Near side
1070
   103
1000
ANSI-Fraction
1070
   104
1000
hole
1070
   105
1000
_usf
1070
   304
1040
0.0
1070
   305
1040
0.0
1070
   306
1040
0.09375
1070
   302
1040
0.0
1070
   303
1040
0.0
1070
   307
1040
0.03
1070
   300
1040
0.125
1070
   110
1000
1
1070
   111
1000
3/32
1070
   116
1000
T
1070
   308
1040
0.03
  0
INSERT
  5
B63
100
AcDbEntity
  8
FOOT
100
AcDbBlockReference
  2
*U11
 10
19.330097
 20
14.477351
 30
0.0
1001
TB_S_MPD
1070
   100
1000
HOLE
1070
   101
1000
TOOLBOX 13.0 HOLE 2.0
1070
   112
1000
#32 (.116) DIAMETER HOLE
1070
   102
1000
Near side
1070
   103
1000
ANSI-Number
1070
   104
1000
hole
1070
   105
1000
_usn
1070
   304
1040
0.0
1070
   305
1040
0.0
1070
   306
1040
0.116
1070
   302
1040
0.0
1070
   303
1040
0.0
1070
   307
1040
0.03
1070
   300
1040
0.125
1070
   110
1000
1
1070
   111
1000
#32
1070
   116
1000
T
1070
   308
1040
0.03
  0
LINE
  5
B80
100
AcDbEntity
  8
FOOT
100
AcDbLine
 10
18.16306
 20
14.854866
 30
0.0
 11
18.076463
 21
14.733631
 31
0.0
  0
LINE
  5
B81
100
AcDbEntity
  8
FOOT
100
AcDbLine
 10
18.076463
 20
15.012429
 30
0.0
 11
18.16306
 21
14.891193
 31
0.0
  0
LINE
  5
B82
100
AcDbEntity
  8
FOOT
100
AcDbLine
 10
18.019784
 20
14.751794
 30
0.0
 11
18.019784
 21
14.994265
 31
0.0
  0
ARC
  5
B83
100
AcDbEntity
  8
FOOT
100
AcDbCircle
 10
18.051034
 20
14.994265
 30
0.0
 40
0.03125
100
AcDbArc
 50
35.537678
 51
180.0
  0
ARC
  5
B84
100
AcDbEntity
  8
FOOT
100
AcDbCircle
 10
18.051034
 20
14.751794
 30
0.0
 40
0.03125
100
AcDbArc
 50
180.0
 51
324.462322
  0
LINE
  5
B85
100
AcDbEntity
  8
FOOT
100
AcDbLine
 10
18.359488
 20
14.641193
 30
0.0
 11
18.263963
 21
14.774929
 31
0.0
  0
LINE
  5
B86
100
AcDbEntity
  8
FOOT
100
AcDbLine
 10
18.213105
 20
14.774929
 30
0.0
 11
18.117579
 21
14.641193
 31
0.0
  0
LINE
  5
B87
100
AcDbEntity
  8
FOOT
100
AcDbLine
 10
18.457284
 20
14.751794
 30
0.0
 11
18.457284
 21
14.994265
 31
0.0
  0
LINE
  5
B88
100
AcDbEntity
  8
FOOT
100
AcDbLine
 10
18.400605
 20
15.012429
 30
0.0
 11
18.314008
 21
14.891193
 31
0.0
  0
LINE
  5
B89
100
AcDbEntity
  8
FOOT
100
AcDbLine
 10
18.359488
 20
15.104866
 30
0.0
 11
18.263963
 21
14.971131
 31
0.0
  0
LINE
  5
B8A
100
AcDbEntity
  8
FOOT
100
AcDbLine
 10
18.143009
 20
15.15428
 30
0.0
 11
18.334059
 21
15.15428
 31
0.0
  0
ARC
  5
B8B
100
AcDbEntity
  8
FOOT
100
AcDbCircle
 10
18.238534
 20
14.989294
 30
0.0
 40
0.03125
100
AcDbArc
 50
215.537678
 51
324.462322
  0
LINE
  5
B8C
100
AcDbEntity
  8
FOOT
100
AcDbLine
 10
18.213105
 20
14.971131
 30
0.0
 11
18.117579
 21
15.104866
 31
0.0
  0
ARC
  5
B8D
100
AcDbEntity
  8
FOOT
100
AcDbCircle
 10
18.143009
 20
15.12303
 30
0.0
 40
0.03125
100
AcDbArc
 50
90.0
 51
215.537678
  0
ARC
  5
B8E
100
AcDbEntity
  8
FOOT
100
AcDbCircle
 10
18.426034
 20
14.994265
 30
0.0
 40
0.03125
100
AcDbArc
 50
0.0
 51
144.462322
  0
ARC
  5
B8F
100
AcDbEntity
  8
FOOT
100
AcDbCircle
 10
18.334059
 20
15.12303
 30
0.0
 40
0.03125
100
AcDbArc
 50
324.462322
 51
90.0
  0
ARC
  5
B90
100
AcDbEntity
  8
FOOT
100
AcDbCircle
 10
18.137631
 20
14.87303
 30
0.0
 40
0.03125
100
AcDbArc
 50
324.462322
 51
35.537678
  0
ARC
  5
B91
100
AcDbEntity
  8
FOOT
100
AcDbCircle
 10
18.238534
 20
14.756765
 30
0.0
 40
0.03125
100
AcDbArc
 50
35.537678
 51
144.462322
  0
ARC
  5
B92
100
AcDbEntity
  8
FOOT
100
AcDbCircle
 10
18.426034
 20
14.751794
 30
0.0
 40
0.03125
100
AcDbArc
 50
215.537678
 51
0.0
  0
ARC
  5
B93
100
AcDbEntity
  8
FOOT
100
AcDbCircle
 10
18.339437
 20
14.87303
 30
0.0
 40
0.03125
100
AcDbArc
 50
144.462322
 51
215.537678
  0
LINE
  5
B94
100
AcDbEntity
  8
FOOT
100
AcDbLine
 10
18.314008
 20
14.854866
 30
0.0
 11
18.400605
 21
14.733631
 31
0.0
  0
LINE
  5
B95
100
AcDbEntity
  8
FOOT
100
AcDbLine
 10
18.143009
 20
14.59178
 30
0.0
 11
18.334059
 21
14.59178
 31
0.0
  0
ARC
  5
B96
100
AcDbEntity
  8
FOOT
100
AcDbCircle
 10
18.143009
 20
14.62303
 30
0.0
 40
0.03125
100
AcDbArc
 50
144.462322
 51
270.0
  0
ARC
  5
B97
100
AcDbEntity
  8
FOOT
100
AcDbCircle
 10
18.334059
 20
14.62303
 30
0.0
 40
0.03125
100
AcDbArc
 50
270.0
 51
35.537678
  0
LINE
  5
B98
100
AcDbEntity
  8
FOOT
100
AcDbLine
 10
18.213105
 20
14.179773
 30
0.0
 11
18.117579
 21
14.313508
 31
0.0
  0
LINE
  5
B99
100
AcDbEntity
  8
FOOT
100
AcDbLine
 10
18.359488
 20
14.313508
 30
0.0
 11
18.263963
 21
14.179773
 31
0.0
  0
ARC
  5
B9A
100
AcDbEntity
  8
FOOT
100
AcDbCircle
 10
18.334059
 20
14.331672
 30
0.0
 40
0.03125
100
AcDbArc
 50
324.462322
 51
90.0
  0
LINE
  5
B9B
100
AcDbEntity
  8
FOOT
100
AcDbLine
 10
18.143009
 20
14.362922
 30
0.0
 11
18.334059
 21
14.362922
 31
0.0
  0
ARC
  5
B9C
100
AcDbEntity
  8
FOOT
100
AcDbCircle
 10
18.143009
 20
14.331672
 30
0.0
 40
0.03125
100
AcDbArc
 50
90.0
 51
215.537678
  0
LINE
  5
B9D
100
AcDbEntity
  8
FOOT
100
AcDbLine
 10
18.314008
 20
14.099836
 30
0.0
 11
18.400605
 21
14.221071
 31
0.0
  0
ARC
  5
B9E
100
AcDbEntity
  8
FOOT
100
AcDbCircle
 10
18.334059
 20
13.831672
 30
0.0
 40
0.03125
100
AcDbArc
 50
270.0
 51
35.537678
  0
LINE
  5
B9F
100
AcDbEntity
  8
FOOT
100
AcDbLine
 10
18.359488
 20
13.849836
 30
0.0
 11
18.263963
 21
13.983571
 31
0.0
  0
LINE
  5
BA0
100
AcDbEntity
  8
FOOT
100
AcDbLine
 10
18.400605
 20
13.942273
 30
0.0
 11
18.314008
 21
14.063508
 31
0.0
  0
LINE
  5
BA1
100
AcDbEntity
  8
FOOT
100
AcDbLine
 10
18.213105
 20
13.983571
 30
0.0
 11
18.117579
 21
13.849836
 31
0.0
  0
ARC
  5
BA2
100
AcDbEntity
  8
FOOT
100
AcDbCircle
 10
18.051034
 20
13.960437
 30
0.0
 40
0.03125
100
AcDbArc
 50
180.0
 51
324.462322
  0
LINE
  5
BA3
100
AcDbEntity
  8
FOOT
100
AcDbLine
 10
18.076463
 20
13.942273
 30
0.0
 11
18.16306
 21
14.063508
 31
0.0
  0
LINE
  5
BA4
100
AcDbEntity
  8
FOOT
100
AcDbLine
 10
18.16306
 20
14.099836
 30
0.0
 11
18.076463
 21
14.221071
 31
0.0
  0
ARC
  5
BA5
100
AcDbEntity
  8
FOOT
100
AcDbCircle
 10
18.051034
 20
14.202908
 30
0.0
 40
0.03125
100
AcDbArc
 50
35.537678
 51
180.0
  0
LINE
  5
BA6
100
AcDbEntity
  8
FOOT
100
AcDbLine
 10
18.019784
 20
14.202908
 30
0.0
 11
18.019784
 21
13.960437
 31
0.0
  0
ARC
  5
BA7
100
AcDbEntity
  8
FOOT
100
AcDbCircle
 10
18.339437
 20
14.081672
 30
0.0
 40
0.03125
100
AcDbArc
 50
144.462322
 51
215.537678
  0
ARC
  5
BA8
100
AcDbEntity
  8
FOOT
100
AcDbCircle
 10
18.238534
 20
14.197937
 30
0.0
 40
0.03125
100
AcDbArc
 50
215.537678
 51
324.462322
  0
ARC
  5
BA9
100
AcDbEntity
  8
FOOT
100
AcDbCircle
 10
18.137631
 20
14.081672
 30
0.0
 40
0.03125
100
AcDbArc
 50
324.462322
 51
35.537678
  0
ARC
  5
BAA
100
AcDbEntity
  8
FOOT
100
AcDbCircle
 10
18.238534
 20
13.965408
 30
0.0
 40
0.03125
100
AcDbArc
 50
35.537678
 51
144.462322
  0
LINE
  5
BAB
100
AcDbEntity
  8
FOOT
100
AcDbLine
 10
18.143009
 20
13.800422
 30
0.0
 11
18.334059
 21
13.800422
 31
0.0
  0
ARC
  5
BAC
100
AcDbEntity
  8
FOOT
100
AcDbCircle
 10
18.143009
 20
13.831672
 30
0.0
 40
0.03125
100
AcDbArc
 50
144.462322
 51
270.0
  0
ARC
  5
BAD
100
AcDbEntity
  8
FOOT
100
AcDbCircle
 10
18.426034
 20
13.960437
 30
0.0
 40
0.03125
100
AcDbArc
 50
215.537678
 51
0.0
  0
ARC
  5
BAE
100
AcDbEntity
  8
FOOT
100
AcDbCircle
 10
18.426034
 20
14.202908
 30
0.0
 40
0.03125
100
AcDbArc
 50
0.0
 51
144.462322
  0
LINE
  5
BAF
100
AcDbEntity
  8
FOOT
100
AcDbLine
 10
18.457284
 20
14.202908
 30
0.0
 11
18.457284
 21
13.960437
 31
0.0
  0
SOLID
  5
BED
100
AcDbEntity
  8
DIM
  6
CONTINUOUS
100
AcDbTrace
 10
19.424703
 20
14.647071
 30
0.0
 11
19.383124
 21
14.664282
 31
0.0
 12
19.35228
 22
14.530941
 32
0.0
 13
19.35228
 23
14.530941
 33
0.0
  0
LINE
  5
BEE
100
AcDbEntity
  8
DIM
  6
CONTINUOUS
100
AcDbLine
 10
19.403913
 20
14.655677
 30
0.0
 11
20.571784
 21
17.477005
 31
0.0
  0
LINE
  5
BEF
100
AcDbEntity
  8
DIM
  6
CONTINUOUS
100
AcDbLine
 10
20.571784
 20
17.477005
 30
0.0
 11
20.706784
 21
17.477005
 31
0.0
  0
LINE
  5
BF0
100
AcDbEntity
  8
DIM
  6
CONTINUOUS
100
AcDbLine
 10
20.706784
 20
17.477005
 30
0.0
 11
20.774284
 21
17.477005
 31
0.0
  0
TEXT
  5
BF1
100
AcDbEntity
  8
DIM
100
AcDbText
 10
20.875534
 20
17.409505
 30
0.0
 40
0.135
  1
%%C0.116"[2.95mm]
100
AcDbText
  0
SOLID
  5
BF2
100
AcDbEntity
  8
DIM
  6
CONTINUOUS
100
AcDbTrace
 10
20.041405
 20
14.639006
 30
0.0
 11
19.999409
 21
14.65517
 31
0.0
 12
19.971915
 22
14.521098
 32
0.0
 13
19.971915
 23
14.521098
 33
0.0
  0
LINE
  5
BF3
100
AcDbEntity
  8
DIM
  6
CONTINUOUS
100
AcDbLine
 10
20.020407
 20
14.647088
 30
0.0
 11
20.80201
 21
16.677842
 31
0.0
  0
LINE
  5
BF4
100
AcDbEntity
  8
DIM
  6
CONTINUOUS
100
AcDbLine
 10
20.80201
 20
16.677842
 30
0.0
 11
20.93701
 21
16.677842
 31
0.0
  0
LINE
  5
BF5
100
AcDbEntity
  8
DIM
  6
CONTINUOUS
100
AcDbLine
 10
20.93701
 20
16.677842
 30
0.0
 11
21.00451
 21
16.677842
 31
0.0
  0
TEXT
  5
BF6
100
AcDbEntity
  8
DIM
100
AcDbText
 10
21.10576
 20
16.610342
 30
0.0
 40
0.135
  1
%%C0.095"%%P0.001"[2.41mm%%P0.03mm]
100
AcDbText
  0
TEXT
  5
BF7
100
AcDbEntity
  8
DIM
100
AcDbText
 10
21.10576
 20
16.388267
 30
0.0
 40
0.135
  1
2 HOLES
100
AcDbText
  0
CIRCLE
  5
BF8
100
AcDbEntity
  8
DIM
100
AcDbCircle
 10
18.260246
 20
14.874635
 30
0.0
 40
0.436386
  0
LEADER
  5
BF9
100
AcDbEntity
  8
DIM
100
AcDbLeader
  3
STANDARD
 73
     0
 74
     0
 75
     1
 40
0.36
 41
2.925
 76
     3
 10
18.390619
 20
15.328811
 30
0.0
 10
19.430984
 20
18.11377
 30
0.0
 10
19.565984
 20
18.11377
 30
0.0
 77
   256
1001
ACAD
1000
DSTYLE
1002
{
1070
    47
1040
0.001
1070
    48
1040
0.001
1070
   272
1070
     3
1070
    76
1070
     1
1070
    40
1040
0.75
1070
     3
1000
"
1070
     4
1000
mm
1070
   170
1070
     1
1002
}
  0
MTEXT
  5
BFA
100
AcDbEntity
  8
DIM
100
AcDbMText
 10
19.633484
 20
18.11377
 30
0.0
 40
0.135
 41
0.0
 71
     4
 72
     1
  1
{FOR PATTERN OF CUT OUT}\P{SEE DRAWING L2-END04}
  0
DIMENSION
  5
C45
100
AcDbEntity
  8
DIM
100
AcDbDimension
  2
*D13
 10
8.41743
 20
14.081672
 30
0.0
 11
8.41743
 21
14.659904
 31
0.0
 12
3.399921
 22
0.0
 32
0.0
 70
    32
  3
STANDARD
100
AcDbAlignedDimension
 13
17.94104
 23
15.238137
 33
0.0
 14
18.183754
 24
14.081672
 34
0.0
 50
90.0
100
AcDbRotatedDimension
1001
ACAD
1000
DSTYLE
1002
{
1070
    47
1040
0.001
1070
    48
1040
0.001
1070
   272
1070
     3
1070
    40
1040
0.75
1070
     3
1000
"
1070
     4
1000
mm
1070
   170
1070
     1
1002
}
  0
INSERT
  5
CC4
100
AcDbEntity
  8
FOOT
100
AcDbBlockReference
  2
*U14
 10
20.124893
 20
14.111439
 30
0.0
 50
90.0
1001
TB_S_MPD
1070
   100
1000
SLOT
1070
   101
1000
TOOLBOX 13.0 SLOT 2.0
1070
   103
1000
STD
1070
   306
1040
0.0787
1070
   307
1040
0.03
1070
   112
1000
SLOT
1070
   102
1000
Near side
1070
   116
1000
T
1070
   308
1040
0.03
1070
   309
1040
0.03935
1070
   310
1040
0.2244
1070
   311
1040
90.0
  0
INSERT
  5
CC5
100
AcDbEntity
  8
FOOT
100
AcDbBlockReference
  2
*U14
 10
20.124893
 20
14.847694
 30
0.0
 50
90.0
1001
TB_S_MPD
1070
   100
1000
SLOT
1070
   101
1000
TOOLBOX 13.0 SLOT 2.0
1070
   103
1000
STD
1070
   306
1040
0.0787
1070
   307
1040
0.03
1070
   112
1000
SLOT
1070
   102
1000
Near side
1070
   116
1000
T
1070
   308
1040
0.03
1070
   309
1040
0.03935
1070
   310
1040
0.2244
1070
   311
1040
90.0
  0
DIMENSION
  5
CE5
100
AcDbEntity
  8
DIM
100
AcDbDimension
  2
*D15
 10
10.287949
 20
14.223639
 30
0.0
 11
10.287949
 21
14.730888
 31
0.0
 12
3.399921
 22
0.0
 32
0.0
 70
    32
  3
STANDARD
100
AcDbAlignedDimension
 13
17.94104
 23
15.238137
 33
0.0
 14
19.960543
 24
14.223639
 34
0.0
 50
90.0
100
AcDbRotatedDimension
1001
ACAD
1000
DSTYLE
1002
{
1070
    47
1040
0.001
1070
    48
1040
0.001
1070
   272
1070
     3
1070
    40
1040
0.75
1070
     3
1000
"
1070
     4
1000
mm
1070
   170
1070
     1
1002
}
  0
DIMENSION
  5
CF4
100
AcDbEntity
  8
DIM
100
AcDbDimension
  2
*D16
 10
15.454851
 20
13.999239
 30
0.0
 11
14.509851
 21
13.729239
 31
0.0
 12
9.657163
 22
4.193938
 32
0.0
 70
    32
  1
{<>}\P{2X}
  3
STANDARD
100
AcDbAlignedDimension
 13
19.960543
 23
14.223639
 33
0.0
 14
19.960543
 24
13.999239
 34
0.0
 50
90.0
100
AcDbRotatedDimension
1001
ACAD
1000
DSTYLE
1002
{
1070
    47
1040
0.001
1070
    48
1040
0.001
1070
   272
1070
     3
1070
    40
1040
0.75
1070
     3
1000
"
1070
     4
1000
mm
1070
   170
1070
     1
1002
}
  0
SOLID
  5
D06
100
AcDbEntity
  8
DIM
  6
CONTINUOUS
100
AcDbTrace
 10
19.950485
 20
7.00488
 30
0.0
 11
19.911492
 21
7.027343
 31
0.0
 12
19.863602
 22
6.899133
 32
0.0
 13
19.863602
 23
6.899133
 33
0.0
  0
LINE
  5
D07
100
AcDbEntity
  8
DIM
  6
CONTINUOUS
100
AcDbLine
 10
19.930989
 20
7.016111
 30
0.0
 11
20.686504
 21
8.327626
 31
0.0
  0
LINE
  5
D08
100
AcDbEntity
  8
DIM
  6
CONTINUOUS
100
AcDbLine
 10
20.686504
 20
8.327626
 30
0.0
 11
20.821504
 21
8.327626
 31
0.0
  0
LINE
  5
D09
100
AcDbEntity
  8
DIM
  6
CONTINUOUS
100
AcDbLine
 10
20.821504
 20
8.327626
 30
0.0
 11
20.889004
 21
8.327626
 31
0.0
  0
TEXT
  5
D0A
100
AcDbEntity
  8
DIM
100
AcDbText
 10
20.990254
 20
8.260126
 30
0.0
 40
0.135
  1
%%C0.095"%%P0.001"[2.41mm%%P0.03mm]
100
AcDbText
  0
TEXT
  5
D0B
100
AcDbEntity
  8
DIM
100
AcDbText
 10
20.990254
 20
8.038051
 30
0.0
 40
0.135
  1
4 HOLES
100
AcDbText
  0
INSERT
  5
D56
100
AcDbEntity
  8
0
100
AcDbBlockReference
  2
D-BORDER
 10
0.0
 20
0.0
 30
0.0
  0
TEXT
  5
DD5
100
AcDbEntity
  8
TEXT
100
AcDbText
 10
18.77898
 20
3.26476
 30
0.0
 40
0.2
  1
SECTION
100
AcDbText
  0
TEXT
  5
DD6
100
AcDbEntity
  8
TEXT
100
AcDbText
 10
20.309054
 20
3.26465
 30
0.0
 40
0.3
  1
A-A
100
AcDbText
  0
DIMENSION
  5
F05
100
AcDbEntity
  8
DIM
100
AcDbDimension
  2
*D18
 10
15.489088
 20
15.238137
 30
0.0
 11
16.434088
 21
15.508137
 31
0.0
 12
3.399921
 22
0.0
 32
0.0
 70
    32
  3
STANDARD
100
AcDbAlignedDimension
 13
19.960543
 23
14.959894
 33
0.0
 14
17.94104
 24
15.238137
 34
0.0
 50
90.0
100
AcDbRotatedDimension
1001
ACAD
1000
DSTYLE
1002
{
1070
    47
1040
0.001
1070
    48
1040
0.001
1070
   272
1070
     3
1070
    40
1040
0.75
1070
     3
1000
"
1070
     4
1000
mm
1070
   170
1070
     1
1002
}
  0
DIMENSION
  5
F14
100
AcDbEntity
  8
DIM
100
AcDbDimension
  2
*D19
 10
13.536766
 20
15.238137
 30
0.0
 11
14.493016
 21
15.508137
 31
0.0
 12
3.399921
 22
0.0
 32
0.0
 70
    32
  3
STANDARD
100
AcDbAlignedDimension
 13
18.183754
 23
14.87303
 33
0.0
 14
17.94104
 24
15.238137
 34
0.0
 50
90.0
100
AcDbRotatedDimension
1001
ACAD
1000
DSTYLE
1002
{
1070
    47
1040
0.001
1070
    48
1040
0.001
1070
   272
1070
     3
1070
    40
1040
0.75
1070
     3
1000
"
1070
     4
1000
mm
1070
   170
1070
     1
1002
}
  0
DIMENSION
  5
F3A
100
AcDbEntity
  8
DIM
100
AcDbDimension
  2
*D20
 10
12.171113
 20
15.238137
 30
0.0
 11
12.171113
 21
14.857744
 31
0.0
 12
3.399921
 22
0.0
 32
0.0
 70
    32
  3
STANDARD
100
AcDbAlignedDimension
 13
18.004203
 23
14.477351
 33
0.0
 14
17.94104
 24
15.238137
 34
0.0
 50
90.0
100
AcDbRotatedDimension
1001
ACAD
1000
DSTYLE
1002
{
1070
    47
1040
0.001
1070
    48
1040
0.001
1070
   272
1070
     3
1070
    40
1040
0.75
1070
     3
1000
"
1070
     4
1000
mm
1070
   170
1070
     1
1002
}
  0
ACAD_ZOMBIE_ENTITY
  5
1179
100
AcDbEntity
  8
0
100
AcDbZombieEntity
 90
      498
 91
      515
 92
        8
310
0800000000000000
 93
       97
310
D2800000002029040000780296
330
117A
330
117B
330
117C
330
117D
330
117A
 94
        0
  0
INSERT
  5
11C8
100
AcDbEntity
  8
FOOT
100
AcDbBlockReference
  2
*U22
 10
18.413326
 20
6.568869
 30
0.0
1001
TB_S_MPD
1070
   100
1000
HOLE
1070
   101
1000
TOOLBOX 13.0 HOLE 2.0
1070
   112
1000
3/32 (.0938) DIAMETER HOLE
1070
   102
1000
Near side
1070
   103
1000
ANSI-Fraction
1070
   104
1000
hole
1070
   105
1000
_usf
1070
   304
1040
0.0
1070
   305
1040
0.0
1070
   306
1040
0.09375
1070
   302
1040
0.0
1070
   303
1040
0.0
1070
   307
1040
0.03
1070
   300
1040
0.125
1070
   110
1000
1
1070
   111
1000
3/32
1070
   116
1000
T
1070
   308
1040
0.03
1001
ACAD
1000
ASC_BOUNDS
1002
{
1070
    19
1002
}
  0
INSERT
  5
11C9
100
AcDbEntity
  8
FOOT
100
AcDbBlockReference
  2
*U22
 10
19.830604
 20
6.856445
 30
0.0
1001
TB_S_MPD
1070
   100
1000
HOLE
1070
   101
1000
TOOLBOX 13.0 HOLE 2.0
1070
   112
1000
3/32 (.0938) DIAMETER HOLE
1070
   102
1000
Near side
1070
   103
1000
ANSI-Fraction
1070
   104
1000
hole
1070
   105
1000
_usf
1070
   304
1040
0.0
1070
   305
1040
0.0
1070
   306
1040
0.09375
1070
   302
1040
0.0
1070
   303
1040
0.0
1070
   307
1040
0.03
1070
   300
1040
0.125
1070
   110
1000
1
1070
   111
1000
3/32
1070
   116
1000
T
1070
   308
1040
0.03
1001
ACAD
1000
ASC_BOUNDS
1002
{
1070
    19
1002
}
  0
INSERT
  5
1237
100
AcDbEntity
  8
HATCH
100
AcDbBlockReference
  2
*X23
 10
3.399921
 20
0.0
 30
0.0
1001
ACAD
1000
HATCH
1002
{
1070
    19
1000
ANSI31
1040
0.5
1040
0.0
1000
ASC_BOUNDS
1070
     4
1070
     1
1070
     3
1005
1F7
1005
D5
1005
D4
1070
     1
1070
     4
1005
1F6
1005
1F8
1005
D7
1005
D8
1070
     1
1070
     3
1005
1F6
1005
D7
1005
1F8
1070
     1
1070
     6
1005
D7
1005
1F6
1005
4FD
1005
1F7
1005
D4
1005
D6
1000
ASC_SEEDPOINT
1011
18.922896
1021
6.643115
1031
0.0
1002
}
  0
LINE
  5
12DA
100
AcDbEntity
  8
CENTER
100
AcDbLine
 10
18.413326
 20
3.9303
 30
0.0
 11
18.413326
 21
18.415775
 31
0.0
  0
LINE
  5
12DB
100
AcDbEntity
  8
CENTER
100
AcDbLine
 10
11.294195
 20
6.568869
 30
0.0
 11
31.149913
 21
6.568869
 31
0.0
  0
DIMENSION
  5
12E8
100
AcDbEntity
  8
DIM
100
AcDbDimension
  2
*D24
 10
17.94104
 20
6.078461
 30
0.0
 11
16.82729
 21
6.078461
 31
0.0
 12
3.399921
 22
0.0
 32
0.0
 70
    32
  3
STANDARD
100
AcDbAlignedDimension
 13
18.413326
 23
3.9303
 33
0.0
 14
17.94104
 24
6.420769
 34
0.0
100
AcDbRotatedDimension
1001
ACAD
1000
DSTYLE
1002
{
1070
    47
1040
0.001
1070
    48
1040
0.001
1070
   272
1070
     3
1070
    75
1070
     1
1070
    40
1040
0.75
1070
     3
1000
"
1070
     4
1000
mm
1070
   170
1070
     1
1002
}
  0
DIMENSION
  5
12F5
100
AcDbEntity
  8
DIM
100
AcDbDimension
  2
*D25
 10
18.413326
 20
5.573673
 30
0.0
 11
17.322076
 21
5.573673
 31
0.0
 12
3.399921
 22
0.0
 32
0.0
 70
    32
  3
STANDARD
100
AcDbAlignedDimension
 13
19.12885
 23
6.733855
 33
0.0
 14
18.413326
 24
3.9303
 34
0.0
100
AcDbRotatedDimension
1001
ACAD
1000
DSTYLE
1002
{
1070
    47
1040
0.001
1070
    48
1040
0.001
1070
   272
1070
     3
1070
    76
1070
     1
1070
    40
1040
0.75
1070
     3
1000
"
1070
     4
1000
mm
1070
   170
1070
     1
1002
}
  0
DIMENSION
  5
1302
100
AcDbEntity
  8
DIM
100
AcDbDimension
  2
*D26
 10
18.413326
 20
5.081504
 30
0.0
 11
16.557076
 21
5.081504
 31
0.0
 12
3.399921
 22
0.0
 32
0.0
 70
    32
  3
STANDARD
100
AcDbAlignedDimension
 13
19.830604
 23
6.68457
 33
0.0
 14
18.413326
 24
3.9303
 34
0.0
100
AcDbRotatedDimension
1001
ACAD
1000
DSTYLE
1002
{
1070
    47
1040
0.001
1070
    71
1070
     1
1070
    48
1040
0.001
1070
   272
1070
     3
1070
    76
1070
     1
1070
    40
1040
0.75
1070
     3
1000
"
1070
     4
1000
mm
1070
   170
1070
     1
1002
}
  0
DIMENSION
  5
131A
100
AcDbEntity
  8
DIM
100
AcDbDimension
  2
*D27
 10
18.413326
 20
4.639815
 30
0.0
 11
17.277076
 21
4.639815
 31
0.0
 12
3.399921
 22
0.0
 32
0.0
 70
    32
  3
STANDARD
100
AcDbAlignedDimension
 13
20.455619
 23
6.733855
 33
0.0
 14
18.413326
 24
3.9303
 34
0.0
100
AcDbRotatedDimension
1001
ACAD
1000
DSTYLE
1002
{
1070
    47
1040
0.001
1070
    48
1040
0.001
1070
   272
1070
     3
1070
    76
1070
     1
1070
    40
1040
0.75
1070
     3
1000
"
1070
     4
1000
mm
1070
   170
1070
     1
1002
}
  0
DIMENSION
  5
136A
100
AcDbEntity
  8
DIM
100
AcDbDimension
  2
*D28
 10
15.345156
 20
6.420769
 30
0.0
 11
14.411406
 21
6.150769
 31
0.0
 12
3.399921
 22
0.0
 32
0.0
 70
    32
  3
STANDARD
100
AcDbAlignedDimension
 13
11.294195
 23
6.568869
 33
0.0
 14
17.94104
 24
6.420769
 34
0.0
 50
90.0
100
AcDbRotatedDimension
1001
ACAD
1000
DSTYLE
1002
{
1070
    47
1040
0.001
1070
    48
1040
0.001
1070
   272
1070
     3
1070
    75
1070
     1
1070
    40
1040
0.75
1070
     3
1000
"
1070
     4
1000
mm
1070
   170
1070
     1
1002
}
  0
DIMENSION
  5
1378
100
AcDbEntity
  8
DIM
100
AcDbDimension
  2
*D29
 10
28.021564
 20
6.568869
 30
0.0
 11
26.322814
 21
6.298869
 31
0.0
 12
3.399921
 22
0.0
 32
0.0
 70
    32
  3
STANDARD
100
AcDbAlignedDimension
 13
20.002479
 23
6.856445
 33
0.0
 14
31.149913
 24
6.568869
 34
0.0
 50
90.0
100
AcDbRotatedDimension
1001
ACAD
1000
DSTYLE
1002
{
1070
    47
1040
0.001
1070
    71
1070
     1
1070
    48
1040
0.001
1070
   272
1070
     3
1070
    76
1070
     1
1070
    40
1040
0.75
1070
     3
1000
"
1070
     4
1000
mm
1070
   170
1070
     1
1002
}
  0
DIMENSION
  5
1385
100
AcDbEntity
  8
DIM
100
AcDbDimension
  2
*D30
 10
18.413326
 20
7.36567
 30
0.0
 11
17.344576
 21
7.36567
 31
0.0
 12
3.399921
 22
0.0
 32
0.0
 70
    32
  3
STANDARD
100
AcDbAlignedDimension
 13
18.804257
 23
6.949035
 33
0.0
 14
18.413326
 24
3.9303
 34
0.0
100
AcDbRotatedDimension
1001
ACAD
1000
DSTYLE
1002
{
1070
    47
1040
0.001
1070
    48
1040
0.001
1070
   272
1070
     3
1070
    76
1070
     1
1070
    40
1040
0.75
1070
     3
1000
"
1070
     4
1000
mm
1070
   170
1070
     1
1002
}
  0
DIMENSION
  5
1398
100
AcDbEntity
  8
DIM
100
AcDbDimension
  2
*D31
 10
18.176078
 20
13.30426
 30
0.0
 11
16.342328
 21
13.30426
 31
0.0
 12
3.399921
 22
0.0
 32
0.0
 70
    32
  3
STANDARD
100
AcDbAlignedDimension
 13
18.413326
 23
18.415775
 33
0.0
 14
18.176078
 24
14.305476
 34
0.0
100
AcDbRotatedDimension
1001
ACAD
1000
DSTYLE
1002
{
1070
    47
1040
0.001
1070
    71
1070
     1
1070
    48
1040
0.001
1070
   272
1070
     3
1070
    75
1070
     1
1070
    40
1040
0.75
1070
     3
1000
"
1070
     4
1000
mm
1070
   170
1070
     1
1002
}
  0
DIMENSION
  5
13B0
100
AcDbEntity
  8
DIM
100
AcDbDimension
  2
*D32
 10
18.413326
 20
12.861545
 30
0.0
 11
17.277076
 21
12.861545
 31
0.0
 12
3.399921
 22
0.0
 32
0.0
 70
    32
  3
STANDARD
100
AcDbAlignedDimension
 13
19.330097
 23
14.294351
 33
0.0
 14
18.413326
 24
18.415775
 34
0.0
100
AcDbRotatedDimension
1001
ACAD
1000
DSTYLE
1002
{
1070
    47
1040
0.001
1070
    48
1040
0.001
1070
   272
1070
     3
1070
    76
1070
     1
1070
    40
1040
0.75
1070
     3
1000
"
1070
     4
1000
mm
1070
   170
1070
     1
1002
}
  0
DIMENSION
  5
13BD
100
AcDbEntity
  8
DIM
100
AcDbDimension
  2
*D33
 10
18.413326
 20
12.35253
 30
0.0
 11
17.288326
 21
12.35253
 31
0.0
 12
3.399921
 22
0.0
 32
0.0
 70
    32
  3
STANDARD
100
AcDbAlignedDimension
 13
19.955078
 23
14.305476
 33
0.0
 14
18.413326
 24
18.415775
 34
0.0
100
AcDbRotatedDimension
1001
ACAD
1000
DSTYLE
1002
{
1070
    47
1040
0.001
1070
    48
1040
0.001
1070
   272
1070
     3
1070
    76
1070
     1
1070
    40
1040
0.75
1070
     3
1000
"
1070
     4
1000
mm
1070
   170
1070
     1
1002
}
  0
DIMENSION
  5
13CA
100
AcDbEntity
  8
DIM
100
AcDbDimension
  2
*D34
 10
18.413326
 20
11.894417
 30
0.0
 11
17.288326
 21
11.894417
 31
0.0
 12
3.399921
 22
0.0
 32
0.0
 70
    32
  3
STANDARD
100
AcDbAlignedDimension
 13
20.124893
 23
13.834889
 33
0.0
 14
18.413326
 24
18.415775
 34
0.0
100
AcDbRotatedDimension
1001
ACAD
1000
DSTYLE
1002
{
1070
    47
1040
0.001
1070
    48
1040
0.001
1070
   272
1070
     3
1070
    76
1070
     1
1070
    40
1040
0.75
1070
     3
1000
"
1070
     4
1000
mm
1070
   170
1070
     1
1002
}
  0
DIMENSION
  5
13D7
100
AcDbEntity
  8
DIM
100
AcDbDimension
  2
*D35
 10
18.413326
 20
11.385402
 30
0.0
 11
17.265826
 21
11.385402
 31
0.0
 12
3.399921
 22
0.0
 32
0.0
 70
    32
  3
STANDARD
100
AcDbAlignedDimension
 13
20.290193
 23
13.830939
 33
0.0
 14
18.413326
 24
3.9303
 34
0.0
100
AcDbRotatedDimension
1001
ACAD
1000
DSTYLE
1002
{
1070
    47
1040
0.001
1070
    48
1040
0.001
1070
   272
1070
     3
1070
    76
1070
     1
1070
    40
1040
0.75
1070
     3
1000
"
1070
     4
1000
mm
1070
   170
1070
     1
1002
}
  0
DIMENSION
  5
13FD
100
AcDbEntity
  8
DIM
100
AcDbDimension
  2
*D36
 10
27.340011
 20
14.018939
 30
0.0
 11
27.340011
 21
14.628538
 31
0.0
 12
3.399921
 22
0.0
 32
0.0
 70
    32
  3
STANDARD
100
AcDbAlignedDimension
 13
20.455619
 23
15.238137
 33
0.0
 14
20.478193
 24
14.018939
 34
0.0
 50
90.0
100
AcDbRotatedDimension
1001
ACAD
1000
DSTYLE
1002
{
1070
    47
1040
0.001
1070
    48
1040
0.001
1070
   272
1070
     3
1070
    40
1040
0.75
1070
     3
1000
"
1070
     4
1000
mm
1070
   170
1070
     1
1002
}
  0
TEXT
  5
13FE
100
AcDbEntity
  8
TEXT
100
AcDbText
 10
27.099887
 20
19.239447
 30
0.0
 40
0.08
  1
03
100
AcDbText
  0
TEXT
  5
1400
100
AcDbEntity
  8
TEXT
100
AcDbText
 10
30.224887
 20
19.239447
 30
0.0
 40
0.08
  1
12-17-96
100
AcDbText
  0
TEXT
  5
1401
100
AcDbEntity
  8
TEXT
100
AcDbText
 10
27.474887
 20
19.239447
 30
0.0
 40
0.08
  1
RAISE FRONT END 3mm OFF DETECTOR
100
AcDbText
  0
TEXT
  5
1402
100
AcDbEntity
  8
TEXT
100
AcDbText
 10
27.474887
 20
19.106114
 30
0.0
 40
0.08
  1
CHANGE MATERIAL TO CARBON-FIBER
100
AcDbText
  0
TEXT
  5
1403
100
AcDbEntity
  8
TEXT
100
AcDbText
 10
31.7246
 20
0.959971
 30
0.0
 40
0.12
  1
03
100
AcDbText
  0
DIMENSION
  5
1418
100
AcDbEntity
  8
DIM
100
AcDbDimension
  2
*D37
 10
24.34576
 20
6.568869
 30
0.0
 11
22.51876
 21
6.298869
 31
0.0
 12
3.399921
 22
0.0
 32
0.0
 70
    32
  3
STANDARD
100
AcDbAlignedDimension
 13
20.455619
 23
6.733855
 33
0.0
 14
31.149913
 24
6.568869
 34
0.0
 50
90.0
100
AcDbRotatedDimension
1001
ACAD
1000
DSTYLE
1002
{
1070
    47
1040
0.002
1070
    71
1070
     1
1070
   272
1070
     3
1070
    76
1070
     1
1070
    40
1040
0.75
1070
     3
1000
"
1070
     4
1000
mm
1070
   170
1070
     1
1002
}
  0
DIMENSION
  5
142C
100
AcDbEntity
  8
DIM
100
AcDbDimension
  2
*D38
 10
30.182535
 20
6.568869
 30
0.0
 11
29.237535
 21
6.298869
 31
0.0
 12
3.399921
 22
0.0
 32
0.0
 70
    32
  3
STANDARD
100
AcDbAlignedDimension
 13
20.376879
 23
6.949035
 33
0.0
 14
31.149913
 24
6.568869
 34
0.0
 50
90.0
100
AcDbRotatedDimension
1001
ACAD
1000
DSTYLE
1002
{
1070
    47
1040
0.002
1070
   272
1070
     3
1070
    76
1070
     1
1070
    40
1040
0.75
1070
     3
1000
"
1070
     4
1000
mm
1070
   170
1070
     1
1002
}
  0
DIMENSION
  5
143B
100
AcDbEntity
  8
DIM
100
AcDbDimension
  2
*D39
 10
13.412422
 20
6.420769
 30
0.0
 11
11.736172
 21
6.150769
 31
0.0
 12
3.399921
 22
0.0
 32
0.0
 70
    32
  1
{<>}\P{WALL THICKNESS}
  3
STANDARD
100
AcDbAlignedDimension
 13
17.94104
 23
6.450769
 33
0.0
 14
17.94104
 24
6.420769
 34
0.0
 50
90.0
100
AcDbRotatedDimension
1001
ACAD
1000
DSTYLE
1002
{
1070
    47
1040
0.001
1070
    71
1070
     1
1070
    48
1040
0.001
1070
   272
1070
     3
1070
    40
1040
0.75
1070
     3
1000
"
1070
     4
1000
mm
1070
   170
1070
     1
1002
}
  0
MTEXT
  5
144F
100
AcDbEntity
  8
TEXT
100
AcDbMText
 10
1.404563
 20
7.762284
 30
0.0
 40
0.18
 41
8.1019
 71
     1
 72
     1
  3
{MATERIAL: }\P{0.76mm [0.030"] thick carbon-fiber-epoxy-composite}\P\P{LAMINATE SCHEDULE:}\P{cloth:  - 1 layer Carbon-fiber (0.006" thick ea.)}\P{ xx oz/sq. yd. plain weave @ 90°}\P{ - 1 layer Carbon-fiber (0.001" thick ea.)}\P{ 0.4 oz/sq. yd. mat}\P
  3
{ - 1 layer Carbon-fiber (0.006" thick ea.)}\P{ xx oz/sq. yd. plain weave @ 45°}\P{ 1 layer Carbon-fiber (0.001" thick ea.)}\P{ 0.4 oz/sq. yd. mat}\P{ - 1 layer Carbon-fiber (0.006" thick ea.)}\P{ xx oz/sq. yd. plain weave @ 90°}\P{epoxy: heat resist
  1
ant laminating epoxy}\P{ Ciba-Geigy RP4005R/RP1500H}\P{cure: 24 hrs at room temp. @ 20psi}\P{ 2 hrs postcure at 66°C}\P\P{MACHINING:}\P{use fixture L2-END12}\P
  0
ARC
  5
1456
100
AcDbEntity
  8
FOOT
100
AcDbCircle
 10
20.393119
 20
6.886535
 30
0.0
 40
0.0625
100
AcDbArc
 50
0.0
 51
90.0
1001
ACAD
1000
ASC_BOUNDS
1002
{
1070
    19
1005
1237
1002
}
  0
LEADER
  5
146D
100
AcDbEntity
  8
DIM
100
AcDbLeader
  3
STANDARD
 73
     0
 74
     0
 75
     1
 40
0.135
 41
1.575
 76
     3
 10
20.452198
 20
6.92101
 30
0.0
 10
20.964442
 20
7.708353
 30
0.0
 10
21.099442
 20
7.708353
 30
0.0
 77
   256
1001
ACAD
1000
DSTYLE
1002
{
1070
   288
1070
     1
1070
    47
1040
0.001
1070
    48
1040
0.001
1070
   272
1070
     3
1070
    40
1040
0.75
1070
     3
1000
"
1070
     4
1000
mm
1070
   170
1070
     1
1002
}
  0
MTEXT
  5
146E
100
AcDbEntity
  8
DIM
100
AcDbMText
 10
21.166942
 20
7.708353
 30
0.0
 40
0.135
 41
0.0
 71
     4
 72
     1
  1
{R0.063"[1.59mm]}
  0
INSERT
  5
1478
100
AcDbEntity
  8
ASHADE
 62
     1
100
AcDbBlockReference
  2
AVE_RENDER
 10
0.0
 20
0.0
 30
0.0
1001
AVE_RENDER
1002
{
1070
     6
1000
Pref
1070
    30
1070
    20
1070
     1
1070
     0
1000

1070
    10
1070
     1
1070
    30
1040
1.0
1070
     1
1040
0.3
1040
0.7
1040
0.0
1040
10.0
1010
-1.0
1020
-1.0
1030
-1.0
1040
0.3
1070
    49
1070
     0
1070
     0
1010
1.0
1020
1.0
1030
1.0
1040
45.0
1070
     1
1070
     0
1000
WCS
1040
0.0
1002
}
  0
INSERT
  5
1479
100
AcDbEntity
  8
ASHADE
 62
     3
100
AcDbBlockReference
  2
AVE_RENDER
 10
0.0
 20
0.0
 30
0.0
1001
AVE_RENDER
1002
{
1070
     0
1000
Full Opt
1070
     0
1070
     1
1070
     1
1070
     1
1070
     0
1070
     0
1070
     0
1070
     1
1070
     1
1040
0.0001
1040
0.0001
1002
}
  0
INSERT
  5
147A
100
AcDbEntity
  8
ASHADE
 62
     4
100
AcDbBlockReference
  2
AVE_RENDER
 10
0.0
 20
0.0
 30
0.0
1001
AVE_RENDER
1002
{
1070
     0
1000
Quick Opt
1070
     0
1070
     1
1070
     1
1070
     1
1070
     0
1070
     0
1070
     1
1002
}
  0
INSERT
  5
147B
100
AcDbEntity
  8
ASHADE
 62
     5
100
AcDbBlockReference
  2
AVE_RENDER
 10
0.0
 20
0.0
 30
0.0
1001
AVE_RENDER
1002
{
1070
     1
1000
Scanl Opt
1070
     2
1070
     0
1070
     2
1040
2.0
1040
4.0
1070
     0
1070
     1
1070
     0
1040
0.03
1002
}
  0
INSERT
  5
147C
100
AcDbEntity
  8
ASHADE
 62
     6
100
AcDbBlockReference
  2
AVE_RENDER
 10
0.0
 20
0.0
 30
0.0
1001
AVE_RENDER
1002
{
1070
     2
1000
Raytr Opt
1070
     2
1070
     0
1070
     2
1040
2.0
1040
4.0
1070
     0
1070
     1
1070
     1
1040
0.03
1070
     3
1040
0.03
1002
}
  0
INSERT
  5
147D
100
AcDbEntity
  8
ASHADE
 62
     7
100
AcDbBlockReference
  2
AVE_RENDER
 10
0.0
 20
0.0
 30
0.0
1001
AVE_RENDER
1002
{
1070
     0
1000
RFile Opt
1070
     5
1070
   640
1070
   480
1070
 10000
1070
     3
1070
    32
1070
    24
1070
     0
1070
     0
1070
     0
1070
     1
1070
     0
1070
     0
1070
     0
1002
}
  0
INSERT
  5
147E
100
AcDbEntity
  8
ASHADE
 62
     8
100
AcDbBlockReference
  2
AVE_RENDER
 10
0.0
 20
0.0
 30
0.0
1001
AVE_RENDER
1002
{
1070
     0
1000
Fog Opt
1070
     0
1070
     0
1040
0.0
1040
1.0
1040
0.0
1040
1.0
1010
0.5
1020
0.5
1030
0.5
1002
}
  0
INSERT
  5
147F
100
AcDbEntity
  8
ASHADE
 62
     9
100
AcDbBlockReference
  2
AVE_RENDER
 10
0.0
 20
0.0
 30
0.0
1001
AVE_RENDER
1002
{
1070
     0
1000
BG Opt
1070
     0
1070
     1
1010
0.0
1020
0.0
1030
0.0
1010
1.0
1020
0.0
1030
0.0
1010
0.0
1020
1.0
1030
0.0
1010
0.0
1020
0.0
1030
1.0
1040
0.5
1040
0.33
1040
0.0
1000

1070
     1
1000

1070
     1
1070
     1
1040
1.0
1040
1.0
1040
0.0
1040
0.0
1070
     0
1002
}
  0
INSERT
  5
1486
100
AcDbEntity
  8
ASHADE
 62
     1
100
AcDbBlockReference
  2
AVE_GLOBAL
 10
0.0
 20
0.0
 30
0.0
1001
AVE_MATERIAL
1002
{
1000
*GLOBAL*
1000
1
1000
Global finish.
1002
{
1002
}
1002
{
1070
    63
1002
{
1002
{
1010
-1.0
1020
-1.0
1030
-1.0
1002
}
1040
0.1
1000

1040
0.0
1002
{
1002
}
1040
0.0
1002
{
1002
}
1040
0.0
1002
}
1002
{
1002
{
1010
-1.0
1020
-1.0
1030
-1.0
1002
}
1040
0.7
1000

1040
0.0
1002
{
1002
}
1040
0.0
1002
{
1002
}
1040
0.0
1002
}
1002
{
1002
{
1010
-1.0
1020
-1.0
1030
-1.0
1002
}
1040
0.2
1000

1040
0.0
1002
{
1002
}
1040
0.0
1002
{
1002
}
1040
0.0
1002
}
1002
{
1070
     0
1002
{
1070
     1
1002
{
1040
1.0
1040
1.0
1000

1040
0.0
1002
{
1002
}
1040
0.0
1002
{
1002
}
1040
0.0
1002
}
1002
}
1040
1.0
1040
0.0
1040
0.0
1002
}
1002
{
1040
1.0
1040
1.0
1000

1040
0.0
1002
{
1002
}
1040
0.0
1002
{
1002
}
1040
0.0
1002
}
1002
{
1040
0.5
1040
1.0
1000

1040
0.0
1002
{
1002
}
1040
0.0
1002
{
1002
}
1040
0.0
1002
}
1002
{
1070
     0
1040
0.0
1002
{
1002
}
1040
1.0
1002
{
1002
}
1040
0.0
1002
}
1002
{
1040
0.0
1002
{
1002
{
1010
0.0
1020
0.0
1030
0.0
1002
}
1040
1.0
1000

1040
0.0
1002
{
1002
}
1040
0.0
1002
{
1002
}
1040
0.0
1002
}
1002
}
1002
{
1002
{
1070
     1
1002
{
1040
0.0
1040
1.0
1000

1040
0.0
1002
{
1002
}
1040
0.0
1002
{
1002
}
1040
0.0
1002
}
1002
}
1040
0.0
1002
{
1002
}
1010
1.0
1020
0.0
1030
0.0
1010
0.0
1020
1.0
1030
0.0
1010
0.0
1020
0.0
1030
1.0
1070
     0
1002
}
1002
{
1002
{
1040
1.0
1040
1.0
1002
{
1070
     1
1002
{
1040
1.0
1040
1.0
1000

1040
0.0
1002
{
1002
}
1040
0.0
1002
{
1002
}
1040
0.0
1002
}
1002
}
1002
}
1070
     0
1040
0.0
1002
{
1002
}
1002
}
1002
{
1002
}
1002
}
1002
{
1071
        3
1070
     3
1070
     0
1002
{
1070
     2
1070
     0
1070
     0
1040
0.0
1002
}
1070
     0
1070
     2
1002
{
1002
}
1002
}
1002
{
1040
8030.0
1040
190.300003
1040
0.305
1040
228.0
1040
545.0
1040
14.0
1040
17.4
1040
0.456
1002
}
1002
}
  0
ENDSEC
  0
SECTION
  2
OBJECTS
  0
DICTIONARY
  5
C
100
AcDbDictionary
  3
ACAD_GROUP
350
D
  3
ACAD_MLINESTYLE
350
E
  3
ACASAPPOBJECT
350
11B5
  3
ACASGREF_MASTER
350
1169
  3
ACCELVIEW
350
1256
  3
ACDMSYSVARMGR
350
1185
  3
ACGREF_MASTER
350
1167
  3
ACME_COMMAND_HISTORY
350
1165
  3
ACME_SCOPE_NAME
350
1164
  3
AD_APPL
350
1178
  3
AD_DRAWMGR_NAME
350
1198
  3
AD_GREF_MODULE
350
1180
  3
AD_HOLENOTE_REPOSITORY
350
117F
  3
ADSYSVARMGR
350
116E
  3
AMI_MASTER
350
1168
  3
AUTOCAD_ASSEMBLIES_PROJECT
350
11A4
  3
DESIGNER_ASSEMBLIES_SYSVARS
350
119F
  0
DICTIONARY
  5
D
102
{ACAD_REACTORS
330
C
102
}
100
AcDbDictionary
  0
DICTIONARY
  5
E
102
{ACAD_REACTORS
330
C
102
}
100
AcDbDictionary
  3
STANDARD
350
13
  0
ACAD_ZOMBIE_OBJECT
  5
11B5
102
{ACAD_REACTORS
330
C
102
}
100
AcDbZombieObject
 90
      499
 91
      536
 93
        2
310
90
360
11B3
 94
        0
  0
ACAD_ZOMBIE_OBJECT
  5
1169
102
{ACAD_REACTORS
330
C
102
}
100
AcDbZombieObject
 90
      499
 91
      505
 93
       34
310
0100004040
 94
        0
  0
ACAD_ZOMBIE_OBJECT
  5
1256
102
{ACAD_REACTORS
330
C
102
}
100
AcDbZombieObject
 90
      499
 91
      539
 93
       12
310
9424
330
1179
330
11C8
330
11C9
330
1237
330
11C9
330
11C8
330
4FD
330
1F8
330
1F7
330
1F6
330
DB
330
DA
330
D8
330
D7
330
D6
330
D5
330
D4
330
11C9
330
11C8
330
4FD
330
1F8
330
1F7
330
1F6
330
DB
330
DA
330
D8
330
D7
330
D6
330
D5
330
D4
330
12DA
330
12DB
330
12E8
330
12F5
330
1302
330
131A
330
136A
330
1378
330
1385
330
1398
330
13B0
330
13BD
330
13CA
330
13D7
330
13FD
330
13FE
330
1400
330
1401
330
1402
330
1403
330
1418
330
142C
330
143B
330
144F
330
1456
330
146D
330
146E
330
1478
330
1479
330
147A
330
147B
330
147C
330
147D
330
147E
330
147F
330
1486
 94
        0
  0
ACAD_ZOMBIE_OBJECT
  5
1185
102
{ACAD_REACTORS
330
C
102
}
100
AcDbZombieObject
 90
      499
 91
      510
 93
      176
310
4C5114810100000000000000000000000000000000004F
330
1186
330
1187
330
1188
330
1189
330
118A
330
118B
330
118D
330
118E
330
118F
330
1190
330
1191
330
1192
330
1193
330
1194
330
1195
330
1196
330
1197
 94
        0
  0
ACAD_ZOMBIE_OBJECT
  5
1167
102
{ACAD_REACTORS
330
C
102
}
100
AcDbZombieObject
 90
      499
 91
      503
 93
      114
310
01000040C000000000000000000000
 94
        0
  0
ACAD_ZOMBIE_OBJECT
  5
1165
102
{ACAD_REACTORS
330
C
102
}
100
AcDbZombieObject
 90
      499
 91
      501
 93
     2694
310
47805064558504F5254805064558504F525440405184D5347202D20436F6D6D616E642043414E43454C4C45442E014254D055915054D48C4CA014115539113E014115539113E014115539113E014115539113E014115539113E014154D51653116014115539113E014194D1531150D52014115539113E014115539113E0141
310
91561413D4952014113D41153A01421553911151925391601421553911151925391601429351539555539313D05120142135153955313D05120143105117D0D3D395915495148C502014213880B4815539113C05084E202D20554E444F01431053531516541150D21150D2D03014213880B4815539113C05094E202D204C41
310
594552014213880B4815539113C050644444544495480509534156454153523132805064558504F5254805064558504F525480504554E444F80504554E444F80504554E444F80504554E444F805044F50454E8
 94
        0
  0
ACAD_ZOMBIE_OBJECT
  5
1164
102
{ACAD_REACTORS
330
C
102
}
100
AcDbZombieObject
 90
      499
 91
      500
 93
      456
310
0101004093100000000000000000000000000000000000000000000000000000000000000000000000000000000000000000000000000901001F
360
116A
360
116B
360
116C
360
116D
360
116F
360
1170
360
1171
360
1172
360
1173
360
1174
360
1175
360
1176
360
1177
360
117A
360
117B
360
117C
360
117D
360
117E
360
1181
360
1182
360
1183
360
1184
360
1186
360
1187
360
1188
360
1189
360
118A
360
118B
360
118D
360
118E
360
118F
360
1190
360
1191
360
1192
360
1193
360
1194
360
1195
360
1196
360
1197
360
11A0
360
11A1
360
11A2
360
11A3
360
11A8
360
11A9
360
11AA
360
11AB
360
11AC
360
11B0
330
1179
 94
        0
  0
ACAD_ZOMBIE_OBJECT
  5
1178
102
{ACAD_REACTORS
330
C
102
}
100
AcDbZombieObject
 90
      499
 91
      514
 93
       42
310
000100004340
330
116A
 94
        0
  0
ACAD_ZOMBIE_OBJECT
  5
1198
102
{ACAD_REACTORS
330
C
102
}
100
AcDbZombieObject
 90
      499
 91
      526
 93
       42
310
000100004400
330
1181
 94
        0
  0
ACAD_ZOMBIE_OBJECT
  5
1180
102
{ACAD_REACTORS
330
C
102
}
100
AcDbZombieObject
 90
      499
 91
      521
 93
      114
310
000000428000000000000000000000
 94
        0
  0
ACAD_ZOMBIE_OBJECT
  5
117F
102
{ACAD_REACTORS
330
C
102
}
100
AcDbZombieObject
 90
      499
 91
      520
 93
        8
310
001F
330
117E
 94
        0
  0
ACAD_ZOMBIE_OBJECT
  5
116E
102
{ACAD_REACTORS
330
C
102
}
100
AcDbZombieObject
 90
      499
 91
      510
 93
      104
310
9094410100000000000000000000
330
116F
330
1170
330
1171
330
1172
330
1173
330
1174
330
1175
330
1176
330
1177
 94
        0
  0
ACAD_ZOMBIE_OBJECT
  5
1168
102
{ACAD_REACTORS
330
C
102
}
100
AcDbZombieObject
 90
      499
 91
      504
 93
       34
310
0100004055
 94
        0
  0
ACAD_ZOMBIE_OBJECT
  5
11A4
102
{ACAD_REACTORS
330
C
102
}
100
AcDbZombieObject
 90
      499
 91
      527
 93
       58
310
0100004180000000
330
11AA
330
11B0
330
11AB
 94
        0
  0
ACAD_ZOMBIE_OBJECT
  5
119F
102
{ACAD_REACTORS
330
C
102
}
100
AcDbZombieObject
 90
      499
 91
      510
 93
       64
310
904441010000000000
330
11A0
330
11A1
330
11A2
330
11A3
 94
        0
  0
MLINESTYLE
  5
13
102
{ACAD_REACTORS
330
E
102
}
100
AcDbMlineStyle
  2
STANDARD
 70
     0
  3

 62
     0
 51
90.0
 52
90.0
 71
     2
 49
0.5
 62
   256
  6
BYLAYER
 49
-0.5
 62
   256
  6
BYLAYER
  0
ACAD_ZOMBIE_OBJECT
  5
11B3
100
AcDbZombieObject
 90
      499
 91
      534
 93
      720
310
9064D2E312E313607014B7269BC41100000000000000E03F1EC52B91F85EA10FE1EC52B91F85EA10FD034153471EC52B91F85EA10FC000000FC83D797414650540C000000000000E03F3F2A7C749358940FC000000FC83D797414F
 94
        0
  0
ACAD_ZOMBIE_OBJECT
  5
116A
100
AcDbZombieObject
 90
      499
 91
      506
 93
      280
310
000000000000014119185D1940506462E312E3136014119185D1940506462E312E313600
330
1164
330
116B
330
116C
330
116E
330
1179
 94
        0
  0
ACAD_ZOMBIE_OBJECT
  5
116B
100
AcDbZombieObject
 90
      499
 91
      507
 93
      120
310
00009024410100000092080002A6A600
330
1164
330
117A
330
117B
330
0
 94
        0
  0
ACAD_ZOMBIE_OBJECT
  5
116C
100
AcDbZombieObject
 90
      499
 91
      508
 93
       46
310
000000009208
330
1164
330
0
330
116D
 94
        0
  0
ACAD_ZOMBIE_OBJECT
  5
116D
100
AcDbZombieObject
 90
      499
 91
      509
 93
       22
310
0000A8
330
1164
 94
        0
  0
ACAD_ZOMBIE_OBJECT
  5
116F
100
AcDbZombieObject
 90
      499
 91
      511
 93
      124
310
00000142905350D3D39114D414D69050
330
1164
 94
        0
  0
ACAD_ZOMBIE_OBJECT
  5
1170
100
AcDbZombieObject
 90
      499
 91
      511
 93
      124
310
000001429053549553115353D1115010
330
1164
 94
        0
  0
ACAD_ZOMBIE_OBJECT
  5
1171
100
AcDbZombieObject
 90
      499
 91
      511
 93
      108
310
00000142105354D2D353D1115010
330
1164
 94
        0
  0
ACAD_ZOMBIE_OBJECT
  5
1172
100
AcDbZombieObject
 90
      499
 91
      511
 93
      140
310
000001435053511253511254D41353D11160
330
1164
 94
        0
  0
ACAD_ZOMBIE_OBJECT
  5
1173
100
AcDbZombieObject
 90
      499
 91
      512
 93
      180
310
00000142905354D2D05391D513D3000000000000010400
330
1164
 94
        0
  0
ACAD_ZOMBIE_OBJECT
  5
1174
100
AcDbZombieObject
 90
      499
 91
      513
 93
      164
310
00000142505354D2D4D516531140505434F4E542A0
330
1164
 94
        0
  0
ACAD_ZOMBIE_OBJECT
  5
1175
100
AcDbZombieObject
 90
      499
 91
      511
 93
      108
310
00000142105350D3511112535010
330
1164
 94
        0
  0
ACAD_ZOMBIE_OBJECT
  5
1176
100
AcDbZombieObject
 90
      499
 91
      513
 93
      116
310
000001425053541054919253114060
330
1164
 94
        0
  0
ACAD_ZOMBIE_OBJECT
  5
1177
100
AcDbZombieObject
 90
      499
 91
      511
 93
      100
310
00000142105350D3D35414D5A0
330
1164
 94
        0
  0
ACAD_ZOMBIE_OBJECT
  5
117A
100
AcDbZombieObject
 90
      499
 91
      516
 93
      164
310
000092090148200A00000440000FFFFFFFF0000000
330
1164
330
117B
330
116B
330
1179
 94
        0
  0
ACAD_ZOMBIE_OBJECT
  5
117B
100
AcDbZombieObject
 90
      499
 91
      517
 93
       82
310
000040520802482A800000
330
1164
330
117A
330
116B
330
1179
 94
        0
  0
ACAD_ZOMBIE_OBJECT
  5
117C
100
AcDbZombieObject
 90
      499
 91
      509
 93
       22
310
0000A8
330
1164
 94
        0
  0
ACAD_ZOMBIE_OBJECT
  5
117D
100
AcDbZombieObject
 90
      499
 91
      518
 93
       38
310
000000920A
330
1164
330
0
 94
        0
  0
ACAD_ZOMBIE_OBJECT
  5
117E
100
AcDbZombieObject
 90
      499
 91
      519
 93
     3196
310
0000419208050A544852555F4452494C4C0142D09312539117D1149253130050A544852555F43424F52450142D09312539117D0D093D4914050A544852555F4353494E4B0142D09312539117D0D4D25392D0648201459EC94958C8094950535112504815121493D551D20B9F4051C7B252563202525414D444941205820252
310
5414D44455020444545507D014F5EC94958C8094950535112504815121493D551D20B9F57141ED0D093D49148094958C80949505350D112504816080949505350D091115408111151541F405437B252563202525414D4449412058202525414D44455020444545507D5C507B43424F524520252563202525414D4344494120
310
58202525414D434244455020444545507D014EDEC94958C8094950535112504815121493D551D20B9F57141ED0D4D25392C8094958C80949505350D112504816080949505350D4D05391C949591F405417B252563202525414D4449412058202525414D44455020444545507D5C507B4353494E4B20252563202525414D434
310
449412058202525414D4353414E472525647D8
330
1164
 94
        0
  0
ACAD_ZOMBIE_OBJECT
  5
1181
100
AcDbZombieObject
 90
      499
 91
      522
 93
      308
310
0000014119185D1940507442E312E313663014119185D1940507442E312E313663405010000000
330
1164
330
1182
330
1184
330
1185
 94
        0
  0
ACAD_ZOMBIE_OBJECT
  5
1182
100
AcDbZombieObject
 90
      499
 91
      523
 93
       56
310
0000901441010052
330
1164
330
1183
 94
        0
  0
ACAD_ZOMBIE_OBJECT
  5
1183
100
AcDbZombieObject
 90
      499
 91
      524
 93
       40
310
0000A4410153
330
1164
 94
        0
  0
ACAD_ZOMBIE_OBJECT
  5
1184
100
AcDbZombieObject
 90
      499
 91
      525
 93
       68
310
0000A44101920A4820
330
1164
 94
        0
  0
ACAD_ZOMBIE_OBJECT
  5
1186
100
AcDbZombieObject
 90
      499
 91
      511
 93
      108
310
000001421053521310D05310D010
330
1164
 94
        0
  0
ACAD_ZOMBIE_OBJECT
  5
1187
100
AcDbZombieObject
 90
      499
 91
      511
 93
      124
310
000001429053541493D2951654115013
330
1164
 94
        0
  0
ACAD_ZOMBIE_OBJECT
  5
1188
100
AcDbZombieObject
 90
      499
 91
      511
 93
      124
310
00000142905354915554D15112535010
330
1164
 94
        0
  0
ACAD_ZOMBIE_OBJECT
  5
1189
100
AcDbZombieObject
 90
      499
 91
      511
 93
      132
310
00000143105354D150D51253D391125366
330
1164
 94
        0
  0
ACAD_ZOMBIE_OBJECT
  5
118A
100
AcDbZombieObject
 90
      499
 91
      511
 93
      124
310
00000142905355941093D49111549010
330
1164
 94
        0
  0
ACAD_ZOMBIE_OBJECT
  5
118B
100
AcDbZombieObject
 90
      499
 91
      513
 93
      180
310
00000142905352125113151654114050648494444454E1
330
1164
 94
        0
  0
ACAD_ZOMBIE_OBJECT
  5
118D
100
AcDbZombieObject
 90
      499
 91
      513
 93
      196
310
00000142905354D150D315165411405085048414E544F4D320
330
1164
 94
        0
  0
ACAD_ZOMBIE_OBJECT
  5
118E
100
AcDbZombieObject
 90
      499
 91
      511
 93
      108
310
00000142105354D51114D0D51020
330
1164
 94
        0
  0
ACAD_ZOMBIE_OBJECT
  5
118F
100
AcDbZombieObject
 90
      499
 91
      511
 93
      108
310
00000142105354D5111510541021
330
1164
 94
        0
  0
ACAD_ZOMBIE_OBJECT
  5
1190
100
AcDbZombieObject
 90
      499
 91
      511
 93
      108
310
00000142105354D5111115131020
330
1164
 94
        0
  0
ACAD_ZOMBIE_OBJECT
  5
1191
100
AcDbZombieObject
 90
      499
 91
      512
 93
      148
310
00000141905350D310D34295C8FC2F528BC3F4
330
1164
 94
        0
  0
ACAD_ZOMBIE_OBJECT
  5
1192
100
AcDbZombieObject
 90
      499
 91
      512
 93
      156
310
00000141D05350D311D05402B8716D9CEF7C33F0
330
1164
 94
        0
  0
ACAD_ZOMBIE_OBJECT
  5
1193
100
AcDbZombieObject
 90
      499
 91
      512
 93
      164
310
00000142105350D313D4D2150295C8FC2F528BC3F0
330
1164
 94
        0
  0
ACAD_ZOMBIE_OBJECT
  5
1194
100
AcDbZombieObject
 90
      499
 91
      511
 93
      100
310
00000141D05350D31410549010
330
1164
 94
        0
  0
ACAD_ZOMBIE_OBJECT
  5
1195
100
AcDbZombieObject
 90
      499
 91
      511
 93
      100
310
0000014210535590539254D222
330
1164
 94
        0
  0
ACAD_ZOMBIE_OBJECT
  5
1196
100
AcDbZombieObject
 90
      499
 91
      512
 93
      188
310
00000142D0535312539155121250D2C295C8FC2F5289C3F0
330
1164
 94
        0
  0
ACAD_ZOMBIE_OBJECT
  5
1197
100
AcDbZombieObject
 90
      499
 91
      513
 93
      164
310
00000142105350D3151654114050643454E5445520
330
1164
 94
        0
  0
ACAD_ZOMBIE_OBJECT
  5
11A0
100
AcDbZombieObject
 90
      499
 91
      511
 93
      132
310
00000142D05050555513D4D3D315915010
330
1164
 94
        0
  0
ACAD_ZOMBIE_OBJECT
  5
11A1
100
AcDbZombieObject
 90
      499
 91
      511
 93
      156
310
00000143905050555513D054D4D1535093115010
330
1164
 94
        0
  0
ACAD_ZOMBIE_OBJECT
  5
11A2
100
AcDbZombieObject
 90
      499
 91
      511
 93
      148
310
00000143505055925155D49154D513D4915010
330
1164
 94
        0
  0
ACAD_ZOMBIE_OBJECT
  5
11A3
100
AcDbZombieObject
 90
      499
 91
      511
 93
      124
310
00000142D050525394D15495105094E0
330
1164
 94
        0
  0
ACAD_ZOMBIE_OBJECT
  5
11A8
100
AcDbZombieObject
 90
      499
 91
      528
 93
       32
310
000000004D
330
1164
340
11A5
330
11A9
330
11A5
 94
        0
  0
ACAD_ZOMBIE_OBJECT
  5
11A9
100
AcDbZombieObject
 90
      499
 91
      529
 93
      143
310
00000142130C8B5153910C0C90400522080C
330
1164
330
11A8
 94
        0
  0
ACAD_ZOMBIE_OBJECT
  5
11AA
100
AcDbZombieObject
 90
      499
 91
      530
 93
       72
310
000000A44101A4410172
330
1164
330
11A9
 94
        0
  0
ACAD_ZOMBIE_OBJECT
  5
11AB
100
AcDbZombieObject
 90
      499
 91
      531
 93
       80
310
0000901441010000000000
330
1164
330
11AC
330
11AC
330
11AC
330
11AC
 94
        0
  0
ACAD_ZOMBIE_OBJECT
  5
11AC
100
AcDbZombieObject
 90
      499
 91
      532
 93
      173
310
00000000406AAAAAAAAAAAAAAAAA806A44101A441010
330
1164
330
11AB
330
11A9
 94
        0
  0
ACAD_ZOMBIE_OBJECT
  5
11B0
100
AcDbZombieObject
 90
      499
 91
      533
 93
       26
310
00008000
330
1164
330
0
 94
        0
  0
ENDSEC
  0
EOF
